osu file format v14

[General]
AudioFilename: audio.mp3
AudioLeadIn: 0
PreviewTime: 168729
Countdown: 0
SampleSet: Normal
StackLeniency: 0.7
Mode: 1
LetterboxInBreaks: 0
WidescreenStoryboard: 1

[Editor]
Bookmarks: 1884,9503,17122,32360,39979,47598,55217,62836,70455,78074,85693,93312,108550,116169,123788,131407,139026,154264,169503,184741,199979,217122
DistanceSpacing: 0.2
BeatDivisor: 4
GridSize: 32
TimelineZoom: 2.7

[Metadata]
Title:Konna Inochi ga Nakereba
TitleUnicode:こんな命がなければ
Artist:Tsukuyomi
ArtistUnicode:月詠み
Creator:gaston_2199
Version:KyeX's Oni
Source:
Tags:ツクヨミ 2943 欠けた心象、世のよすが kaketa shinsho, yo no yosuga ユリイカノン ユリイ・カノン yurry canon mikoto エポック epoch とうかさ toukasa if there is not such a life japanese rock jrock j-rock KyeX
BeatmapID:3447232
BeatmapSetID:1679495

[Difficulty]
HPDrainRate:5
CircleSize:2
OverallDifficulty:6
ApproachRate:10
SliderMultiplier:1.4
SliderTickRate:1

[Events]
//Background and Video events
0,0,"BG.jpg",0,100
Video,-175,"TaikoVideo.mp4"
//Break Periods
//Storyboard Layer 0 (Background)
//Storyboard Layer 1 (Fail)
//Storyboard Layer 2 (Pass)
//Storyboard Layer 3 (Foreground)
//Storyboard Layer 4 (Overlay)
//Storyboard Sound Samples

[TimingPoints]
1884,238.095238095238,4,1,0,80,1,0
5931,-117.647058823529,4,1,0,60,0,0
9741,-125,4,1,0,70,0,0
16642,-112.746505472251,4,1,0,80,0,0
16761,-109.452060920909,4,1,0,80,0,0
16880,-106.220841786718,4,1,0,80,0,0
17000,-103.048280773889,4,1,0,80,0,0
17119,-100,4,1,0,80,0,0
23788,-90.9090909090909,4,1,0,80,0,0
24383,-100,4,1,0,80,0,0
24741,-90.9090909090909,4,1,0,80,0,0
24979,-100,4,1,0,80,0,0
32598,-125,4,1,0,70,0,0
46880,-122.809600942424,4,1,0,70,0,0
47000,-120.677181305166,4,1,0,70,0,0
47119,-118.634423897582,4,1,0,70,0,0
47238,-116.659672681494,4,1,0,70,0,0
47357,-114.749587231701,4,1,0,70,0,0
47476,-112.901042371734,4,1,0,70,0,0
47595,-111.111111111111,4,1,0,80,0,0
53309,-109.756722151088,4,1,0,80,0,0
53428,-109.091834656893,4,1,0,80,0,0
53547,-108.434954207357,4,1,0,80,0,0
53666,-107.785937028468,4,1,0,80,0,0
53785,-107.144642767862,4,1,0,80,0,0
53904,-106.510934393638,4,1,0,80,0,0
54023,-105.884678096744,4,1,0,80,0,0
54142,-105.265743196778,4,1,0,80,0,0
54261,-104.654002051082,4,1,0,80,0,0
54380,-104.049329966984,4,1,0,80,0,0
54500,-103.446611314926,4,1,0,80,0,0
54619,-102.855771538277,4,1,0,80,0,0
54738,-102.271642645796,4,1,0,80,0,0
54857,-101.694110947658,4,1,0,80,0,0
54976,-101.123065307663,4,1,0,80,0,0
55095,-100.558397071935,4,1,0,80,0,0
55214,-100,4,1,0,80,0,0
55455,-111.111111111111,4,1,0,80,0,0
58074,-90.909090909091,4,1,0,80,0,0
59023,-125,4,1,0,80,0,0
59261,-121.214049376432,4,1,0,80,0,0
59500,-117.636161541312,4,1,0,80,0,0
59738,-114.277144571086,4,1,0,80,0,0
59976,-111.104630817683,4,1,0,80,0,0
60214,-108.103506979911,4,1,0,80,0,0
60452,-105.260249751354,4,1,0,80,0,0
60690,-102.562722084634,4,1,0,80,0,0
60928,-90.9090909090909,4,1,0,80,0,0
61883,-111.111111111111,4,1,0,80,0,0
62836,-100,4,1,0,90,0,1
69503,-90.9090909090909,4,1,0,90,0,1
70098,-100,4,1,0,90,0,1
70455,-90.9090909090909,4,1,0,90,0,1
70693,-100,4,1,0,90,0,1
77122,-100,4,1,0,80,0,0
77360,-111.111111111111,4,1,0,80,0,0
78074,-100,4,1,0,90,0,1
91407,-90.9090909090909,4,1,0,90,0,1
91645,-100,4,1,0,90,0,1
91764,-90.9090909090909,4,1,0,90,0,1
92003,-100,4,1,0,90,0,1
92360,-90.9090909090909,4,1,0,90,0,1
92598,-100,4,1,0,90,0,1
93312,-90.9090909090909,4,1,0,80,0,0
93550,-100,4,1,0,80,0,0
99979,-90.9090909090909,4,1,0,80,0,0
100574,-100,4,1,0,80,0,0
100931,-90.9090909090909,4,1,0,80,0,0
101169,-100,4,1,0,80,0,0
109026,-133.333333333333,4,1,0,60,0,0
116169,-125,4,1,0,70,0,0
123785,-111.111111111111,4,1,0,80,0,0
137122,-100,4,1,0,80,0,0
137360,-111.111111111111,4,1,0,80,0,0
138074,-100,4,1,0,80,0,0
138312,-111.111111111111,4,1,0,80,0,0
139026,-100,4,1,0,80,0,0
145928,-102.564102564103,4,1,0,80,0,0
146047,-103.896103896104,4,1,0,80,0,0
146166,-105.263157894737,4,1,0,80,0,0
146285,-106.666666666667,4,1,0,80,0,0
146404,-108.108108108108,4,1,0,80,0,0
146523,-109.58904109589,4,1,0,80,0,0
146642,-111.111111111111,4,1,0,70,0,0
153666,-115.942028985507,4,1,0,70,0,0
154023,-121.212121212121,4,1,0,70,0,0
154261,-125,4,1,0,70,0,0
154622,-133.333333333333,4,1,0,60,0,0
161883,-125,4,1,0,70,0,0
165693,-117.647058823529,4,1,0,80,0,0
165928,-111.111111111111,4,1,0,80,0,0
166166,-105.263157894737,4,1,0,80,0,0
166404,-100,4,1,0,80,0,0
166642,-95.2380952380952,4,1,0,80,0,0
166880,-90.9090909090909,4,1,0,80,0,0
167119,-86.9565217391304,4,1,0,80,0,0
167357,-83.3333333333333,4,1,0,80,0,0
168550,-111.111111111111,4,1,0,80,0,0
169503,-100,4,1,0,90,0,1
176169,-90.9090909090909,4,1,0,90,0,1
176764,-100,4,1,0,90,0,1
177121,-90.9090909090909,4,1,0,90,0,1
177360,-100,4,1,0,90,0,1
183788,-100,4,1,0,80,0,0
184026,-111.111111111111,4,1,0,80,0,0
184741,-100,4,1,0,90,0,1
191407,-90.9090909090909,4,1,0,90,0,1
192002,-100,4,1,0,90,0,1
192359,-90.9090909090909,4,1,0,90,0,1
192598,-100,4,1,0,90,0,1
199026,-100,4,1,0,80,0,0
199264,-111.111111111111,4,1,0,80,0,0
199979,-100,4,1,0,90,0,1
205693,-90.909090909091,4,1,0,90,0,1
206883,-111.111111111111,4,1,0,90,0,1
207598,-100,4,1,0,90,0,1
213307,-90.9090909090909,4,1,0,90,0,1
213545,-100,4,1,0,90,0,1
213664,-90.9090909090909,4,1,0,90,0,1
213903,-100,4,1,0,90,0,1
214260,-90.9090909090909,4,1,0,90,0,1
214498,-100,4,1,0,90,0,1
215217,-90.9090909090909,4,1,0,80,0,0
216166,-125,4,1,0,80,0,0
216285,-121.308553971487,4,1,0,80,0,0
216404,-117.741536940944,4,1,0,80,0,0
216523,-114.378300528084,4,1,0,80,0,0
216642,-111.20186697783,4,1,0,80,0,0
216761,-108.197093551317,4,1,0,80,0,0
216880,-105.350431129781,4,1,0,80,0,0
217000,-102.627611458109,4,1,0,80,0,0
217122,-100,4,1,0,90,0,1
223788,-90.9090909090909,4,1,0,90,0,1
224383,-100,4,1,0,90,0,1
224740,-90.9090909090909,4,1,0,100,0,1
224979,-100,4,1,0,100,0,1
231407,-90.9090909090917,4,1,0,100,0,0

[HitObjects]
256,192,1884,5,4,0:0:0:0:
256,192,2598,1,8,0:0:0:0:
256,192,2836,1,12,0:0:0:0:
256,192,3550,1,8,0:0:0:0:
256,192,3788,1,4,0:0:0:0:
256,192,4026,1,8,0:0:0:0:
256,192,4145,1,0,0:0:0:0:
256,192,4383,1,0,0:0:0:0:
256,192,4503,1,0,0:0:0:0:
256,192,4741,1,12,0:0:0:0:
256,192,4979,1,0,0:0:0:0:
256,192,5217,1,8,0:0:0:0:
256,192,5336,1,0,0:0:0:0:
256,192,5455,1,8,0:0:0:0:
256,192,5574,1,8,0:0:0:0:
256,192,5693,1,4,0:0:0:0:
256,192,6407,1,8,0:0:0:0:
256,192,6645,1,12,0:0:0:0:
256,192,7003,1,0,0:0:0:0:
256,192,7360,1,8,0:0:0:0:
256,192,7598,1,4,0:0:0:0:
256,192,7836,1,8,0:0:0:0:
256,192,7955,1,0,0:0:0:0:
256,192,8312,1,0,0:0:0:0:
256,192,8550,1,12,0:0:0:0:
256,192,8788,1,8,0:0:0:0:
256,192,9026,1,0,0:0:0:0:
256,192,9264,1,0,0:0:0:0:
256,192,9383,1,8,0:0:0:0:
256,192,9503,1,4,0:0:0:0:
256,192,9741,1,8,0:0:0:0:
256,192,9860,1,8,0:0:0:0:
256,192,9979,1,0,0:0:0:0:
256,192,10217,1,8,0:0:0:0:
256,192,10455,1,0,0:0:0:0:
256,192,10693,1,0,0:0:0:0:
256,192,10812,1,8,0:0:0:0:
256,192,10931,1,0,0:0:0:0:
256,192,11169,1,8,0:0:0:0:
256,192,11407,1,4,0:0:0:0:
256,192,11645,1,8,0:0:0:0:
256,192,11764,1,0,0:0:0:0:
256,192,12003,1,0,0:0:0:0:
256,192,12122,1,8,0:0:0:0:
256,192,12360,1,0,0:0:0:0:
256,192,12598,1,8,0:0:0:0:
256,192,12717,1,0,0:0:0:0:
256,192,12836,1,8,0:0:0:0:
256,192,13074,1,8,0:0:0:0:
256,192,13312,1,0,0:0:0:0:
256,192,13550,1,8,0:0:0:0:
256,192,13788,1,0,0:0:0:0:
256,192,14145,1,8,0:0:0:0:
256,192,14264,1,0,0:0:0:0:
256,192,14503,1,0,0:0:0:0:
256,192,14622,1,8,0:0:0:0:
256,192,14860,1,8,0:0:0:0:
256,192,14979,1,8,0:0:0:0:
256,192,15217,1,4,0:0:0:0:
256,192,15455,1,8,0:0:0:0:
256,192,15574,1,4,0:0:0:0:
256,192,15812,1,8,0:0:0:0:
256,192,15931,1,4,0:0:0:0:
256,192,16169,1,4,0:0:0:0:
256,192,16645,1,8,0:0:0:0:
256,192,16764,1,8,0:0:0:0:
256,192,16883,1,8,0:0:0:0:
256,192,17003,1,8,0:0:0:0:
256,192,17122,1,4,0:0:0:0:
256,192,17360,1,8,0:0:0:0:
256,192,17479,1,0,0:0:0:0:
256,192,17717,1,0,0:0:0:0:
256,192,17836,1,8,0:0:0:0:
256,192,17955,1,0,0:0:0:0:
256,192,18014,1,0,0:0:0:0:
256,192,18074,1,8,0:0:0:0:
256,192,18193,1,0,0:0:0:0:
256,192,18312,1,8,0:0:0:0:
256,192,18431,1,8,0:0:0:0:
256,192,18491,1,8,0:0:0:0:
256,192,18550,1,0,0:0:0:0:
256,192,18669,1,0,0:0:0:0:
256,192,18788,1,8,0:0:0:0:
256,192,19026,1,0,0:0:0:0:
256,192,19145,1,8,0:0:0:0:
256,192,19264,1,8,0:0:0:0:
256,192,19383,1,0,0:0:0:0:
256,192,19622,1,0,0:0:0:0:
256,192,19741,1,8,0:0:0:0:
256,192,19860,1,0,0:0:0:0:
256,192,19919,1,0,0:0:0:0:
256,192,19979,1,8,0:0:0:0:
256,192,20098,1,0,0:0:0:0:
256,192,20217,1,8,0:0:0:0:
256,192,20336,1,8,0:0:0:0:
256,192,20395,1,8,0:0:0:0:
256,192,20455,1,0,0:0:0:0:
256,192,20574,1,0,0:0:0:0:
256,192,20693,1,8,0:0:0:0:
256,192,20931,1,0,0:0:0:0:
256,192,21050,1,0,0:0:0:0:
256,192,21169,1,8,0:0:0:0:
256,192,21288,1,0,0:0:0:0:
256,192,21526,1,0,0:0:0:0:
256,192,21645,1,8,0:0:0:0:
256,192,21883,1,0,0:0:0:0:
256,192,22003,1,0,0:0:0:0:
256,192,22122,1,8,0:0:0:0:
256,192,22241,1,0,0:0:0:0:
256,192,22300,1,0,0:0:0:0:
256,192,22360,1,0,0:0:0:0:
256,192,22479,1,0,0:0:0:0:
256,192,22598,1,8,0:0:0:0:
256,192,22836,1,8,0:0:0:0:
256,192,22955,1,0,0:0:0:0:
256,192,23074,1,8,0:0:0:0:
256,192,23193,1,0,0:0:0:0:
256,192,23431,1,0,0:0:0:0:
256,192,23550,1,8,0:0:0:0:
256,192,23669,1,0,0:0:0:0:
256,192,23788,1,12,0:0:0:0:
256,192,24026,1,12,0:0:0:0:
256,192,24264,1,12,0:0:0:0:
256,192,24503,1,8,0:0:0:0:
256,192,24622,1,8,0:0:0:0:
256,192,24741,1,4,0:0:0:0:
256,192,24979,1,8,0:0:0:0:
256,192,25098,1,0,0:0:0:0:
256,192,25336,1,0,0:0:0:0:
256,192,25455,1,8,0:0:0:0:
256,192,25574,1,0,0:0:0:0:
256,192,25633,1,0,0:0:0:0:
256,192,25693,1,8,0:0:0:0:
256,192,25812,1,0,0:0:0:0:
256,192,25931,1,8,0:0:0:0:
256,192,26050,1,8,0:0:0:0:
256,192,26110,1,8,0:0:0:0:
256,192,26169,1,0,0:0:0:0:
256,192,26288,1,0,0:0:0:0:
256,192,26407,1,8,0:0:0:0:
256,192,26645,1,0,0:0:0:0:
256,192,26764,1,8,0:0:0:0:
256,192,26883,1,8,0:0:0:0:
256,192,27003,1,0,0:0:0:0:
256,192,27241,1,0,0:0:0:0:
256,192,27360,1,8,0:0:0:0:
256,192,27479,1,0,0:0:0:0:
256,192,27538,1,0,0:0:0:0:
256,192,27598,1,8,0:0:0:0:
256,192,27717,1,0,0:0:0:0:
256,192,27836,1,8,0:0:0:0:
256,192,27955,1,8,0:0:0:0:
256,192,28014,1,8,0:0:0:0:
256,192,28074,1,0,0:0:0:0:
256,192,28193,1,0,0:0:0:0:
256,192,28312,1,8,0:0:0:0:
256,192,28550,1,0,0:0:0:0:
256,192,28669,1,0,0:0:0:0:
256,192,28788,1,8,0:0:0:0:
256,192,28907,1,0,0:0:0:0:
256,192,29145,1,0,0:0:0:0:
256,192,29264,1,8,0:0:0:0:
256,192,29503,1,0,0:0:0:0:
256,192,29622,1,0,0:0:0:0:
256,192,29741,1,8,0:0:0:0:
256,192,29860,1,0,0:0:0:0:
256,192,29919,1,0,0:0:0:0:
256,192,29979,1,0,0:0:0:0:
256,192,30098,1,0,0:0:0:0:
256,192,30217,1,8,0:0:0:0:
256,192,30455,1,8,0:0:0:0:
256,192,30574,1,0,0:0:0:0:
256,192,30693,1,8,0:0:0:0:
256,192,30812,1,0,0:0:0:0:
256,192,31050,1,0,0:0:0:0:
256,192,31169,1,8,0:0:0:0:
256,192,31288,1,0,0:0:0:0:
256,192,31407,1,8,0:0:0:0:
256,192,31526,1,0,0:0:0:0:
256,192,31586,1,0,0:0:0:0:
256,192,31645,1,8,0:0:0:0:
256,192,31764,1,8,0:0:0:0:
256,192,31883,1,0,0:0:0:0:
256,192,32003,1,8,0:0:0:0:
256,192,32122,1,0,0:0:0:0:
256,192,32241,1,0,0:0:0:0:
256,192,32360,1,12,0:0:0:0:
256,192,32717,1,8,0:0:0:0:
256,192,32836,1,0,0:0:0:0:
256,192,33074,1,8,0:0:0:0:
256,192,33193,1,8,0:0:0:0:
256,192,33312,1,0,0:0:0:0:
256,192,33550,1,8,0:0:0:0:
256,192,33788,1,0,0:0:0:0:
256,192,33907,1,0,0:0:0:0:
256,192,34026,1,8,0:0:0:0:
256,192,34264,1,0,0:0:0:0:
256,192,34503,1,8,0:0:0:0:
256,192,34741,1,0,0:0:0:0:
256,192,34979,1,8,0:0:0:0:
256,192,35217,1,0,0:0:0:0:
256,192,35693,1,8,0:0:0:0:
256,192,35931,1,8,0:0:0:0:
256,192,36169,1,0,0:0:0:0:
256,192,36407,1,8,0:0:0:0:
256,192,36526,1,0,0:0:0:0:
256,192,36645,1,8,0:0:0:0:
256,192,36883,1,0,0:0:0:0:
256,192,37003,1,8,0:0:0:0:
256,192,37122,1,0,0:0:0:0:
256,192,37360,1,8,0:0:0:0:
256,192,37479,1,8,0:0:0:0:
256,192,37598,1,0,0:0:0:0:
256,192,37836,1,8,0:0:0:0:
256,192,38074,1,0,0:0:0:0:
256,192,38312,1,0,0:0:0:0:
256,192,38550,1,8,0:0:0:0:
256,192,38788,1,0,0:0:0:0:
256,192,38907,1,8,0:0:0:0:
256,192,39264,1,0,0:0:0:0:
256,192,39503,1,8,0:0:0:0:
256,192,39741,1,0,0:0:0:0:
256,192,39979,1,12,0:0:0:0:
256,192,40336,1,8,0:0:0:0:
256,192,40455,1,0,0:0:0:0:
256,192,40693,1,8,0:0:0:0:
256,192,40812,1,8,0:0:0:0:
256,192,40931,1,0,0:0:0:0:
256,192,41169,1,8,0:0:0:0:
256,192,41407,1,0,0:0:0:0:
256,192,41645,1,8,0:0:0:0:
256,192,41883,1,0,0:0:0:0:
256,192,42122,1,8,0:0:0:0:
256,192,42360,1,8,0:0:0:0:
256,192,42598,1,0,0:0:0:0:
256,192,42717,1,8,0:0:0:0:
256,192,42836,1,0,0:0:0:0:
256,192,43312,1,8,0:0:0:0:
256,192,43550,1,8,0:0:0:0:
256,192,43669,1,8,0:0:0:0:
256,192,43788,1,0,0:0:0:0:
256,192,44026,1,8,0:0:0:0:
256,192,44145,1,0,0:0:0:0:
256,192,44264,1,8,0:0:0:0:
256,192,44503,1,8,0:0:0:0:
256,192,44741,1,0,0:0:0:0:
256,192,44979,1,8,0:0:0:0:
256,192,45098,1,8,0:0:0:0:
256,192,45217,1,0,0:0:0:0:
256,192,45455,1,8,0:0:0:0:
256,192,45693,1,0,0:0:0:0:
256,192,45812,1,0,0:0:0:0:
256,192,45931,1,8,0:0:0:0:
256,192,46169,1,8,0:0:0:0:
256,192,46407,1,0,0:0:0:0:
256,192,46526,1,8,0:0:0:0:
256,192,46764,1,8,0:0:0:0:
256,192,46883,1,0,0:0:0:0:
256,192,47003,1,0,0:0:0:0:
256,192,47122,1,8,0:0:0:0:
256,192,47360,1,8,0:0:0:0:
256,192,47479,1,8,0:0:0:0:
256,192,47598,1,4,0:0:0:0:
256,192,47955,1,0,0:0:0:0:
256,192,48074,1,8,0:0:0:0:
256,192,48312,1,0,0:0:0:0:
256,192,48431,1,8,0:0:0:0:
256,192,48550,1,0,0:0:0:0:
256,192,48788,1,0,0:0:0:0:
256,192,48907,1,0,0:0:0:0:
256,192,49026,1,8,0:0:0:0:
256,192,49264,1,8,0:0:0:0:
256,192,49503,1,0,0:0:0:0:
256,192,49622,1,8,0:0:0:0:
256,192,49860,1,0,0:0:0:0:
256,192,49979,1,8,0:0:0:0:
256,192,50217,1,0,0:0:0:0:
256,192,50336,1,8,0:0:0:0:
256,192,50455,1,0,0:0:0:0:
256,192,50693,1,8,0:0:0:0:
256,192,50812,1,0,0:0:0:0:
256,192,50872,1,0,0:0:0:0:
256,192,50931,1,8,0:0:0:0:
256,192,51169,1,8,0:0:0:0:
256,192,51407,1,0,0:0:0:0:
256,192,51645,1,0,0:0:0:0:
256,192,51764,1,0,0:0:0:0:
256,192,51883,1,8,0:0:0:0:
256,192,52122,1,8,0:0:0:0:
256,192,52241,1,8,0:0:0:0:
256,192,52360,1,0,0:0:0:0:
256,192,52598,1,0,0:0:0:0:
256,192,52717,1,0,0:0:0:0:
256,192,52836,1,8,0:0:0:0:
256,192,52955,1,0,0:0:0:0:
256,192,53074,1,8,0:0:0:0:
256,192,53312,1,0,0:0:0:0:
256,192,53550,1,0,0:0:0:0:
256,192,53669,1,0,0:0:0:0:
256,192,53788,1,8,0:0:0:0:
256,192,54026,1,8,0:0:0:0:
256,192,54145,1,8,0:0:0:0:
256,192,54264,1,0,0:0:0:0:
256,192,54383,1,8,0:0:0:0:
256,192,54503,1,0,0:0:0:0:
256,192,54622,1,8,0:0:0:0:
256,192,54741,1,0,0:0:0:0:
256,192,54979,1,8,0:0:0:0:
256,192,55098,1,8,0:0:0:0:
256,192,55217,1,4,0:0:0:0:
256,192,55574,1,0,0:0:0:0:
256,192,55693,1,8,0:0:0:0:
256,192,55931,1,8,0:0:0:0:
256,192,56050,1,8,0:0:0:0:
256,192,56169,1,0,0:0:0:0:
256,192,56288,1,8,0:0:0:0:
256,192,56407,1,0,0:0:0:0:
256,192,56645,1,8,0:0:0:0:
256,192,56883,1,8,0:0:0:0:
256,192,57122,1,0,0:0:0:0:
256,192,57241,1,8,0:0:0:0:
256,192,57360,1,0,0:0:0:0:
256,192,57479,1,0,0:0:0:0:
256,192,57598,1,8,0:0:0:0:
256,192,57836,1,8,0:0:0:0:
256,192,58074,1,4,0:0:0:0:
256,192,58550,1,12,0:0:0:0:
256,192,59026,1,0,0:0:0:0:
256,192,59264,1,0,0:0:0:0:
256,192,59503,1,0,0:0:0:0:
256,192,59741,1,0,0:0:0:0:
256,192,59979,1,8,0:0:0:0:
256,192,60217,1,8,0:0:0:0:
256,192,60455,1,8,0:0:0:0:
256,192,60693,1,8,0:0:0:0:
256,192,60931,1,4,0:0:0:0:
256,192,61169,1,8,0:0:0:0:
256,192,61288,1,4,0:0:0:0:
256,192,61526,1,0,0:0:0:0:
256,192,61645,1,12,0:0:0:0:
256,192,62122,1,4,0:0:0:0:
256,192,62360,1,8,0:0:0:0:
256,192,62479,1,8,0:0:0:0:
256,192,62598,1,8,0:0:0:0:
256,192,62717,1,8,0:0:0:0:
256,192,62836,1,4,0:0:0:0:
256,192,63074,1,8,0:0:0:0:
256,192,63193,1,8,0:0:0:0:
256,192,63253,1,8,0:0:0:0:
256,192,63312,1,0,0:0:0:0:
256,192,63431,1,0,0:0:0:0:
256,192,63550,1,8,0:0:0:0:
256,192,63788,1,8,0:0:0:0:
256,192,63907,1,0,0:0:0:0:
256,192,64026,1,8,0:0:0:0:
256,192,64145,1,8,0:0:0:0:
256,192,64205,1,8,0:0:0:0:
256,192,64264,1,8,0:0:0:0:
256,192,64383,1,0,0:0:0:0:
256,192,64503,1,8,0:0:0:0:
256,192,64741,1,0,0:0:0:0:
256,192,64860,1,0,0:0:0:0:
256,192,64979,1,8,0:0:0:0:
256,192,65098,1,0,0:0:0:0:
256,192,65157,1,0,0:0:0:0:
256,192,65217,1,8,0:0:0:0:
256,192,65336,1,0,0:0:0:0:
256,192,65455,1,8,0:0:0:0:
256,192,65693,1,0,0:0:0:0:
256,192,65931,1,8,0:0:0:0:
256,192,66050,1,8,0:0:0:0:
256,192,66110,1,8,0:0:0:0:
256,192,66169,1,0,0:0:0:0:
256,192,66288,1,0,0:0:0:0:
256,192,66407,1,8,0:0:0:0:
256,192,66645,1,0,0:0:0:0:
256,192,66883,1,8,0:0:0:0:
256,192,67003,1,0,0:0:0:0:
256,192,67062,1,0,0:0:0:0:
256,192,67122,1,8,0:0:0:0:
256,192,67241,1,0,0:0:0:0:
256,192,67360,1,8,0:0:0:0:
256,192,67479,1,0,0:0:0:0:
256,192,67538,1,0,0:0:0:0:
256,192,67598,1,0,0:0:0:0:
256,192,67717,1,0,0:0:0:0:
256,192,67836,1,8,0:0:0:0:
256,192,67955,1,0,0:0:0:0:
256,192,68193,1,0,0:0:0:0:
256,192,68312,1,8,0:0:0:0:
256,192,68431,1,0,0:0:0:0:
256,192,68491,1,0,0:0:0:0:
256,192,68550,1,8,0:0:0:0:
256,192,68669,1,0,0:0:0:0:
256,192,68788,1,8,0:0:0:0:
256,192,68907,1,8,0:0:0:0:
256,192,68967,1,8,0:0:0:0:
256,192,69026,1,0,0:0:0:0:
256,192,69145,1,0,0:0:0:0:
256,192,69264,1,8,0:0:0:0:
256,192,69503,1,12,0:0:0:0:
256,192,69741,1,12,0:0:0:0:
256,192,69979,1,12,0:0:0:0:
256,192,70217,1,8,0:0:0:0:
256,192,70336,1,8,0:0:0:0:
256,192,70455,1,4,0:0:0:0:
256,192,70693,1,8,0:0:0:0:
256,192,70812,1,0,0:0:0:0:
256,192,70872,1,0,0:0:0:0:
256,192,70931,1,8,0:0:0:0:
256,192,71050,1,0,0:0:0:0:
256,192,71169,1,8,0:0:0:0:
256,192,71407,1,8,0:0:0:0:
256,192,71526,1,0,0:0:0:0:
256,192,71645,1,8,0:0:0:0:
256,192,71764,1,0,0:0:0:0:
256,192,71824,1,0,0:0:0:0:
256,192,71883,1,0,0:0:0:0:
256,192,72003,1,0,0:0:0:0:
256,192,72122,1,8,0:0:0:0:
256,192,72360,1,0,0:0:0:0:
256,192,72479,1,0,0:0:0:0:
256,192,72598,1,8,0:0:0:0:
256,192,72717,1,8,0:0:0:0:
256,192,72776,1,8,0:0:0:0:
256,192,72836,1,0,0:0:0:0:
256,192,72955,1,0,0:0:0:0:
256,192,73074,1,8,0:0:0:0:
256,192,73312,1,0,0:0:0:0:
256,192,73550,1,8,0:0:0:0:
256,192,73669,1,0,0:0:0:0:
256,192,73729,1,0,0:0:0:0:
256,192,73788,1,8,0:0:0:0:
256,192,73907,1,0,0:0:0:0:
256,192,74026,1,8,0:0:0:0:
256,192,74264,1,0,0:0:0:0:
256,192,74503,1,8,0:0:0:0:
256,192,74622,1,8,0:0:0:0:
256,192,74681,1,8,0:0:0:0:
256,192,74741,1,0,0:0:0:0:
256,192,74860,1,0,0:0:0:0:
256,192,74979,1,8,0:0:0:0:
256,192,75098,1,0,0:0:0:0:
256,192,75217,1,8,0:0:0:0:
256,192,75455,1,8,0:0:0:0:
256,192,75574,1,0,0:0:0:0:
256,192,75633,1,0,0:0:0:0:
256,192,75693,1,8,0:0:0:0:
256,192,75812,1,0,0:0:0:0:
256,192,75931,1,8,0:0:0:0:
256,192,76169,1,12,0:0:0:0:
256,192,76407,1,8,0:0:0:0:
256,192,76526,1,0,0:0:0:0:
256,192,76586,1,0,0:0:0:0:
256,192,76645,1,0,0:0:0:0:
256,192,76764,1,8,0:0:0:0:
256,192,76883,1,0,0:0:0:0:
256,192,77122,1,4,0:0:0:0:
256,192,77360,1,0,0:0:0:0:
256,192,77598,1,8,0:0:0:0:
256,192,77717,1,8,0:0:0:0:
256,192,77836,1,8,0:0:0:0:
256,192,77955,1,8,0:0:0:0:
256,192,78074,1,4,0:0:0:0:
256,192,78312,1,8,0:0:0:0:
256,192,78431,1,0,0:0:0:0:
256,192,78491,1,0,0:0:0:0:
256,192,78550,1,0,0:0:0:0:
256,192,78669,1,0,0:0:0:0:
256,192,78788,1,8,0:0:0:0:
256,192,79026,1,0,0:0:0:0:
256,192,79145,1,0,0:0:0:0:
256,192,79205,1,0,0:0:0:0:
256,192,79264,1,8,0:0:0:0:
256,192,79383,1,0,0:0:0:0:
256,192,79503,1,8,0:0:0:0:
256,192,79562,1,8,0:0:0:0:
256,192,79622,1,0,0:0:0:0:
256,192,79741,1,8,0:0:0:0:
256,192,79979,1,0,0:0:0:0:
256,192,80098,1,0,0:0:0:0:
256,192,80217,1,8,0:0:0:0:
256,192,80336,1,8,0:0:0:0:
256,192,80395,1,8,0:0:0:0:
256,192,80455,1,0,0:0:0:0:
256,192,80574,1,0,0:0:0:0:
256,192,80693,1,8,0:0:0:0:
256,192,80812,1,8,0:0:0:0:
256,192,80931,1,0,0:0:0:0:
256,192,81169,1,8,0:0:0:0:
256,192,81407,1,8,0:0:0:0:
256,192,81526,1,0,0:0:0:0:
256,192,81586,1,0,0:0:0:0:
256,192,81645,1,8,0:0:0:0:
256,192,81764,1,0,0:0:0:0:
256,192,81883,1,12,0:0:0:0:
256,192,82122,1,8,0:0:0:0:
256,192,82241,1,0,0:0:0:0:
256,192,82300,1,0,0:0:0:0:
256,192,82360,1,0,0:0:0:0:
256,192,82479,1,0,0:0:0:0:
256,192,82598,1,8,0:0:0:0:
256,192,82836,1,8,0:0:0:0:
256,192,82955,1,0,0:0:0:0:
256,192,83014,1,0,0:0:0:0:
256,192,83074,1,8,0:0:0:0:
256,192,83193,1,0,0:0:0:0:
256,192,83312,1,8,0:0:0:0:
256,192,83372,1,8,0:0:0:0:
256,192,83431,1,0,0:0:0:0:
256,192,83550,1,8,0:0:0:0:
256,192,83788,1,12,0:0:0:0:
256,192,83907,1,0,0:0:0:0:
256,192,84026,1,8,0:0:0:0:
256,192,84145,1,0,0:0:0:0:
256,192,84264,1,8,0:0:0:0:
256,192,84383,1,0,0:0:0:0:
256,192,84503,1,8,0:0:0:0:
256,192,84622,1,0,0:0:0:0:
256,192,84741,1,12,0:0:0:0:
256,192,84979,1,0,0:0:0:0:
256,192,85217,1,8,0:0:0:0:
256,192,85336,1,8,0:0:0:0:
256,192,85455,1,8,0:0:0:0:
256,192,85574,1,8,0:0:0:0:
256,192,85693,1,4,0:0:0:0:
256,192,85931,1,8,0:0:0:0:
256,192,86050,1,0,0:0:0:0:
256,192,86110,1,0,0:0:0:0:
256,192,86169,1,0,0:0:0:0:
256,192,86288,1,0,0:0:0:0:
256,192,86407,1,8,0:0:0:0:
256,192,86645,1,8,0:0:0:0:
256,192,86764,1,0,0:0:0:0:
256,192,86824,1,0,0:0:0:0:
256,192,86883,1,8,0:0:0:0:
256,192,87003,1,8,0:0:0:0:
256,192,87122,1,0,0:0:0:0:
256,192,87241,1,0,0:0:0:0:
256,192,87360,1,8,0:0:0:0:
256,192,87598,1,0,0:0:0:0:
256,192,87717,1,0,0:0:0:0:
256,192,87836,1,8,0:0:0:0:
256,192,87955,1,8,0:0:0:0:
256,192,88014,1,8,0:0:0:0:
256,192,88074,1,8,0:0:0:0:
256,192,88193,1,0,0:0:0:0:
256,192,88312,1,8,0:0:0:0:
256,192,88431,1,0,0:0:0:0:
256,192,88550,1,8,0:0:0:0:
256,192,88788,1,8,0:0:0:0:
256,192,89026,1,0,0:0:0:0:
256,192,89145,1,0,0:0:0:0:
256,192,89205,1,0,0:0:0:0:
256,192,89264,1,8,0:0:0:0:
256,192,89383,1,0,0:0:0:0:
256,192,89503,1,12,0:0:0:0:
256,192,89741,1,8,0:0:0:0:
256,192,89860,1,8,0:0:0:0:
256,192,89979,1,0,0:0:0:0:
256,192,90098,1,0,0:0:0:0:
256,192,90217,1,8,0:0:0:0:
256,192,90276,1,8,0:0:0:0:
256,192,90336,1,8,0:0:0:0:
256,192,90455,1,0,0:0:0:0:
256,192,90693,1,8,0:0:0:0:
256,192,90812,1,0,0:0:0:0:
256,192,90931,1,8,0:0:0:0:
256,192,90991,1,8,0:0:0:0:
256,192,91050,1,0,0:0:0:0:
256,192,91169,1,8,0:0:0:0:
256,192,91407,1,12,0:0:0:0:
256,192,91645,1,8,0:0:0:0:
256,192,91764,1,4,0:0:0:0:
256,192,92003,1,8,0:0:0:0:
256,192,92122,1,0,0:0:0:0:
256,192,92360,1,12,0:0:0:0:
256,192,92598,1,8,0:0:0:0:
256,192,92836,1,8,0:0:0:0:
256,192,92955,1,8,0:0:0:0:
256,192,93074,1,8,0:0:0:0:
256,192,93193,1,8,0:0:0:0:
256,192,93312,1,4,0:0:0:0:
256,192,93550,1,8,0:0:0:0:
256,192,93669,1,0,0:0:0:0:
256,192,93907,1,0,0:0:0:0:
256,192,94026,1,8,0:0:0:0:
256,192,94145,1,0,0:0:0:0:
256,192,94205,1,0,0:0:0:0:
256,192,94264,1,8,0:0:0:0:
256,192,94383,1,0,0:0:0:0:
256,192,94503,1,8,0:0:0:0:
256,192,94622,1,8,0:0:0:0:
256,192,94681,1,8,0:0:0:0:
256,192,94741,1,0,0:0:0:0:
256,192,94860,1,0,0:0:0:0:
256,192,94979,1,8,0:0:0:0:
256,192,95217,1,0,0:0:0:0:
256,192,95336,1,8,0:0:0:0:
256,192,95455,1,8,0:0:0:0:
256,192,95574,1,0,0:0:0:0:
256,192,95812,1,0,0:0:0:0:
256,192,95931,1,8,0:0:0:0:
256,192,96050,1,0,0:0:0:0:
256,192,96110,1,0,0:0:0:0:
256,192,96169,1,8,0:0:0:0:
256,192,96288,1,0,0:0:0:0:
256,192,96407,1,8,0:0:0:0:
256,192,96526,1,8,0:0:0:0:
256,192,96586,1,8,0:0:0:0:
256,192,96645,1,0,0:0:0:0:
256,192,96764,1,0,0:0:0:0:
256,192,96883,1,8,0:0:0:0:
256,192,97122,1,0,0:0:0:0:
256,192,97241,1,0,0:0:0:0:
256,192,97360,1,8,0:0:0:0:
256,192,97479,1,0,0:0:0:0:
256,192,97717,1,0,0:0:0:0:
256,192,97836,1,8,0:0:0:0:
256,192,98074,1,0,0:0:0:0:
256,192,98193,1,0,0:0:0:0:
256,192,98312,1,8,0:0:0:0:
256,192,98431,1,0,0:0:0:0:
256,192,98491,1,0,0:0:0:0:
256,192,98550,1,0,0:0:0:0:
256,192,98669,1,0,0:0:0:0:
256,192,98788,1,8,0:0:0:0:
256,192,99026,1,8,0:0:0:0:
256,192,99145,1,0,0:0:0:0:
256,192,99264,1,8,0:0:0:0:
256,192,99383,1,0,0:0:0:0:
256,192,99622,1,0,0:0:0:0:
256,192,99741,1,8,0:0:0:0:
256,192,99860,1,0,0:0:0:0:
256,192,99979,1,12,0:0:0:0:
256,192,100217,1,12,0:0:0:0:
256,192,100455,1,12,0:0:0:0:
256,192,100693,1,8,0:0:0:0:
256,192,100812,1,8,0:0:0:0:
256,192,100931,1,4,0:0:0:0:
256,192,101169,1,8,0:0:0:0:
256,192,101288,1,0,0:0:0:0:
256,192,101526,1,0,0:0:0:0:
256,192,101645,1,8,0:0:0:0:
256,192,101764,1,0,0:0:0:0:
256,192,101824,1,0,0:0:0:0:
256,192,101883,1,8,0:0:0:0:
256,192,102003,1,0,0:0:0:0:
256,192,102122,1,8,0:0:0:0:
256,192,102241,1,8,0:0:0:0:
256,192,102300,1,8,0:0:0:0:
256,192,102360,1,0,0:0:0:0:
256,192,102479,1,0,0:0:0:0:
256,192,102598,1,8,0:0:0:0:
256,192,102836,1,0,0:0:0:0:
256,192,102955,1,8,0:0:0:0:
256,192,103074,1,8,0:0:0:0:
256,192,103193,1,0,0:0:0:0:
256,192,103431,1,0,0:0:0:0:
256,192,103550,1,8,0:0:0:0:
256,192,103669,1,0,0:0:0:0:
256,192,103729,1,0,0:0:0:0:
256,192,103788,1,8,0:0:0:0:
256,192,103907,1,0,0:0:0:0:
256,192,104026,1,8,0:0:0:0:
256,192,104145,1,8,0:0:0:0:
256,192,104205,1,8,0:0:0:0:
256,192,104264,1,0,0:0:0:0:
256,192,104383,1,0,0:0:0:0:
256,192,104503,1,8,0:0:0:0:
256,192,104741,1,0,0:0:0:0:
256,192,104860,1,0,0:0:0:0:
256,192,104979,1,8,0:0:0:0:
256,192,105098,1,0,0:0:0:0:
256,192,105336,1,0,0:0:0:0:
256,192,105455,1,8,0:0:0:0:
256,192,105693,1,0,0:0:0:0:
256,192,105812,1,0,0:0:0:0:
256,192,105931,1,8,0:0:0:0:
256,192,106050,1,0,0:0:0:0:
256,192,106110,1,0,0:0:0:0:
256,192,106169,1,0,0:0:0:0:
256,192,106288,1,0,0:0:0:0:
256,192,106407,1,8,0:0:0:0:
256,192,106645,1,8,0:0:0:0:
256,192,106764,1,0,0:0:0:0:
256,192,106883,1,8,0:0:0:0:
256,192,107003,1,0,0:0:0:0:
256,192,107241,1,0,0:0:0:0:
256,192,107360,1,8,0:0:0:0:
256,192,107479,1,0,0:0:0:0:
256,192,107598,1,8,0:0:0:0:
256,192,107717,1,0,0:0:0:0:
256,192,107776,1,0,0:0:0:0:
256,192,107836,1,8,0:0:0:0:
256,192,107955,1,8,0:0:0:0:
256,192,108074,1,0,0:0:0:0:
256,192,108193,1,8,0:0:0:0:
256,192,108312,1,0,0:0:0:0:
256,192,108431,1,0,0:0:0:0:
256,192,108550,1,12,0:0:0:0:
256,192,109026,1,8,0:0:0:0:
256,192,109383,1,0,0:0:0:0:
256,192,109979,1,8,0:0:0:0:
256,192,110217,1,0,0:0:0:0:
256,192,110455,1,0,0:0:0:0:
256,192,110931,1,8,0:0:0:0:
256,192,111169,1,0,0:0:0:0:
256,192,111288,1,8,0:0:0:0:
256,192,111883,1,8,0:0:0:0:
256,192,112122,1,8,0:0:0:0:
256,192,112360,1,0,0:0:0:0:
256,192,112836,1,8,0:0:0:0:
256,192,113074,1,8,0:0:0:0:
256,192,113193,1,0,0:0:0:0:
256,192,113788,1,8,0:0:0:0:
256,192,114026,1,8,0:0:0:0:
256,192,114264,1,0,0:0:0:0:
256,192,115693,12,0,116050,0:0:0:0:
256,192,116169,5,12,0:0:0:0:
256,192,116407,1,0,0:0:0:0:
256,192,116526,1,8,0:0:0:0:
256,192,116645,1,0,0:0:0:0:
256,192,116883,1,8,0:0:0:0:
256,192,117003,1,8,0:0:0:0:
256,192,117122,1,0,0:0:0:0:
256,192,117360,1,8,0:0:0:0:
256,192,117598,1,0,0:0:0:0:
256,192,117836,1,8,0:0:0:0:
256,192,118074,1,8,0:0:0:0:
256,192,118312,1,0,0:0:0:0:
256,192,118550,1,8,0:0:0:0:
256,192,118788,1,8,0:0:0:0:
256,192,118907,1,8,0:0:0:0:
256,192,119026,1,0,0:0:0:0:
256,192,119264,1,0,0:0:0:0:
256,192,119383,1,0,0:0:0:0:
256,192,119503,1,8,0:0:0:0:
256,192,119622,1,0,0:0:0:0:
256,192,119741,1,8,0:0:0:0:
256,192,119979,1,0,0:0:0:0:
256,192,120217,1,8,0:0:0:0:
256,192,120336,1,0,0:0:0:0:
256,192,120455,1,8,0:0:0:0:
256,192,120693,1,0,0:0:0:0:
256,192,120812,1,8,0:0:0:0:
256,192,120931,1,8,0:0:0:0:
256,192,121169,1,8,0:0:0:0:
256,192,121407,1,0,0:0:0:0:
256,192,121645,1,8,0:0:0:0:
256,192,121883,1,4,0:0:0:0:
256,192,122122,1,8,0:0:0:0:
256,192,122360,1,8,0:0:0:0:
256,192,122479,1,8,0:0:0:0:
256,192,122598,1,0,0:0:0:0:
256,192,122717,1,12,0:0:0:0:
256,192,122955,1,0,0:0:0:0:
256,192,123074,1,8,0:0:0:0:
256,192,123312,1,0,0:0:0:0:
256,192,123550,1,8,0:0:0:0:
256,192,123669,1,8,0:0:0:0:
256,192,123788,1,4,0:0:0:0:
256,192,124026,1,0,0:0:0:0:
256,192,124145,1,8,0:0:0:0:
256,192,124264,1,0,0:0:0:0:
256,192,124503,1,8,0:0:0:0:
256,192,124622,1,0,0:0:0:0:
256,192,124741,1,0,0:0:0:0:
256,192,124979,1,8,0:0:0:0:
256,192,125098,1,8,0:0:0:0:
256,192,125217,1,0,0:0:0:0:
256,192,125455,1,8,0:0:0:0:
256,192,125574,1,0,0:0:0:0:
256,192,125693,1,8,0:0:0:0:
256,192,126050,1,8,0:0:0:0:
256,192,126169,1,0,0:0:0:0:
256,192,126288,1,0,0:0:0:0:
256,192,126407,1,8,0:0:0:0:
256,192,126645,1,0,0:0:0:0:
256,192,126883,1,8,0:0:0:0:
256,192,127003,1,8,0:0:0:0:
256,192,127122,1,0,0:0:0:0:
256,192,127360,1,8,0:0:0:0:
256,192,127479,1,8,0:0:0:0:
256,192,127598,1,0,0:0:0:0:
256,192,127955,1,8,0:0:0:0:
256,192,128074,1,0,0:0:0:0:
256,192,128312,1,8,0:0:0:0:
256,192,128431,1,8,0:0:0:0:
256,192,128550,1,0,0:0:0:0:
256,192,128788,1,8,0:0:0:0:
256,192,128907,1,8,0:0:0:0:
256,192,129026,1,0,0:0:0:0:
256,192,129264,1,8,0:0:0:0:
256,192,129503,1,0,0:0:0:0:
256,192,129741,1,0,0:0:0:0:
256,192,129860,1,8,0:0:0:0:
256,192,129979,1,0,0:0:0:0:
256,192,130217,1,8,0:0:0:0:
256,192,130336,1,8,0:0:0:0:
256,192,130455,1,4,0:0:0:0:
256,192,130693,1,0,0:0:0:0:
256,192,130931,1,8,0:0:0:0:
256,192,131050,1,8,0:0:0:0:
256,192,131169,1,8,0:0:0:0:
256,192,131288,1,8,0:0:0:0:
256,192,131407,1,4,0:0:0:0:
256,192,131645,1,0,0:0:0:0:
256,192,131764,1,8,0:0:0:0:
256,192,131883,1,0,0:0:0:0:
256,192,132122,1,8,0:0:0:0:
256,192,132241,1,8,0:0:0:0:
256,192,132360,1,0,0:0:0:0:
256,192,132598,1,0,0:0:0:0:
256,192,132717,1,8,0:0:0:0:
256,192,132836,1,8,0:0:0:0:
256,192,133074,1,8,0:0:0:0:
256,192,133193,1,0,0:0:0:0:
256,192,133312,1,8,0:0:0:0:
256,192,133669,1,8,0:0:0:0:
256,192,133788,1,0,0:0:0:0:
256,192,133907,1,0,0:0:0:0:
256,192,134026,1,8,0:0:0:0:
256,192,134264,1,0,0:0:0:0:
256,192,134503,1,8,0:0:0:0:
256,192,134622,1,8,0:0:0:0:
256,192,134741,1,0,0:0:0:0:
256,192,134979,1,8,0:0:0:0:
256,192,135217,1,0,0:0:0:0:
256,192,135455,1,0,0:0:0:0:
256,192,135574,1,8,0:0:0:0:
256,192,135693,1,0,0:0:0:0:
256,192,135931,1,8,0:0:0:0:
256,192,136050,1,0,0:0:0:0:
256,192,136169,1,8,0:0:0:0:
256,192,136407,1,0,0:0:0:0:
256,192,136526,1,8,0:0:0:0:
256,192,136645,1,0,0:0:0:0:
256,192,136883,1,8,0:0:0:0:
256,192,137122,1,4,0:0:0:0:
256,192,137360,1,8,0:0:0:0:
256,192,137598,1,8,0:0:0:0:
256,192,137836,1,8,0:0:0:0:
256,192,138074,1,4,0:0:0:0:
256,192,138312,1,8,0:0:0:0:
256,192,138550,1,8,0:0:0:0:
256,192,138669,1,8,0:0:0:0:
256,192,138788,1,8,0:0:0:0:
256,192,138907,1,8,0:0:0:0:
256,192,139026,1,4,0:0:0:0:
256,192,139264,1,8,0:0:0:0:
256,192,139383,1,0,0:0:0:0:
256,192,139622,1,0,0:0:0:0:
256,192,139741,1,8,0:0:0:0:
256,192,139860,1,0,0:0:0:0:
256,192,139919,1,0,0:0:0:0:
256,192,139979,1,8,0:0:0:0:
256,192,140098,1,0,0:0:0:0:
256,192,140217,1,8,0:0:0:0:
256,192,140336,1,0,0:0:0:0:
256,192,140455,1,8,0:0:0:0:
256,192,140574,1,0,0:0:0:0:
256,192,140693,1,8,0:0:0:0:
256,192,140812,1,8,0:0:0:0:
256,192,140931,1,0,0:0:0:0:
256,192,141169,1,8,0:0:0:0:
256,192,141288,1,0,0:0:0:0:
256,192,141526,1,0,0:0:0:0:
256,192,141645,1,8,0:0:0:0:
256,192,141764,1,8,0:0:0:0:
256,192,141824,1,8,0:0:0:0:
256,192,141883,1,0,0:0:0:0:
256,192,142003,1,0,0:0:0:0:
256,192,142122,1,8,0:0:0:0:
256,192,142241,1,8,0:0:0:0:
256,192,142360,1,0,0:0:0:0:
256,192,142479,1,0,0:0:0:0:
256,192,142538,1,0,0:0:0:0:
256,192,142598,1,8,0:0:0:0:
256,192,142717,1,8,0:0:0:0:
256,192,142836,1,0,0:0:0:0:
256,192,143074,1,8,0:0:0:0:
256,192,143193,1,8,0:0:0:0:
256,192,143312,1,0,0:0:0:0:
256,192,143431,1,0,0:0:0:0:
256,192,143550,1,8,0:0:0:0:
256,192,143788,1,0,0:0:0:0:
256,192,143907,1,0,0:0:0:0:
256,192,144026,1,8,0:0:0:0:
256,192,144145,1,0,0:0:0:0:
256,192,144205,1,0,0:0:0:0:
256,192,144264,1,0,0:0:0:0:
256,192,144383,1,0,0:0:0:0:
256,192,144503,1,8,0:0:0:0:
256,192,144741,1,8,0:0:0:0:
256,192,144860,1,0,0:0:0:0:
256,192,144979,1,8,0:0:0:0:
256,192,145098,1,8,0:0:0:0:
256,192,145336,1,8,0:0:0:0:
256,192,145455,1,8,0:0:0:0:
256,192,145574,1,0,0:0:0:0:
256,192,145693,1,12,0:0:0:0:
256,192,145931,1,0,0:0:0:0:
256,192,146050,1,8,0:0:0:0:
256,192,146169,1,0,0:0:0:0:
256,192,146288,1,0,0:0:0:0:
256,192,146407,1,8,0:0:0:0:
256,192,146645,1,4,0:0:0:0:
256,192,146883,1,0,0:0:0:0:
256,192,147003,1,8,0:0:0:0:
256,192,147062,1,8,0:0:0:0:
256,192,147122,1,0,0:0:0:0:
256,192,147241,1,0,0:0:0:0:
256,192,147360,1,8,0:0:0:0:
256,192,147479,1,8,0:0:0:0:
256,192,147598,1,0,0:0:0:0:
256,192,147836,1,0,0:0:0:0:
256,192,147955,1,8,0:0:0:0:
256,192,148193,1,0,0:0:0:0:
256,192,148253,1,0,0:0:0:0:
256,192,148312,1,8,0:0:0:0:
256,192,148431,1,8,0:0:0:0:
256,192,148550,1,0,0:0:0:0:
256,192,148669,1,0,0:0:0:0:
256,192,148788,1,8,0:0:0:0:
256,192,148907,1,8,0:0:0:0:
256,192,149145,1,0,0:0:0:0:
256,192,149264,1,8,0:0:0:0:
256,192,149383,1,8,0:0:0:0:
256,192,149503,1,0,0:0:0:0:
256,192,149741,1,8,0:0:0:0:
256,192,149860,1,8,0:0:0:0:
256,192,149979,1,0,0:0:0:0:
256,192,150098,1,0,0:0:0:0:
256,192,150157,1,0,0:0:0:0:
256,192,150217,1,8,0:0:0:0:
256,192,150336,1,8,0:0:0:0:
256,192,150455,1,4,0:0:0:0:
256,192,150693,1,8,0:0:0:0:
256,192,150812,1,8,0:0:0:0:
256,192,150872,1,8,0:0:0:0:
256,192,150931,1,0,0:0:0:0:
256,192,151050,1,0,0:0:0:0:
256,192,151169,1,8,0:0:0:0:
256,192,151288,1,0,0:0:0:0:
256,192,151407,1,8,0:0:0:0:
256,192,151526,1,8,0:0:0:0:
256,192,151645,1,0,0:0:0:0:
256,192,151764,1,8,0:0:0:0:
256,192,151883,1,0,0:0:0:0:
256,192,152003,1,0,0:0:0:0:
256,192,152122,1,8,0:0:0:0:
256,192,152241,1,8,0:0:0:0:
256,192,152360,1,4,0:0:0:0:
256,192,152598,1,0,0:0:0:0:
256,192,152717,1,8,0:0:0:0:
256,192,152836,1,8,0:0:0:0:
256,192,152955,1,8,0:0:0:0:
256,192,153074,1,8,0:0:0:0:
256,192,153193,1,8,0:0:0:0:
256,192,153312,1,0,0:0:0:0:
256,192,153669,1,0,0:0:0:0:
256,192,154026,1,0,0:0:0:0:
256,192,154264,1,12,0:0:0:0:
256,192,154622,1,0,0:0:0:0:
256,192,154741,1,8,0:0:0:0:
256,192,154979,1,0,0:0:0:0:
256,192,155217,1,8,0:0:0:0:
256,192,155455,1,8,0:0:0:0:
256,192,155574,1,8,0:0:0:0:
256,192,155693,1,0,0:0:0:0:
256,192,155931,1,0,0:0:0:0:
256,192,156169,1,8,0:0:0:0:
256,192,156526,1,8,0:0:0:0:
256,192,156645,1,0,0:0:0:0:
256,192,156883,1,8,0:0:0:0:
256,192,157122,1,0,0:0:0:0:
256,192,157598,1,8,0:0:0:0:
256,192,158074,1,0,0:0:0:0:
256,192,158550,1,8,0:0:0:0:
256,192,159026,1,0,0:0:0:0:
256,192,159503,1,8,0:0:0:0:
256,192,159979,1,0,0:0:0:0:
256,192,160455,1,8,0:0:0:0:
256,192,160931,1,0,0:0:0:0:
256,192,161169,1,8,0:0:0:0:
256,192,161407,1,8,0:0:0:0:
256,192,161645,1,8,0:0:0:0:
256,192,161883,1,0,0:0:0:0:
256,192,162122,1,0,0:0:0:0:
256,192,162241,1,0,0:0:0:0:
256,192,162360,1,8,0:0:0:0:
256,192,162598,1,0,0:0:0:0:
256,192,162836,1,8,0:0:0:0:
256,192,163074,1,8,0:0:0:0:
256,192,163193,1,8,0:0:0:0:
256,192,163312,1,0,0:0:0:0:
256,192,163550,1,0,0:0:0:0:
256,192,163788,1,8,0:0:0:0:
256,192,164026,1,8,0:0:0:0:
256,192,164145,1,8,0:0:0:0:
256,192,164264,1,0,0:0:0:0:
256,192,164503,1,8,0:0:0:0:
256,192,164741,1,0,0:0:0:0:
256,192,165217,1,8,0:0:0:0:
256,192,165693,1,0,0:0:0:0:
256,192,165931,1,0,0:0:0:0:
256,192,166169,1,0,0:0:0:0:
256,192,166407,1,0,0:0:0:0:
256,192,166645,1,8,0:0:0:0:
256,192,166883,1,8,0:0:0:0:
256,192,167122,1,8,0:0:0:0:
256,192,167360,1,8,0:0:0:0:
256,192,168788,1,8,0:0:0:0:
256,192,168907,1,8,0:0:0:0:
256,192,169026,1,8,0:0:0:0:
256,192,169145,1,8,0:0:0:0:
256,192,169264,1,8,0:0:0:0:
256,192,169383,1,8,0:0:0:0:
256,192,169503,1,4,0:0:0:0:
256,192,169741,1,8,0:0:0:0:
256,192,169860,1,8,0:0:0:0:
256,192,169919,1,8,0:0:0:0:
256,192,169979,1,0,0:0:0:0:
256,192,170098,1,0,0:0:0:0:
256,192,170217,1,8,0:0:0:0:
256,192,170455,1,8,0:0:0:0:
256,192,170574,1,0,0:0:0:0:
256,192,170693,1,8,0:0:0:0:
256,192,170812,1,8,0:0:0:0:
256,192,170872,1,8,0:0:0:0:
256,192,170931,1,8,0:0:0:0:
256,192,171050,1,0,0:0:0:0:
256,192,171169,1,8,0:0:0:0:
256,192,171407,1,0,0:0:0:0:
256,192,171526,1,0,0:0:0:0:
256,192,171645,1,8,0:0:0:0:
256,192,171764,1,0,0:0:0:0:
256,192,171824,1,0,0:0:0:0:
256,192,171883,1,8,0:0:0:0:
256,192,172003,1,0,0:0:0:0:
256,192,172122,1,8,0:0:0:0:
256,192,172360,1,0,0:0:0:0:
256,192,172598,1,8,0:0:0:0:
256,192,172717,1,8,0:0:0:0:
256,192,172776,1,8,0:0:0:0:
256,192,172836,1,0,0:0:0:0:
256,192,172955,1,0,0:0:0:0:
256,192,173074,1,8,0:0:0:0:
256,192,173312,1,0,0:0:0:0:
256,192,173550,1,8,0:0:0:0:
256,192,173669,1,0,0:0:0:0:
256,192,173729,1,0,0:0:0:0:
256,192,173788,1,8,0:0:0:0:
256,192,173907,1,0,0:0:0:0:
256,192,174026,1,8,0:0:0:0:
256,192,174145,1,0,0:0:0:0:
256,192,174205,1,0,0:0:0:0:
256,192,174264,1,0,0:0:0:0:
256,192,174383,1,0,0:0:0:0:
256,192,174503,1,8,0:0:0:0:
256,192,174622,1,0,0:0:0:0:
256,192,174860,1,0,0:0:0:0:
256,192,174979,1,8,0:0:0:0:
256,192,175098,1,0,0:0:0:0:
256,192,175157,1,0,0:0:0:0:
256,192,175217,1,8,0:0:0:0:
256,192,175336,1,0,0:0:0:0:
256,192,175455,1,8,0:0:0:0:
256,192,175574,1,8,0:0:0:0:
256,192,175633,1,8,0:0:0:0:
256,192,175693,1,0,0:0:0:0:
256,192,175812,1,0,0:0:0:0:
256,192,175931,1,8,0:0:0:0:
256,192,176169,1,12,0:0:0:0:
256,192,176407,1,12,0:0:0:0:
256,192,176645,1,12,0:0:0:0:
256,192,176883,1,8,0:0:0:0:
256,192,177003,1,8,0:0:0:0:
256,192,177122,1,4,0:0:0:0:
256,192,177360,1,8,0:0:0:0:
256,192,177479,1,0,0:0:0:0:
256,192,177538,1,0,0:0:0:0:
256,192,177598,1,8,0:0:0:0:
256,192,177717,1,0,0:0:0:0:
256,192,177836,1,8,0:0:0:0:
256,192,178074,1,8,0:0:0:0:
256,192,178193,1,0,0:0:0:0:
256,192,178312,1,8,0:0:0:0:
256,192,178431,1,0,0:0:0:0:
256,192,178491,1,0,0:0:0:0:
256,192,178550,1,0,0:0:0:0:
256,192,178669,1,0,0:0:0:0:
256,192,178788,1,8,0:0:0:0:
256,192,179026,1,0,0:0:0:0:
256,192,179145,1,0,0:0:0:0:
256,192,179264,1,8,0:0:0:0:
256,192,179383,1,8,0:0:0:0:
256,192,179443,1,8,0:0:0:0:
256,192,179503,1,0,0:0:0:0:
256,192,179622,1,0,0:0:0:0:
256,192,179741,1,8,0:0:0:0:
256,192,179979,1,0,0:0:0:0:
256,192,180217,1,8,0:0:0:0:
256,192,180336,1,0,0:0:0:0:
256,192,180395,1,0,0:0:0:0:
256,192,180455,1,8,0:0:0:0:
256,192,180574,1,0,0:0:0:0:
256,192,180693,1,8,0:0:0:0:
256,192,180931,1,0,0:0:0:0:
256,192,181169,1,8,0:0:0:0:
256,192,181288,1,8,0:0:0:0:
256,192,181348,1,8,0:0:0:0:
256,192,181407,1,0,0:0:0:0:
256,192,181526,1,0,0:0:0:0:
256,192,181645,1,8,0:0:0:0:
256,192,181764,1,0,0:0:0:0:
256,192,181883,1,8,0:0:0:0:
256,192,182122,1,8,0:0:0:0:
256,192,182241,1,0,0:0:0:0:
256,192,182300,1,0,0:0:0:0:
256,192,182360,1,8,0:0:0:0:
256,192,182479,1,0,0:0:0:0:
256,192,182598,1,8,0:0:0:0:
256,192,182836,1,12,0:0:0:0:
256,192,183074,1,8,0:0:0:0:
256,192,183193,1,8,0:0:0:0:
256,192,183253,1,8,0:0:0:0:
256,192,183312,1,0,0:0:0:0:
256,192,183431,1,8,0:0:0:0:
256,192,183550,1,0,0:0:0:0:
256,192,183788,1,4,0:0:0:0:
256,192,184026,1,0,0:0:0:0:
256,192,184264,1,8,0:0:0:0:
256,192,184383,1,8,0:0:0:0:
256,192,184503,1,8,0:0:0:0:
256,192,184622,1,8,0:0:0:0:
256,192,184741,1,4,0:0:0:0:
256,192,184979,1,8,0:0:0:0:
256,192,185098,1,8,0:0:0:0:
256,192,185157,1,8,0:0:0:0:
256,192,185217,1,0,0:0:0:0:
256,192,185336,1,0,0:0:0:0:
256,192,185455,1,8,0:0:0:0:
256,192,185693,1,8,0:0:0:0:
256,192,185812,1,0,0:0:0:0:
256,192,185931,1,8,0:0:0:0:
256,192,186050,1,8,0:0:0:0:
256,192,186110,1,8,0:0:0:0:
256,192,186169,1,8,0:0:0:0:
256,192,186288,1,0,0:0:0:0:
256,192,186407,1,8,0:0:0:0:
256,192,186645,1,0,0:0:0:0:
256,192,186764,1,0,0:0:0:0:
256,192,186883,1,8,0:0:0:0:
256,192,187003,1,0,0:0:0:0:
256,192,187062,1,0,0:0:0:0:
256,192,187122,1,8,0:0:0:0:
256,192,187241,1,0,0:0:0:0:
256,192,187360,1,8,0:0:0:0:
256,192,187598,1,0,0:0:0:0:
256,192,187836,1,8,0:0:0:0:
256,192,187955,1,8,0:0:0:0:
256,192,188014,1,8,0:0:0:0:
256,192,188074,1,0,0:0:0:0:
256,192,188193,1,0,0:0:0:0:
256,192,188312,1,8,0:0:0:0:
256,192,188550,1,0,0:0:0:0:
256,192,188788,1,8,0:0:0:0:
256,192,188907,1,0,0:0:0:0:
256,192,188967,1,0,0:0:0:0:
256,192,189026,1,8,0:0:0:0:
256,192,189145,1,0,0:0:0:0:
256,192,189264,1,8,0:0:0:0:
256,192,189503,1,0,0:0:0:0:
256,192,189622,1,8,0:0:0:0:
256,192,189741,1,8,0:0:0:0:
256,192,189860,1,0,0:0:0:0:
256,192,190098,1,0,0:0:0:0:
256,192,190217,1,8,0:0:0:0:
256,192,190336,1,0,0:0:0:0:
256,192,190395,1,0,0:0:0:0:
256,192,190455,1,8,0:0:0:0:
256,192,190574,1,0,0:0:0:0:
256,192,190693,1,8,0:0:0:0:
256,192,190812,1,8,0:0:0:0:
256,192,190872,1,8,0:0:0:0:
256,192,190931,1,0,0:0:0:0:
256,192,191050,1,0,0:0:0:0:
256,192,191169,1,8,0:0:0:0:
256,192,191407,1,12,0:0:0:0:
256,192,191645,1,12,0:0:0:0:
256,192,191883,1,12,0:0:0:0:
256,192,192122,1,8,0:0:0:0:
256,192,192241,1,8,0:0:0:0:
256,192,192360,1,4,0:0:0:0:
256,192,192598,1,8,0:0:0:0:
256,192,192717,1,0,0:0:0:0:
256,192,192776,1,0,0:0:0:0:
256,192,192836,1,8,0:0:0:0:
256,192,192955,1,0,0:0:0:0:
256,192,193074,1,8,0:0:0:0:
256,192,193312,1,8,0:0:0:0:
256,192,193431,1,0,0:0:0:0:
256,192,193550,1,8,0:0:0:0:
256,192,193669,1,8,0:0:0:0:
256,192,193729,1,8,0:0:0:0:
256,192,193788,1,8,0:0:0:0:
256,192,193907,1,0,0:0:0:0:
256,192,194026,1,8,0:0:0:0:
256,192,194264,1,0,0:0:0:0:
256,192,194383,1,0,0:0:0:0:
256,192,194503,1,8,0:0:0:0:
256,192,194622,1,8,0:0:0:0:
256,192,194681,1,8,0:0:0:0:
256,192,194741,1,0,0:0:0:0:
256,192,194860,1,0,0:0:0:0:
256,192,194979,1,8,0:0:0:0:
256,192,195217,1,0,0:0:0:0:
256,192,195455,1,8,0:0:0:0:
256,192,195574,1,0,0:0:0:0:
256,192,195633,1,0,0:0:0:0:
256,192,195693,1,8,0:0:0:0:
256,192,195812,1,0,0:0:0:0:
256,192,195931,1,8,0:0:0:0:
256,192,196169,1,0,0:0:0:0:
256,192,196407,1,8,0:0:0:0:
256,192,196526,1,8,0:0:0:0:
256,192,196586,1,8,0:0:0:0:
256,192,196645,1,0,0:0:0:0:
256,192,196764,1,0,0:0:0:0:
256,192,196883,1,8,0:0:0:0:
256,192,197003,1,8,0:0:0:0:
256,192,197122,1,0,0:0:0:0:
256,192,197360,1,8,0:0:0:0:
256,192,197479,1,0,0:0:0:0:
256,192,197538,1,0,0:0:0:0:
256,192,197598,1,8,0:0:0:0:
256,192,197717,1,0,0:0:0:0:
256,192,197836,1,8,0:0:0:0:
256,192,198074,1,12,0:0:0:0:
256,192,198312,1,8,0:0:0:0:
256,192,198431,1,0,0:0:0:0:
256,192,198491,1,0,0:0:0:0:
256,192,198550,1,0,0:0:0:0:
256,192,198669,1,8,0:0:0:0:
256,192,198788,1,0,0:0:0:0:
256,192,199026,1,4,0:0:0:0:
256,192,199264,1,0,0:0:0:0:
256,192,199503,1,8,0:0:0:0:
256,192,199622,1,8,0:0:0:0:
256,192,199741,1,8,0:0:0:0:
256,192,199860,1,8,0:0:0:0:
256,192,199979,1,4,0:0:0:0:
256,192,200217,1,8,0:0:0:0:
256,192,200336,1,0,0:0:0:0:
256,192,200395,1,0,0:0:0:0:
256,192,200455,1,0,0:0:0:0:
256,192,200574,1,0,0:0:0:0:
256,192,200693,1,8,0:0:0:0:
256,192,200812,1,8,0:0:0:0:
256,192,200931,1,0,0:0:0:0:
256,192,201169,1,8,0:0:0:0:
256,192,201288,1,0,0:0:0:0:
256,192,201407,1,8,0:0:0:0:
256,192,201467,1,8,0:0:0:0:
256,192,201526,1,0,0:0:0:0:
256,192,201645,1,8,0:0:0:0:
256,192,201883,1,0,0:0:0:0:
256,192,202003,1,0,0:0:0:0:
256,192,202122,1,8,0:0:0:0:
256,192,202241,1,8,0:0:0:0:
256,192,202300,1,8,0:0:0:0:
256,192,202360,1,0,0:0:0:0:
256,192,202479,1,0,0:0:0:0:
256,192,202598,1,8,0:0:0:0:
256,192,202717,1,8,0:0:0:0:
256,192,202836,1,0,0:0:0:0:
256,192,203074,1,8,0:0:0:0:
256,192,203312,1,8,0:0:0:0:
256,192,203431,1,0,0:0:0:0:
256,192,203491,1,0,0:0:0:0:
256,192,203550,1,8,0:0:0:0:
256,192,203669,1,0,0:0:0:0:
256,192,203788,1,12,0:0:0:0:
256,192,204026,1,8,0:0:0:0:
256,192,204145,1,0,0:0:0:0:
256,192,204205,1,0,0:0:0:0:
256,192,204264,1,0,0:0:0:0:
256,192,204383,1,0,0:0:0:0:
256,192,204503,1,8,0:0:0:0:
256,192,204622,1,0,0:0:0:0:
256,192,204741,1,8,0:0:0:0:
256,192,204979,1,8,0:0:0:0:
256,192,205098,1,0,0:0:0:0:
256,192,205217,1,8,0:0:0:0:
256,192,205276,1,8,0:0:0:0:
256,192,205336,1,0,0:0:0:0:
256,192,205455,1,8,0:0:0:0:
256,192,205693,1,12,0:0:0:0:
256,192,205812,1,0,0:0:0:0:
256,192,205931,1,8,0:0:0:0:
256,192,206050,1,0,0:0:0:0:
256,192,206169,1,8,0:0:0:0:
256,192,206288,1,0,0:0:0:0:
256,192,206407,1,8,0:0:0:0:
256,192,206526,1,0,0:0:0:0:
256,192,206645,1,12,0:0:0:0:
256,192,206883,1,0,0:0:0:0:
256,192,207122,1,8,0:0:0:0:
256,192,207241,1,8,0:0:0:0:
256,192,207360,1,8,0:0:0:0:
256,192,207479,1,8,0:0:0:0:
256,192,207598,1,4,0:0:0:0:
256,192,207836,1,8,0:0:0:0:
256,192,207955,1,0,0:0:0:0:
256,192,208014,1,0,0:0:0:0:
256,192,208074,1,0,0:0:0:0:
256,192,208193,1,0,0:0:0:0:
256,192,208312,1,8,0:0:0:0:
256,192,208550,1,8,0:0:0:0:
256,192,208669,1,0,0:0:0:0:
256,192,208729,1,0,0:0:0:0:
256,192,208788,1,8,0:0:0:0:
256,192,208907,1,8,0:0:0:0:
256,192,209026,1,0,0:0:0:0:
256,192,209145,1,0,0:0:0:0:
256,192,209264,1,8,0:0:0:0:
256,192,209503,1,0,0:0:0:0:
256,192,209622,1,0,0:0:0:0:
256,192,209741,1,8,0:0:0:0:
256,192,209860,1,8,0:0:0:0:
256,192,209919,1,8,0:0:0:0:
256,192,209979,1,8,0:0:0:0:
256,192,210098,1,0,0:0:0:0:
256,192,210217,1,8,0:0:0:0:
256,192,210336,1,8,0:0:0:0:
256,192,210455,1,0,0:0:0:0:
256,192,210693,1,8,0:0:0:0:
256,192,210931,1,0,0:0:0:0:
256,192,211050,1,0,0:0:0:0:
256,192,211110,1,0,0:0:0:0:
256,192,211169,1,8,0:0:0:0:
256,192,211288,1,0,0:0:0:0:
256,192,211407,1,12,0:0:0:0:
256,192,211645,1,8,0:0:0:0:
256,192,211764,1,8,0:0:0:0:
256,192,211883,1,0,0:0:0:0:
256,192,212003,1,0,0:0:0:0:
256,192,212122,1,8,0:0:0:0:
256,192,212181,1,8,0:0:0:0:
256,192,212241,1,8,0:0:0:0:
256,192,212360,1,0,0:0:0:0:
256,192,212598,1,8,0:0:0:0:
256,192,212717,1,0,0:0:0:0:
256,192,212836,1,8,0:0:0:0:
256,192,212895,1,8,0:0:0:0:
256,192,212955,1,0,0:0:0:0:
256,192,213074,1,8,0:0:0:0:
256,192,213312,1,12,0:0:0:0:
256,192,213550,1,8,0:0:0:0:
256,192,213669,1,4,0:0:0:0:
256,192,213907,1,8,0:0:0:0:
256,192,214026,1,0,0:0:0:0:
256,192,214264,1,12,0:0:0:0:
256,192,214503,1,8,0:0:0:0:
256,192,214741,1,8,0:0:0:0:
256,192,214860,1,8,0:0:0:0:
256,192,214979,1,8,0:0:0:0:
256,192,215098,1,8,0:0:0:0:
256,192,215217,1,4,0:0:0:0:
256,192,216169,1,12,0:0:0:0:
256,192,216407,1,0,0:0:0:0:
256,192,216526,1,12,0:0:0:0:
256,192,216764,1,0,0:0:0:0:
256,192,216883,1,12,0:0:0:0:
256,192,217122,1,4,0:0:0:0:
256,192,217360,1,8,0:0:0:0:
256,192,217479,1,8,0:0:0:0:
256,192,217538,1,8,0:0:0:0:
256,192,217598,1,0,0:0:0:0:
256,192,217717,1,0,0:0:0:0:
256,192,217836,1,8,0:0:0:0:
256,192,217895,1,8,0:0:0:0:
256,192,217955,1,8,0:0:0:0:
256,192,218074,1,0,0:0:0:0:
256,192,218312,1,8,0:0:0:0:
256,192,218431,1,0,0:0:0:0:
256,192,218491,1,0,0:0:0:0:
256,192,218550,1,8,0:0:0:0:
256,192,218669,1,0,0:0:0:0:
256,192,218788,1,8,0:0:0:0:
256,192,219026,1,0,0:0:0:0:
256,192,219264,1,8,0:0:0:0:
256,192,219383,1,8,0:0:0:0:
256,192,219443,1,8,0:0:0:0:
256,192,219503,1,0,0:0:0:0:
256,192,219622,1,8,0:0:0:0:
256,192,219741,1,8,0:0:0:0:
256,192,219860,1,0,0:0:0:0:
256,192,219979,1,8,0:0:0:0:
256,192,220217,1,8,0:0:0:0:
256,192,220336,1,0,0:0:0:0:
256,192,220455,1,8,0:0:0:0:
256,192,220574,1,0,0:0:0:0:
256,192,220633,1,0,0:0:0:0:
256,192,220693,1,8,0:0:0:0:
256,192,220812,1,0,0:0:0:0:
256,192,220931,1,8,0:0:0:0:
256,192,221169,1,8,0:0:0:0:
256,192,221288,1,0,0:0:0:0:
256,192,221348,1,0,0:0:0:0:
256,192,221407,1,0,0:0:0:0:
256,192,221526,1,0,0:0:0:0:
256,192,221645,1,8,0:0:0:0:
256,192,221883,1,8,0:0:0:0:
256,192,222003,1,0,0:0:0:0:
256,192,222062,1,0,0:0:0:0:
256,192,222122,1,8,0:0:0:0:
256,192,222241,1,0,0:0:0:0:
256,192,222360,1,8,0:0:0:0:
256,192,222479,1,0,0:0:0:0:
256,192,222598,1,8,0:0:0:0:
256,192,222836,1,8,0:0:0:0:
256,192,222955,1,0,0:0:0:0:
256,192,223014,1,0,0:0:0:0:
256,192,223074,1,8,0:0:0:0:
256,192,223193,1,0,0:0:0:0:
256,192,223431,1,0,0:0:0:0:
256,192,223550,1,8,0:0:0:0:
256,192,223669,1,0,0:0:0:0:
256,192,223788,1,12,0:0:0:0:
256,192,224026,1,12,0:0:0:0:
256,192,224264,1,12,0:0:0:0:
256,192,224503,1,8,0:0:0:0:
256,192,224622,1,8,0:0:0:0:
256,192,224741,1,4,0:0:0:0:
256,192,224979,1,8,0:0:0:0:
256,192,225098,1,8,0:0:0:0:
256,192,225157,1,8,0:0:0:0:
256,192,225217,1,8,0:0:0:0:
256,192,225336,1,0,0:0:0:0:
256,192,225455,1,8,0:0:0:0:
256,192,225514,1,8,0:0:0:0:
256,192,225574,1,0,0:0:0:0:
256,192,225693,1,8,0:0:0:0:
256,192,225931,1,8,0:0:0:0:
256,192,226050,1,0,0:0:0:0:
256,192,226110,1,0,0:0:0:0:
256,192,226169,1,0,0:0:0:0:
256,192,226288,1,0,0:0:0:0:
256,192,226407,1,8,0:0:0:0:
256,192,226645,1,0,0:0:0:0:
256,192,226764,1,0,0:0:0:0:
256,192,226824,1,0,0:0:0:0:
256,192,226883,1,8,0:0:0:0:
256,192,227003,1,8,0:0:0:0:
256,192,227122,1,0,0:0:0:0:
256,192,227181,1,8,0:0:0:0:
256,192,227241,1,0,0:0:0:0:
256,192,227360,1,8,0:0:0:0:
256,192,227598,1,0,0:0:0:0:
256,192,227717,1,0,0:0:0:0:
256,192,227836,1,8,0:0:0:0:
256,192,227955,1,8,0:0:0:0:
256,192,228014,1,8,0:0:0:0:
256,192,228074,1,0,0:0:0:0:
256,192,228193,1,0,0:0:0:0:
256,192,228312,1,8,0:0:0:0:
256,192,228550,1,0,0:0:0:0:
256,192,228669,1,0,0:0:0:0:
256,192,228729,1,0,0:0:0:0:
256,192,228788,1,8,0:0:0:0:
256,192,228907,1,8,0:0:0:0:
256,192,229026,1,0,0:0:0:0:
256,192,229145,1,0,0:0:0:0:
256,192,229264,1,8,0:0:0:0:
256,192,229383,1,0,0:0:0:0:
256,192,229503,1,8,0:0:0:0:
256,192,229562,1,8,0:0:0:0:
256,192,229622,1,0,0:0:0:0:
256,192,229741,1,8,0:0:0:0:
256,192,229979,1,0,0:0:0:0:
256,192,230098,1,8,0:0:0:0:
256,192,230157,1,8,0:0:0:0:
256,192,230217,1,8,0:0:0:0:
256,192,230336,1,0,0:0:0:0:
256,192,230455,1,12,0:0:0:0:
256,192,230693,1,0,0:0:0:0:
256,192,230812,1,12,0:0:0:0:
256,192,231050,1,0,0:0:0:0:
256,192,231169,1,12,0:0:0:0:
256,192,231407,1,12,0:0:0:0:
256,192,231764,1,4,0:0:0:0:
256,192,232122,1,12,0:0:0:0:
