osu file format v14

[General]
AudioFilename: audio.ogg
AudioLeadIn: 0
PreviewTime: 52449
Countdown: 0
SampleSet: Normal
StackLeniency: 0.7
Mode: 1
LetterboxInBreaks: 0
WidescreenStoryboard: 0

[Editor]
Bookmarks: 1783,24894,53338,81782,110227,138671,167116,197338
DistanceSpacing: 1.2
BeatDivisor: 16
GridSize: 16
TimelineZoom: 1

[Metadata]
Title:IF
TitleUnicode:イフ
Artist:Tsukuyomi
ArtistUnicode:月詠み
Creator:cdh
Version:cdh & mint's Beautiful Lies under the Dazzling Moonlight
Source:プロジェクトセカイ カラフルステージ! feat. 初音ミク
Tags:mintong89 cdhsausageboy Hivie 桐谷遥 Kiritani Haruka つなぐPainful Hope Connecting Painful Hope HATSUNE MIKU: COLORFUL STAGE! MORE MORE JUMP! JUMP! モモジャン momojan MMJ Project Sekai プロセカ Proseka Puroseka Video Rhythm Mobile Game Yurry Canon YurryCanon ユリイ・カノン Yue Epoch とうかさ toukasa Japanese Rock J-rock Jrock Pop J-pop Jpop 2943 ツクヨミ アナザームーン another moon 1st ep
BeatmapID:4007626
BeatmapSetID:1938632

[Difficulty]
HPDrainRate:5
CircleSize:5
OverallDifficulty:5.5
ApproachRate:5
SliderMultiplier:1.4
SliderTickRate:1

[Events]
//Background and Video events
0,0,"random girl.jpg",0,0
//Break Periods
//Storyboard Layer 0 (Background)
//Storyboard Layer 1 (Fail)
//Storyboard Layer 2 (Pass)
//Storyboard Layer 3 (Foreground)
//Storyboard Layer 4 (Overlay)
//Storyboard Sound Samples

[TimingPoints]
1808,444.444444444444,4,1,0,80,1,0
10696,444.444444444444,4,1,0,80,1,0
51583,-100,4,1,0,80,0,0
51779,-100,4,1,0,60,0,0
51890,-100,4,1,0,55,0,0
52112,-100,4,1,0,45,0,0
52223,-100,4,1,0,40,0,0
52445,-100,4,1,0,30,0,0
53140,-100,4,1,0,80,0,0
53362,-100,4,1,0,80,0,1
81807,-100,4,1,0,80,0,0
137139,-100,4,1,0,50,0,0
137250,-100,4,1,0,45,0,0
137472,-100,4,1,0,35,0,0
137583,-100,4,1,0,30,0,0
137806,-100,4,1,0,20,0,0
138473,-100,4,1,0,80,0,0
138695,-100,4,1,0,80,0,1
151807,-100,4,1,0,80,0,0
152918,-100,4,1,0,80,0,1
179584,-100,4,1,0,80,0,0
197362,444.444444444444,4,1,0,80,1,0

[HitObjects]
267,143,1808,5,0,0:0:0:0:
348,199,2030,1,0,0:0:0:0:
377,209,2252,1,8,0:0:0:0:
305,217,2474,1,0,0:0:0:0:
369,207,2919,1,8,0:0:0:0:
305,217,3141,1,0,0:0:0:0:
456,204,3363,1,8,0:0:0:0:
383,219,3585,1,0,0:0:0:0:
383,220,3807,1,0,0:0:0:0:
383,219,4030,1,8,0:0:0:0:
383,219,4252,1,8,0:0:0:0:
366,203,4696,1,8,0:0:0:0:
388,210,4919,1,0,0:0:0:0:
388,220,5141,1,8,0:0:0:0:
378,224,5363,1,0,0:0:0:0:
401,189,5807,1,0,0:0:0:0:
413,216,6030,1,8,0:0:0:0:
397,229,6252,1,0,0:0:0:0:
394,208,6474,1,8,0:0:0:0:
324,229,6696,1,0,0:0:0:0:
282,175,6919,1,0,0:0:0:0:
400,218,7141,1,8,0:0:0:0:
421,224,7363,1,0,0:0:0:0:
398,225,7474,1,8,0:0:0:0:
424,197,7696,1,0,0:0:0:0:
400,234,7807,1,8,0:0:0:0:
347,217,8030,1,8,0:0:0:0:
428,214,8141,1,0,0:0:0:0:
418,214,8252,1,0,0:0:0:0:
378,219,8363,1,8,0:0:0:0:
393,214,8474,1,8,0:0:0:0:
393,238,8696,1,0,0:0:0:0:
449,224,8919,1,8,0:0:0:0:
246,191,9030,1,0,0:0:0:0:
246,191,9141,1,0,0:0:0:0:
386,219,9252,1,8,0:0:0:0:
326,224,9363,1,0,0:0:0:0:
326,224,9474,1,0,0:0:0:0:
352,233,9585,1,8,0:0:0:0:
449,224,9807,1,8,0:0:0:0:
340,229,9919,1,0,0:0:0:0:
340,229,10030,1,0,0:0:0:0:
386,192,10141,1,8,0:0:0:0:
381,192,10252,1,8,0:0:0:0:
380,233,10363,1,0,0:0:0:0:
397,229,10474,1,8,0:0:0:0:
237,181,10696,1,0,0:0:0:0:
403,204,10807,1,8,0:0:0:0:
284,214,11029,1,8,0:0:0:0:
417,201,11140,1,0,0:0:0:0:
381,210,11251,1,0,0:0:0:0:
403,188,11362,1,8,0:0:0:0:
386,228,11584,1,0,0:0:0:0:
395,215,11807,1,8,0:0:0:0:
438,226,12029,1,0,0:0:0:0:
316,236,12140,1,0,0:0:0:0:
450,196,12251,1,8,0:0:0:0:
350,209,12473,1,0,0:0:0:0:
424,205,12584,1,8,0:0:0:0:
405,209,12807,1,0,0:0:0:0:
416,213,12918,1,0,0:0:0:0:
299,179,13029,1,0,0:0:0:0:
424,226,13140,1,8,0:0:0:0:
299,163,13362,1,0,0:0:0:0:
393,208,13584,1,8,0:0:0:0:
353,216,13695,1,8,0:0:0:0:
303,218,13807,1,0,0:0:0:0:
303,218,13918,1,0,0:0:0:0:
390,219,14029,1,8,0:0:0:0:
285,166,14251,1,0,0:0:0:0:
324,225,14362,1,8,0:0:0:0:
365,208,14584,1,0,0:0:0:0:
365,208,14695,1,0,0:0:0:0:
369,231,14807,1,8,0:0:0:0:
369,231,14918,1,8,0:0:0:0:
361,203,15140,1,0,0:0:0:0:
351,213,15362,1,8,0:0:0:0:
359,216,15584,1,0,0:0:0:0:
351,213,15695,1,0,0:0:0:0:
352,225,15807,1,8,0:0:0:0:
334,166,16029,1,0,0:0:0:0:
322,216,16140,1,8,0:0:0:0:
347,220,16362,1,0,0:0:0:0:
402,189,16473,1,8,0:0:0:0:
347,219,16584,1,0,0:0:0:0:
430,195,16695,1,8,0:0:0:0:
319,220,16918,1,0,0:0:0:0:
389,182,17140,1,8,0:0:0:0:
389,182,17251,1,8,0:0:0:0:
415,201,17362,1,8,0:0:0:0:
319,220,17473,1,8,0:0:0:0:
391,181,17584,1,8,0:0:0:0:
237,181,17807,1,0,0:0:0:0:
403,204,17918,1,8,0:0:0:0:
284,214,18140,1,8,0:0:0:0:
417,201,18251,1,0,0:0:0:0:
381,210,18362,1,0,0:0:0:0:
403,188,18473,1,8,0:0:0:0:
386,228,18695,1,0,0:0:0:0:
395,215,18918,1,8,0:0:0:0:
438,226,19140,1,0,0:0:0:0:
316,236,19251,1,0,0:0:0:0:
450,196,19362,1,8,0:0:0:0:
350,209,19584,1,0,0:0:0:0:
424,205,19695,1,8,0:0:0:0:
405,209,19918,1,0,0:0:0:0:
416,213,20029,1,0,0:0:0:0:
299,179,20140,1,0,0:0:0:0:
424,226,20251,1,8,0:0:0:0:
299,163,20473,1,0,0:0:0:0:
393,208,20695,1,8,0:0:0:0:
353,216,20807,1,8,0:0:0:0:
303,218,20918,1,0,0:0:0:0:
303,218,21029,1,0,0:0:0:0:
390,219,21140,1,8,0:0:0:0:
285,166,21362,1,0,0:0:0:0:
324,225,21473,1,8,0:0:0:0:
365,208,21695,1,0,0:0:0:0:
365,208,21807,1,0,0:0:0:0:
369,231,21918,1,8,0:0:0:0:
369,231,22029,1,8,0:0:0:0:
361,203,22251,1,0,0:0:0:0:
351,213,22473,1,8,0:0:0:0:
359,216,22695,1,0,0:0:0:0:
351,213,22807,1,0,0:0:0:0:
352,225,22918,1,8,0:0:0:0:
334,166,23140,1,0,0:0:0:0:
322,216,23251,1,8,0:0:0:0:
347,220,23473,1,0,0:0:0:0:
347,219,23584,1,0,0:0:0:0:
402,189,23695,1,8,0:0:0:0:
430,195,23807,1,0,0:0:0:0:
242,136,24029,1,0,0:0:0:0:
372,186,24251,1,8,0:0:0:0:
206,155,24362,1,0,0:0:0:0:
372,186,24473,1,0,0:0:0:0:
206,155,24584,1,0,0:0:0:0:
366,182,24695,1,8,0:0:0:0:
176,219,24918,1,4,0:0:0:0:
267,240,25251,1,8,0:0:0:0:
227,210,25362,1,0,0:0:0:0:
227,210,25584,1,8,0:0:0:0:
227,210,25807,1,0,0:0:0:0:
234,189,26029,1,0,0:0:0:0:
234,189,26140,1,0,0:0:0:0:
234,189,26251,1,8,0:0:0:0:
234,189,26473,1,8,0:0:0:0:
234,189,26584,1,8,0:0:0:0:
234,189,26695,1,0,0:0:0:0:
234,189,27029,1,8,0:0:0:0:
234,189,27362,1,8,0:0:0:0:
234,189,27584,1,0,0:0:0:0:
268,135,27807,1,0,0:0:0:0:
268,135,27918,1,0,0:0:0:0:
237,195,28029,1,8,0:0:0:0:
275,127,28251,1,0,0:0:0:0:
236,194,28362,1,8,0:0:0:0:
236,194,28473,1,0,0:0:0:0:
242,188,28695,1,0,0:0:0:0:
242,188,28918,1,8,0:0:0:0:
242,188,29140,1,0,0:0:0:0:
242,188,29251,1,0,0:0:0:0:
242,188,29584,1,0,0:0:0:0:
242,188,29695,1,0,0:0:0:0:
242,188,29807,1,8,0:0:0:0:
242,188,30029,1,8,0:0:0:0:
242,188,30140,1,8,0:0:0:0:
242,188,30251,1,0,0:0:0:0:
242,188,30584,1,8,0:0:0:0:
242,188,30918,1,8,0:0:0:0:
236,154,31362,1,8,0:0:0:0:
236,154,31473,1,8,0:0:0:0:
243,179,31584,1,8,0:0:0:0:
267,149,31807,1,8,0:0:0:0:
243,179,31918,1,8,0:0:0:0:
243,179,32029,1,0,0:0:0:0:
298,173,32251,1,0,0:0:0:0:
222,117,32473,1,8,0:0:0:0:
222,171,32695,1,0,0:0:0:0:
222,171,32807,1,0,0:0:0:0:
188,199,33140,1,0,0:0:0:0:
188,199,33251,1,0,0:0:0:0:
188,199,33362,1,8,0:0:0:0:
266,199,33584,1,8,0:0:0:0:
266,199,33695,1,8,0:0:0:0:
266,199,33807,1,0,0:0:0:0:
242,193,34140,1,8,0:0:0:0:
242,193,34473,1,0,0:0:0:0:
242,193,34695,1,0,0:0:0:0:
221,150,34918,1,8,0:0:0:0:
221,150,35029,1,8,0:0:0:0:
221,150,35140,1,8,0:0:0:0:
221,150,35362,1,0,0:0:0:0:
221,150,35473,1,8,0:0:0:0:
221,150,35584,1,0,0:0:0:0:
221,150,35807,1,0,0:0:0:0:
221,150,36029,1,8,0:0:0:0:
221,150,36251,1,0,0:0:0:0:
258,139,36362,1,8,0:0:0:0:
258,139,36695,1,0,0:0:0:0:
182,191,36918,1,8,0:0:0:0:
254,189,37140,1,0,0:0:0:0:
181,148,37362,1,0,0:0:0:0:
181,148,37473,1,0,0:0:0:0:
221,164,37695,1,0,0:0:0:0:
221,164,37807,1,8,0:0:0:0:
251,138,37918,1,8,0:0:0:0:
251,138,38029,1,0,0:0:0:0:
251,138,38140,1,8,0:0:0:0:
251,138,38251,1,0,0:0:0:0:
251,138,38362,1,0,0:0:0:0:
251,138,38473,1,8,0:0:0:0:
296,123,38584,1,0,0:0:0:0:
252,165,38695,1,8,0:0:0:0:
252,162,38807,1,8,0:0:0:0:
252,163,38918,1,0,0:0:0:0:
232,163,39140,1,4,0:0:0:0:
277,160,39362,1,0,0:0:0:0:
250,175,39473,1,8,0:0:0:0:
232,163,39695,1,8,0:0:0:0:
232,163,39807,1,8,0:0:0:0:
189,156,40029,1,0,0:0:0:0:
259,167,40251,1,0,0:0:0:0:
257,180,40362,1,0,0:0:0:0:
219,124,40473,1,8,0:0:0:0:
254,135,40695,1,0,0:0:0:0:
258,163,40918,1,0,0:0:0:0:
208,169,41140,1,8,0:0:0:0:
258,163,41251,1,0,0:0:0:0:
219,90,41473,1,8,0:0:0:0:
251,200,41584,1,8,0:0:0:0:
193,189,41807,1,0,0:0:0:0:
251,200,42029,1,8,0:0:0:0:
251,200,42140,1,8,0:0:0:0:
251,200,42251,1,8,0:0:0:0:
245,175,42473,1,8,0:0:0:0:
215,166,42695,1,0,0:0:0:0:
215,166,42807,1,0,0:0:0:0:
215,166,42918,1,8,0:0:0:0:
215,158,43029,1,0,0:0:0:0:
215,158,43140,1,8,0:0:0:0:
215,158,43251,1,8,0:0:0:0:
251,161,43362,1,0,0:0:0:0:
251,161,43473,1,8,0:0:0:0:
214,210,43584,1,0,0:0:0:0:
233,198,43695,1,0,0:0:0:0:
233,198,43807,1,8,0:0:0:0:
233,198,43918,1,8,0:0:0:0:
233,198,44029,1,0,0:0:0:0:
224,179,44251,1,8,0:0:0:0:
261,151,44362,1,0,0:0:0:0:
261,151,44473,1,8,0:0:0:0:
301,176,44584,1,0,0:0:0:0:
263,157,44807,1,0,0:0:0:0:
267,131,44918,1,8,0:0:0:0:
267,131,45140,1,8,0:0:0:0:
214,121,45251,1,0,0:0:0:0:
214,121,45362,1,0,0:0:0:0:
246,132,45473,1,0,0:0:0:0:
246,132,45584,1,8,0:0:0:0:
245,132,45695,1,0,0:0:0:0:
245,132,45807,1,8,0:0:0:0:
245,132,45918,1,0,0:0:0:0:
245,132,46029,1,8,0:0:0:0:
245,132,46140,1,8,0:0:0:0:
225,164,46251,1,0,0:0:0:0:
234,140,48029,1,4,0:0:0:0:
230,175,49807,1,0,0:0:0:0:
230,175,50029,1,0,0:0:0:0:
230,175,50140,1,0,0:0:0:0:
243,164,50251,1,8,0:0:0:0:
243,164,50362,1,0,0:0:0:0:
224,111,50473,1,8,0:0:0:0:
224,111,50584,1,8,0:0:0:0:
239,134,50695,1,0,0:0:0:0:
239,134,50807,1,0,0:0:0:0:
239,134,50918,1,8,0:0:0:0:
239,134,51029,1,0,0:0:0:0:
239,134,51140,1,8,0:0:0:0:
239,134,51251,1,8,0:0:0:0:
239,134,51362,1,0,0:0:0:0:
239,134,51473,1,8,0:0:0:0:
239,134,51584,1,0,0:0:0:0:
244,148,51807,1,0,0:0:0:0:
240,218,51918,1,0,0:0:0:0:
244,148,52140,1,0,0:0:0:0:
240,218,52251,1,0,0:0:0:0:
240,218,52473,1,0,0:0:0:0:
371,191,53362,1,4,0:0:0:0:
401,213,53695,1,8,0:0:0:0:
396,229,53807,1,0,0:0:0:0:
349,225,54029,1,8,0:0:0:0:
237,201,54251,1,0,0:0:0:0:
339,214,54473,1,8,0:0:0:0:
333,207,54584,1,8,0:0:0:0:
307,202,54695,1,0,0:0:0:0:
296,171,54918,1,8,0:0:0:0:
338,197,55140,1,0,0:0:0:0:
338,197,55251,1,0,0:0:0:0:
388,209,55362,1,8,0:0:0:0:
388,209,55473,1,8,0:0:0:0:
388,209,55584,1,0,0:0:0:0:
332,199,55807,1,8,0:0:0:0:
363,209,56029,1,0,0:0:0:0:
363,209,56251,1,8,0:0:0:0:
363,209,56362,1,0,0:0:0:0:
389,201,56473,1,8,0:0:0:0:
389,201,56695,1,8,0:0:0:0:
384,197,56918,1,0,0:0:0:0:
419,192,57029,1,8,0:0:0:0:
419,192,57251,1,8,0:0:0:0:
423,214,57362,1,0,0:0:0:0:
361,217,57584,1,8,0:0:0:0:
413,207,57807,1,0,0:0:0:0:
404,215,58029,1,8,0:0:0:0:
387,215,58251,1,0,0:0:0:0:
391,215,58362,1,0,0:0:0:0:
334,213,58473,1,8,0:0:0:0:
381,203,58695,1,0,0:0:0:0:
349,203,58807,1,0,0:0:0:0:
361,205,58918,1,8,0:0:0:0:
352,204,59029,1,0,0:0:0:0:
341,194,59140,1,8,0:0:0:0:
461,175,59362,1,0,0:0:0:0:
192,160,59584,1,8,0:0:0:0:
428,184,59695,1,0,0:0:0:0:
358,167,59807,1,8,0:0:0:0:
367,203,59918,1,0,0:0:0:0:
461,175,60029,1,8,0:0:0:0:
383,198,60140,1,8,0:0:0:0:
192,160,60251,1,0,0:0:0:0:
380,181,60473,1,4,0:0:0:0:
293,206,60807,1,8,0:0:0:0:
348,218,60918,1,0,0:0:0:0:
346,208,61140,1,8,0:0:0:0:
344,199,61251,1,8,0:0:0:0:
393,210,61362,1,0,0:0:0:0:
343,215,61473,1,8,0:0:0:0:
318,221,61584,1,0,0:0:0:0:
348,185,61807,1,8,0:0:0:0:
348,185,62029,1,8,0:0:0:0:
406,213,62251,1,0,0:0:0:0:
395,205,62362,1,0,0:0:0:0:
381,198,62473,1,8,0:0:0:0:
378,200,62584,1,8,0:0:0:0:
343,193,62695,1,0,0:0:0:0:
317,201,62918,1,8,0:0:0:0:
410,198,63140,1,0,0:0:0:0:
413,211,63362,1,8,0:0:0:0:
395,206,63473,1,0,0:0:0:0:
395,206,63584,1,0,0:0:0:0:
398,198,63695,1,0,0:0:0:0:
344,200,63807,1,8,0:0:0:0:
338,201,63918,1,8,0:0:0:0:
368,236,64029,1,0,0:0:0:0:
288,193,64140,1,8,0:0:0:0:
350,189,64362,1,8,0:0:0:0:
389,220,64473,1,0,0:0:0:0:
351,223,64695,1,8,0:0:0:0:
293,224,64918,1,0,0:0:0:0:
402,186,65029,1,0,0:0:0:0:
402,204,65140,1,8,0:0:0:0:
393,241,65251,1,0,0:0:0:0:
374,185,65362,1,0,0:0:0:0:
308,174,65584,1,8,0:0:0:0:
384,224,65807,1,0,0:0:0:0:
380,210,65918,1,0,0:0:0:0:
378,201,66029,1,0,0:0:0:0:
378,201,66140,1,0,0:0:0:0:
370,205,66251,1,8,0:0:0:0:
360,208,66362,1,8,0:0:0:0:
353,198,66473,1,8,0:0:0:0:
266,130,66584,1,8,0:0:0:0:
384,224,66695,1,0,0:0:0:0:
380,210,66807,1,0,0:0:0:0:
360,208,66918,1,8,0:0:0:0:
370,205,67029,1,8,0:0:0:0:
378,201,67140,1,0,0:0:0:0:
378,201,67251,1,8,0:0:0:0:
353,198,67362,1,8,0:0:0:0:
266,130,67473,1,8,0:0:0:0:
350,190,67584,1,0,0:0:0:0:
401,213,67918,1,8,0:0:0:0:
396,229,68029,1,0,0:0:0:0:
349,225,68251,1,8,0:0:0:0:
237,201,68473,1,0,0:0:0:0:
339,214,68695,1,8,0:0:0:0:
333,207,68807,1,8,0:0:0:0:
307,202,68918,1,0,0:0:0:0:
296,171,69140,1,8,0:0:0:0:
338,197,69362,1,0,0:0:0:0:
338,197,69473,1,0,0:0:0:0:
388,209,69584,1,8,0:0:0:0:
388,209,69695,1,8,0:0:0:0:
388,209,69807,1,0,0:0:0:0:
240,192,69918,1,0,0:0:0:0:
332,199,70029,1,8,0:0:0:0:
363,209,70251,1,0,0:0:0:0:
363,209,70473,1,8,0:0:0:0:
363,209,70584,1,0,0:0:0:0:
389,201,70695,1,8,0:0:0:0:
389,201,70918,1,0,0:0:0:0:
419,192,71140,1,0,0:0:0:0:
384,197,71251,1,8,0:0:0:0:
423,214,71473,1,0,0:0:0:0:
288,160,71584,1,8,0:0:0:0:
304,176,71695,1,0,0:0:0:0:
361,217,71807,1,8,0:0:0:0:
413,207,72029,1,0,0:0:0:0:
404,215,72251,1,8,0:0:0:0:
304,160,72362,1,8,0:0:0:0:
387,215,72473,1,0,0:0:0:0:
288,112,72584,1,8,0:0:0:0:
334,213,72695,1,8,0:0:0:0:
256,160,72807,1,8,0:0:0:0:
381,203,72918,1,0,0:0:0:0:
361,205,73140,1,8,0:0:0:0:
352,204,73362,1,0,0:0:0:0:
461,175,73584,1,8,0:0:0:0:
192,160,73807,1,0,0:0:0:0:
428,184,73918,1,0,0:0:0:0:
358,167,74029,1,8,0:0:0:0:
367,203,74140,1,0,0:0:0:0:
461,175,74251,1,8,0:0:0:0:
383,198,74362,1,8,0:0:0:0:
192,160,74473,1,0,0:0:0:0:
380,181,74695,1,4,0:0:0:0:
293,206,75029,1,8,0:0:0:0:
348,218,75140,1,0,0:0:0:0:
346,208,75362,1,8,0:0:0:0:
393,210,75584,1,0,0:0:0:0:
304,176,75807,1,8,0:0:0:0:
272,192,75918,1,8,0:0:0:0:
336,208,76029,1,0,0:0:0:0:
336,160,76140,1,0,0:0:0:0:
348,185,76251,1,8,0:0:0:0:
288,112,76362,1,8,0:0:0:0:
406,213,76473,1,0,0:0:0:0:
381,198,76695,1,8,0:0:0:0:
343,193,76918,1,0,0:0:0:0:
395,205,77029,1,0,0:0:0:0:
317,201,77140,1,8,0:0:0:0:
410,198,77362,1,0,0:0:0:0:
413,211,77584,1,8,0:0:0:0:
395,206,77695,1,0,0:0:0:0:
395,206,77807,1,0,0:0:0:0:
398,198,77918,1,0,0:0:0:0:
344,200,78029,1,8,0:0:0:0:
368,236,78251,1,0,0:0:0:0:
288,193,78362,1,8,0:0:0:0:
350,189,78584,1,8,0:0:0:0:
389,220,78695,1,0,0:0:0:0:
351,223,78918,1,8,0:0:0:0:
384,112,79029,1,8,0:0:0:0:
293,224,79140,1,0,0:0:0:0:
402,186,79251,1,0,0:0:0:0:
402,204,79362,1,8,0:0:0:0:
224,128,79473,1,0,0:0:0:0:
308,174,79584,1,8,0:0:0:0:
393,241,79695,1,8,0:0:0:0:
374,185,79807,1,0,0:0:0:0:
416,192,80029,1,8,0:0:0:0:
320,176,80140,1,0,0:0:0:0:
352,160,80251,1,0,0:0:0:0:
352,208,80362,1,8,0:0:0:0:
352,176,80473,1,0,0:0:0:0:
272,176,80584,1,0,0:0:0:0:
432,176,80695,1,8,0:0:0:0:
400,160,80807,1,0,0:0:0:0:
416,192,80918,1,8,0:0:0:0:
352,208,81029,1,8,0:0:0:0:
352,160,81140,1,8,0:0:0:0:
320,176,81251,1,0,0:0:0:0:
352,176,81362,1,0,0:0:0:0:
272,176,81473,1,0,0:0:0:0:
432,176,81584,1,8,0:0:0:0:
400,160,81695,1,8,0:0:0:0:
222,243,81807,1,0,0:0:0:0:
324,191,82029,1,8,0:0:0:0:
198,198,82251,1,0,0:0:0:0:
198,198,82473,1,8,0:0:0:0:
198,198,82695,1,0,0:0:0:0:
198,198,82807,1,0,0:0:0:0:
210,149,82918,1,8,0:0:0:0:
210,149,83140,1,0,0:0:0:0:
210,149,83362,1,8,0:0:0:0:
219,183,83584,1,0,0:0:0:0:
219,183,83807,1,8,0:0:0:0:
217,238,83918,1,8,0:0:0:0:
219,183,84029,1,0,0:0:0:0:
229,177,84251,1,8,0:0:0:0:
229,177,84473,1,0,0:0:0:0:
229,174,84695,1,0,0:0:0:0:
229,174,84807,1,8,0:0:0:0:
229,174,84918,1,0,0:0:0:0:
229,177,85140,1,8,0:0:0:0:
257,115,85251,1,8,0:0:0:0:
229,177,85362,1,0,0:0:0:0:
261,211,85584,1,8,0:0:0:0:
261,211,85807,1,0,0:0:0:0:
261,211,86029,1,8,0:0:0:0:
261,211,86251,1,0,0:0:0:0:
261,211,86362,1,0,0:0:0:0:
261,211,86473,1,8,0:0:0:0:
210,168,86695,1,0,0:0:0:0:
210,168,86918,1,8,0:0:0:0:
206,240,87140,1,0,0:0:0:0:
206,240,87362,1,8,0:0:0:0:
206,240,87473,1,8,0:0:0:0:
206,240,87584,1,0,0:0:0:0:
229,210,87807,1,8,0:0:0:0:
229,210,88029,1,0,0:0:0:0:
229,201,88140,1,8,0:0:0:0:
229,210,88251,1,0,0:0:0:0:
229,201,88362,1,0,0:0:0:0:
229,201,88473,1,8,0:0:0:0:
229,201,88695,1,8,0:0:0:0:
229,201,88807,1,8,0:0:0:0:
229,201,88918,1,0,0:0:0:0:
202,182,89140,1,8,0:0:0:0:
202,182,89362,1,0,0:0:0:0:
202,182,89584,1,8,0:0:0:0:
202,182,89807,1,0,0:0:0:0:
202,182,89918,1,0,0:0:0:0:
213,168,90029,1,8,0:0:0:0:
213,168,90251,1,0,0:0:0:0:
213,168,90473,1,8,0:0:0:0:
213,168,90695,1,0,0:0:0:0:
213,168,90918,1,8,0:0:0:0:
250,125,91029,1,8,0:0:0:0:
213,168,91140,1,0,0:0:0:0:
250,125,91362,1,8,0:0:0:0:
250,125,91584,1,0,0:0:0:0:
219,131,91695,1,0,0:0:0:0:
250,125,91807,1,8,0:0:0:0:
219,131,92029,1,0,0:0:0:0:
219,131,92251,1,8,0:0:0:0:
219,131,92362,1,8,0:0:0:0:
219,131,92473,1,0,0:0:0:0:
219,131,92695,1,8,0:0:0:0:
219,131,92918,1,0,0:0:0:0:
219,131,93140,1,8,0:0:0:0:
250,156,93362,1,0,0:0:0:0:
250,156,93473,1,0,0:0:0:0:
250,156,93584,1,8,0:0:0:0:
259,232,93807,1,0,0:0:0:0:
259,232,94029,1,8,0:0:0:0:
219,180,94251,1,0,0:0:0:0:
219,180,94362,1,8,0:0:0:0:
219,180,94473,1,8,0:0:0:0:
219,180,94584,1,0,0:0:0:0:
219,180,94695,1,8,0:0:0:0:
219,180,94918,1,8,0:0:0:0:
219,180,95029,1,8,0:0:0:0:
219,180,95140,1,0,0:0:0:0:
219,180,95251,1,0,0:0:0:0:
219,180,95362,1,8,0:0:0:0:
219,180,95473,1,8,0:0:0:0:
219,180,95584,1,0,0:0:0:0:
219,180,95695,1,8,0:0:0:0:
219,180,95807,1,0,0:0:0:0:
219,180,95918,1,8,0:0:0:0:
219,180,96029,1,0,0:0:0:0:
193,204,96251,1,8,0:0:0:0:
193,204,96362,1,0,0:0:0:0:
193,204,96473,1,0,0:0:0:0:
193,204,96695,1,8,0:0:0:0:
193,204,96918,1,0,0:0:0:0:
193,204,97029,1,8,0:0:0:0:
193,204,97140,1,8,0:0:0:0:
193,204,97251,1,8,0:0:0:0:
193,204,97362,1,0,0:0:0:0:
216,176,97584,1,8,0:0:0:0:
216,176,97695,1,0,0:0:0:0:
216,176,97807,1,0,0:0:0:0:
216,176,98029,1,8,0:0:0:0:
216,176,98251,1,0,0:0:0:0:
210,177,98362,1,8,0:0:0:0:
210,177,98473,1,8,0:0:0:0:
250,198,98695,1,0,0:0:0:0:
250,198,98807,1,0,0:0:0:0:
250,198,98918,1,8,0:0:0:0:
250,198,99029,1,8,0:0:0:0:
250,198,99140,1,8,0:0:0:0:
220,218,99362,1,8,0:0:0:0:
220,218,99473,1,8,0:0:0:0:
220,218,99584,1,0,0:0:0:0:
200,167,99807,1,8,0:0:0:0:
200,167,99918,1,0,0:0:0:0:
200,167,100140,1,8,0:0:0:0:
200,167,100251,1,8,0:0:0:0:
219,164,100473,1,0,0:0:0:0:
219,164,100584,1,8,0:0:0:0:
219,163,100695,1,8,0:0:0:0:
224,163,100807,1,0,0:0:0:0:
224,163,100918,1,8,0:0:0:0:
224,174,101140,1,8,0:0:0:0:
224,174,101251,1,0,0:0:0:0:
224,174,101362,1,0,0:0:0:0:
224,174,101584,1,8,0:0:0:0:
224,174,101695,1,0,0:0:0:0:
251,138,101807,1,8,0:0:0:0:
251,138,101918,1,8,0:0:0:0:
251,138,102029,1,8,0:0:0:0:
251,138,102251,1,0,0:0:0:0:
251,138,102362,1,0,0:0:0:0:
251,138,102473,1,8,0:0:0:0:
251,138,102584,1,0,0:0:0:0:
251,138,102695,1,8,0:0:0:0:
348,198,102918,1,0,0:0:0:0:
214,193,103140,1,0,0:0:0:0:
214,193,103251,1,0,0:0:0:0:
244,174,103473,1,0,0:0:0:0:
244,174,103584,1,0,0:0:0:0:
244,174,103695,1,0,0:0:0:0:
244,174,103807,1,8,0:0:0:0:
222,101,103918,1,0,0:0:0:0:
244,174,104140,1,0,0:0:0:0:
244,174,104251,1,8,0:0:0:0:
244,174,104362,1,8,0:0:0:0:
244,174,104473,1,0,0:0:0:0:
244,174,104695,1,8,0:0:0:0:
244,174,104807,1,0,0:0:0:0:
244,174,104918,1,8,0:0:0:0:
244,174,105140,1,0,0:0:0:0:
244,174,105251,1,8,0:0:0:0:
244,174,105362,1,0,0:0:0:0:
244,174,105473,1,0,0:0:0:0:
244,174,105584,1,8,0:0:0:0:
244,174,105695,1,8,0:0:0:0:
219,173,105918,1,8,0:0:0:0:
219,173,106029,1,8,0:0:0:0:
204,161,106140,1,0,0:0:0:0:
204,161,106251,1,8,0:0:0:0:
220,159,106473,1,8,0:0:0:0:
204,161,106584,1,8,0:0:0:0:
220,159,106695,1,0,0:0:0:0:
220,159,106918,1,8,0:0:0:0:
220,159,107140,1,0,0:0:0:0:
220,159,107362,1,8,0:0:0:0:
220,159,107584,1,0,0:0:0:0:
220,159,107695,1,0,0:0:0:0:
220,159,107807,1,8,0:0:0:0:
220,159,107918,1,8,0:0:0:0:
241,150,108029,1,8,0:0:0:0:
199,78,108140,1,0,0:0:0:0:
241,150,108251,1,8,0:0:0:0:
241,150,108473,1,4,0:0:0:0:
241,150,108695,1,8,0:0:0:0:
241,150,108807,1,0,0:0:0:0:
295,236,109029,1,8,0:0:0:0:
295,236,109140,1,0,0:0:0:0:
250,175,109362,1,8,0:0:0:0:
207,202,109473,1,0,0:0:0:0:
207,202,109584,1,0,0:0:0:0:
250,175,109695,1,0,0:0:0:0:
250,175,109807,1,8,0:0:0:0:
225,157,109918,1,0,0:0:0:0:
225,157,110029,1,0,0:0:0:0:
284,243,110251,1,4,0:0:0:0:
366,206,110584,1,0,0:0:0:0:
304,205,110918,1,0,0:0:0:0:
336,208,111140,1,8,0:0:0:0:
336,208,111473,1,8,0:0:0:0:
336,208,111807,1,8,0:0:0:0:
352,240,112029,1,0,0:0:0:0:
320,192,112251,1,0,0:0:0:0:
336,208,112362,1,0,0:0:0:0:
352,224,112584,1,0,0:0:0:0:
336,224,112695,1,0,0:0:0:0:
384,224,112807,1,8,0:0:0:0:
336,224,112918,1,0,0:0:0:0:
368,240,113140,1,8,0:0:0:0:
256,192,113251,1,0,0:0:0:0:
352,240,113473,1,8,0:0:0:0:
320,240,113584,1,0,0:0:0:0:
320,240,113695,1,0,0:0:0:0:
320,240,113807,1,0,0:0:0:0:
224,176,114140,1,0,0:0:0:0:
224,176,114473,1,0,0:0:0:0:
400,240,114695,1,8,0:0:0:0:
384,208,115029,1,8,0:0:0:0:
368,176,115362,1,8,0:0:0:0:
432,224,115584,1,0,0:0:0:0:
288,224,115807,1,8,0:0:0:0:
384,208,115918,1,0,0:0:0:0:
400,208,116029,1,8,0:0:0:0:
384,224,116251,1,0,0:0:0:0:
352,208,116362,1,0,0:0:0:0:
352,208,116473,1,8,0:0:0:0:
384,208,116695,1,0,0:0:0:0:
400,224,116807,1,8,0:0:0:0:
384,224,116918,1,8,0:0:0:0:
384,208,117140,1,8,0:0:0:0:
384,224,117362,1,0,0:0:0:0:
384,224,117695,1,0,0:0:0:0:
400,192,118029,1,0,0:0:0:0:
384,224,118251,1,8,0:0:0:0:
384,224,118584,1,8,0:0:0:0:
400,192,118918,1,8,0:0:0:0:
272,208,119140,1,0,0:0:0:0:
256,176,119473,1,0,0:0:0:0:
256,176,119807,1,0,0:0:0:0:
352,224,120029,1,8,0:0:0:0:
384,208,120251,1,8,0:0:0:0:
384,208,120362,1,8,0:0:0:0:
384,192,120473,1,8,0:0:0:0:
368,192,120695,1,0,0:0:0:0:
384,240,120918,1,8,0:0:0:0:
352,192,121140,1,0,0:0:0:0:
400,240,121362,1,8,0:0:0:0:
368,224,121473,1,0,0:0:0:0:
384,208,121584,1,0,0:0:0:0:
384,192,121807,1,8,0:0:0:0:
320,208,122029,1,0,0:0:0:0:
368,224,122251,1,8,0:0:0:0:
368,208,122362,1,8,0:0:0:0:
352,224,122473,1,0,0:0:0:0:
400,208,122695,1,8,0:0:0:0:
256,176,122918,1,0,0:0:0:0:
272,176,123029,1,0,0:0:0:0:
384,224,123140,1,0,0:0:0:0:
416,208,123362,1,8,0:0:0:0:
256,176,123584,1,0,0:0:0:0:
416,224,123695,1,8,0:0:0:0:
384,224,123807,1,0,0:0:0:0:
416,208,124029,1,8,0:0:0:0:
368,192,124473,1,0,0:0:0:0:
192,192,124695,1,0,0:0:0:0:
288,224,124807,1,0,0:0:0:0:
256,208,125029,1,0,0:0:0:0:
336,224,125140,1,0,0:0:0:0:
352,224,125251,1,8,0:0:0:0:
320,224,125362,1,0,0:0:0:0:
336,240,125584,1,8,0:0:0:0:
368,208,125807,1,0,0:0:0:0:
336,208,125918,1,8,0:0:0:0:
368,208,126029,1,0,0:0:0:0:
320,240,126251,1,0,0:0:0:0:
272,256,126473,1,8,0:0:0:0:
352,240,126584,1,0,0:0:0:0:
400,256,126807,1,0,0:0:0:0:
368,224,126918,1,8,0:0:0:0:
368,224,127029,1,8,0:0:0:0:
384,224,127140,1,0,0:0:0:0:
384,224,127362,1,8,0:0:0:0:
448,224,127584,1,0,0:0:0:0:
448,224,127695,1,0,0:0:0:0:
432,208,127807,1,8,0:0:0:0:
400,224,128029,1,0,0:0:0:0:
208,176,128140,1,0,0:0:0:0:
384,224,128251,1,8,0:0:0:0:
400,224,128362,1,0,0:0:0:0:
384,224,128473,1,0,0:0:0:0:
400,192,128584,1,0,0:0:0:0:
368,240,128695,1,8,0:0:0:0:
368,224,128807,1,0,0:0:0:0:
416,208,128918,1,8,0:0:0:0:
416,208,129029,1,8,0:0:0:0:
416,208,129140,1,8,0:0:0:0:
416,208,129251,1,8,0:0:0:0:
384,208,129362,1,0,0:0:0:0:
336,224,129473,1,0,0:0:0:0:
416,224,129584,1,8,0:0:0:0:
384,208,129695,1,0,0:0:0:0:
416,224,129807,1,8,0:0:0:0:
352,224,130029,1,0,0:0:0:0:
336,224,130140,1,0,0:0:0:0:
272,224,130251,1,8,0:0:0:0:
368,224,130362,1,0,0:0:0:0:
352,224,130473,1,0,0:0:0:0:
368,224,130695,1,8,0:0:0:0:
352,256,130918,1,0,0:0:0:0:
304,224,131140,1,8,0:0:0:0:
304,224,131362,1,8,0:0:0:0:
400,192,131584,1,4,0:0:0:0:
368,192,132251,1,8,0:0:0:0:
384,192,132918,1,8,0:0:0:0:
400,192,133362,1,4,0:0:0:0:
368,192,134029,1,8,0:0:0:0:
384,192,134695,1,0,0:0:0:0:
320,208,135140,1,0,0:0:0:0:
320,208,135251,1,0,0:0:0:0:
320,240,135362,1,8,0:0:0:0:
144,192,135473,1,0,0:0:0:0:
432,208,135584,1,8,0:0:0:0:
336,176,135695,1,0,0:0:0:0:
336,192,135807,1,0,0:0:0:0:
352,192,135918,1,0,0:0:0:0:
432,224,136029,1,8,0:0:0:0:
384,208,136140,1,0,0:0:0:0:
368,208,136251,1,8,0:0:0:0:
368,208,136362,1,8,0:0:0:0:
368,208,136473,1,8,0:0:0:0:
368,208,136584,1,8,0:0:0:0:
384,176,136695,1,0,0:0:0:0:
336,224,136807,1,8,0:0:0:0:
352,208,136918,1,0,0:0:0:0:
284,258,137140,1,8,0:0:0:0:
368,208,137251,1,0,0:0:0:0:
285,242,137473,1,8,0:0:0:0:
307,192,137584,1,0,0:0:0:0:
307,192,137807,1,0,0:0:0:0:
215,188,138695,1,4,0:0:0:0:
196,225,138918,1,0,0:0:0:0:
196,225,139029,1,0,0:0:0:0:
196,225,139140,1,8,0:0:0:0:
219,246,139251,1,0,0:0:0:0:
219,246,139362,1,8,0:0:0:0:
209,141,139473,1,0,0:0:0:0:
203,158,139584,1,0,0:0:0:0:
193,153,139695,1,0,0:0:0:0:
257,135,139807,1,8,0:0:0:0:
216,133,139918,1,0,0:0:0:0:
216,133,140029,1,8,0:0:0:0:
216,133,140140,1,8,0:0:0:0:
216,133,140251,1,0,0:0:0:0:
216,133,140362,1,0,0:0:0:0:
216,133,140473,1,8,0:0:0:0:
221,202,140695,1,8,0:0:0:0:
221,202,140807,1,8,0:0:0:0:
247,205,140918,1,0,0:0:0:0:
247,205,141029,1,8,0:0:0:0:
248,222,141140,1,0,0:0:0:0:
248,222,141251,1,0,0:0:0:0:
230,205,141362,1,8,0:0:0:0:
230,205,141473,1,8,0:0:0:0:
204,190,141584,1,0,0:0:0:0:
204,190,141695,1,0,0:0:0:0:
204,190,141807,1,8,0:0:0:0:
204,190,141918,1,0,0:0:0:0:
204,190,142029,1,8,0:0:0:0:
204,190,142140,1,8,0:0:0:0:
206,182,142251,1,0,0:0:0:0:
276,180,142473,1,0,0:0:0:0:
387,204,142584,1,8,0:0:0:0:
360,208,142695,1,0,0:0:0:0:
360,208,142807,1,0,0:0:0:0:
239,233,142918,1,8,0:0:0:0:
239,233,143029,1,8,0:0:0:0:
214,146,143140,1,0,0:0:0:0:
232,195,143251,1,8,0:0:0:0:
232,195,143362,1,8,0:0:0:0:
232,195,143473,1,0,0:0:0:0:
232,195,143584,1,8,0:0:0:0:
232,195,143695,1,0,0:0:0:0:
232,195,143807,1,8,0:0:0:0:
232,195,144029,1,6,0:0:0:0:
276,218,144251,1,6,0:0:0:0:
276,218,144473,1,4,0:0:0:0:
276,218,144695,1,6,0:0:0:0:
264,175,145140,1,8,0:0:0:0:
264,175,145251,1,0,0:0:0:0:
264,175,145362,1,8,0:0:0:0:
264,175,145473,1,8,0:0:0:0:
264,175,145584,1,0,0:0:0:0:
264,175,145807,1,4,0:0:0:0:
240,200,146029,1,8,0:0:0:0:
258,179,146140,1,0,0:0:0:0:
240,200,146251,1,8,0:0:0:0:
224,161,146473,1,0,0:0:0:0:
224,161,146584,1,8,0:0:0:0:
234,148,146807,1,0,0:0:0:0:
234,148,146918,1,8,0:0:0:0:
234,148,147029,1,8,0:0:0:0:
234,148,147140,1,0,0:0:0:0:
236,185,147362,1,8,0:0:0:0:
236,185,147473,1,8,0:0:0:0:
240,189,147584,1,0,0:0:0:0:
240,189,147807,1,0,0:0:0:0:
240,189,147918,1,0,0:0:0:0:
240,189,148029,1,8,0:0:0:0:
232,151,148251,1,0,0:0:0:0:
232,151,148362,1,8,0:0:0:0:
232,151,148584,1,0,0:0:0:0:
232,151,148695,1,8,0:0:0:0:
232,151,148807,1,0,0:0:0:0:
232,151,148918,1,8,0:0:0:0:
192,145,149140,1,8,0:0:0:0:
192,145,149251,1,8,0:0:0:0:
192,145,149362,1,0,0:0:0:0:
199,161,149584,1,8,0:0:0:0:
199,161,149695,1,0,0:0:0:0:
199,161,149807,1,8,0:0:0:0:
227,206,150029,1,8,0:0:0:0:
227,206,150140,1,0,0:0:0:0:
262,170,150362,1,8,0:0:0:0:
262,170,150473,1,0,0:0:0:0:
262,170,150584,1,8,0:0:0:0:
262,170,150695,1,0,0:0:0:0:
115,178,150807,1,0,0:0:0:0:
262,170,150918,1,8,0:0:0:0:
262,170,151029,1,8,0:0:0:0:
262,170,151140,1,0,0:0:0:0:
240,199,151251,1,0,0:0:0:0:
240,199,151362,1,8,0:0:0:0:
240,199,151473,1,0,0:0:0:0:
240,199,151584,1,8,0:0:0:0:
240,199,151695,1,0,0:0:0:0:
240,199,151807,1,8,0:0:0:0:
240,199,151918,1,8,0:0:0:0:
218,228,152251,1,8,0:0:0:0:
222,205,152362,1,0,0:0:0:0:
218,228,152473,1,8,0:0:0:0:
222,205,152584,1,8,0:0:0:0:
222,205,152695,1,0,0:0:0:0:
236,179,152918,1,4,0:0:0:0:
267,221,153140,1,0,0:0:0:0:
267,221,153251,1,0,0:0:0:0:
267,221,153362,1,8,0:0:0:0:
255,163,153584,1,0,0:0:0:0:
255,163,153695,1,8,0:0:0:0:
237,134,153918,1,8,0:0:0:0:
237,170,154029,1,0,0:0:0:0:
237,170,154140,1,8,0:0:0:0:
237,170,154251,1,8,0:0:0:0:
223,204,154362,1,0,0:0:0:0:
223,204,154473,1,0,0:0:0:0:
207,212,154695,1,8,0:0:0:0:
223,204,154918,1,8,0:0:0:0:
207,212,155029,1,0,0:0:0:0:
223,204,155140,1,8,0:0:0:0:
245,217,155362,1,0,0:0:0:0:
245,217,155473,1,8,0:0:0:0:
245,217,155695,1,0,0:0:0:0:
245,217,155807,1,0,0:0:0:0:
245,217,155918,1,0,0:0:0:0:
245,217,156029,1,8,0:0:0:0:
230,201,156140,1,8,0:0:0:0:
245,217,156251,1,0,0:0:0:0:
245,217,156473,1,0,0:0:0:0:
248,183,156695,1,0,0:0:0:0:
248,183,156807,1,0,0:0:0:0:
248,183,156918,1,8,0:0:0:0:
248,183,157140,1,0,0:0:0:0:
248,183,157251,1,8,0:0:0:0:
210,114,157362,1,8,0:0:0:0:
210,114,157473,1,8,0:0:0:0:
284,175,157584,1,0,0:0:0:0:
281,196,157695,1,0,0:0:0:0:
238,215,157807,1,8,0:0:0:0:
256,221,157918,1,0,0:0:0:0:
256,221,158029,1,8,0:0:0:0:
198,198,158251,1,8,0:0:0:0:
253,201,158473,1,0,0:0:0:0:
253,201,158584,1,0,0:0:0:0:
253,201,158695,1,8,0:0:0:0:
253,201,158918,1,0,0:0:0:0:
253,201,159029,1,8,0:0:0:0:
239,199,159251,1,0,0:0:0:0:
239,199,159362,1,0,0:0:0:0:
239,199,159473,1,0,0:0:0:0:
239,198,159584,1,8,0:0:0:0:
239,198,159695,1,8,0:0:0:0:
239,198,159807,1,0,0:0:0:0:
266,193,160029,1,4,0:0:0:0:
252,188,160251,1,0,0:0:0:0:
252,188,160362,1,0,0:0:0:0:
252,188,160473,1,8,0:0:0:0:
266,205,160695,1,0,0:0:0:0:
266,205,160807,1,8,0:0:0:0:
260,246,161029,1,0,0:0:0:0:
260,246,161140,1,8,0:0:0:0:
260,246,161251,1,8,0:0:0:0:
235,243,161362,1,0,0:0:0:0:
235,243,161473,1,0,0:0:0:0:
235,243,161584,1,8,0:0:0:0:
260,213,161807,1,8,0:0:0:0:
260,213,162029,1,8,0:0:0:0:
260,213,162140,1,8,0:0:0:0:
260,213,162251,1,0,0:0:0:0:
238,165,162473,1,8,0:0:0:0:
238,165,162584,1,8,0:0:0:0:
238,165,162807,1,8,0:0:0:0:
238,165,162918,1,0,0:0:0:0:
238,165,163029,1,8,0:0:0:0:
245,191,163140,1,8,0:0:0:0:
203,183,163251,1,8,0:0:0:0:
247,178,163362,1,0,0:0:0:0:
252,209,163584,1,0,0:0:0:0:
252,209,163807,1,0,0:0:0:0:
252,209,163918,1,0,0:0:0:0:
252,209,164029,1,8,0:0:0:0:
276,212,164251,1,0,0:0:0:0:
276,212,164362,1,8,0:0:0:0:
249,163,164584,1,0,0:0:0:0:
249,163,164695,1,8,0:0:0:0:
249,163,164807,1,0,0:0:0:0:
249,163,164918,1,8,0:0:0:0:
249,163,165029,1,0,0:0:0:0:
249,163,165140,1,8,0:0:0:0:
249,163,165251,1,8,0:0:0:0:
249,163,165362,1,0,0:0:0:0:
210,149,165584,1,0,0:0:0:0:
210,149,165695,1,8,0:0:0:0:
210,149,165807,1,0,0:0:0:0:
238,163,166029,1,8,0:0:0:0:
238,163,166140,1,8,0:0:0:0:
222,151,166251,1,0,0:0:0:0:
237,213,166362,1,8,0:0:0:0:
237,213,166473,1,0,0:0:0:0:
237,213,166584,1,8,0:0:0:0:
237,213,166695,1,0,0:0:0:0:
230,208,166807,1,8,0:0:0:0:
202,174,166918,1,8,0:0:0:0:
216,166,167029,1,8,0:0:0:0:
286,174,167140,1,0,0:0:0:0:
269,148,167362,1,0,0:0:0:0:
401,213,167473,1,8,0:0:0:0:
396,229,167584,1,0,0:0:0:0:
349,225,167807,1,8,0:0:0:0:
237,201,168029,1,0,0:0:0:0:
339,214,168251,1,8,0:0:0:0:
333,207,168362,1,8,0:0:0:0:
307,202,168473,1,0,0:0:0:0:
296,171,168695,1,8,0:0:0:0:
338,197,168918,1,0,0:0:0:0:
338,197,169029,1,0,0:0:0:0:
388,209,169140,1,8,0:0:0:0:
388,209,169251,1,8,0:0:0:0:
388,209,169362,1,0,0:0:0:0:
240,192,169473,1,0,0:0:0:0:
332,199,169584,1,8,0:0:0:0:
363,209,169807,1,0,0:0:0:0:
363,209,170029,1,8,0:0:0:0:
363,209,170140,1,0,0:0:0:0:
389,201,170251,1,8,0:0:0:0:
427,186,170362,1,8,0:0:0:0:
389,201,170473,1,0,0:0:0:0:
419,192,170695,1,0,0:0:0:0:
384,197,170807,1,8,0:0:0:0:
423,214,171029,1,0,0:0:0:0:
288,160,171140,1,8,0:0:0:0:
304,176,171251,1,0,0:0:0:0:
361,217,171362,1,8,0:0:0:0:
413,207,171584,1,0,0:0:0:0:
404,215,171807,1,8,0:0:0:0:
304,160,171918,1,8,0:0:0:0:
387,215,172029,1,0,0:0:0:0:
288,112,172140,1,8,0:0:0:0:
334,213,172251,1,8,0:0:0:0:
256,160,172362,1,8,0:0:0:0:
381,203,172473,1,0,0:0:0:0:
361,205,172695,1,8,0:0:0:0:
352,204,172918,1,0,0:0:0:0:
461,175,173140,1,8,0:0:0:0:
192,160,173362,1,0,0:0:0:0:
428,184,173473,1,0,0:0:0:0:
358,167,173584,1,8,0:0:0:0:
367,203,173695,1,0,0:0:0:0:
461,175,173807,1,8,0:0:0:0:
383,198,173918,1,8,0:0:0:0:
192,160,174029,1,0,0:0:0:0:
380,181,174251,1,4,0:0:0:0:
435,185,174473,1,0,0:0:0:0:
293,206,174584,1,8,0:0:0:0:
348,218,174695,1,0,0:0:0:0:
157,80,174807,1,0,0:0:0:0:
346,208,174918,1,8,0:0:0:0:
393,210,175140,1,0,0:0:0:0:
304,176,175362,1,8,0:0:0:0:
272,192,175473,1,8,0:0:0:0:
336,208,175584,1,0,0:0:0:0:
336,160,175695,1,0,0:0:0:0:
348,185,175807,1,8,0:0:0:0:
288,112,175918,1,8,0:0:0:0:
406,213,176029,1,0,0:0:0:0:
381,198,176251,1,8,0:0:0:0:
364,172,176362,1,8,0:0:0:0:
343,193,176473,1,0,0:0:0:0:
395,205,176584,1,0,0:0:0:0:
317,201,176695,1,8,0:0:0:0:
410,198,176918,1,0,0:0:0:0:
413,211,177140,1,8,0:0:0:0:
395,206,177251,1,0,0:0:0:0:
395,206,177362,1,0,0:0:0:0:
398,198,177473,1,0,0:0:0:0:
344,200,177584,1,8,0:0:0:0:
368,236,177807,1,0,0:0:0:0:
288,193,177918,1,8,0:0:0:0:
350,189,178140,1,8,0:0:0:0:
389,220,178251,1,0,0:0:0:0:
216,160,178362,1,0,0:0:0:0:
312,204,178473,1,8,0:0:0:0:
312,204,178584,1,8,0:0:0:0:
335,196,178695,1,0,0:0:0:0:
366,189,178918,1,8,0:0:0:0:
361,209,179140,1,0,0:0:0:0:
361,209,179251,1,0,0:0:0:0:
361,209,179362,1,0,0:0:0:0:
357,209,179473,1,0,0:0:0:0:
421,201,179584,1,8,0:0:0:0:
432,192,180473,1,12,0:0:0:0:
432,192,180807,1,12,0:0:0:0:
432,192,181140,1,12,0:0:0:0:
400,208,181362,1,4,0:0:0:0:
384,208,181807,1,0,0:0:0:0:
356,214,182029,1,8,0:0:0:0:
363,211,182251,1,0,0:0:0:0:
403,214,182473,1,8,0:0:0:0:
366,195,182695,1,0,0:0:0:0:
366,195,182807,1,0,0:0:0:0:
337,235,182918,1,8,0:0:0:0:
366,195,183140,1,0,0:0:0:0:
359,189,183584,1,0,0:0:0:0:
456,195,183807,1,8,0:0:0:0:
370,188,184029,1,0,0:0:0:0:
265,203,184251,1,0,0:0:0:0:
391,208,184473,1,8,0:0:0:0:
388,205,184695,1,8,0:0:0:0:
373,227,184807,1,8,0:0:0:0:
406,209,184918,1,0,0:0:0:0:
376,210,185362,1,0,0:0:0:0:
418,192,185584,1,8,0:0:0:0:
457,194,185807,1,0,0:0:0:0:
358,168,185918,1,0,0:0:0:0:
359,200,186029,1,8,0:0:0:0:
358,168,186251,1,0,0:0:0:0:
398,193,186473,1,8,0:0:0:0:
407,185,186695,1,0,0:0:0:0:
389,233,186918,1,0,0:0:0:0:
389,233,187029,1,0,0:0:0:0:
399,207,187140,1,8,0:0:0:0:
372,199,187362,1,8,0:0:0:0:
372,199,187473,1,8,0:0:0:0:
377,204,187584,1,0,0:0:0:0:
336,188,187807,1,0,0:0:0:0:
336,188,187918,1,0,0:0:0:0:
360,216,188029,1,8,0:0:0:0:
373,232,188251,1,8,0:0:0:0:
443,219,188473,1,4,0:0:0:0:
384,208,188918,1,0,0:0:0:0:
356,214,189140,1,8,0:0:0:0:
363,211,189362,1,0,0:0:0:0:
403,214,189584,1,8,0:0:0:0:
366,195,189807,1,0,0:0:0:0:
366,195,189918,1,0,0:0:0:0:
337,235,190029,1,8,0:0:0:0:
366,195,190251,1,0,0:0:0:0:
359,189,190695,1,0,0:0:0:0:
456,195,190918,1,8,0:0:0:0:
370,188,191140,1,0,0:0:0:0:
265,203,191362,1,0,0:0:0:0:
391,208,191584,1,8,0:0:0:0:
388,205,191807,1,8,0:0:0:0:
373,227,191918,1,8,0:0:0:0:
406,209,192029,1,0,0:0:0:0:
376,210,192473,1,0,0:0:0:0:
418,192,192695,1,8,0:0:0:0:
457,194,192918,1,0,0:0:0:0:
358,168,193029,1,0,0:0:0:0:
359,200,193140,1,8,0:0:0:0:
358,168,193362,1,0,0:0:0:0:
398,193,193584,1,8,0:0:0:0:
338,148,193807,1,0,0:0:0:0:
338,148,194029,1,0,0:0:0:0:
268,131,194140,1,0,0:0:0:0:
378,203,194251,1,8,0:0:0:0:
398,193,194473,1,0,0:0:0:0:
391,196,194584,1,0,0:0:0:0:
391,196,194695,1,0,0:0:0:0:
376,196,194918,1,0,0:0:0:0:
375,195,195029,1,0,0:0:0:0:
310,200,195140,1,8,0:0:0:0:
398,193,195362,1,0,0:0:0:0:
449,224,195584,1,8,0:0:0:0:
246,191,195695,1,0,0:0:0:0:
246,191,195807,1,0,0:0:0:0:
386,219,195918,1,8,0:0:0:0:
326,224,196029,1,0,0:0:0:0:
326,224,196140,1,0,0:0:0:0:
352,233,196251,1,8,0:0:0:0:
449,224,196473,1,8,0:0:0:0:
340,229,196584,1,0,0:0:0:0:
340,229,196695,1,0,0:0:0:0:
386,192,196807,1,8,0:0:0:0:
381,192,196918,1,8,0:0:0:0:
380,233,197029,1,0,0:0:0:0:
397,229,197140,1,8,0:0:0:0:
300,153,197362,1,8,0:0:0:0:
239,225,197473,1,0,0:0:0:0:
222,209,197695,1,0,0:0:0:0:
222,209,197807,1,0,0:0:0:0:
248,211,197918,1,0,0:0:0:0:
236,146,198029,1,8,0:0:0:0:
236,146,198251,1,8,0:0:0:0:
236,146,198362,1,8,0:0:0:0:
244,162,198473,1,0,0:0:0:0:
244,162,198584,1,0,0:0:0:0:
240,136,198695,1,8,0:0:0:0:
240,136,198807,1,0,0:0:0:0:
240,136,198918,1,8,0:0:0:0:
269,220,199140,1,0,0:0:0:0:
269,220,199251,1,8,0:0:0:0:
248,216,199473,1,0,0:0:0:0:
248,216,199584,1,8,0:0:0:0:
248,216,199695,1,0,0:0:0:0:
248,216,199807,1,8,0:0:0:0:
229,201,200029,1,0,0:0:0:0:
229,201,200140,1,0,0:0:0:0:
229,201,200251,1,0,0:0:0:0:
229,201,200362,1,8,0:0:0:0:
229,201,200473,1,0,0:0:0:0:
229,201,200584,1,0,0:0:0:0:
229,201,200695,1,8,0:0:0:0:
266,195,200918,1,8,0:0:0:0:
281,214,201029,1,0,0:0:0:0:
266,195,201251,1,0,0:0:0:0:
266,195,201362,1,0,0:0:0:0:
266,195,201473,1,0,0:0:0:0:
266,195,201584,1,8,0:0:0:0:
271,172,201807,1,8,0:0:0:0:
271,172,201918,1,0,0:0:0:0:
265,183,202029,1,0,0:0:0:0:
265,183,202140,1,8,0:0:0:0:
267,183,202251,1,8,0:0:0:0:
267,183,202362,1,0,0:0:0:0:
265,183,202473,1,8,0:0:0:0:
271,180,202695,1,0,0:0:0:0:
271,180,202807,1,0,0:0:0:0:
259,186,203029,1,0,0:0:0:0:
259,186,203140,1,0,0:0:0:0:
259,186,203251,1,0,0:0:0:0:
259,186,203362,1,8,0:0:0:0:
261,175,203584,1,0,0:0:0:0:
261,175,203695,1,8,0:0:0:0:
261,175,203807,1,0,0:0:0:0:
261,175,203918,1,0,0:0:0:0:
261,175,204029,1,8,0:0:0:0:
245,132,204140,1,8,0:0:0:0:
245,132,204251,1,0,0:0:0:0:
300,153,204473,1,8,0:0:0:0:
239,225,204584,1,0,0:0:0:0:
222,209,204807,1,0,0:0:0:0:
222,209,204918,1,0,0:0:0:0:
248,211,205029,1,0,0:0:0:0:
236,146,205140,1,8,0:0:0:0:
236,146,205362,1,8,0:0:0:0:
236,146,205473,1,8,0:0:0:0:
244,162,205584,1,0,0:0:0:0:
244,162,205695,1,0,0:0:0:0:
240,136,205807,1,8,0:0:0:0:
240,136,205918,1,0,0:0:0:0:
240,136,206029,1,8,0:0:0:0:
269,220,206251,1,0,0:0:0:0:
269,220,206362,1,8,0:0:0:0:
248,216,206584,1,0,0:0:0:0:
248,216,206695,1,8,0:0:0:0:
248,216,206807,1,0,0:0:0:0:
248,216,206918,1,8,0:0:0:0:
229,201,207140,1,0,0:0:0:0:
229,201,207251,1,0,0:0:0:0:
229,201,207362,1,0,0:0:0:0:
229,201,207473,1,8,0:0:0:0:
229,201,207584,1,0,0:0:0:0:
229,201,207695,1,0,0:0:0:0:
229,201,207807,1,8,0:0:0:0:
266,195,208029,1,8,0:0:0:0:
281,214,208140,1,0,0:0:0:0:
266,195,208362,1,0,0:0:0:0:
266,195,208473,1,0,0:0:0:0:
266,195,208584,1,0,0:0:0:0:
266,195,208695,1,8,0:0:0:0:
271,172,208918,1,8,0:0:0:0:
271,172,209029,1,0,0:0:0:0:
265,183,209140,1,0,0:0:0:0:
265,183,209251,1,8,0:0:0:0:
267,183,209362,1,8,0:0:0:0:
267,183,209473,1,0,0:0:0:0:
265,183,209584,1,8,0:0:0:0:
271,180,209807,1,0,0:0:0:0:
271,180,209918,1,0,0:0:0:0:
259,186,210140,1,0,0:0:0:0:
259,186,210251,1,0,0:0:0:0:
259,186,210362,1,0,0:0:0:0:
259,186,210473,1,8,0:0:0:0:
261,175,210695,1,0,0:0:0:0:
261,175,210807,1,8,0:0:0:0:
261,175,210918,1,0,0:0:0:0:
261,175,211029,1,0,0:0:0:0:
261,175,211140,1,8,0:0:0:0:
245,132,211251,1,8,0:0:0:0:
245,132,211362,1,0,0:0:0:0:
219,200,211473,1,0,0:0:0:0:
219,200,211584,1,8,0:0:0:0:
