osu file format v14

[General]
AudioFilename: audio.ogg
AudioLeadIn: 0
PreviewTime: 52449
Countdown: 0
SampleSet: Normal
StackLeniency: 0.7
Mode: 1
LetterboxInBreaks: 0
WidescreenStoryboard: 1

[Editor]
Bookmarks: 1783,24894,53338,81782,110227,138671,167116,197338
DistanceSpacing: 1.9
BeatDivisor: 4
GridSize: 16
TimelineZoom: 1

[Metadata]
Title:IF
TitleUnicode:イフ
Artist:Tsukuyomi
ArtistUnicode:月詠み
Creator:cdh
Version:Muzukashii
Source:プロジェクトセカイ カラフルステージ! feat. 初音ミク
Tags:mintong89 cdhsausageboy Hivie 桐谷遥 Kiritani Haruka つなぐPainful Hope Connecting Painful Hope HATSUNE MIKU: COLORFUL STAGE! MORE MORE JUMP! JUMP! モモジャン momojan MMJ Project Sekai プロセカ Proseka Puroseka Video Rhythm Mobile Game Yurry Canon YurryCanon ユリイ・カノン Yue Epoch とうかさ toukasa Japanese Rock J-rock Jrock Pop J-pop Jpop 2943 ツクヨミ アナザームーン another moon 1st ep
BeatmapID:4007627
BeatmapSetID:1938632

[Difficulty]
HPDrainRate:5.5
CircleSize:5
OverallDifficulty:4.5
ApproachRate:5
SliderMultiplier:1.4
SliderTickRate:1

[Events]
//Background and Video events
0,0,"random girl.jpg",0,0
//Break Periods
//Storyboard Layer 0 (Background)
//Storyboard Layer 1 (Fail)
//Storyboard Layer 2 (Pass)
//Storyboard Layer 3 (Foreground)
//Storyboard Layer 4 (Overlay)
//Storyboard Sound Samples

[TimingPoints]
1808,444.444444444444,4,1,0,90,1,0
10696,444.444444444444,4,1,0,90,1,0
53362,-100,4,1,0,90,0,1
81807,-100,4,1,0,90,0,0
138695,-100,4,1,0,90,0,1
151807,-100,4,1,0,90,0,0
152918,-100,4,1,0,90,0,1
179584,-100,4,1,0,90,0,0
197362,444.444444444444,4,1,0,90,1,0

[HitObjects]
433,187,1808,5,4,0:0:0:0:
346,154,3585,1,0,0:0:0:0:
204,174,5363,1,0,0:0:0:0:
210,175,5807,1,0,0:0:0:0:
210,175,6252,1,0,0:0:0:0:
210,175,6696,1,0,0:0:0:0:
363,165,7141,1,8,0:0:0:0:
363,165,7585,1,8,0:0:0:0:
363,165,8030,1,8,0:0:0:0:
363,165,8474,1,8,0:0:0:0:
337,181,8919,1,8,0:0:0:0:
337,181,9252,1,8,0:0:0:0:
337,181,9807,1,8,0:0:0:0:
338,194,10141,1,8,0:0:0:0:
384,160,10696,1,4,0:0:0:0:
400,192,11029,1,8,0:0:0:0:
448,176,11362,1,0,0:0:0:0:
400,176,11807,1,0,0:0:0:0:
400,160,12029,1,0,0:0:0:0:
384,176,12251,1,8,0:0:0:0:
384,176,12473,1,0,0:0:0:0:
432,160,12807,1,8,0:0:0:0:
416,176,13140,1,0,0:0:0:0:
288,192,14251,1,0,0:0:0:0:
288,192,14584,1,0,0:0:0:0:
464,192,14918,1,8,0:0:0:0:
416,192,15362,1,0,0:0:0:0:
432,160,15584,1,8,0:0:0:0:
384,192,15807,1,0,0:0:0:0:
384,176,16029,1,0,0:0:0:0:
384,176,16362,1,0,0:0:0:0:
464,192,16695,1,8,0:0:0:0:
336,176,17140,1,8,0:0:0:0:
336,176,17362,1,8,0:0:0:0:
336,176,17584,1,8,0:0:0:0:
384,160,17807,1,4,0:0:0:0:
400,192,18140,1,8,0:0:0:0:
448,176,18473,1,0,0:0:0:0:
400,176,18918,1,0,0:0:0:0:
400,160,19140,1,0,0:0:0:0:
384,176,19362,1,8,0:0:0:0:
384,176,19584,1,0,0:0:0:0:
432,160,19918,1,8,0:0:0:0:
416,176,20251,1,0,0:0:0:0:
288,192,21362,1,0,0:0:0:0:
288,192,21695,1,0,0:0:0:0:
464,192,22029,1,8,0:0:0:0:
416,192,22473,1,0,0:0:0:0:
432,160,22695,1,8,0:0:0:0:
384,192,22918,1,8,0:0:0:0:
384,176,23140,1,0,0:0:0:0:
464,192,23473,1,0,0:0:0:0:
384,176,23807,1,0,0:0:0:0:
336,176,24251,1,8,0:0:0:0:
336,176,24473,1,8,0:0:0:0:
336,176,24695,1,8,0:0:0:0:
240,192,24918,1,0,0:0:0:0:
400,208,25362,1,8,0:0:0:0:
400,208,25584,1,0,0:0:0:0:
256,192,26029,1,0,0:0:0:0:
416,192,26251,1,8,0:0:0:0:
416,224,26473,1,8,0:0:0:0:
368,192,26695,1,0,0:0:0:0:
256,192,27029,1,0,0:0:0:0:
256,192,27362,1,0,0:0:0:0:
384,208,27584,1,8,0:0:0:0:
336,192,28029,1,8,0:0:0:0:
416,176,28251,1,8,0:0:0:0:
384,176,28473,1,0,0:0:0:0:
320,208,28918,1,0,0:0:0:0:
400,176,29140,1,8,0:0:0:0:
384,192,29584,1,0,0:0:0:0:
384,176,29807,1,8,0:0:0:0:
384,176,30029,1,8,0:0:0:0:
368,192,30251,1,0,0:0:0:0:
256,192,30584,1,0,0:0:0:0:
256,192,30918,1,0,0:0:0:0:
336,176,31362,1,0,0:0:0:0:
352,160,31584,1,0,0:0:0:0:
368,176,31807,1,8,0:0:0:0:
416,176,32029,1,0,0:0:0:0:
400,208,32473,1,8,0:0:0:0:
400,208,32695,1,0,0:0:0:0:
256,192,33140,1,0,0:0:0:0:
416,192,33362,1,8,0:0:0:0:
416,224,33584,1,8,0:0:0:0:
368,192,33807,1,0,0:0:0:0:
256,192,34140,1,0,0:0:0:0:
256,192,34473,1,0,0:0:0:0:
384,208,34695,1,8,0:0:0:0:
336,192,35140,1,8,0:0:0:0:
416,176,35362,1,8,0:0:0:0:
384,176,35584,1,0,0:0:0:0:
320,208,36029,1,0,0:0:0:0:
400,176,36251,1,8,0:0:0:0:
384,192,36695,1,0,0:0:0:0:
384,176,36918,1,8,0:0:0:0:
384,176,37140,1,8,0:0:0:0:
368,192,37362,1,0,0:0:0:0:
336,176,37807,1,8,0:0:0:0:
336,176,38251,1,8,0:0:0:0:
336,160,38695,1,8,0:0:0:0:
416,160,39140,1,4,0:0:0:0:
416,176,39473,1,0,0:0:0:0:
432,192,39807,1,0,0:0:0:0:
432,176,40251,1,0,0:0:0:0:
416,176,40473,1,8,0:0:0:0:
416,176,40695,1,8,0:0:0:0:
384,176,40918,1,0,0:0:0:0:
384,176,41251,1,0,0:0:0:0:
384,176,41584,1,0,0:0:0:0:
400,176,42029,1,8,0:0:0:0:
416,176,42251,1,8,0:0:0:0:
384,176,42695,1,0,0:0:0:0:
384,176,42807,1,0,0:0:0:0:
384,176,42918,1,0,0:0:0:0:
336,128,43140,1,0,0:0:0:0:
336,128,43362,1,0,0:0:0:0:
352,160,43584,1,8,0:0:0:0:
336,176,43695,1,8,0:0:0:0:
352,160,43807,1,8,0:0:0:0:
352,160,44029,1,8,0:0:0:0:
352,160,44251,1,8,0:0:0:0:
368,176,44473,1,0,0:0:0:0:
320,192,45362,1,8,0:0:0:0:
400,176,45807,1,8,0:0:0:0:
400,176,46029,1,0,0:0:0:0:
400,160,46251,1,4,0:0:0:0:
352,176,48029,1,4,0:0:0:0:
400,160,49807,1,0,0:0:0:0:
400,160,50029,1,0,0:0:0:0:
400,160,50251,1,0,0:0:0:0:
400,160,50473,1,0,0:0:0:0:
432,192,50695,1,8,0:0:0:0:
384,176,50918,1,8,0:0:0:0:
368,160,51140,1,0,0:0:0:0:
368,160,51362,1,0,0:0:0:0:
384,192,51584,1,8,0:0:0:0:
235,235,53362,1,4,0:0:0:0:
233,195,53695,1,0,0:0:0:0:
233,195,53807,1,0,0:0:0:0:
301,270,54029,1,8,0:0:0:0:
332,204,54473,1,8,0:0:0:0:
306,225,54695,1,0,0:0:0:0:
328,215,54918,1,0,0:0:0:0:
355,223,55140,1,0,0:0:0:0:
284,250,55362,1,8,0:0:0:0:
273,223,55584,1,8,0:0:0:0:
393,209,55807,1,0,0:0:0:0:
273,181,56251,1,0,0:0:0:0:
312,239,56473,1,0,0:0:0:0:
337,227,56695,1,0,0:0:0:0:
337,227,56918,1,8,0:0:0:0:
259,188,57251,1,0,0:0:0:0:
271,174,57362,1,0,0:0:0:0:
362,214,57584,1,8,0:0:0:0:
333,148,58029,1,8,0:0:0:0:
371,210,58251,1,0,0:0:0:0:
343,208,58473,1,8,0:0:0:0:
343,208,58695,1,8,0:0:0:0:
402,215,58918,1,0,0:0:0:0:
342,193,59140,1,8,0:0:0:0:
388,215,59362,1,0,0:0:0:0:
316,211,59807,1,8,0:0:0:0:
330,206,60029,1,8,0:0:0:0:
338,206,60251,1,8,0:0:0:0:
330,219,60473,1,4,0:0:0:0:
233,195,60807,1,0,0:0:0:0:
233,195,60918,1,0,0:0:0:0:
301,270,61140,1,8,0:0:0:0:
332,204,61584,1,0,0:0:0:0:
306,225,61807,1,8,0:0:0:0:
328,215,62029,1,8,0:0:0:0:
355,223,62251,1,0,0:0:0:0:
306,217,62473,1,0,0:0:0:0:
273,223,62695,1,8,0:0:0:0:
393,209,62918,1,0,0:0:0:0:
337,227,63362,1,8,0:0:0:0:
273,181,63584,1,0,0:0:0:0:
337,227,63807,1,0,0:0:0:0:
312,239,64029,1,8,0:0:0:0:
259,188,64362,1,0,0:0:0:0:
271,174,64473,1,0,0:0:0:0:
362,214,64695,1,8,0:0:0:0:
333,148,65140,1,8,0:0:0:0:
371,210,65362,1,0,0:0:0:0:
343,208,65584,1,8,0:0:0:0:
343,208,65807,1,4,0:0:0:0:
312,195,66918,1,0,0:0:0:0:
312,195,67140,1,0,0:0:0:0:
312,195,67362,1,0,0:0:0:0:
294,230,67584,1,4,0:0:0:0:
233,195,67918,1,0,0:0:0:0:
233,195,68029,1,0,0:0:0:0:
301,270,68251,1,8,0:0:0:0:
332,204,68695,1,8,0:0:0:0:
306,225,68918,1,0,0:0:0:0:
328,215,69140,1,0,0:0:0:0:
375,243,69362,1,8,0:0:0:0:
247,196,69584,1,8,0:0:0:0:
273,223,69807,1,8,0:0:0:0:
393,209,70029,1,0,0:0:0:0:
273,181,70473,1,0,0:0:0:0:
312,239,70695,1,0,0:0:0:0:
337,227,70918,1,0,0:0:0:0:
337,227,71140,1,8,0:0:0:0:
259,188,71473,1,0,0:0:0:0:
271,174,71584,1,0,0:0:0:0:
362,214,71807,1,8,0:0:0:0:
333,148,72251,1,8,0:0:0:0:
371,210,72473,1,0,0:0:0:0:
343,208,72695,1,8,0:0:0:0:
343,208,72918,1,8,0:0:0:0:
327,223,73140,1,0,0:0:0:0:
338,217,73362,1,8,0:0:0:0:
388,215,73584,1,0,0:0:0:0:
316,211,74029,1,8,0:0:0:0:
330,206,74251,1,8,0:0:0:0:
338,206,74473,1,8,0:0:0:0:
330,219,74695,1,4,0:0:0:0:
233,195,75029,1,0,0:0:0:0:
233,195,75140,1,0,0:0:0:0:
301,270,75362,1,8,0:0:0:0:
332,204,75807,1,0,0:0:0:0:
306,225,76029,1,8,0:0:0:0:
328,215,76251,1,8,0:0:0:0:
355,223,76473,1,0,0:0:0:0:
299,227,76695,1,0,0:0:0:0:
273,223,76918,1,8,0:0:0:0:
393,209,77140,1,0,0:0:0:0:
337,227,77584,1,8,0:0:0:0:
273,181,77807,1,0,0:0:0:0:
337,227,78029,1,0,0:0:0:0:
312,239,78251,1,8,0:0:0:0:
259,188,78584,1,0,0:0:0:0:
271,174,78695,1,0,0:0:0:0:
362,214,78918,5,8,0:0:0:0:
333,148,79362,1,8,0:0:0:0:
371,210,79584,1,0,0:0:0:0:
343,208,79807,1,8,0:0:0:0:
296,233,80029,5,8,0:0:0:0:
296,233,80362,1,8,0:0:0:0:
296,233,80918,1,8,0:0:0:0:
296,233,81251,1,8,0:0:0:0:
257,158,81807,5,0,0:0:0:0:
336,242,82029,1,8,0:0:0:0:
288,221,82473,1,8,0:0:0:0:
347,213,82918,1,8,0:0:0:0:
347,213,83362,1,8,0:0:0:0:
355,190,83584,1,0,0:0:0:0:
342,204,83807,1,8,0:0:0:0:
334,223,84251,1,8,0:0:0:0:
389,196,84473,1,0,0:0:0:0:
429,204,84695,1,8,0:0:0:0:
429,204,84918,1,8,0:0:0:0:
334,214,85140,1,8,0:0:0:0:
393,219,85362,1,0,0:0:0:0:
350,218,85584,1,8,0:0:0:0:
369,204,86029,1,8,0:0:0:0:
337,206,86473,1,8,0:0:0:0:
338,206,86918,1,8,0:0:0:0:
377,237,87140,1,0,0:0:0:0:
391,198,87362,1,8,0:0:0:0:
388,249,87807,1,8,0:0:0:0:
316,217,88251,1,0,0:0:0:0:
318,202,88473,1,8,0:0:0:0:
318,202,88695,1,8,0:0:0:0:
257,158,88918,5,0,0:0:0:0:
336,242,89140,1,8,0:0:0:0:
288,221,89584,1,8,0:0:0:0:
298,234,90029,1,8,0:0:0:0:
347,213,90473,1,0,0:0:0:0:
355,190,90695,1,0,0:0:0:0:
342,204,90918,1,8,0:0:0:0:
334,223,91362,1,8,0:0:0:0:
389,196,91584,1,0,0:0:0:0:
429,204,91807,1,8,0:0:0:0:
429,204,92029,1,8,0:0:0:0:
312,186,92251,1,8,0:0:0:0:
393,219,92473,1,0,0:0:0:0:
350,218,92695,1,8,0:0:0:0:
369,204,93140,1,8,0:0:0:0:
338,206,93584,1,0,0:0:0:0:
337,206,93807,1,8,0:0:0:0:
336,193,94029,1,8,0:0:0:0:
265,202,94251,1,4,0:0:0:0:
271,188,94473,1,4,0:0:0:0:
271,188,94695,1,4,0:0:0:0:
262,188,94918,1,4,0:0:0:0:
265,202,95140,1,12,0:0:0:0:
271,188,95362,1,12,0:0:0:0:
271,188,95584,1,12,0:0:0:0:
262,188,95807,1,12,0:0:0:0:
304,194,96029,1,4,0:0:0:0:
423,194,96473,1,8,0:0:0:0:
366,219,96695,1,0,0:0:0:0:
246,259,97140,1,8,0:0:0:0:
251,236,97251,1,8,0:0:0:0:
236,173,97362,1,8,0:0:0:0:
316,219,97584,1,0,0:0:0:0:
358,229,97807,1,8,0:0:0:0:
333,259,98029,1,8,0:0:0:0:
292,204,98251,1,0,0:0:0:0:
286,248,98473,1,8,0:0:0:0:
417,222,98918,1,0,0:0:0:0:
417,222,99029,1,0,0:0:0:0:
417,222,99140,1,0,0:0:0:0:
267,206,99362,1,8,0:0:0:0:
331,208,99584,1,0,0:0:0:0:
355,217,99918,1,8,0:0:0:0:
355,217,100251,1,8,0:0:0:0:
315,196,101140,1,8,0:0:0:0:
393,224,101362,1,0,0:0:0:0:
237,160,101584,1,0,0:0:0:0:
237,160,101695,1,0,0:0:0:0:
321,210,101807,1,0,0:0:0:0:
351,219,102029,1,8,0:0:0:0:
379,216,102473,1,12,0:0:0:0:
398,211,102695,1,12,0:0:0:0:
351,200,103140,1,4,0:0:0:0:
295,236,103584,1,8,0:0:0:0:
396,235,103807,1,0,0:0:0:0:
247,216,104251,1,0,0:0:0:0:
244,221,104473,1,0,0:0:0:0:
361,223,104695,1,8,0:0:0:0:
343,233,104918,1,0,0:0:0:0:
301,219,105362,1,8,0:0:0:0:
334,219,105584,1,0,0:0:0:0:
337,200,106029,1,8,0:0:0:0:
206,235,106140,1,8,0:0:0:0:
337,200,106251,1,8,0:0:0:0:
286,197,106473,1,8,0:0:0:0:
339,221,106695,1,0,0:0:0:0:
376,211,107140,1,8,0:0:0:0:
288,219,107362,1,0,0:0:0:0:
345,228,107807,1,8,0:0:0:0:
345,228,108029,1,8,0:0:0:0:
356,235,108473,5,12,0:0:0:0:
356,235,108807,1,12,0:0:0:0:
263,213,109140,1,12,0:0:0:0:
371,228,109362,1,12,0:0:0:0:
304,208,110251,5,0,0:0:0:0:
304,208,110584,1,0,0:0:0:0:
304,208,110918,1,0,0:0:0:0:
304,208,111140,5,8,0:0:0:0:
304,208,111473,1,8,0:0:0:0:
304,208,111807,1,8,0:0:0:0:
240,176,112029,1,0,0:0:0:0:
304,192,112695,1,8,0:0:0:0:
336,192,112918,1,8,0:0:0:0:
304,192,113251,1,8,0:0:0:0:
304,208,113807,5,0,0:0:0:0:
304,208,114140,1,0,0:0:0:0:
304,208,114473,1,0,0:0:0:0:
304,208,114695,5,8,0:0:0:0:
304,208,115029,1,8,0:0:0:0:
304,208,115362,1,8,0:0:0:0:
240,176,115584,1,0,0:0:0:0:
304,176,116251,1,8,0:0:0:0:
304,176,116473,1,8,0:0:0:0:
304,176,116918,1,8,0:0:0:0:
304,208,117362,5,0,0:0:0:0:
304,208,117695,1,0,0:0:0:0:
304,208,118029,1,0,0:0:0:0:
304,208,118251,5,8,0:0:0:0:
304,208,118584,1,8,0:0:0:0:
304,208,118918,1,8,0:0:0:0:
304,208,119140,5,0,0:0:0:0:
304,208,119473,1,0,0:0:0:0:
304,208,119807,1,0,0:0:0:0:
304,208,120029,5,8,0:0:0:0:
352,160,120695,1,8,0:0:0:0:
304,160,120918,1,0,0:0:0:0:
304,160,121251,1,0,0:0:0:0:
304,160,121584,1,0,0:0:0:0:
400,176,121807,1,8,0:0:0:0:
400,176,122140,1,8,0:0:0:0:
400,176,122473,1,8,0:0:0:0:
416,160,122695,1,0,0:0:0:0:
336,176,123140,5,8,0:0:0:0:
336,176,123584,1,8,0:0:0:0:
384,176,123807,1,8,0:0:0:0:
336,160,124029,1,8,0:0:0:0:
416,160,124473,1,4,0:0:0:0:
416,176,124807,1,0,0:0:0:0:
432,192,125140,1,0,0:0:0:0:
432,176,125584,1,0,0:0:0:0:
416,176,125807,1,8,0:0:0:0:
416,176,126029,1,8,0:0:0:0:
384,176,126251,1,0,0:0:0:0:
384,176,126584,1,0,0:0:0:0:
384,176,126918,1,0,0:0:0:0:
400,176,127362,1,8,0:0:0:0:
416,176,127584,1,8,0:0:0:0:
384,176,128029,1,0,0:0:0:0:
384,176,128251,1,0,0:0:0:0:
384,176,128362,1,0,0:0:0:0:
336,128,128473,1,0,0:0:0:0:
336,128,128695,1,0,0:0:0:0:
352,160,128918,1,8,0:0:0:0:
352,160,129140,1,8,0:0:0:0:
336,176,129251,1,8,0:0:0:0:
352,160,129362,1,8,0:0:0:0:
352,160,129584,1,8,0:0:0:0:
368,176,129807,1,0,0:0:0:0:
320,192,130695,1,8,0:0:0:0:
400,176,131140,1,8,0:0:0:0:
400,176,131362,1,0,0:0:0:0:
400,160,131584,1,4,0:0:0:0:
352,176,133362,1,4,0:0:0:0:
400,160,135140,1,0,0:0:0:0:
400,160,135362,1,0,0:0:0:0:
384,176,135584,1,8,0:0:0:0:
432,192,135807,1,8,0:0:0:0:
400,160,136029,1,0,0:0:0:0:
400,160,136251,1,0,0:0:0:0:
368,160,136473,1,0,0:0:0:0:
368,160,136695,1,0,0:0:0:0:
384,192,136918,1,8,0:0:0:0:
371,215,138695,1,4,0:0:0:0:
296,229,139140,1,0,0:0:0:0:
296,229,139362,1,0,0:0:0:0:
296,229,139584,1,0,0:0:0:0:
296,229,139807,1,0,0:0:0:0:
296,229,140029,1,8,0:0:0:0:
213,170,140251,1,0,0:0:0:0:
375,214,140473,1,4,0:0:0:0:
302,146,140918,1,0,0:0:0:0:
199,125,141140,1,0,0:0:0:0:
205,125,141251,1,0,0:0:0:0:
199,125,141362,1,0,0:0:0:0:
199,125,141584,1,0,0:0:0:0:
303,246,141807,1,8,0:0:0:0:
277,226,142029,1,0,0:0:0:0:
372,187,142251,1,4,0:0:0:0:
318,185,142695,1,0,0:0:0:0:
318,185,142918,1,0,0:0:0:0:
318,185,143029,1,0,0:0:0:0:
318,185,143140,1,0,0:0:0:0:
244,175,143362,1,0,0:0:0:0:
244,175,143473,1,0,0:0:0:0:
244,175,143584,1,0,0:0:0:0:
286,252,143807,1,8,0:0:0:0:
213,214,144029,1,4,0:0:0:0:
213,214,144251,1,4,0:0:0:0:
213,214,144473,1,4,0:0:0:0:
213,214,144695,1,4,0:0:0:0:
245,278,145140,1,12,0:0:0:0:
245,278,145362,1,12,0:0:0:0:
330,219,145807,1,4,0:0:0:0:
233,195,146140,1,0,0:0:0:0:
233,195,146251,1,0,0:0:0:0:
301,270,146473,1,8,0:0:0:0:
332,204,146918,1,0,0:0:0:0:
306,225,147140,1,8,0:0:0:0:
328,215,147362,1,8,0:0:0:0:
355,223,147584,1,0,0:0:0:0:
273,223,148029,1,8,0:0:0:0:
393,209,148251,1,0,0:0:0:0:
337,227,148695,1,8,0:0:0:0:
273,181,148918,1,0,0:0:0:0:
337,227,149140,1,0,0:0:0:0:
312,239,149362,1,8,0:0:0:0:
259,188,149695,1,0,0:0:0:0:
271,174,149807,1,0,0:0:0:0:
362,214,150029,1,8,0:0:0:0:
333,148,150473,1,8,0:0:0:0:
371,210,150695,1,0,0:0:0:0:
343,208,150918,1,8,0:0:0:0:
343,208,151140,1,4,0:0:0:0:
224,170,152251,1,0,0:0:0:0:
224,170,152473,1,0,0:0:0:0:
265,237,152695,1,8,0:0:0:0:
235,235,152918,5,4,0:0:0:0:
233,195,153251,1,0,0:0:0:0:
233,195,153362,1,0,0:0:0:0:
301,270,153584,1,8,0:0:0:0:
167,135,153807,1,0,0:0:0:0:
332,204,154029,1,8,0:0:0:0:
306,225,154251,1,0,0:0:0:0:
328,215,154473,1,0,0:0:0:0:
355,223,154695,1,8,0:0:0:0:
299,215,154918,1,0,0:0:0:0:
273,223,155140,1,8,0:0:0:0:
393,209,155362,1,0,0:0:0:0:
273,181,155807,1,0,0:0:0:0:
312,239,156029,1,0,0:0:0:0:
337,227,156251,1,0,0:0:0:0:
337,227,156473,1,8,0:0:0:0:
263,146,156807,1,0,0:0:0:0:
259,188,156918,1,0,0:0:0:0:
362,214,157140,1,8,0:0:0:0:
333,148,157584,1,8,0:0:0:0:
371,210,157807,1,0,0:0:0:0:
343,208,158029,1,8,0:0:0:0:
343,208,158251,1,8,0:0:0:0:
193,130,158473,1,0,0:0:0:0:
400,200,158695,1,0,0:0:0:0:
388,215,158918,1,0,0:0:0:0:
316,211,159362,1,8,0:0:0:0:
330,206,159584,1,8,0:0:0:0:
338,206,159807,1,8,0:0:0:0:
330,219,160029,1,4,0:0:0:0:
233,195,160362,1,0,0:0:0:0:
233,195,160473,1,0,0:0:0:0:
301,270,160695,1,8,0:0:0:0:
300,208,160918,1,8,0:0:0:0:
332,204,161140,1,0,0:0:0:0:
306,225,161362,1,8,0:0:0:0:
328,215,161584,1,8,0:0:0:0:
355,223,161807,1,0,0:0:0:0:
231,144,162029,1,0,0:0:0:0:
273,223,162251,1,8,0:0:0:0:
393,209,162473,1,0,0:0:0:0:
337,227,162918,1,8,0:0:0:0:
273,181,163140,1,0,0:0:0:0:
337,227,163362,1,0,0:0:0:0:
312,239,163584,1,8,0:0:0:0:
259,188,163918,1,0,0:0:0:0:
271,174,164029,1,0,0:0:0:0:
362,214,164251,1,8,0:0:0:0:
279,203,164473,1,8,0:0:0:0:
333,148,164695,1,0,0:0:0:0:
371,210,164918,1,0,0:0:0:0:
343,208,165140,1,8,0:0:0:0:
343,208,165362,1,0,0:0:0:0:
312,195,166473,1,0,0:0:0:0:
312,195,166695,1,0,0:0:0:0:
312,195,166918,1,0,0:0:0:0:
294,230,167140,1,4,0:0:0:0:
233,195,167473,1,0,0:0:0:0:
233,195,167584,1,0,0:0:0:0:
301,270,167807,1,8,0:0:0:0:
288,140,168029,1,0,0:0:0:0:
332,204,168251,1,8,0:0:0:0:
306,225,168473,1,0,0:0:0:0:
328,215,168695,1,0,0:0:0:0:
355,223,168918,1,0,0:0:0:0:
253,227,169140,1,8,0:0:0:0:
273,223,169362,1,8,0:0:0:0:
393,209,169584,1,0,0:0:0:0:
273,181,170029,1,0,0:0:0:0:
312,239,170251,1,0,0:0:0:0:
337,227,170473,1,0,0:0:0:0:
337,227,170695,1,8,0:0:0:0:
259,188,171029,1,0,0:0:0:0:
271,174,171140,1,0,0:0:0:0:
362,214,171362,1,8,0:0:0:0:
333,148,171807,1,8,0:0:0:0:
371,210,172029,1,0,0:0:0:0:
343,208,172251,1,8,0:0:0:0:
343,208,172473,1,8,0:0:0:0:
303,204,172695,1,0,0:0:0:0:
400,200,172918,1,8,0:0:0:0:
388,215,173140,1,8,0:0:0:0:
316,211,173584,1,8,0:0:0:0:
330,206,173807,1,8,0:0:0:0:
338,206,174029,1,8,0:0:0:0:
330,219,174251,1,4,0:0:0:0:
233,195,174584,1,0,0:0:0:0:
233,195,174695,1,0,0:0:0:0:
301,270,174918,1,8,0:0:0:0:
316,212,175140,1,8,0:0:0:0:
332,204,175362,1,0,0:0:0:0:
306,225,175584,1,8,0:0:0:0:
328,215,175807,1,8,0:0:0:0:
355,223,176029,1,0,0:0:0:0:
427,208,176251,1,0,0:0:0:0:
273,223,176473,1,8,0:0:0:0:
393,209,176695,1,0,0:0:0:0:
337,227,177140,1,8,0:0:0:0:
273,181,177362,1,0,0:0:0:0:
337,227,177584,1,0,0:0:0:0:
312,239,177807,1,8,0:0:0:0:
259,188,178140,1,0,0:0:0:0:
271,174,178251,1,0,0:0:0:0:
362,214,178473,5,8,0:0:0:0:
333,148,178695,1,8,0:0:0:0:
364,276,178918,1,0,0:0:0:0:
371,210,179140,1,0,0:0:0:0:
343,208,179362,5,8,0:0:0:0:
337,181,180473,5,8,0:0:0:0:
337,181,180807,1,8,0:0:0:0:
338,194,181140,1,8,0:0:0:0:
337,181,181362,1,4,0:0:0:0:
252,159,181807,1,0,0:0:0:0:
252,159,182251,1,0,0:0:0:0:
400,225,182473,1,0,0:0:0:0:
400,225,182695,1,0,0:0:0:0:
400,225,182918,1,0,0:0:0:0:
401,169,183140,1,8,0:0:0:0:
468,234,183584,1,0,0:0:0:0:
252,159,184029,1,0,0:0:0:0:
400,225,184251,1,0,0:0:0:0:
400,225,184473,1,0,0:0:0:0:
401,169,184695,1,8,0:0:0:0:
400,225,184918,1,0,0:0:0:0:
171,179,185362,1,0,0:0:0:0:
252,159,185807,1,0,0:0:0:0:
400,225,186029,1,0,0:0:0:0:
401,169,186251,1,8,0:0:0:0:
400,225,186473,1,0,0:0:0:0:
400,225,186695,1,0,0:0:0:0:
196,152,187140,1,0,0:0:0:0:
252,159,187584,1,0,0:0:0:0:
401,169,187807,1,8,0:0:0:0:
400,225,188029,1,0,0:0:0:0:
400,225,188251,1,0,0:0:0:0:
400,225,188473,1,0,0:0:0:0:
193,122,188918,1,0,0:0:0:0:
401,169,189362,1,8,0:0:0:0:
252,159,189584,1,0,0:0:0:0:
400,225,189807,1,0,0:0:0:0:
400,225,190029,1,0,0:0:0:0:
400,225,190251,1,0,0:0:0:0:
205,138,190695,1,0,0:0:0:0:
401,169,191140,1,8,0:0:0:0:
252,159,191362,1,8,0:0:0:0:
400,225,191584,1,0,0:0:0:0:
400,225,191807,1,0,0:0:0:0:
400,225,192029,1,0,0:0:0:0:
339,152,192473,1,0,0:0:0:0:
401,169,192918,1,8,0:0:0:0:
252,159,193140,1,8,0:0:0:0:
400,225,193362,1,8,0:0:0:0:
400,225,193584,1,0,0:0:0:0:
400,225,193807,1,0,0:0:0:0:
190,150,194251,1,0,0:0:0:0:
401,169,194695,1,8,0:0:0:0:
252,159,194918,1,8,0:0:0:0:
400,225,195140,1,8,0:0:0:0:
400,225,195362,1,8,0:0:0:0:
400,225,195584,1,0,0:0:0:0:
230,205,195918,1,0,0:0:0:0:
230,205,196473,1,0,0:0:0:0:
230,205,196807,1,0,0:0:0:0:
384,160,197362,5,4,0:0:0:0:
400,192,197695,1,8,0:0:0:0:
448,176,198029,1,0,0:0:0:0:
400,176,198473,1,0,0:0:0:0:
400,160,198695,1,0,0:0:0:0:
384,176,198918,1,8,0:0:0:0:
384,176,199140,1,0,0:0:0:0:
432,160,199473,1,8,0:0:0:0:
272,224,199695,1,0,0:0:0:0:
416,176,199807,1,0,0:0:0:0:
384,208,200695,1,8,0:0:0:0:
288,192,200918,1,0,0:0:0:0:
288,192,201251,1,0,0:0:0:0:
464,192,201584,1,8,0:0:0:0:
416,192,202029,1,0,0:0:0:0:
432,160,202251,1,8,0:0:0:0:
384,192,202473,1,0,0:0:0:0:
384,176,202695,1,0,0:0:0:0:
384,176,203029,1,0,0:0:0:0:
352,192,203251,5,8,0:0:0:0:
464,192,203362,1,8,0:0:0:0:
336,176,203807,1,8,0:0:0:0:
336,176,204029,1,8,0:0:0:0:
336,176,204251,1,8,0:0:0:0:
384,160,204473,1,4,0:0:0:0:
400,192,204807,1,8,0:0:0:0:
448,176,205140,1,0,0:0:0:0:
400,176,205584,1,0,0:0:0:0:
400,160,205807,1,0,0:0:0:0:
384,176,206029,1,8,0:0:0:0:
384,176,206251,1,0,0:0:0:0:
432,160,206584,1,8,0:0:0:0:
416,208,206807,1,0,0:0:0:0:
416,176,206918,1,0,0:0:0:0:
480,176,207807,1,8,0:0:0:0:
288,192,208029,1,0,0:0:0:0:
288,192,208362,1,0,0:0:0:0:
464,192,208695,1,8,0:0:0:0:
416,192,209140,1,0,0:0:0:0:
432,160,209362,1,8,0:0:0:0:
384,192,209584,1,8,0:0:0:0:
384,176,209807,1,0,0:0:0:0:
464,192,210140,1,8,0:0:0:0:
400,176,210362,1,0,0:0:0:0:
384,192,210473,1,0,0:0:0:0:
384,160,210918,1,8,0:0:0:0:
352,192,211140,1,0,0:0:0:0:
352,192,211362,1,0,0:0:0:0:
416,192,211584,1,8,0:0:0:0:
