osu file format v14

[General]
AudioFilename: audio.ogg
AudioLeadIn: 0
PreviewTime: 52449
Countdown: 0
SampleSet: Normal
StackLeniency: 0.7
Mode: 1
LetterboxInBreaks: 0
WidescreenStoryboard: 1

[Editor]
DistanceSpacing: 1.2
BeatDivisor: 4
GridSize: 16
TimelineZoom: 1.4

[Metadata]
Title:IF
TitleUnicode:イフ
Artist:Tsukuyomi
ArtistUnicode:月詠み
Creator:cdh
Version:Hivie's Oni
Source:プロジェクトセカイ カラフルステージ! feat. 初音ミク
Tags:mintong89 cdhsausageboy Hivie 桐谷遥 Kiritani Haruka つなぐPainful Hope Connecting Painful Hope HATSUNE MIKU: COLORFUL STAGE! MORE MORE JUMP! JUMP! モモジャン momojan MMJ Project Sekai プロセカ Proseka Puroseka Video Rhythm Mobile Game Yurry Canon YurryCanon ユリイ・カノン Yue Epoch とうかさ toukasa Japanese Rock J-rock Jrock Pop J-pop Jpop 2943 ツクヨミ アナザームーン another moon 1st ep
BeatmapID:4264523
BeatmapSetID:1938632

[Difficulty]
HPDrainRate:5.3
CircleSize:2
OverallDifficulty:5
ApproachRate:10
SliderMultiplier:1.4
SliderTickRate:1

[Events]
//Background and Video events
0,0,"random girl.jpg",0,0
//Break Periods
//Storyboard Layer 0 (Background)
//Storyboard Layer 1 (Fail)
//Storyboard Layer 2 (Pass)
//Storyboard Layer 3 (Foreground)
//Storyboard Layer 4 (Overlay)
//Storyboard Sound Samples

[TimingPoints]
1808,444.444444444444,4,1,0,80,1,0
10696,444.444444444444,4,1,0,80,1,0
53362,-100,4,1,0,80,0,1
81807,-100,4,1,0,80,0,0
138695,-100,4,1,0,80,0,1
144695,-100,4,1,0,80,0,0
145807,-100,4,1,0,80,0,1
151807,-100,4,1,0,80,0,0
152918,-100,4,1,0,80,0,1
179584,-100,4,1,0,80,0,0
197362,444.444444444444,4,1,0,80,1,0

[HitObjects]
256,191,1808,5,0,0:0:0:0:
256,192,2030,1,0,0:0:0:0:
256,192,2252,1,8,0:0:0:0:
256,192,2474,1,0,0:0:0:0:
256,192,2919,1,8,0:0:0:0:
256,192,3141,1,0,0:0:0:0:
257,192,3363,1,8,0:0:0:0:
256,192,3585,1,0,0:0:0:0:
256,192,3807,1,0,0:0:0:0:
256,192,4030,1,8,0:0:0:0:
256,192,4252,1,8,0:0:0:0:
256,192,4696,1,8,0:0:0:0:
257,192,4919,1,0,0:0:0:0:
257,192,5141,1,8,0:0:0:0:
256,192,5363,1,0,0:0:0:0:
257,191,5807,1,0,0:0:0:0:
257,192,6030,1,8,0:0:0:0:
257,192,6252,1,0,0:0:0:0:
257,192,6474,1,8,0:0:0:0:
256,192,6696,1,0,0:0:0:0:
256,191,6919,1,0,0:0:0:0:
257,192,7141,1,8,0:0:0:0:
257,192,7363,1,0,0:0:0:0:
257,192,7585,1,8,0:0:0:0:
257,192,7807,1,8,0:0:0:0:
256,192,8030,1,0,0:0:0:0:
257,192,8252,1,8,0:0:0:0:
257,192,8474,1,0,0:0:0:0:
257,192,8696,1,0,0:0:0:0:
257,192,8919,1,8,0:0:0:0:
255,191,9141,1,0,0:0:0:0:
257,192,9252,1,8,0:0:0:0:
256,192,9474,1,0,0:0:0:0:
256,192,9585,1,8,0:0:0:0:
257,192,9807,1,8,0:0:0:0:
256,192,9919,1,0,0:0:0:0:
256,192,10030,1,0,0:0:0:0:
257,192,10141,1,8,0:0:0:0:
256,192,10363,1,0,0:0:0:0:
257,192,10474,1,8,0:0:0:0:
255,191,10696,1,0,0:0:0:0:
256,192,11029,1,8,0:0:0:0:
257,192,11251,1,0,0:0:0:0:
256,192,11362,1,8,0:0:0:0:
257,192,11584,1,0,0:0:0:0:
257,192,11807,1,8,0:0:0:0:
256,192,11918,1,8,0:0:0:0:
257,192,12029,1,0,0:0:0:0:
257,192,12251,1,8,0:0:0:0:
256,192,12473,1,0,0:0:0:0:
257,192,12584,1,8,0:0:0:0:
257,192,12807,1,0,0:0:0:0:
256,191,13029,1,8,0:0:0:0:
257,192,13140,1,8,0:0:0:0:
256,191,13585,1,0,0:0:0:0:
257,192,13695,1,8,0:0:0:0:
257,192,13807,1,0,0:0:0:0:
256,192,14029,1,8,0:0:0:0:
256,191,14251,1,0,0:0:0:0:
256,192,14362,1,8,0:0:0:0:
256,192,14584,1,0,0:0:0:0:
256,192,14807,1,8,0:0:0:0:
256,192,14918,1,8,0:0:0:0:
256,192,15140,1,0,0:0:0:0:
256,192,15362,1,8,0:0:0:0:
256,192,15584,1,0,0:0:0:0:
256,192,15695,1,0,0:0:0:0:
256,192,15807,1,8,0:0:0:0:
256,191,16029,1,0,0:0:0:0:
256,192,16140,1,8,0:0:0:0:
256,192,16362,1,0,0:0:0:0:
256,192,16584,1,0,0:0:0:0:
257,192,16695,1,8,0:0:0:0:
257,191,17140,1,8,0:0:0:0:
256,192,17251,1,8,0:0:0:0:
257,192,17362,1,8,0:0:0:0:
257,191,17584,1,8,0:0:0:0:
255,191,17807,1,0,0:0:0:0:
257,192,17918,1,8,0:0:0:0:
256,192,18140,1,8,0:0:0:0:
256,192,18362,1,0,0:0:0:0:
257,191,18473,1,8,0:0:0:0:
257,192,18695,1,0,0:0:0:0:
257,192,18918,1,8,0:0:0:0:
257,192,19140,1,0,0:0:0:0:
256,192,19251,1,8,0:0:0:0:
257,192,19362,1,0,0:0:0:0:
256,192,19584,1,0,0:0:0:0:
257,192,19695,1,8,0:0:0:0:
257,192,19918,1,0,0:0:0:0:
256,191,20140,1,8,0:0:0:0:
257,192,20251,1,0,0:0:0:0:
256,191,20696,1,8,0:0:0:0:
257,192,20807,1,8,0:0:0:0:
257,192,20918,1,0,0:0:0:0:
257,192,21140,1,8,0:0:0:0:
256,191,21362,1,0,0:0:0:0:
256,192,21473,1,8,0:0:0:0:
256,192,21695,1,0,0:0:0:0:
256,192,21918,1,8,0:0:0:0:
256,192,22029,1,8,0:0:0:0:
256,192,22251,1,0,0:0:0:0:
256,192,22473,1,8,0:0:0:0:
256,192,22695,1,0,0:0:0:0:
256,192,22807,1,0,0:0:0:0:
256,192,22918,1,8,0:0:0:0:
256,191,23140,1,0,0:0:0:0:
256,192,23251,1,8,0:0:0:0:
256,192,23473,1,0,0:0:0:0:
257,191,23695,1,8,0:0:0:0:
257,192,23807,1,0,0:0:0:0:
255,191,24029,1,0,0:0:0:0:
256,191,24251,1,8,0:0:0:0:
255,191,24362,1,8,0:0:0:0:
256,191,24473,1,0,0:0:0:0:
256,191,24695,1,8,0:0:0:0:
255,192,24918,1,4,0:0:0:0:
256,192,25251,1,0,0:0:0:0:
255,192,25584,1,8,0:0:0:0:
255,191,26029,1,0,0:0:0:0:
255,191,26251,1,8,0:0:0:0:
255,192,26473,1,8,0:0:0:0:
255,191,26695,1,0,0:0:0:0:
255,191,27029,1,8,0:0:0:0:
255,191,27362,1,8,0:0:0:0:
255,191,27584,1,0,0:0:0:0:
256,191,27807,1,0,0:0:0:0:
256,191,27918,1,0,0:0:0:0:
255,192,28029,1,8,0:0:0:0:
256,191,28251,1,8,0:0:0:0:
255,192,28473,1,0,0:0:0:0:
255,191,28807,1,8,0:0:0:0:
255,191,29140,1,0,0:0:0:0:
255,191,29584,1,0,0:0:0:0:
255,191,29807,1,8,0:0:0:0:
255,191,30029,1,8,0:0:0:0:
255,191,30140,1,8,0:0:0:0:
255,191,30251,1,0,0:0:0:0:
255,191,30584,1,8,0:0:0:0:
255,191,30918,1,8,0:0:0:0:
255,191,31362,1,8,0:0:0:0:
255,191,31584,1,0,0:0:0:0:
256,191,31807,1,8,0:0:0:0:
255,191,31918,1,8,0:0:0:0:
255,191,32029,1,0,0:0:0:0:
255,191,32362,1,8,0:0:0:0:
255,191,32695,1,0,0:0:0:0:
255,192,33140,1,0,0:0:0:0:
255,192,33362,1,8,0:0:0:0:
256,192,33584,1,0,0:0:0:0:
256,192,33695,1,8,0:0:0:0:
256,192,33807,1,0,0:0:0:0:
255,192,34140,1,8,0:0:0:0:
255,192,34473,1,0,0:0:0:0:
255,192,34695,1,8,0:0:0:0:
255,191,34918,1,0,0:0:0:0:
255,191,35029,1,0,0:0:0:0:
255,191,35140,1,8,0:0:0:0:
255,191,35362,1,0,0:0:0:0:
255,191,35584,1,8,0:0:0:0:
255,191,35918,1,0,0:0:0:0:
255,191,36251,1,8,0:0:0:0:
256,191,36695,1,0,0:0:0:0:
255,191,36918,1,8,0:0:0:0:
255,191,37140,1,0,0:0:0:0:
255,191,37362,1,8,0:0:0:0:
255,191,37473,1,0,0:0:0:0:
255,191,37695,1,0,0:0:0:0:
255,191,37807,1,8,0:0:0:0:
255,191,38029,1,0,0:0:0:0:
255,191,38251,1,8,0:0:0:0:
255,191,38362,1,8,0:0:0:0:
255,191,38473,1,0,0:0:0:0:
256,191,38584,1,8,0:0:0:0:
255,191,38695,1,0,0:0:0:0:
255,191,38918,1,8,0:0:0:0:
255,191,39140,1,4,0:0:0:0:
256,191,39362,1,0,0:0:0:0:
255,191,39473,1,8,0:0:0:0:
255,191,39695,1,8,0:0:0:0:
255,191,39807,1,8,0:0:0:0:
255,191,40029,1,0,0:0:0:0:
256,191,40251,1,8,0:0:0:0:
255,191,40473,1,8,0:0:0:0:
255,191,40695,1,8,0:0:0:0:
256,191,40918,1,0,0:0:0:0:
255,191,41140,1,8,0:0:0:0:
256,191,41251,1,0,0:0:0:0:
255,191,41473,1,8,0:0:0:0:
255,192,41584,1,8,0:0:0:0:
255,191,41807,1,0,0:0:0:0:
255,192,42029,1,8,0:0:0:0:
255,192,42251,1,8,0:0:0:0:
255,191,42695,1,0,0:0:0:0:
255,191,42918,1,8,0:0:0:0:
255,191,43029,1,0,0:0:0:0:
255,191,43140,1,8,0:0:0:0:
255,191,43251,1,8,0:0:0:0:
255,191,43362,1,0,0:0:0:0:
255,192,43584,1,8,0:0:0:0:
255,192,43695,1,8,0:0:0:0:
255,192,43918,1,0,0:0:0:0:
255,192,44029,1,8,0:0:0:0:
255,191,44251,1,0,0:0:0:0:
256,191,44473,1,8,0:0:0:0:
256,191,44918,1,8,0:0:0:0:
256,191,45140,1,0,0:0:0:0:
255,191,45362,1,8,0:0:0:0:
255,191,45473,1,8,0:0:0:0:
255,191,45584,1,0,0:0:0:0:
255,191,45695,1,0,0:0:0:0:
255,191,45807,1,8,0:0:0:0:
255,191,46029,1,8,0:0:0:0:
255,191,46251,1,4,0:0:0:0:
255,191,48029,1,4,0:0:0:0:
255,191,49807,1,0,0:0:0:0:
255,191,50029,1,0,0:0:0:0:
255,191,50251,1,8,0:0:0:0:
255,191,50362,1,0,0:0:0:0:
255,191,50473,1,8,0:0:0:0:
255,191,50584,1,8,0:0:0:0:
255,191,50695,1,0,0:0:0:0:
255,191,50918,1,8,0:0:0:0:
255,191,51140,1,0,0:0:0:0:
255,191,51251,1,0,0:0:0:0:
255,191,51362,1,8,0:0:0:0:
255,191,51473,1,8,0:0:0:0:
255,191,51584,1,0,0:0:0:0:
256,191,53362,1,4,0:0:0:0:
257,192,53695,1,8,0:0:0:0:
257,192,53807,1,0,0:0:0:0:
256,192,54029,1,8,0:0:0:0:
255,192,54251,1,0,0:0:0:0:
256,192,54473,1,8,0:0:0:0:
256,192,54695,1,0,0:0:0:0:
256,192,54807,1,0,0:0:0:0:
256,191,54918,1,8,0:0:0:0:
256,192,55140,1,0,0:0:0:0:
257,192,55362,1,8,0:0:0:0:
257,192,55473,1,8,0:0:0:0:
257,192,55584,1,0,0:0:0:0:
256,192,55807,1,8,0:0:0:0:
256,192,56029,1,0,0:0:0:0:
256,192,56251,1,8,0:0:0:0:
256,192,56362,1,0,0:0:0:0:
257,192,56473,1,8,0:0:0:0:
257,192,56695,1,8,0:0:0:0:
257,192,56918,1,0,0:0:0:0:
257,192,57362,1,8,0:0:0:0:
256,192,57584,1,8,0:0:0:0:
256,191,57695,1,8,0:0:0:0:
257,192,57807,1,0,0:0:0:0:
257,192,58029,1,8,0:0:0:0:
257,192,58251,1,0,0:0:0:0:
257,192,58362,1,0,0:0:0:0:
256,192,58473,1,8,0:0:0:0:
256,192,58695,1,0,0:0:0:0:
256,192,58918,1,8,0:0:0:0:
256,192,59140,1,0,0:0:0:0:
257,191,59362,1,8,0:0:0:0:
256,192,59473,1,0,0:0:0:0:
255,191,59584,1,0,0:0:0:0:
256,191,59807,1,8,0:0:0:0:
256,192,59918,1,8,0:0:0:0:
257,191,60029,1,0,0:0:0:0:
256,192,60140,1,0,0:0:0:0:
255,191,60251,1,8,0:0:0:0:
256,191,60473,1,4,0:0:0:0:
257,192,60807,1,8,0:0:0:0:
257,192,60918,1,0,0:0:0:0:
256,192,61140,1,8,0:0:0:0:
255,192,61362,1,0,0:0:0:0:
256,192,61584,1,8,0:0:0:0:
256,192,61695,1,0,0:0:0:0:
256,192,61807,1,8,0:0:0:0:
256,192,61918,1,8,0:0:0:0:
256,191,62029,1,0,0:0:0:0:
256,192,62251,1,8,0:0:0:0:
257,192,62473,1,0,0:0:0:0:
257,192,62584,1,0,0:0:0:0:
257,192,62695,1,8,0:0:0:0:
256,192,62918,1,8,0:0:0:0:
256,192,63140,1,0,0:0:0:0:
256,192,63362,1,8,0:0:0:0:
256,192,63473,1,0,0:0:0:0:
257,192,63584,1,8,0:0:0:0:
257,192,63807,1,8,0:0:0:0:
257,192,64029,1,0,0:0:0:0:
257,192,64473,1,8,0:0:0:0:
256,192,64695,1,8,0:0:0:0:
256,191,64807,1,8,0:0:0:0:
257,192,64918,1,0,0:0:0:0:
257,192,65140,1,8,0:0:0:0:
257,192,65362,1,0,0:0:0:0:
257,192,65473,1,0,0:0:0:0:
256,192,65584,1,8,0:0:0:0:
257,192,65807,1,0,0:0:0:0:
256,192,66029,1,0,0:0:0:0:
256,192,66140,1,0,0:0:0:0:
256,192,66251,1,8,0:0:0:0:
256,192,66362,1,8,0:0:0:0:
256,192,66473,1,8,0:0:0:0:
256,191,66584,1,8,0:0:0:0:
257,192,66695,1,0,0:0:0:0:
256,192,66918,1,8,0:0:0:0:
256,192,67140,1,0,0:0:0:0:
256,192,67251,1,0,0:0:0:0:
256,192,67362,1,8,0:0:0:0:
256,191,67584,1,4,0:0:0:0:
257,192,67918,1,8,0:0:0:0:
257,192,68029,1,0,0:0:0:0:
256,192,68251,1,8,0:0:0:0:
255,192,68473,1,0,0:0:0:0:
256,192,68695,1,8,0:0:0:0:
256,192,68918,1,0,0:0:0:0:
256,192,69029,1,0,0:0:0:0:
256,191,69140,1,8,0:0:0:0:
256,192,69362,1,0,0:0:0:0:
257,192,69584,1,8,0:0:0:0:
257,192,69695,1,8,0:0:0:0:
257,192,69807,1,0,0:0:0:0:
256,192,69918,1,0,0:0:0:0:
256,192,70029,1,8,0:0:0:0:
256,192,70251,1,0,0:0:0:0:
256,192,70473,1,8,0:0:0:0:
256,192,70584,1,0,0:0:0:0:
257,192,70695,1,8,0:0:0:0:
257,192,70918,1,8,0:0:0:0:
257,192,71140,1,0,0:0:0:0:
257,192,71584,1,8,0:0:0:0:
256,192,71807,1,8,0:0:0:0:
256,191,71918,1,8,0:0:0:0:
257,192,72029,1,0,0:0:0:0:
257,192,72251,1,8,0:0:0:0:
257,192,72473,1,0,0:0:0:0:
257,192,72584,1,0,0:0:0:0:
256,192,72695,1,8,0:0:0:0:
257,192,72807,1,8,0:0:0:0:
256,192,72918,1,0,0:0:0:0:
256,192,73140,1,8,0:0:0:0:
256,192,73362,1,0,0:0:0:0:
257,191,73584,1,8,0:0:0:0:
256,192,73695,1,0,0:0:0:0:
255,191,73807,1,0,0:0:0:0:
256,191,74029,1,8,0:0:0:0:
256,192,74140,1,0,0:0:0:0:
257,191,74251,1,8,0:0:0:0:
256,192,74362,1,8,0:0:0:0:
255,191,74473,1,0,0:0:0:0:
256,191,74695,1,4,0:0:0:0:
257,192,75029,1,8,0:0:0:0:
257,192,75140,1,0,0:0:0:0:
256,192,75362,1,8,0:0:0:0:
255,192,75584,1,0,0:0:0:0:
256,192,75807,1,8,0:0:0:0:
256,192,75918,1,8,0:0:0:0:
256,192,76029,1,0,0:0:0:0:
256,192,76140,1,8,0:0:0:0:
256,191,76251,1,0,0:0:0:0:
256,192,76473,1,8,0:0:0:0:
257,192,76695,1,0,0:0:0:0:
257,192,76807,1,0,0:0:0:0:
257,192,76918,1,8,0:0:0:0:
256,192,77140,1,8,0:0:0:0:
256,192,77362,1,0,0:0:0:0:
256,192,77584,1,8,0:0:0:0:
256,192,77695,1,0,0:0:0:0:
257,192,77807,1,8,0:0:0:0:
257,192,78029,1,8,0:0:0:0:
257,192,78251,1,0,0:0:0:0:
257,192,78695,1,0,0:0:0:0:
256,192,78918,1,8,0:0:0:0:
256,191,79029,1,8,0:0:0:0:
257,192,79140,1,0,0:0:0:0:
257,192,79362,1,8,0:0:0:0:
257,192,79584,1,0,0:0:0:0:
257,192,79695,1,0,0:0:0:0:
256,192,79807,1,8,0:0:0:0:
257,192,80029,1,8,0:0:0:0:
256,191,80251,1,0,0:0:0:0:
256,192,80362,1,8,0:0:0:0:
256,191,80584,1,0,0:0:0:0:
257,191,80695,1,8,0:0:0:0:
257,192,80918,1,8,0:0:0:0:
256,192,81029,1,0,0:0:0:0:
256,191,81140,1,0,0:0:0:0:
256,191,81251,1,8,0:0:0:0:
256,191,81473,1,0,0:0:0:0:
257,191,81584,1,8,0:0:0:0:
255,192,81807,1,4,0:0:0:0:
255,192,82251,1,0,0:0:0:0:
255,192,82473,1,8,0:0:0:0:
255,192,82695,1,0,0:0:0:0:
255,191,82918,1,8,0:0:0:0:
255,192,83029,1,8,0:0:0:0:
255,191,83140,1,0,0:0:0:0:
255,191,83362,1,8,0:0:0:0:
255,191,83584,1,0,0:0:0:0:
255,191,83807,1,8,0:0:0:0:
255,191,84029,1,0,0:0:0:0:
255,191,84251,1,8,0:0:0:0:
255,191,84473,1,0,0:0:0:0:
255,191,84695,1,0,0:0:0:0:
255,191,84807,1,8,0:0:0:0:
255,191,84918,1,0,0:0:0:0:
255,191,85140,1,8,0:0:0:0:
255,191,85362,1,0,0:0:0:0:
256,192,85584,1,8,0:0:0:0:
256,192,85807,1,0,0:0:0:0:
256,192,86029,1,8,0:0:0:0:
256,192,86140,1,0,0:0:0:0:
256,192,86251,1,0,0:0:0:0:
256,192,86473,1,8,0:0:0:0:
255,191,86695,1,0,0:0:0:0:
255,191,86918,1,8,0:0:0:0:
255,192,87140,1,0,0:0:0:0:
255,192,87362,1,8,0:0:0:0:
255,192,87584,1,0,0:0:0:0:
255,192,87695,1,0,0:0:0:0:
255,192,87807,1,8,0:0:0:0:
255,192,88029,1,0,0:0:0:0:
255,192,88251,1,8,0:0:0:0:
255,192,88362,1,8,0:0:0:0:
255,192,88473,1,0,0:0:0:0:
255,192,88918,1,0,0:0:0:0:
255,191,89140,1,8,0:0:0:0:
255,191,89362,1,0,0:0:0:0:
255,191,89584,1,8,0:0:0:0:
255,191,89695,1,8,0:0:0:0:
255,191,89807,1,0,0:0:0:0:
255,191,90029,1,8,0:0:0:0:
255,191,90251,1,0,0:0:0:0:
255,191,90473,1,8,0:0:0:0:
255,191,90695,1,0,0:0:0:0:
255,191,90918,1,8,0:0:0:0:
255,191,91029,1,0,0:0:0:0:
255,191,91140,1,0,0:0:0:0:
255,191,91362,1,8,0:0:0:0:
255,191,91584,1,0,0:0:0:0:
255,191,91807,1,8,0:0:0:0:
255,191,91918,1,8,0:0:0:0:
255,191,92029,1,0,0:0:0:0:
256,191,92140,1,0,0:0:0:0:
255,191,92251,1,8,0:0:0:0:
255,191,92473,1,0,0:0:0:0:
255,191,92695,1,8,0:0:0:0:
255,191,92918,1,0,0:0:0:0:
255,191,93140,1,8,0:0:0:0:
255,191,93251,1,8,0:0:0:0:
255,191,93362,1,8,0:0:0:0:
255,191,93584,1,8,0:0:0:0:
256,192,93807,1,0,0:0:0:0:
256,192,94029,1,8,0:0:0:0:
255,191,94251,1,0,0:0:0:0:
255,191,94362,1,0,0:0:0:0:
255,191,94473,1,8,0:0:0:0:
255,191,94695,1,0,0:0:0:0:
255,191,94918,1,8,0:0:0:0:
255,191,95140,1,0,0:0:0:0:
255,191,95251,1,0,0:0:0:0:
255,191,95362,1,8,0:0:0:0:
255,191,95473,1,8,0:0:0:0:
255,191,95584,1,0,0:0:0:0:
255,191,95807,1,0,0:0:0:0:
255,191,95918,1,8,0:0:0:0:
255,191,96029,1,0,0:0:0:0:
255,192,96473,1,0,0:0:0:0:
255,192,96695,1,8,0:0:0:0:
255,192,96918,1,0,0:0:0:0:
255,192,97140,1,8,0:0:0:0:
255,192,97251,1,8,0:0:0:0:
255,192,97362,1,0,0:0:0:0:
255,191,97584,1,8,0:0:0:0:
255,191,97807,1,0,0:0:0:0:
255,191,98029,1,8,0:0:0:0:
255,191,98251,1,0,0:0:0:0:
255,191,98362,1,8,0:0:0:0:
255,191,98473,1,8,0:0:0:0:
255,192,98695,1,0,0:0:0:0:
255,192,98918,1,8,0:0:0:0:
255,192,99029,1,8,0:0:0:0:
255,192,99140,1,8,0:0:0:0:
255,192,99362,1,8,0:0:0:0:
255,192,99584,1,0,0:0:0:0:
255,191,99918,1,8,0:0:0:0:
255,191,100140,1,0,0:0:0:0:
255,191,100251,1,8,0:0:0:0:
255,191,100473,1,0,0:0:0:0:
255,191,100695,1,8,0:0:0:0:
255,191,100807,1,0,0:0:0:0:
255,191,100918,1,8,0:0:0:0:
255,191,101140,1,8,0:0:0:0:
255,191,101362,1,0,0:0:0:0:
255,191,101584,1,8,0:0:0:0:
255,191,101807,1,0,0:0:0:0:
255,191,101918,1,0,0:0:0:0:
255,191,102029,1,8,0:0:0:0:
255,191,102251,1,0,0:0:0:0:
255,191,102473,1,8,0:0:0:0:
255,191,102584,1,0,0:0:0:0:
255,191,102695,1,8,0:0:0:0:
255,192,103140,1,8,0:0:0:0:
255,192,103251,1,0,0:0:0:0:
255,191,103473,1,0,0:0:0:0:
255,191,103584,1,8,0:0:0:0:
255,191,103695,1,0,0:0:0:0:
255,191,103918,1,8,0:0:0:0:
255,191,104140,1,0,0:0:0:0:
255,191,104251,1,8,0:0:0:0:
255,191,104362,1,8,0:0:0:0:
255,191,104473,1,0,0:0:0:0:
255,191,104695,1,8,0:0:0:0:
255,191,104918,1,0,0:0:0:0:
255,191,105029,1,0,0:0:0:0:
255,191,105251,1,8,0:0:0:0:
255,191,105362,1,0,0:0:0:0:
255,191,105473,1,8,0:0:0:0:
255,191,105695,1,8,0:0:0:0:
255,191,105918,1,0,0:0:0:0:
255,191,106029,1,8,0:0:0:0:
255,191,106140,1,0,0:0:0:0:
255,191,106251,1,8,0:0:0:0:
255,191,106473,1,8,0:0:0:0:
255,191,106695,1,0,0:0:0:0:
255,191,106918,1,8,0:0:0:0:
255,191,107140,1,0,0:0:0:0:
255,191,107362,1,8,0:0:0:0:
255,191,107584,1,0,0:0:0:0:
255,191,107807,1,8,0:0:0:0:
255,191,107918,1,8,0:0:0:0:
255,191,108029,1,0,0:0:0:0:
255,191,108140,1,0,0:0:0:0:
255,191,108251,1,8,0:0:0:0:
255,191,108473,1,4,0:0:0:0:
255,191,108807,1,12,0:0:0:0:
256,192,109140,1,4,0:0:0:0:
255,191,109362,1,12,0:0:0:0:
255,192,109584,1,0,0:0:0:0:
255,191,109807,1,8,0:0:0:0:
255,191,109918,1,8,0:0:0:0:
255,191,110029,1,8,0:0:0:0:
256,192,110251,1,4,0:0:0:0:
256,192,110584,1,0,0:0:0:0:
256,192,110918,1,0,0:0:0:0:
256,192,111140,1,8,0:0:0:0:
256,192,111473,1,8,0:0:0:0:
256,192,111807,1,8,0:0:0:0:
256,192,112029,1,0,0:0:0:0:
256,192,112362,1,0,0:0:0:0:
256,192,112695,1,8,0:0:0:0:
257,192,112807,1,8,0:0:0:0:
256,192,112918,1,0,0:0:0:0:
256,192,113140,1,8,0:0:0:0:
256,192,113251,1,8,0:0:0:0:
256,192,113584,1,8,0:0:0:0:
256,192,113807,1,0,0:0:0:0:
255,191,114140,1,8,0:0:0:0:
255,191,114473,1,8,0:0:0:0:
257,192,114695,1,0,0:0:0:0:
257,192,115029,1,8,0:0:0:0:
256,191,115362,1,8,0:0:0:0:
257,192,115584,1,0,0:0:0:0:
257,192,115918,1,0,0:0:0:0:
257,192,116251,1,8,0:0:0:0:
256,192,116362,1,0,0:0:0:0:
256,192,116473,1,8,0:0:0:0:
257,192,116695,1,0,0:0:0:0:
257,192,116807,1,0,0:0:0:0:
257,192,116918,1,8,0:0:0:0:
257,192,117140,1,8,0:0:0:0:
257,192,117362,1,0,0:0:0:0:
257,192,117695,1,0,0:0:0:0:
257,192,118029,1,0,0:0:0:0:
257,192,118251,1,8,0:0:0:0:
257,192,118584,1,8,0:0:0:0:
257,192,118918,1,8,0:0:0:0:
256,192,119140,1,0,0:0:0:0:
256,191,119473,1,0,0:0:0:0:
256,191,119807,1,0,0:0:0:0:
256,192,120029,1,8,0:0:0:0:
257,192,120473,1,8,0:0:0:0:
256,192,120695,1,0,0:0:0:0:
257,192,120918,1,8,0:0:0:0:
256,192,121140,1,0,0:0:0:0:
257,192,121362,1,8,0:0:0:0:
256,192,121473,1,0,0:0:0:0:
257,192,121695,1,0,0:0:0:0:
257,192,121807,1,8,0:0:0:0:
256,192,122029,1,0,0:0:0:0:
256,192,122251,1,8,0:0:0:0:
256,192,122473,1,0,0:0:0:0:
256,192,122584,1,0,0:0:0:0:
257,192,122695,1,8,0:0:0:0:
256,191,122918,1,0,0:0:0:0:
257,192,123140,1,8,0:0:0:0:
256,192,123251,1,8,0:0:0:0:
257,192,123362,1,8,0:0:0:0:
256,191,123584,1,0,0:0:0:0:
257,192,123807,1,8,0:0:0:0:
257,192,124029,1,8,0:0:0:0:
255,191,124473,1,4,0:0:0:0:
256,191,124695,1,0,0:0:0:0:
255,191,124807,1,8,0:0:0:0:
255,191,125029,1,8,0:0:0:0:
255,191,125140,1,8,0:0:0:0:
255,191,125362,1,0,0:0:0:0:
256,191,125584,1,8,0:0:0:0:
255,191,125807,1,8,0:0:0:0:
256,192,126029,1,8,0:0:0:0:
256,191,126251,1,0,0:0:0:0:
255,191,126473,1,8,0:0:0:0:
256,191,126584,1,0,0:0:0:0:
255,191,126807,1,8,0:0:0:0:
255,192,126918,1,8,0:0:0:0:
255,191,127140,1,0,0:0:0:0:
255,192,127362,1,8,0:0:0:0:
255,192,127584,1,8,0:0:0:0:
255,191,128029,1,0,0:0:0:0:
255,191,128251,1,8,0:0:0:0:
255,191,128362,1,0,0:0:0:0:
255,191,128473,1,8,0:0:0:0:
255,191,128584,1,8,0:0:0:0:
255,191,128695,1,0,0:0:0:0:
255,192,128918,1,8,0:0:0:0:
255,192,129029,1,8,0:0:0:0:
256,192,129140,1,0,0:0:0:0:
255,192,129251,1,0,0:0:0:0:
255,192,129362,1,8,0:0:0:0:
255,191,129584,1,0,0:0:0:0:
256,191,129807,1,8,0:0:0:0:
256,191,130251,1,8,0:0:0:0:
256,191,130473,1,0,0:0:0:0:
255,191,130695,1,8,0:0:0:0:
255,191,130807,1,0,0:0:0:0:
255,191,130918,1,0,0:0:0:0:
255,191,131029,1,0,0:0:0:0:
255,191,131140,1,8,0:0:0:0:
255,191,131362,1,8,0:0:0:0:
255,191,131584,1,4,0:0:0:0:
255,191,133362,1,4,0:0:0:0:
255,191,135140,1,0,0:0:0:0:
255,191,135362,1,0,0:0:0:0:
255,191,135584,1,8,0:0:0:0:
255,191,135695,1,0,0:0:0:0:
255,191,135807,1,8,0:0:0:0:
255,191,135918,1,8,0:0:0:0:
255,191,136029,1,0,0:0:0:0:
255,191,136251,1,8,0:0:0:0:
255,191,136473,1,0,0:0:0:0:
255,191,136584,1,0,0:0:0:0:
255,191,136695,1,8,0:0:0:0:
255,191,136807,1,8,0:0:0:0:
255,191,136918,1,0,0:0:0:0:
256,191,138695,1,4,0:0:0:0:
257,192,139029,1,8,0:0:0:0:
257,192,139140,1,0,0:0:0:0:
256,192,139362,1,8,0:0:0:0:
255,192,139584,1,0,0:0:0:0:
256,192,139807,1,8,0:0:0:0:
256,192,140029,1,0,0:0:0:0:
256,192,140140,1,0,0:0:0:0:
256,191,140251,1,8,0:0:0:0:
256,192,140473,1,0,0:0:0:0:
257,192,140695,1,8,0:0:0:0:
257,192,140807,1,8,0:0:0:0:
257,192,140918,1,0,0:0:0:0:
256,192,141029,1,0,0:0:0:0:
256,192,141140,1,8,0:0:0:0:
256,192,141362,1,0,0:0:0:0:
256,192,141584,1,8,0:0:0:0:
256,192,141695,1,0,0:0:0:0:
257,192,141807,1,8,0:0:0:0:
257,192,142029,1,8,0:0:0:0:
257,192,142251,1,0,0:0:0:0:
257,192,142695,1,8,0:0:0:0:
256,192,142918,1,8,0:0:0:0:
256,191,143029,1,8,0:0:0:0:
257,192,143140,1,0,0:0:0:0:
257,192,143362,1,8,0:0:0:0:
257,192,143584,1,0,0:0:0:0:
257,192,143695,1,0,0:0:0:0:
256,192,143807,1,8,0:0:0:0:
256,192,144029,1,0,0:0:0:0:
256,192,144251,1,8,0:0:0:0:
256,192,144473,1,0,0:0:0:0:
257,191,144695,1,8,0:0:0:0:
256,191,145140,1,8,0:0:0:0:
257,191,145362,1,0,0:0:0:0:
256,192,145473,1,0,0:0:0:0:
255,191,145584,1,8,0:0:0:0:
256,191,145807,1,4,0:0:0:0:
257,192,146140,1,8,0:0:0:0:
257,192,146251,1,0,0:0:0:0:
256,192,146473,1,8,0:0:0:0:
255,192,146695,1,0,0:0:0:0:
256,192,146918,1,8,0:0:0:0:
256,192,147029,1,0,0:0:0:0:
256,192,147140,1,8,0:0:0:0:
256,192,147251,1,8,0:0:0:0:
256,191,147362,1,0,0:0:0:0:
256,192,147584,1,8,0:0:0:0:
257,192,147807,1,0,0:0:0:0:
257,192,147918,1,0,0:0:0:0:
257,192,148029,1,8,0:0:0:0:
256,192,148140,1,0,0:0:0:0:
256,192,148251,1,8,0:0:0:0:
256,192,148473,1,0,0:0:0:0:
256,192,148695,1,8,0:0:0:0:
256,192,148807,1,8,0:0:0:0:
257,192,148918,1,0,0:0:0:0:
257,192,149140,1,8,0:0:0:0:
257,192,149362,1,0,0:0:0:0:
257,192,149807,1,8,0:0:0:0:
256,192,150029,1,8,0:0:0:0:
256,191,150140,1,8,0:0:0:0:
257,192,150251,1,0,0:0:0:0:
257,192,150473,1,8,0:0:0:0:
257,192,150695,1,0,0:0:0:0:
257,192,150807,1,0,0:0:0:0:
256,192,150918,1,8,0:0:0:0:
256,192,151140,1,0,0:0:0:0:
255,192,151362,1,8,0:0:0:0:
255,192,151473,1,0,0:0:0:0:
255,192,151584,1,8,0:0:0:0:
255,192,151695,1,8,0:0:0:0:
255,192,151807,1,0,0:0:0:0:
255,192,152251,1,8,0:0:0:0:
255,192,152362,1,8,0:0:0:0:
255,192,152473,1,0,0:0:0:0:
255,192,152584,1,0,0:0:0:0:
255,192,152695,1,8,0:0:0:0:
256,191,152918,1,4,0:0:0:0:
257,192,153251,1,8,0:0:0:0:
257,192,153362,1,0,0:0:0:0:
256,192,153584,1,8,0:0:0:0:
255,192,153807,1,0,0:0:0:0:
256,192,154029,1,8,0:0:0:0:
256,192,154140,1,8,0:0:0:0:
256,192,154251,1,0,0:0:0:0:
256,192,154362,1,0,0:0:0:0:
256,191,154473,1,8,0:0:0:0:
256,192,154695,1,0,0:0:0:0:
257,192,154918,1,8,0:0:0:0:
256,192,155029,1,0,0:0:0:0:
256,192,155140,1,8,0:0:0:0:
256,192,155251,1,8,0:0:0:0:
256,192,155362,1,0,0:0:0:0:
256,192,155584,1,8,0:0:0:0:
256,192,155807,1,0,0:0:0:0:
256,192,155918,1,8,0:0:0:0:
257,192,156029,1,8,0:0:0:0:
257,192,156251,1,8,0:0:0:0:
257,192,156473,1,0,0:0:0:0:
257,192,156918,1,8,0:0:0:0:
256,192,157140,1,8,0:0:0:0:
256,191,157251,1,8,0:0:0:0:
257,192,157362,1,0,0:0:0:0:
257,192,157584,1,8,0:0:0:0:
257,192,157807,1,0,0:0:0:0:
257,192,157918,1,0,0:0:0:0:
256,192,158029,1,8,0:0:0:0:
256,192,158140,1,8,0:0:0:0:
256,192,158251,1,0,0:0:0:0:
256,192,158473,1,8,0:0:0:0:
256,192,158695,1,0,0:0:0:0:
257,191,158918,1,8,0:0:0:0:
256,192,159029,1,0,0:0:0:0:
255,191,159140,1,0,0:0:0:0:
256,191,159362,1,8,0:0:0:0:
256,192,159473,1,8,0:0:0:0:
257,191,159584,1,0,0:0:0:0:
256,192,159695,1,0,0:0:0:0:
255,191,159807,1,8,0:0:0:0:
256,191,160029,1,4,0:0:0:0:
257,192,160362,1,8,0:0:0:0:
257,192,160473,1,0,0:0:0:0:
256,192,160695,1,8,0:0:0:0:
255,192,160918,1,0,0:0:0:0:
256,192,161140,1,8,0:0:0:0:
256,192,161251,1,0,0:0:0:0:
256,192,161362,1,8,0:0:0:0:
256,192,161473,1,8,0:0:0:0:
256,191,161584,1,0,0:0:0:0:
256,192,161807,1,8,0:0:0:0:
257,192,162029,1,0,0:0:0:0:
257,192,162140,1,0,0:0:0:0:
257,192,162251,1,8,0:0:0:0:
256,192,162362,1,0,0:0:0:0:
256,192,162473,1,8,0:0:0:0:
256,192,162695,1,0,0:0:0:0:
256,192,162918,1,8,0:0:0:0:
256,192,163029,1,8,0:0:0:0:
257,192,163140,1,0,0:0:0:0:
257,192,163362,1,8,0:0:0:0:
257,192,163584,1,0,0:0:0:0:
257,192,164029,1,0,0:0:0:0:
256,192,164251,1,8,0:0:0:0:
256,191,164362,1,8,0:0:0:0:
257,192,164473,1,0,0:0:0:0:
256,192,164584,1,8,0:0:0:0:
256,192,164695,1,0,0:0:0:0:
257,192,164918,1,8,0:0:0:0:
257,192,165029,1,0,0:0:0:0:
256,192,165140,1,8,0:0:0:0:
257,192,165362,1,0,0:0:0:0:
256,192,165473,1,0,0:0:0:0:
256,192,165584,1,0,0:0:0:0:
256,192,165695,1,0,0:0:0:0:
256,192,165807,1,8,0:0:0:0:
256,192,166029,1,8,0:0:0:0:
256,191,166140,1,8,0:0:0:0:
257,192,166362,1,0,0:0:0:0:
256,192,166473,1,8,0:0:0:0:
256,192,166695,1,0,0:0:0:0:
256,192,166807,1,0,0:0:0:0:
256,192,166918,1,8,0:0:0:0:
256,191,167140,1,4,0:0:0:0:
257,192,167473,1,8,0:0:0:0:
257,192,167584,1,0,0:0:0:0:
256,192,167806,1,8,0:0:0:0:
255,192,168029,1,0,0:0:0:0:
256,192,168251,1,8,0:0:0:0:
256,192,168362,1,8,0:0:0:0:
256,192,168473,1,0,0:0:0:0:
256,192,168584,1,0,0:0:0:0:
256,191,168695,1,8,0:0:0:0:
256,192,168917,1,0,0:0:0:0:
257,192,169140,1,8,0:0:0:0:
256,192,169251,1,0,0:0:0:0:
256,192,169362,1,8,0:0:0:0:
256,192,169473,1,8,0:0:0:0:
256,192,169584,1,0,0:0:0:0:
256,192,169806,1,8,0:0:0:0:
256,192,170029,1,0,0:0:0:0:
256,192,170140,1,8,0:0:0:0:
257,192,170251,1,8,0:0:0:0:
257,192,170473,1,8,0:0:0:0:
257,192,170695,1,0,0:0:0:0:
257,192,171140,1,8,0:0:0:0:
256,192,171251,1,0,0:0:0:0:
256,192,171362,1,8,0:0:0:0:
256,191,171473,1,8,0:0:0:0:
257,192,171584,1,0,0:0:0:0:
257,192,171806,1,8,0:0:0:0:
257,192,172029,1,0,0:0:0:0:
257,192,172140,1,8,0:0:0:0:
256,192,172251,1,8,0:0:0:0:
256,192,172362,1,8,0:0:0:0:
256,192,172473,1,0,0:0:0:0:
256,192,172695,1,8,0:0:0:0:
256,192,172917,1,0,0:0:0:0:
257,191,173140,1,8,0:0:0:0:
256,192,173251,1,8,0:0:0:0:
255,191,173362,1,0,0:0:0:0:
256,191,173584,1,8,0:0:0:0:
256,192,173695,1,0,0:0:0:0:
257,191,173806,1,8,0:0:0:0:
256,192,173917,1,0,0:0:0:0:
255,191,174029,1,8,0:0:0:0:
256,191,174251,1,4,0:0:0:0:
257,192,174584,1,8,0:0:0:0:
257,192,174695,1,0,0:0:0:0:
256,192,174917,1,8,0:0:0:0:
255,192,175140,1,0,0:0:0:0:
256,192,175362,1,8,0:0:0:0:
256,192,175473,1,8,0:0:0:0:
256,192,175584,1,8,0:0:0:0:
256,192,175695,1,8,0:0:0:0:
256,191,175806,1,0,0:0:0:0:
256,192,176029,1,8,0:0:0:0:
257,192,176251,1,0,0:0:0:0:
257,192,176362,1,0,0:0:0:0:
257,192,176473,1,8,0:0:0:0:
256,192,176584,1,0,0:0:0:0:
256,192,176695,1,8,0:0:0:0:
256,192,176917,1,0,0:0:0:0:
256,192,177140,1,8,0:0:0:0:
256,192,177251,1,8,0:0:0:0:
257,192,177362,1,0,0:0:0:0:
257,192,177584,1,8,0:0:0:0:
256,192,177807,1,0,0:0:0:0:
256,192,178251,1,8,0:0:0:0:
256,192,178473,1,0,0:0:0:0:
256,192,178584,1,8,0:0:0:0:
256,192,178695,1,0,0:0:0:0:
256,192,178807,1,0,0:0:0:0:
256,192,178918,1,8,0:0:0:0:
256,192,179140,1,0,0:0:0:0:
256,192,179362,1,8,0:0:0:0:
256,192,179473,1,8,0:0:0:0:
256,192,179584,1,0,0:0:0:0:
257,192,180473,1,12,0:0:0:0:
257,192,180807,1,12,0:0:0:0:
257,192,181140,1,12,0:0:0:0:
257,192,181362,1,4,0:0:0:0:
257,192,181807,1,0,0:0:0:0:
256,192,182029,1,8,0:0:0:0:
256,192,182251,1,0,0:0:0:0:
257,192,182473,1,8,0:0:0:0:
256,192,182695,1,0,0:0:0:0:
256,192,182807,1,8,0:0:0:0:
256,192,182918,1,0,0:0:0:0:
256,192,183140,1,8,0:0:0:0:
256,192,183362,1,8,0:0:0:0:
256,191,183584,1,0,0:0:0:0:
257,192,183695,1,0,0:0:0:0:
257,192,183807,1,8,0:0:0:0:
256,191,184029,1,0,0:0:0:0:
256,192,184251,1,0,0:0:0:0:
257,192,184473,1,8,0:0:0:0:
257,192,184695,1,8,0:0:0:0:
257,192,184918,1,0,0:0:0:0:
256,192,185362,1,0,0:0:0:0:
257,192,185584,1,8,0:0:0:0:
256,191,185695,1,8,0:0:0:0:
257,192,185807,1,8,0:0:0:0:
256,192,186029,1,8,0:0:0:0:
256,191,186251,1,0,0:0:0:0:
257,192,186473,1,8,0:0:0:0:
257,191,186695,1,0,0:0:0:0:
257,192,186918,1,0,0:0:0:0:
257,192,187140,1,8,0:0:0:0:
256,192,187362,1,8,0:0:0:0:
256,192,187473,1,8,0:0:0:0:
256,192,187584,1,0,0:0:0:0:
256,191,187807,1,8,0:0:0:0:
256,192,188029,1,8,0:0:0:0:
257,192,188473,1,4,0:0:0:0:
257,192,188918,1,8,0:0:0:0:
256,192,189140,1,8,0:0:0:0:
256,192,189362,1,0,0:0:0:0:
257,192,189584,1,8,0:0:0:0:
256,192,189806,1,0,0:0:0:0:
256,192,189918,1,0,0:0:0:0:
256,192,190029,1,8,0:0:0:0:
256,192,190251,1,0,0:0:0:0:
256,192,190473,1,8,0:0:0:0:
256,191,190695,1,8,0:0:0:0:
257,192,190806,1,0,0:0:0:0:
257,192,190918,1,8,0:0:0:0:
256,191,191140,1,0,0:0:0:0:
256,192,191362,1,8,0:0:0:0:
257,192,191584,1,8,0:0:0:0:
257,192,191806,1,8,0:0:0:0:
257,192,192029,1,0,0:0:0:0:
256,192,192473,1,0,0:0:0:0:
257,192,192695,1,8,0:0:0:0:
256,191,192807,1,8,0:0:0:0:
257,192,192918,1,8,0:0:0:0:
256,192,193140,1,8,0:0:0:0:
256,191,193362,1,0,0:0:0:0:
257,192,193584,1,8,0:0:0:0:
256,191,193807,1,0,0:0:0:0:
256,191,194029,1,0,0:0:0:0:
256,191,194140,1,0,0:0:0:0:
256,192,194251,1,8,0:0:0:0:
257,192,194473,1,0,0:0:0:0:
257,192,194695,1,8,0:0:0:0:
256,192,194918,1,0,0:0:0:0:
256,192,195140,1,8,0:0:0:0:
256,192,195251,1,0,0:0:0:0:
257,192,195362,1,8,0:0:0:0:
257,192,195584,1,8,0:0:0:0:
255,191,195807,1,0,0:0:0:0:
257,192,195918,1,8,0:0:0:0:
256,192,196140,1,0,0:0:0:0:
256,192,196251,1,8,0:0:0:0:
257,192,196473,1,8,0:0:0:0:
256,192,196584,1,0,0:0:0:0:
256,192,196695,1,0,0:0:0:0:
257,192,196807,1,8,0:0:0:0:
256,192,197029,1,0,0:0:0:0:
257,192,197140,1,8,0:0:0:0:
255,191,197362,1,4,0:0:0:0:
256,192,197695,1,8,0:0:0:0:
257,192,197917,1,0,0:0:0:0:
256,192,198028,1,8,0:0:0:0:
257,192,198250,1,0,0:0:0:0:
257,192,198473,1,8,0:0:0:0:
256,192,198584,1,8,0:0:0:0:
257,192,198695,1,0,0:0:0:0:
257,192,198917,1,8,0:0:0:0:
256,192,199139,1,0,0:0:0:0:
257,192,199250,1,8,0:0:0:0:
257,192,199473,1,0,0:0:0:0:
256,191,199695,1,8,0:0:0:0:
257,192,199806,1,8,0:0:0:0:
256,191,200251,1,0,0:0:0:0:
257,192,200362,1,8,0:0:0:0:
257,192,200473,1,0,0:0:0:0:
256,192,200695,1,8,0:0:0:0:
256,191,200917,1,0,0:0:0:0:
256,192,201028,1,8,0:0:0:0:
256,192,201250,1,0,0:0:0:0:
256,192,201473,1,8,0:0:0:0:
256,192,201584,1,8,0:0:0:0:
256,192,201806,1,0,0:0:0:0:
256,192,202028,1,8,0:0:0:0:
256,192,202250,1,0,0:0:0:0:
256,192,202361,1,0,0:0:0:0:
256,192,202473,1,8,0:0:0:0:
256,191,202695,1,0,0:0:0:0:
256,192,202806,1,8,0:0:0:0:
256,192,203028,1,0,0:0:0:0:
256,192,203250,1,0,0:0:0:0:
257,192,203361,1,8,0:0:0:0:
257,191,203806,1,8,0:0:0:0:
256,192,203917,1,8,0:0:0:0:
257,192,204028,1,8,0:0:0:0:
257,191,204250,1,8,0:0:0:0:
255,191,204473,1,0,0:0:0:0:
257,192,204584,1,8,0:0:0:0:
256,192,204806,1,8,0:0:0:0:
256,192,205028,1,0,0:0:0:0:
257,191,205139,1,8,0:0:0:0:
257,192,205361,1,0,0:0:0:0:
257,192,205584,1,8,0:0:0:0:
257,192,205806,1,0,0:0:0:0:
256,192,205917,1,8,0:0:0:0:
257,192,206028,1,0,0:0:0:0:
256,192,206250,1,0,0:0:0:0:
257,192,206361,1,8,0:0:0:0:
257,192,206584,1,0,0:0:0:0:
256,191,206806,1,8,0:0:0:0:
257,192,206917,1,0,0:0:0:0:
256,191,207362,1,8,0:0:0:0:
257,192,207473,1,8,0:0:0:0:
257,192,207584,1,0,0:0:0:0:
257,192,207806,1,8,0:0:0:0:
256,191,208028,1,0,0:0:0:0:
256,192,208139,1,8,0:0:0:0:
256,192,208361,1,0,0:0:0:0:
256,192,208584,1,8,0:0:0:0:
256,192,208695,1,8,0:0:0:0:
256,192,208917,1,0,0:0:0:0:
256,192,209139,1,8,0:0:0:0:
256,192,209361,1,0,0:0:0:0:
256,192,209473,1,0,0:0:0:0:
256,192,209584,1,8,0:0:0:0:
256,191,209806,1,0,0:0:0:0:
256,192,209917,1,8,0:0:0:0:
256,192,210139,1,0,0:0:0:0:
257,191,210361,1,8,0:0:0:0:
257,192,210473,1,0,0:0:0:0:
255,191,210695,1,0,0:0:0:0:
256,192,210918,1,8,0:0:0:0:
256,192,211029,1,8,0:0:0:0:
256,192,211140,1,0,0:0:0:0:
256,192,211251,1,0,0:0:0:0:
256,192,211362,1,8,0:0:0:0:
256,192,211584,1,0,0:0:0:0:
