osu file format v14

[General]
AudioFilename: audio.ogg
AudioLeadIn: 0
PreviewTime: 170522
Countdown: 0
SampleSet: Normal
StackLeniency: 0.7
Mode: 1
LetterboxInBreaks: 0
WidescreenStoryboard: 1

[Editor]
DistanceSpacing: 2
BeatDivisor: 12
GridSize: 32
TimelineZoom: 1.6

[Metadata]
Title:Hana to Chiru
TitleUnicode:花と散る
Artist:Tsukuyomi
ArtistUnicode:月詠み
Creator:arcpotato
Version:Muzukashii
Source:
Tags:gaston_2199 jazz ツクヨミ 2943 ユリイカノン ユリイ・カノン yurry canon cannon yurrycanon yue エポック epoch とうかさ toukasa なおk naok 1st ep extended play japanese j-pop jpop pop female vocalS scatter like flowers another moon アナザームーン
BeatmapID:4415167
BeatmapSetID:2097800

[Difficulty]
HPDrainRate:6.5
CircleSize:2
OverallDifficulty:5
ApproachRate:10
SliderMultiplier:1.4
SliderTickRate:1

[Events]
//Background and Video events
0,0,"zO58Le2UINI-HD.jpg",0,60
Video,-1277,"output.mp4"
//Break Periods
//Storyboard Layer 0 (Background)
//Storyboard Layer 1 (Fail)
//Storyboard Layer 2 (Pass)
//Storyboard Layer 3 (Foreground)
//Storyboard Layer 4 (Overlay)
//Storyboard Sound Samples

[TimingPoints]
1165,294.117647058823,4,1,0,55,1,0
1165,-111.111111111111,4,1,0,55,0,0
2932,294.117647058823,4,1,0,55,1,8
2932,-111.111111111111,4,1,0,55,0,8
3520,294.117647058823,4,1,0,55,1,0
3520,-111.111111111111,4,1,0,55,0,0
5155,294.117647058823,4,1,0,55,1,8
5155,-111.111111111111,4,1,0,55,0,8
5880,294.117647058823,4,1,0,55,1,0
5880,-111.111111111111,4,1,0,55,0,0
10577,-100,4,1,0,80,0,0
20283,-111.111111111111,4,1,0,65,0,0
27048,-111.111111111111,4,1,0,65,0,0
27636,-111.111111111111,4,1,0,69,0,0
28224,-111.111111111111,4,1,0,72,0,0
28421,-111.111111111111,4,1,0,74,0,0
28519,-111.111111111111,4,1,0,74,0,0
28715,-111.111111111111,4,1,0,76,0,0
28813,-111.111111111111,4,1,0,76,0,0
29009,-111.111111111111,4,1,0,77,0,0
29107,-111.111111111111,4,1,0,78,0,0
29401,-100,4,1,0,80,0,0
38960,-111.111111111111,4,1,0,65,0,0
45871,-90.9090909090909,4,1,0,65,0,0
46166,-90.9090909090909,4,1,0,69,0,0
46460,-90.9090909090909,4,1,0,73,0,0
46754,-90.9090909090909,4,1,0,78,0,0
47048,-90.9090909090909,4,1,0,82,0,0
47195,-90.9090909090909,4,1,0,65,0,0
47244,-100,4,1,0,84,0,0
47342,-100,4,1,0,86,0,0
47538,-100,4,1,0,89,0,0
47636,-100,4,1,0,90,0,0
48232,-97.0873786407767,4,1,0,90,0,1
55103,-97.0873786407767,4,1,0,90,0,1
55283,-97.0873786407767,4,1,0,90,0,1
55479,-97.0873786407767,4,1,0,90,0,1
55577,-97.0873786407767,4,1,0,90,0,1
55773,-97.0873786407767,4,1,0,90,0,1
55871,-97.0873786407767,4,1,0,90,0,1
56068,-97.0873786407767,4,1,0,90,0,1
56166,-97.0873786407767,4,1,0,90,0,1
56264,-97.0873786407767,4,1,0,90,0,1
56362,-97.0873786407767,4,1,0,90,0,1
56460,-97.0873786407767,4,1,0,90,0,1
56656,-97.0873786407767,4,1,0,90,0,1
56754,-97.0873786407767,4,1,0,90,0,1
56950,-97.0873786407767,4,1,0,90,0,1
57048,-97.0873786407767,4,1,0,90,0,1
57342,-97.0873786407767,4,1,0,90,0,1
57538,-97.0873786407767,4,1,0,90,0,1
57636,-97.0873786407767,4,1,0,90,0,1
57783,-97.0873786407767,4,1,0,90,0,1
66468,-97.0873786407767,4,1,0,90,0,0
67048,-100,4,1,0,80,0,0
76754,-111.111111111111,4,1,0,65,0,0
83519,-111.111111111111,4,1,0,65,0,0
83813,-111.111111111111,4,1,0,67,0,0
84107,-111.111111111111,4,1,0,69,0,0
84401,-111.111111111111,4,1,0,71,0,0
84597,-111.111111111111,4,1,0,72,0,0
84695,-111.111111111111,4,1,0,73,0,0
84891,-111.111111111111,4,1,0,74,0,0
84989,-111.111111111111,4,1,0,74,0,0
85185,-111.111111111111,4,1,0,76,0,0
85283,-111.111111111111,4,1,0,76,0,0
85479,-111.111111111111,4,1,0,78,0,0
85577,-111.111111111111,4,1,0,78,0,0
85871,-111.111111111111,4,1,0,80,0,0
86019,-111.111111111111,4,1,0,65,0,0
90577,-111.111111111111,4,1,0,45,0,0
92930,-90.9090909090909,4,1,0,65,0,0
93224,-90.9090909090909,4,1,0,69,0,0
93519,-90.9090909090909,4,1,0,73,0,0
93813,-90.9090909090909,4,1,0,78,0,0
94107,-90.9090909090909,4,1,0,82,0,0
94303,-100,4,1,0,84,0,0
94401,-100,4,1,0,86,0,0
94597,-100,4,1,0,89,0,0
94695,-100,4,1,0,90,0,0
95291,-94.3396226415094,4,1,0,90,0,1
113527,-94.3396226415094,4,1,0,90,0,0
114107,-111.111111111111,4,1,0,65,0,0
132342,-100,4,1,0,65,0,0
132930,-111.111111111111,4,1,0,65,0,0
137636,-100,4,1,0,65,0,0
142342,-111.111111111111,4,1,0,65,0,0
147048,-100,4,1,0,65,0,0
149401,-100,4,1,0,65,0,0
149597,-100,4,1,0,65,0,0
149891,-100,4,1,0,65,0,0
149989,-100,4,1,0,65,0,0
150087,-100,4,1,0,65,0,0
150185,-100,4,1,0,65,0,0
150283,-100,4,1,0,65,0,0
150381,-100,4,1,0,65,0,0
150479,-100,4,1,0,65,0,0
150577,-100,4,1,0,65,0,0
151166,-100,4,1,0,65,0,0
151762,-97.0873786407767,4,1,0,90,0,1
158813,-97.0873786407767,4,1,0,90,0,1
159009,-97.0873786407767,4,1,0,90,0,1
159107,-97.0873786407767,4,1,0,90,0,1
159303,-97.0873786407767,4,1,0,90,0,1
159401,-97.0873786407767,4,1,0,90,0,1
159598,-97.0873786407767,4,1,0,90,0,1
159696,-97.0873786407767,4,1,0,90,0,1
159794,-97.0873786407767,4,1,0,90,0,1
159892,-97.0873786407767,4,1,0,90,0,1
159989,-97.0873786407767,4,1,0,90,0,1
160186,-97.0873786407767,4,1,0,90,0,1
160284,-97.0873786407767,4,1,0,90,0,1
160480,-97.0873786407767,4,1,0,90,0,1
160578,-97.0873786407767,4,1,0,90,0,1
160872,-97.0873786407767,4,1,0,90,0,1
161068,-97.0873786407767,4,1,0,90,0,1
161166,-97.0873786407767,4,1,0,90,0,1
170585,-94.3396226415094,4,1,0,90,0,1
182350,-86.9565217391304,4,1,0,90,0,1
182538,-86.9565217391304,4,1,0,90,0,1
182734,-86.9565217391304,4,1,0,90,0,1
182930,-86.9565217391304,4,1,0,90,0,1
183126,-86.9565217391304,4,1,0,90,0,1
183322,-86.9565217391304,4,1,0,90,0,1
183527,-86.9565217391304,4,1,0,90,0,1
183528,-86.9565217391304,4,1,0,90,0,1
184107,-94.3396226415094,4,1,0,90,0,1
189409,-94.3396226415094,4,1,0,90,0,0
189605,-100,4,1,0,90,0,0

[HitObjects]
256,192,1165,5,8,0:0:0:0:
256,192,2341,1,0,0:0:0:0:
256,192,2932,1,8,0:0:0:0:
256,192,3520,1,0,0:0:0:0:
256,192,4696,1,0,0:0:0:0:
256,192,5155,1,8,0:0:0:0:
256,192,5596,1,8,0:0:0:0:
256,192,5880,1,0,0:0:0:0:
256,192,6174,1,0,0:0:0:0:
256,192,6468,1,8,0:0:0:0:
256,160,6615,1,0,0:0:0:0:
256,192,6762,1,8,0:0:0:0:
256,192,7056,1,0,0:0:0:0:
256,192,7350,1,8,0:0:0:0:
256,192,7644,1,0,0:0:0:0:
256,192,7938,1,0,0:0:0:0:
256,192,8232,1,8,0:0:0:0:
267,179,8527,1,8,0:0:0:0:
267,179,8821,1,0,0:0:0:0:
256,160,8919,1,0,0:0:0:0:
256,160,9017,1,0,0:0:0:0:
271,167,9115,1,0,0:0:0:0:
256,192,9409,1,8,0:0:0:0:
256,192,10585,1,4,0:0:0:0:
256,160,10879,1,0,0:0:0:0:
256,192,11174,1,8,0:0:0:0:
256,192,11468,1,0,0:0:0:0:
224,192,11664,1,8,0:0:0:0:
256,192,11958,1,8,0:0:0:0:
256,192,12056,1,8,0:0:0:0:
256,192,12252,1,0,0:0:0:0:
256,192,12350,1,0,0:0:0:0:
224,192,12546,1,8,0:0:0:0:
256,192,12938,1,0,0:0:0:0:
256,192,13232,1,0,0:0:0:0:
256,192,13527,1,8,0:0:0:0:
288,192,13821,1,8,0:0:0:0:
256,192,14017,1,0,0:0:0:0:
256,192,14311,1,0,0:0:0:0:
288,192,14409,1,0,0:0:0:0:
256,192,14605,1,8,0:0:0:0:
256,192,14703,1,8,0:0:0:0:
256,192,14899,1,0,0:0:0:0:
224,192,15291,1,12,0:0:0:0:
256,192,15585,1,0,0:0:0:0:
256,192,15879,1,8,0:0:0:0:
256,192,16174,1,8,0:0:0:0:
256,192,16370,1,8,0:0:0:0:
256,192,16664,1,8,0:0:0:0:
256,192,16762,1,8,0:0:0:0:
256,192,16958,1,0,0:0:0:0:
256,192,17056,1,0,0:0:0:0:
256,192,17252,1,8,0:0:0:0:
288,160,17497,1,0,0:0:0:0:
288,192,17644,1,8,0:0:0:0:
256,160,17938,1,0,0:0:0:0:
256,160,18134,1,8,0:0:0:0:
256,192,18379,1,8,0:0:0:0:
288,192,18527,1,4,0:0:0:0:
256,160,18821,1,8,0:0:0:0:
288,192,19115,1,0,0:0:0:0:
256,192,19311,1,8,0:0:0:0:
288,192,19409,1,8,0:0:0:0:
256,192,19605,1,8,0:0:0:0:
288,192,19703,1,8,0:0:0:0:
288,192,19997,1,4,0:0:0:0:
256,192,20585,1,8,0:0:0:0:
256,192,20879,1,8,0:0:0:0:
256,192,21174,1,0,0:0:0:0:
256,192,21468,1,0,0:0:0:0:
256,192,21762,1,8,0:0:0:0:
256,192,22350,1,8,0:0:0:0:
256,192,22644,1,0,0:0:0:0:
256,192,22840,1,8,0:0:0:0:
256,192,22938,1,8,0:0:0:0:
256,192,23134,1,0,0:0:0:0:
256,192,23232,1,8,0:0:0:0:
256,192,23527,1,0,0:0:0:0:
256,192,23821,1,0,0:0:0:0:
256,192,24115,1,8,0:0:0:0:
256,192,24409,1,8,0:0:0:0:
256,192,24703,1,4,0:0:0:0:
224,192,25291,1,8,0:0:0:0:
256,192,25585,1,0,0:0:0:0:
224,192,25879,1,8,0:0:0:0:
256,160,26174,1,8,0:0:0:0:
256,160,26468,1,0,0:0:0:0:
224,160,26664,1,0,0:0:0:0:
224,192,26762,1,8,0:0:0:0:
256,192,27056,1,0,0:0:0:0:
256,192,27644,1,8,0:0:0:0:
256,192,28232,1,0,0:0:0:0:
224,192,28429,1,0,0:0:0:0:
256,192,28527,1,0,0:0:0:0:
256,192,28821,1,8,0:0:0:0:
224,192,29017,1,8,0:0:0:0:
256,192,29115,1,0,0:0:0:0:
256,160,29409,1,4,0:0:0:0:
256,192,29605,1,8,0:0:0:0:
256,160,29703,1,8,0:0:0:0:
256,160,29997,1,8,0:0:0:0:
256,192,30291,1,0,0:0:0:0:
256,160,30487,1,8,0:0:0:0:
256,192,30781,1,8,0:0:0:0:
256,192,30879,1,8,0:0:0:0:
256,192,31076,1,0,0:0:0:0:
256,192,31174,1,0,0:0:0:0:
256,192,31370,1,8,0:0:0:0:
256,192,31762,1,0,0:0:0:0:
256,192,31958,1,0,0:0:0:0:
256,192,32056,1,0,0:0:0:0:
256,192,32350,1,8,0:0:0:0:
256,192,32644,1,0,0:0:0:0:
256,224,32840,1,8,0:0:0:0:
256,192,33134,1,0,0:0:0:0:
256,192,33232,1,0,0:0:0:0:
256,192,33429,1,8,0:0:0:0:
256,192,33527,1,8,0:0:0:0:
256,192,33723,1,0,0:0:0:0:
256,224,34115,1,4,0:0:0:0:
256,192,34311,1,8,0:0:0:0:
288,224,34409,1,8,0:0:0:0:
288,224,34703,1,8,0:0:0:0:
256,192,34997,1,0,0:0:0:0:
288,224,35193,1,8,0:0:0:0:
256,192,35487,1,8,0:0:0:0:
256,192,35585,1,8,0:0:0:0:
256,192,35781,1,0,0:0:0:0:
288,224,35879,1,0,0:0:0:0:
288,224,36076,1,8,0:0:0:0:
288,224,36321,1,0,0:0:0:0:
288,224,36468,1,8,0:0:0:0:
288,224,36762,1,8,0:0:0:0:
288,224,36958,1,8,0:0:0:0:
288,224,37203,1,0,0:0:0:0:
320,224,37350,1,12,0:0:0:0:
288,224,37938,1,8,0:0:0:0:
256,192,38232,1,8,0:0:0:0:
256,224,38429,1,0,0:0:0:0:
288,224,38527,1,0,0:0:0:0:
288,224,38821,1,12,0:0:0:0:
256,192,39115,1,0,0:0:0:0:
256,224,39409,1,0,0:0:0:0:
256,192,39605,1,8,0:0:0:0:
256,224,39703,1,0,0:0:0:0:
288,192,39997,1,8,0:0:0:0:
288,192,40291,1,0,0:0:0:0:
288,192,40487,1,8,0:0:0:0:
288,192,40585,1,8,0:0:0:0:
288,192,40879,1,0,0:0:0:0:
288,192,41174,1,8,0:0:0:0:
288,192,41370,1,8,0:0:0:0:
256,192,41468,1,0,0:0:0:0:
256,224,41762,1,8,0:0:0:0:
320,192,41958,1,0,0:0:0:0:
256,224,42056,1,8,0:0:0:0:
288,192,42350,1,0,0:0:0:0:
288,192,42644,1,0,0:0:0:0:
288,192,42938,1,8,0:0:0:0:
256,224,43232,1,8,0:0:0:0:
256,192,43527,1,4,0:0:0:0:
256,192,44703,1,4,0:0:0:0:
256,192,45879,1,12,0:0:0:0:
256,192,46174,1,12,0:0:0:0:
256,192,46468,1,4,0:0:0:0:
256,192,46762,1,4,0:0:0:0:
256,192,47056,1,12,0:0:0:0:
256,192,47252,1,0,0:0:0:0:
256,192,47350,1,0,0:0:0:0:
256,192,47546,1,0,0:0:0:0:
256,192,47644,1,0,0:0:0:0:
256,192,48232,1,12,0:0:0:0:
256,192,48527,1,0,0:0:0:0:
256,192,48723,1,8,0:0:0:0:
256,192,48821,1,8,0:0:0:0:
256,192,49115,1,0,0:0:0:0:
256,192,49409,1,8,0:0:0:0:
256,192,49997,1,0,0:0:0:0:
256,192,50291,1,0,0:0:0:0:
256,192,50487,1,8,0:0:0:0:
288,160,50585,1,8,0:0:0:0:
256,192,51174,1,8,0:0:0:0:
256,192,51468,1,0,0:0:0:0:
256,160,51664,1,8,0:0:0:0:
256,160,51762,1,8,0:0:0:0:
288,160,52056,1,8,0:0:0:0:
256,160,52203,1,8,0:0:0:0:
256,160,52350,1,0,0:0:0:0:
256,192,52644,1,0,0:0:0:0:
256,192,52938,1,8,0:0:0:0:
256,192,53134,1,0,0:0:0:0:
256,160,53232,1,8,0:0:0:0:
256,160,53527,1,0,0:0:0:0:
288,192,53723,1,8,0:0:0:0:
256,192,53821,1,0,0:0:0:0:
256,160,54115,1,8,0:0:0:0:
256,192,54703,1,0,0:0:0:0:
256,192,54997,1,8,0:0:0:0:
256,192,55291,1,0,0:0:0:0:
256,192,55487,1,8,0:0:0:0:
256,192,55585,1,0,0:0:0:0:
256,192,55781,1,0,0:0:0:0:
256,192,55879,1,8,0:0:0:0:
256,192,56174,1,0,0:0:0:0:
256,192,56370,1,8,0:0:0:0:
320,224,56468,1,8,0:0:0:0:
256,192,57056,1,8,0:0:0:0:
256,192,57350,1,8,0:0:0:0:
288,192,57644,1,0,0:0:0:0:
256,192,57938,1,8,0:0:0:0:
256,160,58134,1,0,0:0:0:0:
256,192,58232,1,0,0:0:0:0:
256,192,58527,1,0,0:0:0:0:
256,192,58821,1,8,0:0:0:0:
288,192,59409,1,0,0:0:0:0:
288,160,59703,1,0,0:0:0:0:
288,160,59899,1,8,0:0:0:0:
288,192,59997,1,8,0:0:0:0:
288,160,60585,1,8,0:0:0:0:
288,160,60879,1,0,0:0:0:0:
288,192,61076,1,8,0:0:0:0:
288,192,61174,1,8,0:0:0:0:
288,192,61468,1,8,0:0:0:0:
288,192,61615,1,0,0:0:0:0:
288,192,61762,1,0,0:0:0:0:
224,192,62056,1,8,0:0:0:0:
224,192,62350,1,0,0:0:0:0:
224,192,62546,1,8,0:0:0:0:
224,192,62644,1,0,0:0:0:0:
224,192,62938,1,8,0:0:0:0:
256,192,63134,1,0,0:0:0:0:
224,192,63232,1,0,0:0:0:0:
224,192,63527,1,8,0:0:0:0:
224,192,64115,1,8,0:0:0:0:
256,160,64409,1,8,0:0:0:0:
256,192,64703,1,0,0:0:0:0:
256,192,64899,1,8,0:0:0:0:
224,192,64997,1,8,0:0:0:0:
256,160,65291,1,8,0:0:0:0:
224,192,65585,1,0,0:0:0:0:
256,160,65879,1,8,0:0:0:0:
256,192,66076,1,0,0:0:0:0:
288,192,66174,1,8,0:0:0:0:
256,192,66370,1,0,0:0:0:0:
224,192,66468,1,0,0:0:0:0:
256,192,67056,1,4,0:0:0:0:
224,192,67350,1,8,0:0:0:0:
256,192,67645,1,8,0:0:0:0:
256,192,67938,1,0,0:0:0:0:
256,192,68134,1,8,0:0:0:0:
256,192,68429,1,8,0:0:0:0:
256,192,68527,1,8,0:0:0:0:
256,192,68723,1,0,0:0:0:0:
256,192,68821,1,0,0:0:0:0:
256,192,69017,1,8,0:0:0:0:
256,192,69409,1,0,0:0:0:0:
512,384,69703,1,0,0:0:0:0:
256,192,69998,1,8,0:0:0:0:
256,192,70291,1,8,0:0:0:0:
256,192,70487,1,0,0:0:0:0:
256,192,70781,1,0,0:0:0:0:
256,192,70879,1,0,0:0:0:0:
256,192,71076,1,8,0:0:0:0:
224,192,71174,1,8,0:0:0:0:
256,192,71370,1,0,0:0:0:0:
224,192,71762,1,12,0:0:0:0:
256,192,72056,1,0,0:0:0:0:
256,192,72350,1,8,0:0:0:0:
256,192,72644,1,0,0:0:0:0:
256,192,72841,1,8,0:0:0:0:
224,192,73134,1,8,0:0:0:0:
256,192,73233,1,8,0:0:0:0:
224,192,73429,1,0,0:0:0:0:
224,192,73527,1,0,0:0:0:0:
224,192,73723,1,8,0:0:0:0:
224,192,73968,1,8,0:0:0:0:
288,192,74115,1,8,0:0:0:0:
256,224,74409,1,0,0:0:0:0:
256,224,74605,1,8,0:0:0:0:
288,192,74998,1,4,0:0:0:0:
288,192,75291,1,8,0:0:0:0:
288,160,75487,1,0,0:0:0:0:
288,192,75683,1,0,0:0:0:0:
288,192,75880,1,8,0:0:0:0:
224,160,76076,1,0,0:0:0:0:
288,192,76174,1,8,0:0:0:0:
288,192,76468,1,4,0:0:0:0:
256,192,77056,1,8,0:0:0:0:
256,192,77350,1,0,0:0:0:0:
256,192,77644,1,0,0:0:0:0:
256,192,77938,1,0,0:0:0:0:
256,192,78232,1,8,0:0:0:0:
256,192,78821,1,0,0:0:0:0:
256,192,79115,1,8,0:0:0:0:
256,192,79311,1,0,0:0:0:0:
256,192,79409,1,0,0:0:0:0:
256,192,79605,1,8,0:0:0:0:
256,192,79703,1,8,0:0:0:0:
256,192,79997,1,0,0:0:0:0:
256,192,80291,1,0,0:0:0:0:
256,192,80585,1,8,0:0:0:0:
256,192,80879,1,0,0:0:0:0:
256,192,81174,1,12,0:0:0:0:
256,192,81762,1,0,0:0:0:0:
256,192,82056,1,0,0:0:0:0:
256,192,82350,1,8,0:0:0:0:
256,192,82644,1,0,0:0:0:0:
256,192,82938,1,8,0:0:0:0:
256,192,83134,1,0,0:0:0:0:
256,192,83232,1,8,0:0:0:0:
256,192,83527,1,0,0:0:0:0:
256,192,83821,1,0,0:0:0:0:
256,192,84115,1,8,0:0:0:0:
256,192,84409,1,8,0:0:0:0:
288,224,84703,1,0,0:0:0:0:
288,224,84899,1,0,0:0:0:0:
256,192,84997,1,0,0:0:0:0:
256,192,85291,1,8,0:0:0:0:
288,224,85487,1,0,0:0:0:0:
256,192,85585,1,8,0:0:0:0:
288,224,85879,1,4,0:0:0:0:
256,192,86174,1,0,0:0:0:0:
256,192,86468,1,8,0:0:0:0:
288,192,86664,1,8,0:0:0:0:
288,192,86762,1,8,0:0:0:0:
256,192,87056,1,0,0:0:0:0:
256,192,87350,1,0,0:0:0:0:
256,192,87546,1,0,0:0:0:0:
256,192,87644,1,8,0:0:0:0:
288,192,87938,1,0,0:0:0:0:
256,192,88232,1,8,0:0:0:0:
288,192,88429,1,0,0:0:0:0:
256,192,88527,1,0,0:0:0:0:
256,192,88821,1,8,0:0:0:0:
288,192,89017,1,8,0:0:0:0:
256,192,89115,1,0,0:0:0:0:
256,192,89409,1,8,0:0:0:0:
288,192,89605,1,0,0:0:0:0:
256,192,89703,1,0,0:0:0:0:
256,192,89899,1,8,0:0:0:0:
256,192,90291,1,0,0:0:0:0:
256,192,90585,1,12,0:0:0:0:
256,192,91762,1,12,0:0:0:0:
256,192,92938,1,12,0:0:0:0:
256,192,93232,1,12,0:0:0:0:
256,192,93527,1,4,0:0:0:0:
256,192,93821,1,4,0:0:0:0:
256,192,94115,1,12,0:0:0:0:
256,192,94311,1,0,0:0:0:0:
256,192,94409,1,0,0:0:0:0:
256,192,94605,1,0,0:0:0:0:
256,192,94703,1,0,0:0:0:0:
256,192,95291,5,4,0:0:0:0:
256,192,95585,1,8,0:0:0:0:
256,192,95879,1,8,0:0:0:0:
256,192,96468,1,8,0:0:0:0:
256,192,96566,1,8,0:0:0:0:
256,192,96664,1,8,0:0:0:0:
256,192,96762,1,8,0:0:0:0:
256,192,97056,1,0,0:0:0:0:
256,160,97350,1,8,0:0:0:0:
256,192,97644,1,0,0:0:0:0:
160,160,97938,1,0,0:0:0:0:
256,192,98232,1,0,0:0:0:0:
256,160,98527,1,8,0:0:0:0:
256,192,98723,1,0,0:0:0:0:
256,192,98821,1,8,0:0:0:0:
256,192,99017,1,8,0:0:0:0:
256,192,99115,1,8,0:0:0:0:
256,192,99409,1,0,0:0:0:0:
256,192,99507,1,0,0:0:0:0:
256,192,99605,1,0,0:0:0:0:
256,128,99703,1,0,0:0:0:0:
288,160,99899,1,8,0:0:0:0:
256,160,100291,1,0,0:0:0:0:
288,192,100487,1,8,0:0:0:0:
256,160,100585,1,8,0:0:0:0:
288,160,100781,1,0,0:0:0:0:
256,160,101174,1,8,0:0:0:0:
288,192,101370,1,0,0:0:0:0:
256,160,101468,1,0,0:0:0:0:
256,160,101664,1,8,0:0:0:0:
256,160,102056,1,8,0:0:0:0:
288,192,102154,1,8,0:0:0:0:
288,192,102252,1,8,0:0:0:0:
288,192,102350,1,8,0:0:0:0:
256,160,102938,1,8,0:0:0:0:
256,160,103134,1,8,0:0:0:0:
256,160,103355,1,8,0:0:0:0:
256,160,103527,1,0,0:0:0:0:
256,160,104115,1,8,0:0:0:0:
256,192,104409,1,0,0:0:0:0:
256,192,104703,1,8,0:0:0:0:
256,160,104899,1,8,0:0:0:0:
288,160,105193,1,0,0:0:0:0:
288,160,105291,1,0,0:0:0:0:
256,160,105585,1,0,0:0:0:0:
256,160,105781,1,8,0:0:0:0:
256,192,106174,1,8,0:0:0:0:
256,192,106468,1,0,0:0:0:0:
256,192,106664,1,0,0:0:0:0:
256,192,106762,1,0,0:0:0:0:
256,192,107056,1,8,0:0:0:0:
256,160,107252,1,0,0:0:0:0:
256,160,107350,1,0,0:0:0:0:
256,192,107644,1,8,0:0:0:0:
256,192,107840,1,8,0:0:0:0:
256,192,107938,1,8,0:0:0:0:
256,192,108232,1,0,0:0:0:0:
256,192,108429,1,0,0:0:0:0:
256,192,108625,1,0,0:0:0:0:
256,160,108821,1,8,0:0:0:0:
256,256,109409,1,4,0:0:0:0:
256,192,109703,1,8,0:0:0:0:
256,192,110291,1,8,0:0:0:0:
256,160,110487,1,0,0:0:0:0:
256,192,110585,1,0,0:0:0:0:
256,192,110879,1,0,0:0:0:0:
256,192,111076,1,8,0:0:0:0:
256,192,111370,1,8,0:0:0:0:
256,192,111664,1,0,0:0:0:0:
256,192,112350,1,8,0:0:0:0:
256,192,112571,1,8,0:0:0:0:
256,192,112791,1,8,0:0:0:0:
256,192,112938,1,0,0:0:0:0:
256,160,113134,1,0,0:0:0:0:
256,160,113232,1,8,0:0:0:0:
256,160,113527,1,8,0:0:0:0:
288,192,114115,5,12,0:0:0:0:
256,192,114409,1,0,0:0:0:0:
256,192,114703,1,8,0:0:0:0:
256,192,114850,1,8,0:0:0:0:
288,192,114997,1,0,0:0:0:0:
288,192,115291,1,8,0:0:0:0:
256,192,115585,1,0,0:0:0:0:
256,192,115879,1,8,0:0:0:0:
288,192,116174,1,0,0:0:0:0:
288,192,116468,1,8,0:0:0:0:
288,192,116664,1,0,0:0:0:0:
288,192,116762,1,0,0:0:0:0:
288,192,117056,1,8,0:0:0:0:
288,192,117350,1,0,0:0:0:0:
288,192,117546,1,8,0:0:0:0:
288,192,117644,1,8,0:0:0:0:
288,192,118232,1,8,0:0:0:0:
192,160,118379,1,8,0:0:0:0:
288,192,118527,1,0,0:0:0:0:
256,192,118821,1,12,0:0:0:0:
288,192,119115,1,0,0:0:0:0:
256,192,119409,1,0,0:0:0:0:
160,192,119556,1,0,0:0:0:0:
256,192,119703,1,8,0:0:0:0:
256,192,119997,1,8,0:0:0:0:
256,192,120291,1,0,0:0:0:0:
256,192,120585,1,8,0:0:0:0:
256,192,120879,1,0,0:0:0:0:
288,192,121076,1,8,0:0:0:0:
288,192,121174,1,0,0:0:0:0:
256,160,121468,1,8,0:0:0:0:
256,192,121762,1,0,0:0:0:0:
256,192,121860,1,0,0:0:0:0:
256,192,121958,1,0,0:0:0:0:
256,192,122056,1,0,0:0:0:0:
256,160,122350,1,0,0:0:0:0:
288,192,122938,1,8,0:0:0:0:
288,192,123232,1,0,0:0:0:0:
256,160,123527,1,12,0:0:0:0:
288,192,123821,1,8,0:0:0:0:
256,192,124115,1,0,0:0:0:0:
256,192,124262,1,8,0:0:0:0:
256,192,124409,1,0,0:0:0:0:
256,192,124703,1,8,0:0:0:0:
256,192,124997,1,0,0:0:0:0:
320,192,125144,1,0,0:0:0:0:
256,192,125291,1,8,0:0:0:0:
288,192,125585,1,8,0:0:0:0:
256,192,125879,1,0,0:0:0:0:
288,192,126174,1,0,0:0:0:0:
256,192,126321,1,0,0:0:0:0:
256,192,126468,1,8,0:0:0:0:
256,192,126909,1,0,0:0:0:0:
256,192,127644,1,0,0:0:0:0:
256,192,127938,1,8,0:0:0:0:
256,192,128232,1,4,0:0:0:0:
256,192,128821,1,8,0:0:0:0:
256,192,128968,1,0,0:0:0:0:
256,192,129115,1,8,0:0:0:0:
256,192,129409,1,0,0:0:0:0:
256,192,129703,1,0,0:0:0:0:
256,192,129850,1,0,0:0:0:0:
256,192,129997,1,8,0:0:0:0:
256,192,130291,1,0,0:0:0:0:
256,192,130585,1,8,0:0:0:0:
256,192,130879,1,8,0:0:0:0:
256,192,131174,1,0,0:0:0:0:
256,192,131468,1,0,0:0:0:0:
256,192,131762,5,12,0:0:0:0:
256,160,132350,1,0,0:0:0:0:
256,160,132448,1,0,0:0:0:0:
288,192,132546,1,0,0:0:0:0:
256,160,132644,1,0,0:0:0:0:
256,192,132938,1,8,0:0:0:0:
256,160,133232,1,8,0:0:0:0:
256,192,133527,1,0,0:0:0:0:
256,160,133821,1,0,0:0:0:0:
256,192,134115,1,8,0:0:0:0:
256,192,134409,1,8,0:0:0:0:
256,192,134703,1,0,0:0:0:0:
256,192,134997,1,8,0:0:0:0:
256,160,135193,1,0,0:0:0:0:
256,192,135291,1,0,0:0:0:0:
256,192,135585,1,0,0:0:0:0:
256,192,135879,1,8,0:0:0:0:
256,192,136174,1,8,0:0:0:0:
256,192,136370,1,0,0:0:0:0:
256,192,136468,1,0,0:0:0:0:
256,192,136762,1,0,0:0:0:0:
288,192,137056,1,8,0:0:0:0:
288,192,137644,1,4,0:0:0:0:
192,192,137840,1,8,0:0:0:0:
256,192,138232,1,8,0:0:0:0:
256,160,138478,1,8,0:0:0:0:
256,160,138674,1,8,0:0:0:0:
256,192,138821,1,0,0:0:0:0:
256,192,139115,1,8,0:0:0:0:
256,224,139311,1,0,0:0:0:0:
256,192,139605,1,8,0:0:0:0:
256,192,139899,1,0,0:0:0:0:
256,192,140193,1,8,0:0:0:0:
256,192,140585,1,0,0:0:0:0:
256,192,140879,1,0,0:0:0:0:
256,192,141174,1,8,0:0:0:0:
256,192,141468,1,0,0:0:0:0:
256,192,141664,1,0,0:0:0:0:
256,192,141762,1,0,0:0:0:0:
256,192,141958,1,8,0:0:0:0:
256,192,142350,1,4,0:0:0:0:
256,192,142644,1,8,0:0:0:0:
288,192,142938,1,0,0:0:0:0:
256,192,143232,1,0,0:0:0:0:
256,192,143527,1,8,0:0:0:0:
256,192,143821,1,8,0:0:0:0:
224,192,144115,1,0,0:0:0:0:
256,192,144409,1,0,0:0:0:0:
256,192,144605,1,8,0:0:0:0:
224,192,144703,1,8,0:0:0:0:
256,192,144997,1,0,0:0:0:0:
256,192,145291,1,8,0:0:0:0:
256,192,145585,1,0,0:0:0:0:
256,192,145781,1,8,0:0:0:0:
256,192,145879,1,8,0:0:0:0:
256,192,146174,1,0,0:0:0:0:
256,192,146370,1,8,0:0:0:0:
256,192,146468,1,0,0:0:0:0:
256,192,146664,1,8,0:0:0:0:
224,192,147056,1,4,0:0:0:0:
256,192,147252,1,8,0:0:0:0:
256,192,147644,1,0,0:0:0:0:
256,192,147791,1,0,0:0:0:0:
256,192,147938,1,8,0:0:0:0:
256,192,148085,1,0,0:0:0:0:
256,192,148232,1,8,0:0:0:0:
256,192,148527,1,8,0:0:0:0:
256,192,148821,1,0,0:0:0:0:
256,192,149017,1,8,0:0:0:0:
256,192,149115,1,0,0:0:0:0:
256,192,149311,1,8,0:0:0:0:
256,192,149605,1,4,0:0:0:0:
256,192,149997,1,0,0:0:0:0:
256,192,150095,1,0,0:0:0:0:
256,192,150193,1,0,0:0:0:0:
256,192,150291,1,0,0:0:0:0:
256,192,150585,1,12,0:0:0:0:
256,192,151174,1,0,0:0:0:0:
256,192,151762,1,12,0:0:0:0:
256,192,152057,1,0,0:0:0:0:
256,192,152252,1,8,0:0:0:0:
256,192,152350,1,8,0:0:0:0:
256,192,152645,1,8,0:0:0:0:
256,192,152939,1,0,0:0:0:0:
256,192,153527,1,0,0:0:0:0:
256,192,153821,1,0,0:0:0:0:
256,192,154017,1,8,0:0:0:0:
288,160,154115,1,8,0:0:0:0:
256,192,154703,1,8,0:0:0:0:
256,192,154997,1,0,0:0:0:0:
256,192,155193,1,8,0:0:0:0:
256,160,155292,1,8,0:0:0:0:
256,160,155585,1,0,0:0:0:0:
256,160,155732,1,0,0:0:0:0:
256,160,155880,1,8,0:0:0:0:
256,192,156174,1,8,0:0:0:0:
256,192,156468,1,0,0:0:0:0:
256,192,156664,1,8,0:0:0:0:
256,192,156762,1,0,0:0:0:0:
256,160,157057,1,8,0:0:0:0:
256,192,157252,1,0,0:0:0:0:
256,192,157350,1,0,0:0:0:0:
256,192,157644,1,8,0:0:0:0:
256,192,158233,1,8,0:0:0:0:
256,192,158527,1,0,0:0:0:0:
256,192,158821,1,8,0:0:0:0:
256,192,159017,1,0,0:0:0:0:
256,192,159115,1,0,0:0:0:0:
256,192,159409,1,8,0:0:0:0:
256,192,159605,1,8,0:0:0:0:
256,192,159704,1,8,0:0:0:0:
224,192,159899,1,0,0:0:0:0:
256,192,159997,1,8,0:0:0:0:
256,192,160585,1,0,0:0:0:0:
256,192,160879,1,8,0:0:0:0:
288,192,161174,1,0,0:0:0:0:
256,192,161468,1,0,0:0:0:0:
256,192,161664,1,0,0:0:0:0:
256,192,161762,1,8,0:0:0:0:
256,192,162057,1,0,0:0:0:0:
256,192,162351,1,8,0:0:0:0:
288,192,162939,1,0,0:0:0:0:
288,192,163232,1,0,0:0:0:0:
256,192,163429,1,8,0:0:0:0:
288,192,163527,1,8,0:0:0:0:
288,192,164115,1,8,0:0:0:0:
288,192,164409,1,0,0:0:0:0:
256,192,164605,1,8,0:0:0:0:
288,192,164704,1,8,0:0:0:0:
256,192,164997,1,0,0:0:0:0:
256,192,165144,1,8,0:0:0:0:
288,192,165292,1,8,0:0:0:0:
224,192,165586,1,0,0:0:0:0:
224,192,165880,1,8,0:0:0:0:
288,192,166076,1,0,0:0:0:0:
224,192,166174,1,8,0:0:0:0:
224,192,166468,1,0,0:0:0:0:
256,192,166664,1,8,0:0:0:0:
224,192,166762,1,0,0:0:0:0:
224,192,167057,1,8,0:0:0:0:
256,160,167645,1,0,0:0:0:0:
256,160,167939,1,8,0:0:0:0:
256,192,168233,1,0,0:0:0:0:
256,160,168527,1,0,0:0:0:0:
256,160,168723,1,8,0:0:0:0:
256,160,168821,1,8,0:0:0:0:
256,160,169115,1,8,0:0:0:0:
256,160,169311,1,0,0:0:0:0:
256,160,169409,1,0,0:0:0:0:
256,160,169605,1,8,0:0:0:0:
256,160,169703,1,8,0:0:0:0:
256,160,169997,1,0,0:0:0:0:
256,160,170193,1,0,0:0:0:0:
256,160,170291,1,8,0:0:0:0:
288,192,170585,1,12,0:0:0:0:
256,192,171174,1,4,0:0:0:0:
256,192,171370,1,8,0:0:0:0:
256,192,171468,1,8,0:0:0:0:
256,192,171664,1,8,0:0:0:0:
256,192,171762,1,0,0:0:0:0:
288,192,172056,1,8,0:0:0:0:
256,192,172252,1,0,0:0:0:0:
256,192,172546,1,0,0:0:0:0:
288,192,172644,1,0,0:0:0:0:
256,192,172840,1,8,0:0:0:0:
256,192,172938,1,8,0:0:0:0:
256,192,173232,1,8,0:0:0:0:
256,192,173527,1,0,0:0:0:0:
256,192,173821,1,0,0:0:0:0:
256,192,174115,1,8,0:0:0:0:
256,192,174703,1,0,0:0:0:0:
256,192,174899,1,8,0:0:0:0:
288,192,174997,1,0,0:0:0:0:
256,192,175291,1,8,0:0:0:0:
256,160,175585,1,0,0:0:0:0:
288,192,175879,1,8,0:0:0:0:
256,192,176174,1,0,0:0:0:0:
256,192,176370,1,0,0:0:0:0:
256,192,176468,1,8,0:0:0:0:
256,192,177056,1,0,0:0:0:0:
288,192,177350,1,0,0:0:0:0:
256,192,177644,1,8,0:0:0:0:
256,224,177938,1,8,0:0:0:0:
256,160,178134,1,0,0:0:0:0:
256,192,178232,1,8,0:0:0:0:
256,224,178527,1,8,0:0:0:0:
256,192,178821,1,0,0:0:0:0:
288,192,179115,1,0,0:0:0:0:
256,160,179311,1,8,0:0:0:0:
256,160,179409,1,0,0:0:0:0:
256,160,179605,1,8,0:0:0:0:
256,192,179997,5,12,0:0:0:0:
256,192,180585,1,8,0:0:0:0:
288,192,180781,1,0,0:0:0:0:
256,192,180879,1,0,0:0:0:0:
288,192,181076,1,8,0:0:0:0:
256,192,181174,1,8,0:0:0:0:
256,192,181468,1,0,0:0:0:0:
288,192,181664,1,8,0:0:0:0:
256,192,182056,1,8,0:0:0:0:
288,192,182350,5,4,0:0:0:0:
256,192,182546,1,12,0:0:0:0:
256,192,182742,1,12,0:0:0:0:
288,192,182938,1,4,0:0:0:0:
288,192,183134,1,12,0:0:0:0:
256,192,183330,1,12,0:0:0:0:
256,192,183528,1,4,0:0:0:0:
256,192,184115,1,8,0:0:0:0:
256,160,184409,1,8,0:0:0:0:
256,192,184605,1,0,0:0:0:0:
256,160,184703,1,0,0:0:0:0:
288,192,184997,1,0,0:0:0:0:
256,160,185291,1,8,0:0:0:0:
256,192,185585,1,0,0:0:0:0:
256,192,185781,1,8,0:0:0:0:
247,161,185879,1,8,0:0:0:0:
256,192,186468,1,0,0:0:0:0:
256,192,186762,1,8,0:0:0:0:
256,192,187056,1,0,0:0:0:0:
288,160,187252,1,0,0:0:0:0:
288,160,187350,1,8,0:0:0:0:
288,192,187644,1,0,0:0:0:0:
288,160,187938,1,0,0:0:0:0:
288,192,188232,1,8,0:0:0:0:
288,160,188429,1,0,0:0:0:0:
288,160,188527,1,0,0:0:0:0:
288,160,188821,1,8,0:0:0:0:
288,160,189115,1,0,0:0:0:0:
288,160,189311,1,8,0:0:0:0:
256,192,189409,1,0,0:0:0:0:
288,160,189703,1,0,0:0:0:0:
256,192,189997,1,12,0:0:0:0:
256,160,190487,1,0,0:0:0:0:
256,192,190879,1,0,0:0:0:0:
192,160,191076,1,0,0:0:0:0:
256,192,191174,1,0,0:0:0:0:
256,192,191370,1,0,0:0:0:0:
256,192,191566,1,8,0:0:0:0:
256,192,191664,1,8,0:0:0:0:
256,192,191762,1,8,0:0:0:0:
256,192,191958,1,8,0:0:0:0:
256,192,192350,1,8,0:0:0:0:
256,192,192497,1,8,0:0:0:0:
256,192,192644,1,0,0:0:0:0:
256,192,192791,1,0,0:0:0:0:
256,192,192938,1,8,0:0:0:0:
256,192,193232,1,0,0:0:0:0:
256,192,193527,1,8,0:0:0:0:
256,192,194115,1,8,0:0:0:0:
256,192,194311,1,8,0:0:0:0:
256,192,194507,1,8,0:0:0:0:
256,192,194703,1,4,0:0:0:0:
256,192,194899,1,8,0:0:0:0:
256,192,194997,1,8,0:0:0:0:
256,192,195193,1,0,0:0:0:0:
256,192,195585,1,8,0:0:0:0:
256,192,195781,1,8,0:0:0:0:
256,192,196174,1,0,0:0:0:0:
256,192,196370,1,8,0:0:0:0:
256,192,196664,1,0,0:0:0:0:
256,192,196958,1,8,0:0:0:0:
256,192,197056,1,8,0:0:0:0:
256,192,197252,1,0,0:0:0:0:
256,192,197350,1,0,0:0:0:0:
256,192,197938,1,0,0:0:0:0:
256,192,198232,1,8,0:0:0:0:
256,192,198429,1,0,0:0:0:0:
256,192,198527,1,0,0:0:0:0:
256,192,198821,1,12,0:0:0:0:
256,192,199115,1,0,0:0:0:0:
256,192,199409,1,0,0:0:0:0:
256,192,199703,1,8,0:0:0:0:
256,192,199997,1,0,0:0:0:0:
256,192,200095,1,0,0:0:0:0:
256,192,200193,1,0,0:0:0:0:
256,192,200291,1,0,0:0:0:0:
256,192,200585,1,8,0:0:0:0:
256,192,200683,1,8,0:0:0:0:
256,192,200781,1,8,0:0:0:0:
256,192,200879,1,8,0:0:0:0:
256,192,201174,1,0,0:0:0:0:
256,192,201762,1,8,0:0:0:0:
256,192,201860,1,8,0:0:0:0:
256,192,201958,1,8,0:0:0:0:
256,192,202056,1,8,0:0:0:0:
256,192,202350,1,8,0:0:0:0:
256,192,202644,1,0,0:0:0:0:
256,256,202840,1,8,0:0:0:0:
256,192,203232,1,8,0:0:0:0:
256,192,203429,1,0,0:0:0:0:
256,192,203821,1,0,0:0:0:0:
256,192,204017,1,8,0:0:0:0:
256,192,204115,1,8,0:0:0:0:
256,192,204311,1,0,0:0:0:0:
256,192,204409,1,0,0:0:0:0:
256,192,204703,1,8,0:0:0:0:
256,192,204997,1,8,0:0:0:0:
256,192,205291,1,8,0:0:0:0:
256,192,205487,1,8,0:0:0:0:
256,192,205585,1,0,0:0:0:0:
256,192,205879,1,0,0:0:0:0:
256,192,206076,1,8,0:0:0:0:
256,192,206272,1,8,0:0:0:0:
256,192,206468,1,0,0:0:0:0:
256,192,206664,1,8,0:0:0:0:
256,192,206860,1,8,0:0:0:0:
256,192,207056,1,0,0:0:0:0:
288,192,207350,1,0,0:0:0:0:
256,192,207644,1,8,0:0:0:0:
288,192,207938,1,8,0:0:0:0:
256,192,208232,1,4,0:0:0:0:
