osu file format v14

[General]
AudioFilename: audio.ogg
AudioLeadIn: 0
PreviewTime: 170522
Countdown: 0
SampleSet: Normal
StackLeniency: 0.7
Mode: 1
LetterboxInBreaks: 0
WidescreenStoryboard: 1

[Editor]
DistanceSpacing: 2
BeatDivisor: 3
GridSize: 32
TimelineZoom: 0.5999999

[Metadata]
Title:Hana to Chiru
TitleUnicode:花と散る
Artist:Tsukuyomi
ArtistUnicode:月詠み
Creator:arcpotato
Version:Kantan
Source:
Tags:gaston_2199 jazz ツクヨミ 2943 ユリイカノン ユリイ・カノン yurry canon cannon yurrycanon yue エポック epoch とうかさ toukasa なおk naok 1st ep extended play japanese j-pop jpop pop female vocalS scatter like flowers another moon アナザームーン
BeatmapID:4400969
BeatmapSetID:2097800

[Difficulty]
HPDrainRate:8
CircleSize:2
OverallDifficulty:3.3
ApproachRate:10
SliderMultiplier:1.4
SliderTickRate:1

[Events]
//Background and Video events
0,0,"zO58Le2UINI-HD.jpg",0,60
Video,-1277,"output.mp4"
//Break Periods
//Storyboard Layer 0 (Background)
//Storyboard Layer 1 (Fail)
//Storyboard Layer 2 (Pass)
//Storyboard Layer 3 (Foreground)
//Storyboard Layer 4 (Overlay)
//Storyboard Sound Samples

[TimingPoints]
1165,294.117647058823,4,1,0,55,1,0
1165,-111.111111111111,4,1,0,55,0,0
2932,294.117647058823,4,1,0,55,1,8
2932,-111.111111111111,4,1,0,55,0,8
3520,294.117647058823,4,1,0,55,1,0
3520,-111.111111111111,4,1,0,55,0,0
5155,294.117647058823,4,1,0,55,1,8
5155,-111.111111111111,4,1,0,55,0,8
5880,294.117647058823,4,1,0,55,1,0
5880,-111.111111111111,4,1,0,55,0,0
10577,-111.111111111111,4,1,0,80,0,0
20283,-111.111111111111,4,1,0,65,0,0
27048,-111.111111111111,4,1,0,65,0,0
27636,-111.111111111111,4,1,0,69,0,0
28224,-111.111111111111,4,1,0,72,0,0
28421,-111.111111111111,4,1,0,74,0,0
28519,-111.111111111111,4,1,0,74,0,0
28715,-111.111111111111,4,1,0,76,0,0
28813,-111.111111111111,4,1,0,76,0,0
29009,-111.111111111111,4,1,0,77,0,0
29107,-111.111111111111,4,1,0,78,0,0
29401,-111.111111111111,4,1,0,80,0,0
38960,-111.111111111111,4,1,0,65,0,0
45871,-111.111111111111,4,1,0,65,0,0
46166,-111.111111111111,4,1,0,69,0,0
46460,-111.111111111111,4,1,0,73,0,0
46754,-111.111111111111,4,1,0,78,0,0
47048,-111.111111111111,4,1,0,82,0,0
47195,-111.111111111111,4,1,0,65,0,0
47244,-111.111111111111,4,1,0,84,0,0
47342,-111.111111111111,4,1,0,86,0,0
47538,-111.111111111111,4,1,0,89,0,0
47636,-111.111111111111,4,1,0,90,0,0
48232,-111.111111111111,4,1,0,90,0,1
55103,-111.111111111111,4,1,0,90,0,1
55283,-111.111111111111,4,1,0,90,0,1
55479,-111.111111111111,4,1,0,90,0,1
55577,-111.111111111111,4,1,0,90,0,1
55773,-111.111111111111,4,1,0,90,0,1
55871,-111.111111111111,4,1,0,90,0,1
56068,-111.111111111111,4,1,0,90,0,1
56166,-111.111111111111,4,1,0,90,0,1
56264,-111.111111111111,4,1,0,90,0,1
56362,-111.111111111111,4,1,0,90,0,1
56460,-111.111111111111,4,1,0,90,0,1
56656,-111.111111111111,4,1,0,90,0,1
56754,-111.111111111111,4,1,0,90,0,1
56950,-111.111111111111,4,1,0,90,0,1
57048,-111.111111111111,4,1,0,90,0,1
57342,-111.111111111111,4,1,0,90,0,1
57538,-111.111111111111,4,1,0,90,0,1
57636,-111.111111111111,4,1,0,90,0,1
57783,-111.111111111111,4,1,0,90,0,1
66468,-111.111111111111,4,1,0,90,0,0
67048,-111.111111111111,4,1,0,80,0,0
76754,-111.111111111111,4,1,0,65,0,0
83519,-111.111111111111,4,1,0,65,0,0
83813,-111.111111111111,4,1,0,67,0,0
84107,-111.111111111111,4,1,0,69,0,0
84401,-111.111111111111,4,1,0,71,0,0
84597,-111.111111111111,4,1,0,72,0,0
84695,-111.111111111111,4,1,0,73,0,0
84891,-111.111111111111,4,1,0,74,0,0
84989,-111.111111111111,4,1,0,74,0,0
85185,-111.111111111111,4,1,0,76,0,0
85283,-111.111111111111,4,1,0,76,0,0
85479,-111.111111111111,4,1,0,78,0,0
85577,-111.111111111111,4,1,0,78,0,0
85871,-111.111111111111,4,1,0,80,0,0
86019,-111.111111111111,4,1,0,65,0,0
90577,-111.111111111111,4,1,0,45,0,0
90908,-111.111111111111,4,1,0,45,0,0
90982,-111.111111111111,4,1,0,45,0,0
91055,-111.111111111111,4,1,0,45,0,0
91129,-111.111111111111,4,1,0,45,0,0
91202,-111.111111111111,4,1,0,45,0,0
91276,-111.111111111111,4,1,0,45,0,0
91385,-111.111111111111,4,1,0,45,0,0
91423,-111.111111111111,4,1,0,45,0,0
91459,-111.111111111111,4,1,0,45,0,0
91496,-111.111111111111,4,1,0,45,0,0
91532,-111.111111111111,4,1,0,45,0,0
91762,-111.111111111111,4,1,0,45,0,0
91763,-111.111111111111,4,1,0,45,0,0
91864,-111.111111111111,4,1,0,45,0,0
91974,-111.111111111111,4,1,0,45,0,0
92121,-111.111111111111,4,1,0,45,0,0
92195,-111.111111111111,4,1,0,45,0,0
92269,-111.111111111111,4,1,0,45,0,0
92342,-111.111111111111,4,1,0,45,0,0
92930,-111.111111111111,4,1,0,65,0,0
93224,-111.111111111111,4,1,0,69,0,0
93519,-111.111111111111,4,1,0,73,0,0
93813,-111.111111111111,4,1,0,78,0,0
94107,-111.111111111111,4,1,0,82,0,0
94303,-111.111111111111,4,1,0,84,0,0
94401,-111.111111111111,4,1,0,86,0,0
94597,-111.111111111111,4,1,0,89,0,0
94695,-111.111111111111,4,1,0,90,0,0
95291,-111.111111111111,4,1,0,90,0,1
113527,-111.111111111111,4,1,0,90,0,0
114107,-111.111111111111,4,1,0,65,0,0
132342,-111.111111111111,4,1,0,65,0,0
132391,-111.111111111111,4,1,0,65,0,0
132440,-111.111111111111,4,1,0,65,0,0
132489,-111.111111111111,4,1,0,65,0,0
132636,-111.111111111111,4,1,0,65,0,0
132685,-111.111111111111,4,1,0,65,0,0
132734,-111.111111111111,4,1,0,65,0,0
132783,-111.111111111111,4,1,0,65,0,0
132930,-111.111111111111,4,1,0,65,0,0
137636,-111.111111111111,4,1,0,65,0,0
142342,-111.111111111111,4,1,0,65,0,0
147048,-111.111111111111,4,1,0,65,0,0
149401,-111.111111111111,4,1,0,65,0,0
149597,-111.111111111111,4,1,0,65,0,0
149891,-111.111111111111,4,1,0,65,0,0
149989,-111.111111111111,4,1,0,65,0,0
150087,-111.111111111111,4,1,0,65,0,0
150185,-111.111111111111,4,1,0,65,0,0
150283,-111.111111111111,4,1,0,65,0,0
150381,-111.111111111111,4,1,0,65,0,0
150479,-111.111111111111,4,1,0,65,0,0
150577,-111.111111111111,4,1,0,65,0,0
151166,-111.111111111111,4,1,0,65,0,0
151762,-111.111111111111,4,1,0,90,0,1
158813,-111.111111111111,4,1,0,90,0,1
159009,-111.111111111111,4,1,0,90,0,1
159107,-111.111111111111,4,1,0,90,0,1
159303,-111.111111111111,4,1,0,90,0,1
159401,-111.111111111111,4,1,0,90,0,1
159598,-111.111111111111,4,1,0,90,0,1
159696,-111.111111111111,4,1,0,90,0,1
159794,-111.111111111111,4,1,0,90,0,1
159892,-111.111111111111,4,1,0,90,0,1
159989,-111.111111111111,4,1,0,90,0,1
160186,-111.111111111111,4,1,0,90,0,1
160284,-111.111111111111,4,1,0,90,0,1
160480,-111.111111111111,4,1,0,90,0,1
160578,-111.111111111111,4,1,0,90,0,1
160872,-111.111111111111,4,1,0,90,0,1
161068,-111.111111111111,4,1,0,90,0,1
161166,-111.111111111111,4,1,0,90,0,1
170871,-111.111111111111,4,1,0,90,0,1
180430,-111.111111111111,4,1,0,90,0,1
182351,-111.111111111111,4,1,0,90,0,1
182538,-111.111111111111,4,1,0,90,0,1
182734,-111.111111111111,4,1,0,90,0,1
182930,-111.111111111111,4,1,0,90,0,1
183126,-111.111111111111,4,1,0,90,0,1
183322,-111.111111111111,4,1,0,90,0,1
183527,-111.111111111111,4,1,0,90,0,1
183528,-111.111111111111,4,1,0,90,0,1
184107,-111.111111111111,4,1,0,90,0,1
189409,-111.111111111111,4,1,0,90,0,0
189410,-111.111111111111,4,1,0,90,0,0
189605,-111.111111111111,4,1,0,90,0,0
189703,-111.111111111111,4,1,0,90,0,0
189899,-111.111111111111,4,1,0,90,0,0
189997,-111.111111111111,4,1,0,90,0,0
190193,-111.111111111111,4,1,0,90,0,0
190291,-111.111111111111,4,1,0,90,0,0
190487,-111.111111111111,4,1,0,90,0,0
190586,-111.111111111111,4,1,0,90,0,0
190781,-111.111111111111,4,1,0,90,0,0
190879,-111.111111111111,4,1,0,90,0,0
191076,-111.111111111111,4,1,0,90,0,0
191174,-111.111111111111,4,1,0,90,0,0
191370,-111.111111111111,4,1,0,90,0,0
191566,-111.111111111111,4,1,0,90,0,0
191664,-111.111111111111,4,1,0,90,0,0
191762,-111.111111111111,4,1,0,90,0,0
191958,-111.111111111111,4,1,0,90,0,0
192252,-111.111111111111,4,1,0,90,0,0
192350,-111.111111111111,4,1,0,90,0,0
192497,-111.111111111111,4,1,0,90,0,0
192644,-111.111111111111,4,1,0,90,0,0
192791,-111.111111111111,4,1,0,90,0,0
192938,-111.111111111111,4,1,0,90,0,0
193134,-111.111111111111,4,1,0,90,0,0
193232,-111.111111111111,4,1,0,90,0,0
193429,-111.111111111111,4,1,0,90,0,0
193527,-111.111111111111,4,1,0,90,0,0
193821,-111.111111111111,4,1,0,90,0,0
193968,-111.111111111111,4,1,0,90,0,0
194017,-111.111111111111,4,1,0,90,0,0
194066,-111.111111111111,4,1,0,90,0,0
194115,-111.111111111111,4,1,0,90,0,0
194311,-111.111111111111,4,1,0,90,0,0
194409,-111.111111111111,4,1,0,90,0,0
194507,-111.111111111111,4,1,0,90,0,0
194703,-111.111111111111,4,1,0,90,0,0
194899,-111.111111111111,4,1,0,90,0,0
194997,-111.111111111111,4,1,0,90,0,0
195193,-111.111111111111,4,1,0,90,0,0
195292,-111.111111111111,4,1,0,90,0,0
195487,-111.111111111111,4,1,0,90,0,0
195585,-111.111111111111,4,1,0,90,0,0
195781,-111.111111111111,4,1,0,90,0,0
195879,-111.111111111111,4,1,0,90,0,0
196174,-111.111111111111,4,1,0,90,0,0
196370,-111.111111111111,4,1,0,90,0,0
196468,-111.111111111111,4,1,0,90,0,0
196664,-111.111111111111,4,1,0,90,0,0
196958,-111.111111111111,4,1,0,90,0,0
197056,-111.111111111111,4,1,0,90,0,0
197252,-111.111111111111,4,1,0,90,0,0
197350,-111.111111111111,4,1,0,90,0,0
197546,-111.111111111111,4,1,0,90,0,0
197644,-111.111111111111,4,1,0,90,0,0
197832,-111.111111111111,4,1,0,90,0,0
197930,-111.111111111111,4,1,0,90,0,0
198028,-111.111111111111,4,1,0,90,0,0
198126,-111.111111111111,4,1,0,90,0,0
198224,-111.111111111111,4,1,0,90,0,0
198322,-111.111111111111,4,1,0,90,0,0
198421,-111.111111111111,4,1,0,90,0,0
198519,-111.111111111111,4,1,0,90,0,0
198617,-111.111111111111,4,1,0,90,0,0
198715,-111.111111111111,4,1,0,90,0,0
198813,-111.111111111111,4,1,0,90,0,0
199009,-111.111111111111,4,1,0,90,0,0
199107,-111.111111111111,4,1,0,90,0,0
199205,-111.111111111111,4,1,0,90,0,0
199303,-111.111111111111,4,1,0,90,0,0
199401,-111.111111111111,4,1,0,90,0,0
199499,-111.111111111111,4,1,0,90,0,0
199597,-111.111111111111,4,1,0,90,0,0
199695,-111.111111111111,4,1,0,90,0,0
199793,-111.111111111111,4,1,0,90,0,0
199891,-111.111111111111,4,1,0,90,0,0
199989,-111.111111111111,4,1,0,90,0,0
200087,-111.111111111111,4,1,0,90,0,0
200185,-111.111111111111,4,1,0,90,0,0
200283,-111.111111111111,4,1,0,90,0,0
200381,-111.111111111111,4,1,0,90,0,0
200479,-111.111111111111,4,1,0,90,0,0
200577,-111.111111111111,4,1,0,90,0,0
200675,-111.111111111111,4,1,0,90,0,0
200773,-111.111111111111,4,1,0,90,0,0
200871,-111.111111111111,4,1,0,90,0,0
201068,-111.111111111111,4,1,0,90,0,0
201166,-111.111111111111,4,1,0,90,0,0
201264,-111.111111111111,4,1,0,90,0,0
201362,-111.111111111111,4,1,0,90,0,0
201460,-111.111111111111,4,1,0,90,0,0
201558,-111.111111111111,4,1,0,90,0,0
201656,-111.111111111111,4,1,0,90,0,0
201754,-111.111111111111,4,1,0,90,0,0
201852,-111.111111111111,4,1,0,90,0,0
201950,-111.111111111111,4,1,0,90,0,0
202048,-111.111111111111,4,1,0,90,0,0
202146,-111.111111111111,4,1,0,90,0,0
202244,-111.111111111111,4,1,0,90,0,0
202342,-111.111111111111,4,1,0,90,0,0
208224,-111.111111111111,4,1,0,90,0,0

[HitObjects]
256,192,1165,5,8,0:0:0:0:
256,192,2341,1,0,0:0:0:0:
256,192,2932,1,8,0:0:0:0:
256,192,3520,1,0,0:0:0:0:
256,192,4696,1,0,0:0:0:0:
256,192,5155,1,8,0:0:0:0:
256,192,5596,1,8,0:0:0:0:
256,192,5880,1,0,0:0:0:0:
256,192,6468,1,8,0:0:0:0:
256,192,6762,1,8,0:0:0:0:
256,192,7056,1,0,0:0:0:0:
256,192,7644,1,0,0:0:0:0:
256,192,8232,1,8,0:0:0:0:
256,192,8527,1,0,0:0:0:0:
256,192,8821,1,8,0:0:0:0:
256,192,9409,1,0,0:0:0:0:
256,192,10585,1,4,0:0:0:0:
224,192,10879,1,8,0:0:0:0:
256,192,11174,1,8,0:0:0:0:
224,192,11664,1,8,0:0:0:0:
256,192,12056,1,0,0:0:0:0:
256,192,12350,1,8,0:0:0:0:
256,192,12938,1,0,0:0:0:0:
512,384,13232,1,0,0:0:0:0:
256,192,13527,1,8,0:0:0:0:
256,192,14017,1,0,0:0:0:0:
224,192,14409,1,0,0:0:0:0:
224,192,14703,1,8,0:0:0:0:
224,192,15291,1,12,0:0:0:0:
256,192,15585,1,0,0:0:0:0:
256,192,15879,1,8,0:0:0:0:
256,192,16370,1,8,0:0:0:0:
256,192,16762,1,0,0:0:0:0:
256,192,17056,1,8,0:0:0:0:
288,192,17644,1,8,0:0:0:0:
288,192,18527,1,4,0:0:0:0:
288,192,19115,1,0,0:0:0:0:
288,192,19409,1,8,0:0:0:0:
288,192,19703,1,8,0:0:0:0:
288,192,19997,1,4,0:0:0:0:
256,192,20585,1,8,0:0:0:0:
256,192,21174,1,0,0:0:0:0:
256,192,21468,1,0,0:0:0:0:
256,192,21762,1,8,0:0:0:0:
256,192,22350,1,0,0:0:0:0:
256,192,22938,1,8,0:0:0:0:
256,192,23527,1,0,0:0:0:0:
256,192,23821,1,0,0:0:0:0:
256,192,24115,1,8,0:0:0:0:
256,192,24703,1,4,0:0:0:0:
224,192,25291,1,8,0:0:0:0:
224,192,25879,1,8,0:0:0:0:
256,160,26174,1,8,0:0:0:0:
256,160,26468,1,0,0:0:0:0:
256,192,27056,1,0,0:0:0:0:
256,192,27644,1,8,0:0:0:0:
256,192,28232,1,0,0:0:0:0:
256,160,29409,1,4,0:0:0:0:
256,160,29703,1,8,0:0:0:0:
256,160,29997,1,8,0:0:0:0:
256,160,30487,1,8,0:0:0:0:
256,192,30879,1,8,0:0:0:0:
256,192,31174,1,0,0:0:0:0:
256,192,31762,1,8,0:0:0:0:
256,192,32056,1,0,0:0:0:0:
256,192,32350,1,8,0:0:0:0:
256,224,32840,1,8,0:0:0:0:
256,224,33232,1,0,0:0:0:0:
256,224,33527,1,8,0:0:0:0:
256,224,34115,1,4,0:0:0:0:
288,224,34409,1,8,0:0:0:0:
288,224,34703,1,8,0:0:0:0:
288,224,35193,1,8,0:0:0:0:
288,224,35585,1,0,0:0:0:0:
288,224,35879,1,8,0:0:0:0:
288,224,36468,1,0,0:0:0:0:
320,224,37350,1,12,0:0:0:0:
288,224,37938,1,8,0:0:0:0:
288,224,38232,1,8,0:0:0:0:
288,224,38527,1,0,0:0:0:0:
288,224,38821,1,12,0:0:0:0:
256,224,39409,1,0,0:0:0:0:
288,192,39997,1,8,0:0:0:0:
288,192,40291,1,8,0:0:0:0:
288,192,40585,1,0,0:0:0:0:
288,192,41174,1,8,0:0:0:0:
288,192,41762,1,0,0:0:0:0:
288,192,42350,1,0,0:0:0:0:
288,192,42644,1,0,0:0:0:0:
288,192,42938,1,8,0:0:0:0:
256,192,43527,1,4,0:0:0:0:
256,192,44703,1,4,0:0:0:0:
256,192,45879,1,12,0:0:0:0:
256,192,46174,1,12,0:0:0:0:
256,192,46468,1,4,0:0:0:0:
256,192,46762,1,4,0:0:0:0:
256,192,47056,1,12,0:0:0:0:
256,192,48232,1,12,0:0:0:0:
256,192,48527,1,0,0:0:0:0:
256,192,48821,1,8,0:0:0:0:
256,192,49115,1,0,0:0:0:0:
256,192,49409,1,8,0:0:0:0:
256,192,49997,1,0,0:0:0:0:
288,160,50585,1,8,0:0:0:0:
256,192,51174,1,0,0:0:0:0:
256,160,51762,1,8,0:0:0:0:
256,160,52350,1,0,0:0:0:0:
256,192,52644,1,0,0:0:0:0:
256,192,52938,1,8,0:0:0:0:
256,160,53527,1,0,0:0:0:0:
256,160,53821,1,8,0:0:0:0:
256,160,54115,1,8,0:0:0:0:
256,192,54703,1,0,0:0:0:0:
256,192,54997,1,0,0:0:0:0:
256,192,55291,1,8,0:0:0:0:
256,192,55585,1,8,0:0:0:0:
256,192,55879,1,0,0:0:0:0:
256,192,56174,1,0,0:0:0:0:
224,192,56468,1,8,0:0:0:0:
288,192,57644,1,0,0:0:0:0:
256,192,57938,1,8,0:0:0:0:
256,192,58232,1,0,0:0:0:0:
256,192,58527,1,0,0:0:0:0:
256,192,58821,1,8,0:0:0:0:
288,192,59409,1,0,0:0:0:0:
288,192,59997,1,8,0:0:0:0:
288,192,60585,1,0,0:0:0:0:
288,192,61174,1,8,0:0:0:0:
288,192,61762,1,8,0:0:0:0:
224,192,62056,1,8,0:0:0:0:
224,192,62350,1,0,0:0:0:0:
224,192,62644,1,0,0:0:0:0:
224,192,62938,1,8,0:0:0:0:
224,192,63232,1,8,0:0:0:0:
224,192,63527,1,0,0:0:0:0:
256,160,64115,1,8,0:0:0:0:
256,160,64409,1,8,0:0:0:0:
256,192,64703,1,0,0:0:0:0:
256,160,65291,1,8,0:0:0:0:
256,160,65879,1,0,0:0:0:0:
256,192,67056,1,4,0:0:0:0:
224,192,67350,1,8,0:0:0:0:
256,192,67645,1,8,0:0:0:0:
224,192,68135,1,0,0:0:0:0:
256,192,68527,1,0,0:0:0:0:
256,192,68821,1,8,0:0:0:0:
256,192,69409,1,0,0:0:0:0:
512,384,69703,1,0,0:0:0:0:
256,192,69998,1,8,0:0:0:0:
256,192,70487,1,8,0:0:0:0:
224,192,70880,1,0,0:0:0:0:
224,192,71174,1,8,0:0:0:0:
224,192,71762,1,12,0:0:0:0:
256,192,72056,1,0,0:0:0:0:
256,192,72350,1,8,0:0:0:0:
256,192,72841,1,8,0:0:0:0:
256,192,73233,1,0,0:0:0:0:
256,192,73527,1,8,0:0:0:0:
288,192,74115,1,8,0:0:0:0:
288,192,74998,1,4,0:0:0:0:
288,192,75291,1,8,0:0:0:0:
288,160,75585,1,0,0:0:0:0:
288,192,75880,1,8,0:0:0:0:
288,192,76174,1,8,0:0:0:0:
288,192,76468,1,4,0:0:0:0:
256,192,77056,1,8,0:0:0:0:
256,192,77644,1,0,0:0:0:0:
256,192,77938,1,0,0:0:0:0:
256,192,78232,1,8,0:0:0:0:
256,192,78821,1,0,0:0:0:0:
256,192,79409,1,8,0:0:0:0:
256,192,79997,1,0,0:0:0:0:
256,192,80291,1,0,0:0:0:0:
256,192,80585,1,8,0:0:0:0:
256,192,81174,1,12,0:0:0:0:
256,192,81762,1,0,0:0:0:0:
256,192,82350,1,8,0:0:0:0:
256,192,82644,1,0,0:0:0:0:
256,192,82938,1,8,0:0:0:0:
256,192,83527,1,0,0:0:0:0:
256,192,84115,1,8,0:0:0:0:
288,224,84703,1,0,0:0:0:0:
288,224,85879,1,4,0:0:0:0:
256,192,86468,1,8,0:0:0:0:
256,192,87056,1,0,0:0:0:0:
256,192,87350,1,0,0:0:0:0:
256,192,87644,1,8,0:0:0:0:
256,192,88232,1,0,0:0:0:0:
256,192,88821,1,8,0:0:0:0:
256,192,89409,1,8,0:0:0:0:
256,192,89703,1,0,0:0:0:0:
256,192,89997,1,8,0:0:0:0:
256,192,90585,1,12,0:0:0:0:
256,192,91762,1,12,0:0:0:0:
256,192,92938,1,12,0:0:0:0:
256,192,93232,1,12,0:0:0:0:
256,192,93527,1,4,0:0:0:0:
256,192,93821,1,4,0:0:0:0:
256,192,94115,1,12,0:0:0:0:
256,192,95291,5,4,0:0:0:0:
256,192,95585,1,8,0:0:0:0:
256,192,95879,1,8,0:0:0:0:
256,192,96468,1,0,0:0:0:0:
256,192,96762,1,8,0:0:0:0:
256,160,97350,1,8,0:0:0:0:
256,160,98527,1,8,0:0:0:0:
256,160,98821,1,0,0:0:0:0:
256,160,99115,1,0,0:0:0:0:
288,160,99409,1,8,0:0:0:0:
256,128,99703,1,8,0:0:0:0:
256,160,100291,1,0,0:0:0:0:
256,160,100585,1,8,0:0:0:0:
256,160,101174,1,8,0:0:0:0:
256,160,101468,1,0,0:0:0:0:
256,160,101762,1,8,0:0:0:0:
256,160,102350,1,0,0:0:0:0:
256,160,102938,1,8,0:0:0:0:
256,160,103527,1,0,0:0:0:0:
256,192,104409,1,0,0:0:0:0:
256,192,104703,1,8,0:0:0:0:
256,192,105291,1,0,0:0:0:0:
256,192,105585,1,0,0:0:0:0:
256,192,106174,1,8,0:0:0:0:
256,192,106468,1,0,0:0:0:0:
256,192,107056,1,8,0:0:0:0:
256,192,107644,1,8,0:0:0:0:
256,192,107938,1,8,0:0:0:0:
256,192,108232,1,0,0:0:0:0:
256,160,108821,1,8,0:0:0:0:
256,192,109703,1,8,0:0:0:0:
256,192,110291,1,8,0:0:0:0:
256,192,110585,1,0,0:0:0:0:
256,192,110879,1,0,0:0:0:0:
256,192,111174,1,8,0:0:0:0:
256,192,111762,1,0,0:0:0:0:
256,192,112350,1,8,0:0:0:0:
256,192,112938,1,0,0:0:0:0:
288,192,114115,5,12,0:0:0:0:
288,192,114703,1,0,0:0:0:0:
288,192,114997,1,0,0:0:0:0:
288,192,115291,1,8,0:0:0:0:
288,192,115879,1,0,0:0:0:0:
288,192,116468,1,8,0:0:0:0:
288,192,117056,1,0,0:0:0:0:
288,192,117644,1,8,0:0:0:0:
256,192,118821,1,12,0:0:0:0:
256,192,119409,1,0,0:0:0:0:
256,192,119703,1,8,0:0:0:0:
256,192,119997,1,8,0:0:0:0:
256,192,120585,1,0,0:0:0:0:
256,192,121174,1,8,0:0:0:0:
256,160,121468,1,8,0:0:0:0:
288,192,121762,1,8,0:0:0:0:
256,160,122350,1,0,0:0:0:0:
256,160,123527,1,12,0:0:0:0:
256,192,124115,1,0,0:0:0:0:
256,192,124409,1,0,0:0:0:0:
256,192,124703,1,8,0:0:0:0:
256,192,125291,1,8,0:0:0:0:
256,192,125879,1,0,0:0:0:0:
256,192,126174,1,8,0:0:0:0:
256,192,126468,1,8,0:0:0:0:
256,192,127056,1,8,0:0:0:0:
256,192,128232,1,4,0:0:0:0:
256,192,128821,1,8,0:0:0:0:
256,192,129115,1,8,0:0:0:0:
256,192,129409,1,0,0:0:0:0:
256,192,129997,1,8,0:0:0:0:
256,192,130291,1,0,0:0:0:0:
256,192,130585,1,8,0:0:0:0:
256,192,131174,1,0,0:0:0:0:
256,192,131762,5,12,0:0:0:0:
256,192,132938,1,8,0:0:0:0:
256,192,133527,1,0,0:0:0:0:
256,192,134115,1,8,0:0:0:0:
256,192,134703,1,8,0:0:0:0:
256,192,135291,1,0,0:0:0:0:
256,192,135879,1,0,0:0:0:0:
256,192,136468,1,8,0:0:0:0:
256,192,137644,1,12,0:0:0:0:
256,192,138232,1,8,0:0:0:0:
256,192,138821,1,0,0:0:0:0:
256,192,139115,1,8,0:0:0:0:
256,192,139703,1,8,0:0:0:0:
256,192,140193,1,8,0:0:0:0:
256,192,140585,1,0,0:0:0:0:
256,192,140879,1,0,0:0:0:0:
256,192,141174,1,8,0:0:0:0:
256,192,142350,1,4,0:0:0:0:
288,192,142938,1,0,0:0:0:0:
256,192,143527,1,8,0:0:0:0:
224,192,144115,1,0,0:0:0:0:
224,192,144703,1,8,0:0:0:0:
224,192,145291,1,8,0:0:0:0:
224,192,145879,1,0,0:0:0:0:
224,192,147056,1,12,0:0:0:0:
256,192,147644,1,0,0:0:0:0:
256,192,148232,1,8,0:0:0:0:
256,192,148821,1,0,0:0:0:0:
256,192,149605,1,12,0:0:0:0:
256,192,149997,1,0,0:0:0:0:
256,192,150291,1,0,0:0:0:0:
256,192,150585,1,12,0:0:0:0:
256,192,151762,1,12,0:0:0:0:
256,192,152057,1,0,0:0:0:0:
256,192,152350,1,8,0:0:0:0:
256,192,152645,1,8,0:0:0:0:
256,192,152939,1,0,0:0:0:0:
256,192,153527,1,8,0:0:0:0:
288,160,154115,1,0,0:0:0:0:
256,192,154704,1,8,0:0:0:0:
256,160,155292,1,0,0:0:0:0:
256,160,155880,1,8,0:0:0:0:
256,192,156174,1,8,0:0:0:0:
256,192,156468,1,0,0:0:0:0:
256,160,157057,1,8,0:0:0:0:
256,160,157350,1,0,0:0:0:0:
256,160,157645,1,0,0:0:0:0:
256,192,158233,1,8,0:0:0:0:
256,192,158527,1,8,0:0:0:0:
256,192,158821,1,0,0:0:0:0:
256,192,159115,1,8,0:0:0:0:
256,192,159409,1,0,0:0:0:0:
256,192,159704,1,0,0:0:0:0:
224,192,159998,1,8,0:0:0:0:
288,192,161174,1,0,0:0:0:0:
256,192,161468,1,0,0:0:0:0:
256,192,161762,1,8,0:0:0:0:
256,192,162057,1,0,0:0:0:0:
256,192,162351,1,8,0:0:0:0:
288,192,162939,1,8,0:0:0:0:
288,192,163527,1,0,0:0:0:0:
288,192,164115,1,8,0:0:0:0:
288,192,164704,1,0,0:0:0:0:
288,192,165292,1,8,0:0:0:0:
224,192,165586,1,8,0:0:0:0:
224,192,165880,1,0,0:0:0:0:
224,192,166174,1,0,0:0:0:0:
224,192,166468,1,8,0:0:0:0:
224,192,166762,1,8,0:0:0:0:
224,192,167057,1,0,0:0:0:0:
256,160,167645,1,0,0:0:0:0:
256,160,167939,1,8,0:0:0:0:
256,192,168233,1,0,0:0:0:0:
256,160,168821,1,8,0:0:0:0:
256,160,169409,1,0,0:0:0:0:
288,192,170585,1,12,0:0:0:0:
256,192,171174,1,4,0:0:0:0:
256,192,171468,1,8,0:0:0:0:
256,192,171762,1,0,0:0:0:0:
256,192,172350,1,0,0:0:0:0:
256,192,172938,1,8,0:0:0:0:
256,192,173232,1,8,0:0:0:0:
256,192,173527,1,0,0:0:0:0:
256,192,173821,1,0,0:0:0:0:
256,192,174115,1,8,0:0:0:0:
256,192,174703,1,0,0:0:0:0:
256,192,175291,1,8,0:0:0:0:
256,192,175879,1,0,0:0:0:0:
256,192,176174,1,0,0:0:0:0:
256,192,176468,1,8,0:0:0:0:
256,192,177056,1,0,0:0:0:0:
256,192,177644,1,8,0:0:0:0:
256,224,177938,1,8,0:0:0:0:
256,192,178232,1,8,0:0:0:0:
256,224,178527,1,8,0:0:0:0:
256,192,178821,1,0,0:0:0:0:
256,192,179997,5,12,0:0:0:0:
256,192,180585,1,0,0:0:0:0:
256,192,180879,1,8,0:0:0:0:
256,192,181174,1,8,0:0:0:0:
256,192,181468,1,0,0:0:0:0:
256,192,182056,1,8,0:0:0:0:
288,192,182351,5,4,0:0:0:0:
288,192,182938,1,4,0:0:0:0:
256,192,183528,1,4,0:0:0:0:
256,192,184115,1,8,0:0:0:0:
256,160,184409,1,8,0:0:0:0:
256,160,184703,1,0,0:0:0:0:
256,160,185291,1,8,0:0:0:0:
256,192,185585,1,0,0:0:0:0:
247,161,185879,1,8,0:0:0:0:
256,192,186468,1,0,0:0:0:0:
256,192,186762,1,0,0:0:0:0:
256,192,187056,1,8,0:0:0:0:
288,192,187644,1,0,0:0:0:0:
288,192,188232,1,8,0:0:0:0:
256,192,189409,1,0,0:0:0:0:
256,192,189997,1,12,0:0:0:0:
256,192,190585,1,0,0:0:0:0:
256,192,191174,1,8,0:0:0:0:
256,192,191762,1,0,0:0:0:0:
256,192,192350,1,8,0:0:0:0:
256,192,192644,1,8,0:0:0:0:
256,192,192938,1,0,0:0:0:0:
256,192,193232,1,8,0:0:0:0:
256,192,194115,1,0,0:0:0:0:
256,192,194703,1,12,0:0:0:0:
256,192,194997,1,0,0:0:0:0:
256,192,195585,1,8,0:0:0:0:
256,192,196174,1,0,0:0:0:0:
256,192,196468,1,8,0:0:0:0:
256,192,197056,1,0,0:0:0:0:
256,192,197350,1,0,0:0:0:0:
256,192,198821,1,12,0:0:0:0:
256,192,199409,1,0,0:0:0:0:
256,192,199703,1,0,0:0:0:0:
256,192,199997,1,8,0:0:0:0:
256,192,200291,1,8,0:0:0:0:
256,192,200585,1,0,0:0:0:0:
256,192,201174,1,8,0:0:0:0:
256,192,201762,1,0,0:0:0:0:
256,192,202056,1,0,0:0:0:0:
256,192,202350,1,8,0:0:0:0:
256,192,202644,1,0,0:0:0:0:
256,192,203232,1,8,0:0:0:0:
256,192,203821,1,0,0:0:0:0:
256,192,204115,1,8,0:0:0:0:
256,192,204703,1,0,0:0:0:0:
256,192,204997,1,0,0:0:0:0:
256,192,205291,1,8,0:0:0:0:
256,192,205879,1,0,0:0:0:0:
256,192,206468,1,8,0:0:0:0:
256,192,207056,1,0,0:0:0:0:
256,192,207644,1,8,0:0:0:0:
256,192,208232,1,4,0:0:0:0:
