osu file format v14

[General]
AudioFilename: audio.ogg
AudioLeadIn: 0
PreviewTime: 59963
Countdown: 0
SampleSet: Soft
StackLeniency: 0.4
Mode: 0
LetterboxInBreaks: 0
WidescreenStoryboard: 1

[Editor]
DistanceSpacing: 0.8
BeatDivisor: 4
GridSize: 32
TimelineZoom: 5.200003

[Metadata]
Title:Hana ni Ame o, Kimi ni Uta o
TitleUnicode:花に雨を、君に歌を
Artist:Tsukuyomi
ArtistUnicode:月詠み
Creator:Nevertary
Version:lushifer's Extra
Source:
Tags:THE BINARY mido あかまる akamaru ユリイ・カノン YurryCanon Yue ユエ SERRA セラ 片井雨司 kataiuji cover female vocals vocalist japanese rock j-rock jrock lushifer Crysisters
BeatmapID:4029000
BeatmapSetID:1929568

[Difficulty]
HPDrainRate:5.2
CircleSize:4
OverallDifficulty:8.8
ApproachRate:9.4
SliderMultiplier:1.7
SliderTickRate:1

[Events]
//Background and Video events
Video,-58,"bgv.mp4"
0,0,"BG.jpg",0,0
//Break Periods
//Storyboard Layer 0 (Background)
//Storyboard Layer 1 (Fail)
//Storyboard Layer 2 (Pass)
//Storyboard Layer 3 (Foreground)
//Storyboard Layer 4 (Overlay)
//Storyboard Sound Samples

[TimingPoints]
526,250,4,2,2,50,1,0
8526,-90.9090909090909,4,2,1,75,0,0
24526,-90.9090909090909,4,2,3,60,0,0
28526,-125,4,2,3,50,0,0
36526,-125,4,2,3,55,0,0
44526,-105.263157894737,4,2,3,60,0,0
56526,-200,4,2,3,65,0,0
58526,-71.4285714285714,4,2,2,70,0,0
60526,-83.3333333333333,4,2,1,80,0,1
61713,-83.3333333333333,4,2,1,5,0,1
61776,-83.3333333333333,4,2,1,80,0,1
63713,-83.3333333333333,4,2,1,5,0,1
63776,-83.3333333333333,4,2,1,80,0,1
69713,-83.3333333333333,4,2,1,5,0,1
69776,-83.3333333333333,4,2,1,80,0,1
71713,-83.3333333333333,4,2,1,5,0,1
71776,-83.3333333333333,4,2,1,80,0,1
79713,-83.3333333333333,4,2,1,5,0,1
79776,-83.3333333333333,4,2,1,80,0,1
80213,-83.3333333333333,4,2,1,5,0,1
80276,-83.3333333333333,4,2,1,80,0,1
83713,-83.3333333333333,4,2,1,5,0,1
83776,-83.3333333333333,4,2,1,80,0,1
87713,-83.3333333333333,4,2,1,5,0,1
87776,-83.3333333333333,4,2,1,80,0,1
88213,-83.3333333333333,4,2,1,5,0,1
88276,-83.3333333333333,4,2,1,80,0,1
92526,-90.9090909090909,4,2,1,75,0,0
108526,-100,4,2,2,60,0,0
116526,-100,4,2,2,65,0,0
124526,-133.333333333333,4,2,3,60,0,0
136526,-200,4,2,3,65,0,0
138526,-71.4285714285714,4,2,2,70,0,0
140526,-83.3333333333333,4,2,1,80,0,1
141713,-83.3333333333333,4,2,1,5,0,1
141776,-83.3333333333333,4,2,1,80,0,1
143713,-83.3333333333333,4,2,1,5,0,1
143776,-83.3333333333333,4,2,1,80,0,1
149713,-83.3333333333333,4,2,1,5,0,1
149776,-83.3333333333333,4,2,1,80,0,1
151713,-83.3333333333333,4,2,1,5,0,1
151776,-83.3333333333333,4,2,1,80,0,1
156526,-90.9090909090909,4,2,1,75,0,0
172526,-166.666666666667,4,2,3,60,0,0
186526,-71.4285714285714,4,2,2,70,0,0
188526,-71.4285714285714,4,2,1,75,0,0
192526,-83.3333333333333,4,2,1,80,0,1
197713,-83.3333333333333,4,2,1,5,0,1
197776,-83.3333333333333,4,2,1,80,0,1
199713,-83.3333333333333,4,2,1,5,0,1
199776,-83.3333333333333,4,2,1,80,0,1
203526,-83.3333333333333,4,2,1,80,0,0
204526,-71.4285714285714,4,2,1,80,0,1
205713,-71.4285714285714,4,2,1,5,0,1
205776,-71.4285714285714,4,2,1,80,0,1
207713,-71.4285714285714,4,2,1,5,0,1
207776,-71.4285714285714,4,2,1,80,0,1
213713,-71.4285714285714,4,2,1,5,0,1
213776,-71.4285714285714,4,2,1,80,0,1
215713,-71.4285714285714,4,2,1,5,0,1
215776,-71.4285714285714,4,2,1,80,0,1
223713,-71.4285714285714,4,2,1,5,0,1
223776,-71.4285714285714,4,2,1,80,0,1
224213,-71.4285714285714,4,2,1,5,0,1
224276,-71.4285714285714,4,2,1,80,0,1
231713,-71.4285714285714,4,2,1,5,0,1
231776,-71.4285714285714,4,2,1,80,0,1
232213,-71.4285714285714,4,2,1,5,0,1
232276,-71.4285714285714,4,2,1,80,0,1
236526,-71.4285714285714,4,2,1,80,0,0
239713,-71.4285714285714,4,2,1,5,0,0
239776,-71.4285714285714,4,2,1,80,0,0
240213,-71.4285714285714,4,2,1,5,0,0
240276,-71.4285714285714,4,2,1,80,0,0
240713,-71.4285714285714,4,2,1,5,0,0
240776,-71.4285714285714,4,2,1,80,0,0
241963,-71.4285714285714,4,2,1,5,0,0
242026,-71.4285714285714,4,2,1,80,0,0
244526,-71.4285714285714,4,2,1,80,0,1
244713,-71.4285714285714,4,2,1,5,0,1
244776,-71.4285714285714,4,2,1,80,0,1
245463,-71.4285714285714,4,2,1,5,0,1
245526,-71.4285714285714,4,2,1,80,0,1
247026,-100,4,2,1,80,0,1
248026,-71.4285714285714,4,2,1,80,0,1
248713,-71.4285714285714,4,2,1,5,0,1
248776,-71.4285714285714,4,2,1,80,0,1
249963,-71.4285714285714,4,2,1,5,0,1
250026,-71.4285714285714,4,2,1,80,0,1
251713,-71.4285714285714,4,2,1,5,0,1
251776,-71.4285714285714,4,2,1,80,0,1
251963,-71.4285714285714,4,2,1,5,0,1
252026,-71.4285714285714,4,2,1,80,0,1
252213,-71.4285714285714,4,2,1,5,0,1
252276,-71.4285714285714,4,2,1,80,0,1
252463,-71.4285714285714,4,2,1,5,0,1
252526,-100,4,2,1,80,0,0

[Colours]
Combo1 : 172,172,172
Combo2 : 88,75,122
Combo3 : 94,113,112
Combo4 : 211,154,218

[HitObjects]
32,64,4526,5,2,1:2:0:0:
40,91,4776,1,0,0:0:0:0:
129,40,5026,5,0,1:0:0:0:
114,120,5276,1,2,0:0:0:0:
236,31,5526,5,2,1:2:0:0:
157,200,5776,1,0,0:0:0:0:
344,61,6026,5,0,1:0:0:0:
170,297,6276,1,2,0:0:0:0:
69,146,6526,5,8,1:2:0:0:
157,200,6651,1,8,0:0:0:0:
0,192,6901,5,8,1:2:0:0:
193,96,7026,1,8,0:0:0:0:
0,64,7276,5,8,1:2:0:0:
157,200,7401,1,8,0:0:0:0:
0,64,7526,1,8,1:2:0:0:
0,64,8526,6,0,B|111:56|47:18|192:17,1,187.000005706787,6|8,1:2|0:0,0:0:0:0:
329,163,8901,2,0,P|279:149|256:96,1,93.5000028533936,2|0,1:2|0:0,0:0:0:0:
448,0,9151,1,0,1:0:0:0:
494,58,9276,2,0,P|474:119|463:178,1,93.5000028533936,10|0,0:0|0:0,0:0:0:0:
224,288,9526,6,0,P|318:257|409:239,1,187.000005706787,2|8,1:2|0:0,0:0:0:0:
512,384,9901,2,0,P|468:363|456:304,1,93.5000028533936,2|0,1:2|0:0,0:0:0:0:
512,207,10151,1,2,1:2:0:0:
467,147,10276,2,0,P|421:136|377:120,1,93.5000028533936,10|0,0:0|0:0,0:0:0:0:
224,288,10526,6,0,B|113:274|166:239|47:228,1,187.000005706787,2|8,1:2|0:0,0:0:0:0:
192,128,10901,2,0,P|237:117|281:101,1,93.5000028533936,2|0,1:2|0:0,0:0:0:0:
96,0,11151,1,0,1:0:0:0:
105,74,11276,2,0,P|155:46|170:7,1,93.5000028533936,10|0,0:0|0:0,0:0:0:0:
89,160,11526,6,0,P|43:149|0:133,1,93.5000028533936,2|0,1:2|0:0,0:0:0:0:
96,332,11776,2,0,P|111:287|122:242,1,93.5000028533936,10|0,0:0|1:0,0:0:0:0:
6,305,12026,5,2,0:0:0:0:
162,177,12151,1,0,1:0:0:0:
6,305,12276,2,0,P|51:315|95:331,1,93.5000028533936,10|0,0:0|0:0,0:0:0:0:
0,133,12526,6,0,P|40:175|171:172,1,187.000005706787,2|8,1:2|0:0,0:0:0:0:
256,32,12901,2,0,P|210:39|152:57,1,93.5000028533936,2|0,1:2|0:0,0:0:0:0:
365,193,13151,1,0,1:0:0:0:
284,225,13276,2,0,P|291:179|309:121,1,93.5000028533936,10|0,0:0|0:0,0:0:0:0:
448,0,13526,6,0,P|486:27|494:160,1,187.000005706787,2|8,1:2|0:0,0:0:0:0:
284,225,13901,2,0,P|330:232|388:250,1,93.5000028533936,2|0,1:2|0:0,0:0:0:0:
512,384,14151,1,2,1:2:0:0:
455,334,14276,2,0,P|438:297|468:240,1,93.5000028533936,10|0,0:0|0:0,0:0:0:0:
380,360,14526,6,0,P|299:315|208:326,1,187.000005706787,2|10,1:2|0:0,0:0:0:0:
56,364,14901,2,0,P|100:376|147:384,1,93.5000028533936,0|2,1:0|0:0,0:0:0:0:
70,248,15151,1,0,1:0:0:0:
1,277,15276,2,0,P|-5:232|19:193,1,93.5000028533936,10|2,0:0|0:0,0:0:0:0:
208,326,15526,5,10,0:0:0:0:
173,226,15651,1,0,1:0:0:0:
211,348,15776,5,10,0:0:0:0:
260,146,15901,1,0,1:0:0:0:
207,371,16026,1,10,0:0:0:0:
334,292,16276,5,10,0:0:0:0:
411,284,16401,1,8,0:0:0:0:
451,351,16526,2,0,P|486:312|512:180,1,187.000005706787,6|8,1:2|0:0,0:0:0:0:
290,44,16901,2,0,P|295:96|319:137,1,93.5000028533936,2|0,1:2|0:0,0:0:0:0:
512,0,17151,1,0,1:0:0:0:
476,65,17276,2,0,P|427:46|378:43,1,93.5000028533936,10|0,0:0|0:0,0:0:0:0:
256,192,17526,6,0,P|200:182|142:56,1,187.000005706787,2|8,1:2|0:0,0:0:0:0:
0,0,17901,2,0,P|25:49|32:103,1,93.5000028533936,2|0,0:0|1:0,0:0:0:0:
176,159,18151,1,2,1:2:0:0:
226,103,18276,2,0,P|271:93|312:71,1,93.5000028533936,10|0,0:0|0:0,0:0:0:0:
174,234,18526,6,0,P|76:254|-11:302,1,187.000005706787,2|8,1:2|0:0,0:0:0:0:
192,384,18901,2,0,P|222:353|213:288,1,93.5000028533936,2|0,1:2|0:0,0:0:0:0:
176,159,19151,1,0,1:0:0:0:
108,191,19276,2,0,P|85:231|76:277,1,93.5000028533936,10|0,0:0|0:0,0:0:0:0:
280,384,19526,6,0,P|320:361|366:352,1,93.5000028533936,2|0,1:2|0:0,0:0:0:0:
389,141,19776,2,0,P|398:186|420:227,1,93.5000028533936,10|0,0:0|0:0,0:0:0:0:
512,354,20026,5,2,1:2:0:0:
342,267,20151,1,0,1:0:0:0:
512,354,20276,2,0,P|471:326|418:303,1,93.5000028533936,10|0,0:0|0:0,0:0:0:0:
192,384,20526,6,0,P|131:351|145:239,1,187.000005706787,2|8,1:2|0:0,0:0:0:0:
340,181,20901,2,0,P|381:209|434:232,1,93.5000028533936,2|0,1:2|0:0,0:0:0:0:
224,64,21151,1,0,1:0:0:0:
290,98,21276,2,0,P|258:131|213:138,1,93.5000028533936,10|0,0:0|0:0,0:0:0:0:
0,64,21526,6,0,P|86:57|184:0,1,187.000005706787,2|8,1:2|0:0,0:0:0:0:
332,26,21901,2,0,P|365:57|372:102,1,93.5000028533936,2|0,0:0|1:0,0:0:0:0:
162,193,22151,1,2,1:2:0:0:
213,138,22276,2,0,P|276:146|316:158,1,93.5000028533936,10|0,0:0|0:0,0:0:0:0:
512,64,22526,6,0,P|429:93|384:207,1,187.000005706787,2|10,1:2|0:0,0:0:0:0:
495,283,22901,2,0,P|500:237|512:192,1,93.5000028533936,0|2,1:0|0:0,0:0:0:0:
338,336,23151,1,0,1:0:0:0:
374,270,23276,2,0,P|408:302|414:348,1,93.5000028533936,10|2,0:0|0:0,0:0:0:0:
105,377,23526,5,10,0:0:0:0:
268,291,23651,1,0,1:0:0:0:
276,377,23776,5,10,0:0:0:0:
54,273,23901,1,0,1:0:0:0:
292,383,24026,5,10,0:0:0:0:
361,355,24151,1,8,0:0:0:0:
396,367,24276,1,10,0:0:0:0:
432,375,24401,1,8,0:0:0:0:
449,367,24526,1,2,0:0:0:0:
449,367,27526,5,2,0:0:0:0:
449,367,28526,6,0,P|459:311|502:226,1,136,2|0,1:2|0:0,0:0:0:0:
425,194,28901,2,0,P|401:238|301:233,1,136,2|0,0:0|0:0,0:0:0:0:
224,352,29276,5,2,0:0:0:0:
224,352,29526,2,0,P|200:308|100:313,1,136,2|0,1:2|0:0,0:0:0:0:
0,384,29901,2,0,P|10:328|53:243,1,136,2|0,0:0|0:0,0:0:0:0:
160,192,30276,1,2,0:0:0:0:
160,192,30526,6,0,B|77:173|114:154|21:134,1,136,2|0,1:2|0:0,0:0:0:0:
156,97,30901,2,0,P|189:92|230:79,1,68,2|0,0:0|1:0,0:0:0:0:
289,125,31151,2,0,P|322:130|363:143,1,68,2|0,0:0|0:0,0:0:0:0:
512,96,31401,5,0,0:0:0:0:
512,96,31526,2,0,P|463:86|436:0,1,136,2|0,1:2|0:0,0:0:0:0:
432,12,31901,1,0,0:0:0:0:
432,12,32026,1,0,1:0:0:0:
128,32,32276,5,2,0:0:0:0:
152,20,32401,1,0,0:0:0:0:
179,20,32526,2,0,P|240:46|322:49,1,136,2|0,1:2|0:0,0:0:0:0:
308,50,32901,1,2,0:0:0:0:
308,50,33026,1,0,1:0:0:0:
448,256,33276,5,2,0:0:0:0:
474,249,33401,1,0,0:0:0:0:
488,228,33526,2,0,P|440:236|405:331,1,136,2|0,1:2|0:0,0:0:0:0:
480,352,33901,2,0,P|412:356|350:382,1,136,2|0,0:0|0:0,0:0:0:0:
325,372,34276,1,2,0:0:0:0:
154,325,34526,6,0,P|130:363|33:380,2,136,2|0|0,1:2|0:0|1:0,0:0:0:0:
154,325,35276,1,2,0:0:0:0:
256,384,35526,6,0,P|263:316|286:226,1,136,2|0,1:2|0:0,0:0:0:0:
120,232,35901,2,0,P|113:164|90:74,1,136,2|4,1:2|3:0,0:0:0:0:
80,27,36276,1,2,3:0:0:0:
0,192,36526,6,0,P|45:228|131:229,1,136,2|0,1:2|0:0,0:0:0:0:
224,192,36901,2,0,P|269:156|355:155,1,136,2|0,0:0|0:0,0:0:0:0:
499,222,37276,5,2,0:0:0:0:
475,235,37401,1,0,0:0:0:0:
447,231,37526,2,0,P|461:143|479:80,1,136,2|0,1:2|0:0,0:0:0:0:
352,0,37901,1,2,0:0:0:0:
352,0,38026,2,0,P|377:35|406:47,1,68,8|2,0:1|0:0,0:0:0:0:
344,151,38276,5,0,0:0:0:0:
329,174,38401,1,0,0:0:0:0:
301,177,38526,2,0,P|257:170|225:161,1,68,2|0,1:2|0:0,0:0:0:0:
64,32,38776,1,0,0:0:0:0:
92,29,38901,2,0,P|136:35|167:44,1,68,2|8,0:0|0:1,0:0:0:0:
234,163,39151,6,0,P|253:136|255:102,1,68,2|0,0:0|0:0,0:0:0:0:
128,128,39401,1,0,0:0:0:0:
128,128,39526,2,0,P|115:209|98:267,2,136,2|0|8,1:2|0:0|0:1,0:0:0:0:
0,353,40276,5,2,0:0:0:0:
28,334,40401,1,0,0:0:0:0:
61,328,40526,2,0,P|102:368|196:361,1,136,2|0,1:2|0:0,0:0:0:0:
236,324,40901,2,0,P|240:290|249:257,1,68,2|8,0:0|0:1,0:0:0:0:
249,257,41276,6,0,P|240:290|236:324,1,68,2|0,0:0|0:0,0:0:0:0:
320,384,41526,2,0,P|361:344|455:351,1,136,2|0,1:2|0:0,0:0:0:0:
512,256,41901,2,0,P|431:246|352:224,1,136,2|0,0:0|0:0,0:0:0:0:
321,183,42276,1,2,0:0:0:0:
392,69,42526,2,0,B|475:85|429:105|523:129,2,136,2|0|8,1:2|0:0|0:1,0:0:0:0:
140,23,43276,5,2,0:0:0:0:
140,23,43526,2,0,B|163:3|163:3|226:-3|247:53,1,136,2|0,1:2|0:0,0:0:0:0:
251,85,43901,2,0,P|290:71|302:45,1,68,2|8,0:0|0:1,0:0:0:0:
160,128,44151,5,2,0:0:0:0:
143,157,44276,1,0,0:0:0:0:
112,172,44401,1,2,0:0:0:0:
72,163,44526,1,4,1:2:0:0:
0,320,44776,5,2,0:0:0:0:
24,287,44901,1,0,0:0:0:0:
63,277,45026,1,8,0:0:0:0:
101,288,45151,1,0,0:0:0:0:
125,319,45276,1,2,0:0:0:0:
159,341,45401,1,0,0:0:0:0:
199,336,45526,2,0,P|262:317|365:309,1,161.499995687485,2|0,1:2|0:0,0:0:0:0:
357,308,45901,2,0,P|401:337|436:329,1,80.7499978437424,2|8,0:0|0:0,0:0:0:0:
453,163,46276,5,2,0:0:0:0:
453,163,46401,1,0,0:0:0:0:
453,163,46526,2,0,P|434:227|427:261,1,80.7499978437424,2|0,1:2|0:0,0:0:0:0:
357,308,46776,1,0,0:0:0:0:
256,288,46901,2,0,P|228:243|265:145,1,161.499995687485,2|0,0:0|0:0,0:0:0:0:
416,64,47276,2,0,P|376:73|338:86,1,80.7499978437424,2|0,0:0|0:0,0:0:0:0:
189,22,47526,2,0,P|149:12|111:0,1,80.7499978437424,2|0,1:2|0:0,0:0:0:0:
189,22,48026,5,10,0:0:0:0:
261,147,48276,1,2,0:0:0:0:
96,224,48526,2,0,B|62:208|62:208|35:142|111:112,1,161.499995687485,2|0,1:2|0:0,0:0:0:0:
237,229,48901,2,0,P|299:224|349:144,1,161.499995687485,2|0,0:0|0:0,0:0:0:0:
420,62,49276,5,2,0:0:0:0:
431,23,49401,1,0,0:0:0:0:
469,10,49526,2,0,P|489:93|516:175,1,161.499995687485,2|0,1:2|0:0,0:0:0:0:
466,231,49901,2,0,P|424:241|383:254,1,80.7499978437424,2|8,0:0|0:0,0:0:0:0:
270,384,50151,5,0,0:0:0:0:
309,374,50276,1,2,0:0:0:0:
332,341,50401,1,0,0:0:0:0:
325,301,50526,2,0,P|286:288|247:279,1,80.7499978437424,2|0,1:2|0:0,0:0:0:0:
64,384,50776,1,0,0:0:0:0:
141,360,50901,2,0,P|76:342|52:234,1,161.499995687485,2|0,0:0|0:0,0:0:0:0:
101,203,51276,2,0,P|110:163|122:125,1,80.7499978437424,2|0,0:0|0:0,0:0:0:0:
0,64,51526,5,2,1:2:0:0:
24,106,51651,1,0,0:0:0:0:
77,123,51776,1,2,0:0:0:0:
138,102,51901,1,0,0:0:0:0:
179,33,52026,5,10,0:0:0:0:
238,8,52151,1,2,0:0:0:0:
307,28,52276,1,2,0:0:0:0:
347,97,52401,1,2,0:0:0:0:
318,172,52526,1,6,1:2:0:0:
116,292,52776,5,2,0:0:0:0:
134,256,52901,1,0,0:0:0:0:
171,240,53026,1,8,0:0:0:0:
211,240,53151,1,0,0:0:0:0:
243,263,53276,2,0,P|281:279|330:288,1,80.7499978437424,2|0,0:0|0:0,0:0:0:0:
502,384,53526,6,0,P|436:349|332:363,1,161.499995687485,2|0,1:2|0:0,0:0:0:0:
243,263,53901,1,2,0:0:0:0:
256,352,54026,2,0,P|287:276|305:179,1,161.499995687485,8|2,0:0|0:0,0:0:0:0:
148,67,54401,5,0,0:0:0:0:
64,128,54526,2,0,B|103:86|154:96|154:96|175:126|222:136,1,161.499995687485,2|0,1:2|0:0,0:0:0:0:
384,32,54901,1,2,0:0:0:0:
307,85,55026,2,0,P|270:68|231:57,1,80.7499978437424,8|0,0:0|0:0,0:0:0:0:
340,170,55276,2,0,P|376:186|415:197,1,80.7499978437424,2|0,0:0|0:0,0:0:0:0:
512,192,55526,5,6,1:2:0:0:
480,96,56026,5,8,3:0:0:0:
417,58,56151,1,4,3:0:0:0:
368,54,56276,1,2,3:0:0:0:
337,64,56401,1,2,3:0:0:0:
323,75,56526,6,0,P|291:104|184:103,2,127.500004863739,2|0|10,1:2|1:0|0:0,0:0:0:0:
192,128,57526,2,0,P|163:97|122:86,1,85,2|0,1:2|0:0,0:0:0:0:
81,152,57901,2,0,P|109:182|150:193,1,85,2|0,1:2|1:0,0:0:0:0:
150,193,58276,1,10,0:0:0:0:
450,189,58526,6,0,B|476:141|541:136|536:212|484:231|471:200|413:189|372:224,1,237.999992736817,14|0,0:0|1:0,0:0:0:0:
293,238,58901,6,0,B|223:271|204:208|276:180|350:217|376:320,1,237.999992736817,14|0,0:0|1:0,0:0:0:0:
377,384,59276,6,0,P|397:329|439:255,1,118.999996368408,14|0,0:0|1:0,0:0:0:0:
512,109,59526,5,14,0:0:0:0:
494,183,60026,5,2,0:0:0:0:
494,183,60276,1,2,0:0:0:0:
384,0,60526,6,0,P|353:51|209:79,1,203.999993774414,6|10,1:2|0:0,0:0:0:0:
65,169,60901,2,0,P|19:149|0:103,1,101.999996887207,2|0,1:2|0:0,0:0:0:0:
179,160,61151,1,0,1:0:0:0:
107,1,61276,2,0,P|124:69|132:123,1,101.999996887207,10|0,0:0|0:0,0:0:0:0:
0,252,61526,6,0,P|53:214|144:228,1,152.999995330811,2|0,1:2|0:0,0:0:0:0:
157,237,61776,2,0,P|166:287|179:336,1,101.999996887207,8|0,0:0|0:0,0:0:0:0:
278,384,62026,5,2,1:2:0:0:
119,300,62151,1,0,1:0:0:0:
278,384,62276,2,0,P|311:336|299:285,1,101.999996887207,10|0,0:0|0:0,0:0:0:0:
264,126,62526,6,0,P|153:146|44:175,1,203.999993774414,2|10,1:2|0:0,0:0:0:0:
256,0,62901,2,0,P|316:9|363:140,1,203.999993774414,2|0,1:2|1:0,0:0:0:0:
242,225,63276,2,0,P|252:169|266:115,1,101.999996887207,10|0,0:0|0:0,0:0:0:0:
480,32,63526,6,0,P|463:120|440:207,1,152.999995330811,2|0,1:2|0:0,0:0:0:0:
431,200,63776,2,0,P|446:247|492:265,1,101.999996887207,8|0,0:0|0:0,0:0:0:0:
355,378,64026,5,2,1:2:0:0:
355,378,64151,1,0,1:0:0:0:
512,352,64276,2,0,P|456:342|402:328,1,101.999996887207,10|0,0:0|0:0,0:0:0:0:
138,384,64526,6,0,P|199:367|221:236,1,203.999993774414,6|10,1:2|0:0,0:0:0:0:
0,192,64901,2,0,P|56:202|110:216,1,101.999996887207,6|0,1:2|0:0,0:0:0:0:
147,290,65151,5,0,1:0:0:0:
256,159,65276,2,0,P|287:197|337:206,1,101.999996887207,10|0,0:0|0:0,0:0:0:0:
192,0,65526,6,0,P|179:49|171:99,1,101.999996887207,2|0,1:2|0:0,0:0:0:0:
99,213,65776,2,0,P|67:251|17:260,1,101.999996887207,10|0,0:0|0:0,0:0:0:0:
0,113,66026,6,0,P|49:125|99:133,1,101.999996887207,2|0,1:2|1:0,0:0:0:0:
337,206,66276,2,0,P|287:197|256:159,1,101.999996887207,10|0,0:0|0:0,0:0:0:0:
192,0,66526,6,0,B|321:18|256:55|378:77,1,203.999993774414,2|10,1:2|0:0,0:0:0:0:
512,128,66901,2,0,P|461:136|412:148,1,101.999996887207,2|0,1:2|0:0,0:0:0:0:
253,241,67151,1,0,1:0:0:0:
316,305,67276,2,0,P|324:255|337:206,1,101.999996887207,10|0,0:0|0:0,0:0:0:0:
176,0,67526,6,0,P|163:49|155:99,1,101.999996887207,14|0,0:0|1:0,0:0:0:0:
0,276,67776,2,0,P|12:226|20:176,1,101.999996887207,12|0,0:0|1:0,0:0:0:0:
138,184,68026,5,14,0:0:0:0:
177,173,68151,1,0,1:0:0:0:
0,43,68276,5,14,0:0:0:0:
75,74,68401,1,8,0:0:0:0:
138,184,68526,6,0,P|177:136|331:148,1,203.999993774414,6|10,1:2|0:0,0:0:0:0:
448,0,68901,2,0,P|398:12|348:20,1,101.999996887207,2|0,1:2|0:0,0:0:0:0:
310,131,69151,1,0,1:0:0:0:
416,192,69276,2,0,P|424:141|435:92,1,101.999996887207,10|0,0:0|0:0,0:0:0:0:
241,205,69526,6,0,P|266:277|356:292,1,152.999995330811,2|0,1:2|0:0,0:0:0:0:
358,292,69776,2,0,P|398:264|475:275,1,101.999996887207,8|0,0:0|0:0,0:0:0:0:
350,384,70026,5,2,1:2:0:0:
449,263,70151,1,0,1:0:0:0:
350,384,70276,2,0,P|299:375|250:364,1,101.999996887207,10|0,0:0|0:0,0:0:0:0:
58,376,70526,6,0,P|35:276|19:175,1,203.999993774414,2|10,1:2|0:0,0:0:0:0:
96,32,70901,2,0,P|174:32|219:159,1,203.999993774414,2|0,1:2|1:0,0:0:0:0:
100,119,71276,2,0,P|50:107|0:99,1,101.999996887207,10|0,0:0|0:0,0:0:0:0:
175,0,71526,6,0,P|252:17|331:30,1,152.999995330811,2|0,1:2|0:0,0:0:0:0:
333,53,71776,2,0,P|381:69|429:29,1,101.999996887207,8|0,0:0|0:0,0:0:0:0:
338,152,72026,5,2,1:2:0:0:
338,152,72151,1,0,1:0:0:0:
246,33,72276,2,0,P|234:82|226:133,1,101.999996887207,10|0,0:0|0:0,0:0:0:0:
380,261,72526,6,0,P|444:265|513:159,1,203.999993774414,6|10,1:2|0:0,0:0:0:0:
255,233,72901,2,0,P|144:209|32:193,1,203.999993774414,6|0,1:2|1:0,0:0:0:0:
0,20,73276,2,0,P|5:69|53:97,1,101.999996887207,10|0,0:0|0:0,0:0:0:0:
247,134,73526,6,0,P|236:84|229:33,1,101.999996887207,2|0,1:2|0:0,0:0:0:0:
426,121,73776,2,0,P|388:154|339:153,1,101.999996887207,10|0,0:0|0:0,0:0:0:0:
229,33,74026,6,0,P|236:84|247:134,1,101.999996887207,2|0,1:2|1:0,0:0:0:0:
204,223,74276,2,0,P|169:259|119:262,1,101.999996887207,10|0,0:0|0:0,0:0:0:0:
0,384,74526,6,0,P|50:323|187:337,1,203.999993774414,2|10,1:2|0:0,0:0:0:0:
256,384,74901,2,0,P|277:284|293:183,1,203.999993774414,2|0,1:2|1:0,0:0:0:0:
133,132,75276,2,0,P|140:182|151:232,1,101.999996887207,10|0,0:0|0:0,0:0:0:0:
380,283,75526,6,0,P|422:260|489:264,1,101.999996887207,14|0,0:0|1:0,0:0:0:0:
351,360,75776,2,0,P|309:383|242:379,1,101.999996887207,12|0,0:0|1:0,0:0:0:0:
257,281,76026,5,14,0:0:0:0:
220,299,76151,1,0,1:0:0:0:
441,344,76276,5,14,0:0:0:0:
512,384,76401,1,8,0:0:0:0:
353,384,76526,6,0,P|368:283|390:183,1,203.999993774414,6|8,1:2|0:0,0:0:0:0:
497,75,76901,6,0,P|493:134|457:163,1,101.999996887207,2|0,0:0|1:0,0:0:0:0:
296,2,77151,1,2,0:0:0:0:
327,77,77276,2,0,P|377:84|427:95,1,101.999996887207,8|0,0:0|0:0,0:0:0:0:
288,160,77526,6,0,P|260:112|123:98,1,203.999993774414,2|10,1:2|0:0,0:0:0:0:
0,209,77901,2,0,P|50:201|100:190,1,101.999996887207,2|0,0:0|1:0,0:0:0:0:
0,0,78151,1,0,0:0:0:0:
13,80,78276,2,0,P|66:46|81:-1,1,101.999996887207,10|0,0:0|0:0,0:0:0:0:
187,181,78526,6,0,P|287:196|387:218,1,203.999993774414,2|8,1:2|0:0,0:0:0:0:
447,341,78901,2,0,P|400:375|355:365,1,101.999996887207,2|0,0:0|1:0,0:0:0:0:
265,193,79151,1,2,0:0:0:0:
385,296,79276,2,0,P|335:285|284:277,1,101.999996887207,10|0,0:0|0:0,0:0:0:0:
8,347,79526,6,0,P|73:317|160:335,1,152.999995330811,2|0,1:2|0:0,0:0:0:0:
185,352,79776,2,0,P|192:301|203:251,1,101.999996887207,8|0,0:0|0:0,0:0:0:0:
318,125,80026,6,0,P|383:154|470:136,1,152.999995330811,2|0,1:2|0:0,0:0:0:0:
494,120,80276,2,0,P|501:170|512:220,1,101.999996887207,10|0,0:0|0:0,0:0:0:0:
266,207,80526,6,0,P|181:168|69:191,1,203.999993774414,6|8,1:2|0:0,0:0:0:0:
0,40,80901,2,0,P|9:91|61:108,1,101.999996887207,2|0,0:0|1:0,0:0:0:0:
311,90,81151,5,2,0:0:0:0:
273,25,81276,1,8,0:0:0:0:
195,0,81401,1,0,0:0:0:0:
119,50,81526,2,0,P|174:74|218:104,1,101.999996887207,2|0,1:2|0:0,0:0:0:0:
362,227,81776,1,10,0:0:0:0:
279,187,81901,2,0,P|374:165|411:74,1,203.999993774414,2|0,0:0|0:0,0:0:0:0:
358,0,82276,2,0,P|330:43|311:90,1,101.999996887207,10|0,0:0|0:0,0:0:0:0:
512,246,82526,6,0,P|403:291|303:354,1,203.999993774414,2|10,1:2|0:0,0:0:0:0:
191,213,82901,2,0,P|228:181|278:188,1,101.999996887207,2|0,0:0|0:0,0:0:0:0:
165,384,83151,5,0,0:0:0:0:
211,361,83276,1,10,0:0:0:0:
249,313,83401,1,0,0:0:0:0:
248,241,83526,2,0,P|169:215|87:210,1,152.999995330811,2|0,1:2|0:0,0:0:0:0:
64,216,83776,2,0,P|47:164|43:111,1,101.999996887207,8|0,0:0|0:0,0:0:0:0:
288,64,84026,5,14,0:0:0:0:
194,174,84151,1,8,0:0:0:0:
195,8,84276,5,14,0:0:0:0:
277,187,84401,1,8,0:0:0:0:
195,8,84526,2,0,P|168:64|29:115,1,203.999993774414,6|8,1:2|0:0,0:0:0:0:
32,315,84901,6,0,P|83:298|136:294,1,101.999996887207,2|0,0:0|1:0,0:0:0:0:
302,321,85151,1,2,0:0:0:0:
239,384,85276,2,0,P|215:332|229:281,1,101.999996887207,8|0,0:0|0:0,0:0:0:0:
277,187,85526,6,0,P|374:216|475:223,1,203.999993774414,2|10,1:2|0:0,0:0:0:0:
334,31,85901,2,0,P|322:79|345:123,1,101.999996887207,2|0,0:0|1:0,0:0:0:0:
503,83,86151,5,0,0:0:0:0:
503,83,86276,2,0,P|444:68|391:72,1,101.999996887207,10|0,0:0|0:0,0:0:0:0:
277,187,86526,2,0,P|232:125|261:-25,1,203.999993774414,2|8,1:2|0:0,0:0:0:0:
413,158,86901,6,0,P|413:208|399:257,1,101.999996887207,2|0,0:0|1:0,0:0:0:0:
256,384,87151,1,2,0:0:0:0:
287,319,87276,2,0,P|352:332|414:353,1,101.999996887207,10|0,0:0|0:0,0:0:0:0:
251,254,87526,6,0,P|156:235|66:204,1,152.999995330811,2|0,1:2|0:0,0:0:0:0:
63,203,87776,2,0,P|27:244|43:294,1,101.999996887207,8|0,0:0|0:0,0:0:0:0:
249,332,88026,6,0,P|343:350|433:381,1,152.999995330811,2|0,1:2|0:0,0:0:0:0:
437,383,88276,2,0,P|473:342|457:292,1,101.999996887207,10|0,0:0|0:0,0:0:0:0:
217,191,88526,6,0,P|262:208|388:123,1,203.999993774414,6|8,1:2|0:0,0:0:0:0:
482,15,88901,2,0,P|464:73|456:120,1,101.999996887207,2|0,0:0|1:0,0:0:0:0:
267,29,89151,1,2,0:0:0:0:
286,108,89276,2,0,P|344:126|391:134,1,101.999996887207,8|0,0:0|0:0,0:0:0:0:
217,191,89526,6,0,P|92:152|-8:135,1,203.999993774414,2|10,1:2|0:0,0:0:0:0:
190,276,89901,2,0,P|252:267|283:142,1,203.999993774414,2|0,0:0|0:0,0:0:0:0:
160,32,90276,6,0,P|139:96|130:149,1,101.999996887207,10|0,0:0|0:0,0:0:0:0:
0,288,90526,2,0,P|37:249|106:260,1,101.999996887207,2|0,1:2|0:0,0:0:0:0:
232,384,90776,1,10,0:0:0:0:
66,320,90901,2,0,P|130:340|183:349,1,101.999996887207,2|0,0:0|1:0,0:0:0:0:
271,267,91151,5,2,0:0:0:0:
344,241,91276,5,8,0:0:0:0:
435,254,91401,5,2,0:0:0:0:
508,310,91526,6,0,P|326:251|113:212,2,407.999987548829,6|6|6,1:2|1:2|1:2,0:0:0:0:
256,192,92589,12,2,94526,1:2:0:0:
508,310,96526,6,0,P|447:289|422:173,1,187.000005706787,2|8,1:2|0:0,0:0:0:0:
512,72,96901,2,0,P|469:88|422:98,1,93.5000028533936,2|0,1:2|0:0,0:0:0:0:
252,0,97151,1,0,1:0:0:0:
270,75,97276,2,0,P|309:51|328:9,1,93.5000028533936,10|0,0:0|0:0,0:0:0:0:
192,160,97526,6,0,B|76:154|132:114|1:112,1,187.000005706787,2|8,1:2|0:0,0:0:0:0:
74,246,97901,2,0,P|97:206|96:160,1,93.5000028533936,2|0,1:2|0:0,0:0:0:0:
0,345,98151,1,2,1:2:0:0:
64,382,98276,2,0,P|107:365|153:356,1,93.5000028533936,10|0,0:0|0:0,0:0:0:0:
352,352,98526,6,0,P|415:329|432:209,1,187.000005706787,2|10,1:2|0:0,0:0:0:0:
267,149,98901,2,0,P|275:194|293:238,1,93.5000028533936,0|2,1:0|0:0,0:0:0:0:
445,48,99151,1,0,1:0:0:0:
508,107,99276,2,0,P|464:124|418:133,1,93.5000028533936,10|2,0:0|0:0,0:0:0:0:
148,10,99526,5,10,0:0:0:0:
297,77,99651,1,0,1:0:0:0:
111,85,99776,5,10,0:0:0:0:
286,0,99901,1,0,1:0:0:0:
93,93,100026,1,10,0:0:0:0:
127,297,100276,5,10,0:0:0:0:
156,371,100401,1,8,0:0:0:0:
235,367,100526,2,0,P|282:340|431:327,1,187.000005706787,6|8,1:2|0:0,0:0:0:0:
512,208,100901,2,0,P|463:252|420:241,1,93.5000028533936,2|0,1:2|0:0,0:0:0:0:
204,183,101151,1,0,1:0:0:0:
260,257,101276,2,0,P|276:209|293:164,1,93.5000028533936,10|0,0:0|0:0,0:0:0:0:
218,0,101526,6,0,P|184:46|36:53,1,187.000005706787,2|8,1:2|0:0,0:0:0:0:
0,208,101901,2,0,P|43:191|88:176,1,93.5000028533936,2|0,0:0|1:0,0:0:0:0:
252,292,102151,1,2,1:2:0:0:
249,366,102276,2,0,P|293:357|322:321,1,93.5000028533936,10|0,0:0|0:0,0:0:0:0:
0,384,102526,6,0,P|88:354|176:321,1,187.000005706787,2|8,1:2|0:0,0:0:0:0:
288,183,102901,2,0,P|273:244|257:289,1,93.5000028533936,2|0,1:2|0:0,0:0:0:0:
105,103,103151,1,0,1:0:0:0:
88,176,103276,2,0,P|133:174|168:144,1,93.5000028533936,10|0,0:0|0:0,0:0:0:0:
300,0,103526,6,0,P|285:44|275:90,1,93.5000028533936,2|0,1:2|0:0,0:0:0:0:
390,195,103776,2,0,P|429:170|471:148,1,93.5000028533936,10|0,0:0|0:0,0:0:0:0:
458,9,104026,5,2,1:2:0:0:
321,155,104151,1,0,1:0:0:0:
458,9,104276,2,0,P|418:49|377:94,1,93.5000028533936,10|0,0:0|0:0,0:0:0:0:
192,160,104526,6,0,P|145:131|-8:142,1,187.000005706787,2|8,1:2|0:0,0:0:0:0:
0,258,104901,2,0,P|52:235|68:189,1,93.5000028533936,2|0,1:2|0:0,0:0:0:0:
0,0,105151,1,0,1:0:0:0:
42,61,105276,2,0,P|100:41|145:35,1,93.5000028533936,10|0,0:0|0:0,0:0:0:0:
352,192,105526,6,0,P|296:178|254:46,1,187.000005706787,2|8,1:2|0:0,0:0:0:0:
482,89,105901,2,0,P|510:52|510:6,1,93.5000028533936,2|0,0:0|1:0,0:0:0:0:
335,104,106151,1,2,1:2:0:0:
369,170,106276,2,0,P|414:178|458:195,1,93.5000028533936,10|0,0:0|0:0,0:0:0:0:
512,331,106526,6,0,P|407:350|307:388,1,187.000005706787,2|10,1:2|0:0,0:0:0:0:
162,317,106901,2,0,P|132:279|140:230,1,93.5000028533936,0|2,1:0|0:0,0:0:0:0:
351,169,107151,1,0,1:0:0:0:
308,231,107276,2,0,P|264:247|218:256,1,93.5000028533936,10|2,0:0|0:0,0:0:0:0:
0,88,107526,5,10,0:0:0:0:
136,236,107651,1,0,1:0:0:0:
0,88,107776,2,0,P|45:96|89:113,1,93.5000028533936,10|0,0:0|1:0,0:0:0:0:
288,0,108026,5,10,0:0:0:0:
228,45,108151,5,8,0:0:0:0:
222,129,108276,5,10,0:0:0:0:
282,200,108401,5,8,0:0:0:0:
383,193,108526,6,0,P|400:139|417:1,1,170,6|8,1:2|0:0,0:0:0:0:
228,45,108901,2,0,P|257:86|315:86,1,85,2|0,1:2|0:0,0:0:0:0:
512,116,109151,1,0,1:0:0:0:
512,116,109276,2,0,P|469:121|429:132,1,85,10|0,0:0|0:0,0:0:0:0:
215,264,109526,6,0,P|257:269|323:381,1,170,2|8,1:2|0:0,0:0:0:0:
416,384,109901,2,0,P|404:343|399:301,1,85,2|0,1:2|0:0,0:0:0:0:
512,192,110151,1,0,1:0:0:0:
512,192,110276,2,0,P|473:230|418:237,1,85,10|0,0:0|0:0,0:0:0:0:
254,323,110526,6,0,P|167:298|78:287,1,170,2|8,1:2|0:0,0:0:0:0:
0,160,110901,2,0,P|48:184|55:239,1,85,2|0,1:2|0:0,0:0:0:0:
215,198,111151,2,0,P|170:227|119:206,1,85,2|8,1:2|0:0,0:0:0:0:
74,365,111401,5,0,0:0:0:0:
74,365,111526,2,0,P|70:311|114:277,1,85,2|0,1:2|0:0,0:0:0:0:
256,384,111776,1,8,0:0:0:0:
256,384,111901,2,0,P|267:299|291:218,1,170,0|0,1:0|1:0,0:0:0:0:
421,72,112276,6,0,P|413:125|398:177,1,85,10|0,0:0|0:0,0:0:0:0:
291,218,112526,2,0,P|232:194|220:77,1,170,2|8,1:2|0:0,0:0:0:0:
352,0,112901,2,0,P|310:9|297:65,1,85,2|0,1:2|0:0,0:0:0:0:
459,154,113151,1,0,1:0:0:0:
459,154,113276,2,0,P|454:196|444:237,1,85,10|0,0:0|0:0,0:0:0:0:
358,375,113526,6,0,P|400:338|540:343,1,170,2|8,1:2|0:0,0:0:0:0:
338,281,113901,2,0,P|304:259|294:200,1,85,2|0,1:2|0:0,0:0:0:0:
375,139,114151,1,0,1:0:0:0:
375,139,114276,2,0,P|417:143|458:153,1,85,10|0,0:0|0:0,0:0:0:0:
367,9,114526,6,0,P|272:20|180:42,1,170,2|8,1:2|0:0,0:0:0:0:
47,204,114901,2,0,P|108:178|130:68,1,170,0|0,1:0|1:0,0:0:0:0:
23,0,115276,5,10,0:0:0:0:
23,0,115526,2,0,P|65:4|106:14,1,85,2|0,1:2|0:0,0:0:0:0:
320,96,115776,2,0,P|277:100|236:110,1,85,10|8,0:0|3:0,0:0:0:0:
0,192,116026,5,4,3:0:0:0:
70,162,116151,5,2,3:0:0:0:
148,194,116276,5,10,0:0:0:0:
195,274,116401,5,8,0:0:0:0:
181,366,116526,6,0,P|106:341|1:318,1,170,6|8,1:2|0:0,0:0:0:0:
192,224,116901,2,0,P|220:282|349:287,1,170,2|0,1:2|1:0,0:0:0:0:
468,384,117276,6,0,P|429:371|376:359,1,85,10|0,0:0|0:0,0:0:0:0:
512,160,117526,2,0,P|468:230|387:240,1,170,2|8,1:2|0:0,0:0:0:0:
288,96,117901,2,0,P|338:110|354:160,1,85,2|0,0:0|1:0,0:0:0:0:
192,224,118151,1,0,1:0:0:0:
192,224,118276,2,0,P|153:211|100:199,1,85,10|0,0:0|0:0,0:0:0:0:
288,352,118526,6,0,P|370:324|454:305,1,170,2|8,1:2|0:0,0:0:0:0:
290,177,118901,2,0,P|301:226|317:274,1,85,2|0,1:2|0:0,0:0:0:0:
425,159,119151,2,0,P|413:109|397:61,1,85,2|8,1:2|0:0,0:0:0:0:
256,0,119401,5,0,0:0:0:0:
256,0,119526,2,0,P|228:41|101:63,1,170,2|8,1:2|0:0,0:0:0:0:
21,200,119901,2,0,P|8:159|0:117,1,85,0|0,0:0|1:0,0:0:0:0:
160,192,120151,5,0,1:0:0:0:
160,192,120276,2,0,P|172:232|181:274,1,85,10|0,0:0|0:0,0:0:0:0:
9,299,120526,2,0,P|71:301|128:384,1,170,2|8,1:2|0:0,0:0:0:0:
181,274,120901,2,0,P|273:245|367:224,1,170,2|0,1:2|1:0,0:0:0:0:
442,323,121276,6,0,P|480:321|516:269,1,85,10|0,0:0|0:0,0:0:0:0:
386,373,121526,2,0,P|324:371|267:288,1,170,2|8,1:2|0:0,0:0:0:0:
323,146,121901,2,0,P|335:186|344:228,1,85,2|0,0:0|1:0,0:0:0:0:
159,191,122151,1,0,1:0:0:0:
159,191,122276,2,0,P|168:232|180:273,1,85,10|0,0:0|0:0,0:0:0:0:
295,59,122526,6,0,P|357:61|414:144,1,170,2|8,1:2|0:0,0:0:0:0:
344,228,122901,2,0,P|262:248|181:274,1,170,0|0,1:0|1:0,0:0:0:0:
21,383,123276,2,0,P|9:342|0:301,1,85,10|0,0:0|0:0,0:0:0:0:
160,160,123526,5,10,0:0:0:0:
82,319,123651,1,0,1:0:0:0:
157,137,123776,5,8,0:0:0:0:
36,226,123901,1,8,3:0:0:0:
163,117,124026,5,4,3:0:0:0:
112,116,124151,5,2,3:0:0:0:
72,100,124276,5,2,3:0:0:0:
53,71,124401,5,2,3:0:0:0:
48,52,124526,5,4,1:2:0:0:
224,192,124776,5,2,0:0:0:0:
224,192,124901,1,0,0:0:0:0:
224,192,125026,2,0,P|262:183|306:179,1,63.7500024318696,8|0,0:0|0:0,0:0:0:0:
347,133,125276,2,0,P|385:124|429:120,1,63.7500024318696,2|0,0:0|0:0,0:0:0:0:
486,125,125526,2,0,P|429:102|410:17,1,127.500004863739,2|0,1:2|0:0,0:0:0:0:
316,0,125901,2,0,P|325:38|329:82,1,63.7500024318696,2|8,0:0|0:0,0:0:0:0:
236,254,126276,6,0,P|227:216|223:172,1,63.7500024318696,2|0,0:0|0:0,0:0:0:0:
128,128,126526,2,0,P|71:151|52:236,1,127.500004863739,2|0,1:2|0:0,0:0:0:0:
0,269,126901,2,0,P|66:253|144:246,1,127.500004863739,2|0,0:0|0:0,0:0:0:0:
223,330,127276,2,0,P|185:339|141:343,1,63.7500024318696,2|0,0:0|0:0,0:0:0:0:
160,342,127526,1,2,1:2:0:0:
351,384,128026,6,0,P|360:346|364:302,1,63.7500024318696,10|0,0:0|0:0,0:0:0:0:
450,253,128276,2,0,P|481:248|512:240,1,63.7500024318696,2|0,0:0|0:0,0:0:0:0:
487,347,128526,6,0,P|415:329|341:318,1,127.500004863739,2|0,1:2|0:0,0:0:0:0:
256,256,128901,1,2,0:0:0:0:
256,256,129026,2,0,P|237:218|292:148,1,127.500004863739,8|2,0:0|0:0,0:0:0:0:
479,60,129526,6,0,P|441:79|371:24,1,127.500004863739,2|0,1:2|0:0,0:0:0:0:
296,0,129901,1,2,0:0:0:0:
296,0,130026,2,0,P|264:4|233:12,1,63.7500024318696,8|0,0:0|0:0,0:0:0:0:
126,97,130276,5,2,0:0:0:0:
126,97,130401,1,0,0:0:0:0:
126,97,130526,2,0,P|94:101|63:109,1,63.7500024318696,2|0,1:2|0:0,0:0:0:0:
0,192,130776,5,0,0:0:0:0:
0,192,130901,2,0,P|31:214|119:179,1,127.500004863739,2|0,0:0|0:0,0:0:0:0:
111,191,131276,1,2,0:0:0:0:
154,328,131526,5,2,1:2:0:0:
178,286,131651,1,0,0:0:0:0:
231,269,131776,1,2,0:0:0:0:
292,290,131901,1,0,0:0:0:0:
333,359,132026,5,10,0:0:0:0:
392,384,132151,1,2,0:0:0:0:
461,364,132276,1,2,0:0:0:0:
501,295,132401,1,2,0:0:0:0:
472,220,132526,1,6,1:2:0:0:
255,164,132776,5,2,0:0:0:0:
255,164,132901,1,0,0:0:0:0:
255,164,133026,2,0,P|248:210|246:246,1,63.7500024318696,8|0,0:0|0:0,0:0:0:0:
333,359,133276,2,0,P|340:313|342:277,1,63.7500024318696,2|0,0:0|0:0,0:0:0:0:
231,350,133526,2,0,P|184:346|139:273,1,127.500004863739,2|0,1:2|0:0,0:0:0:0:
65,234,133901,2,0,P|19:227|-17:225,1,63.7500024318696,2|8,0:0|0:0,0:0:0:0:
1,225,134276,6,0,P|33:228|65:234,1,63.7500024318696,2|0,0:0|0:0,0:0:0:0:
160,192,134526,2,0,P|213:160|225:100,1,127.500004863739,2|0,1:2|0:0,0:0:0:0:
32,64,134901,2,0,P|95:54|158:49,1,127.500004863739,2|0,0:0|0:0,0:0:0:0:
300,143,135276,2,0,P|334:148|368:151,1,63.7500024318696,2|0,0:0|0:0,0:0:0:0:
475,164,135526,5,6,1:2:0:0:
499,341,136026,5,8,3:0:0:0:
436,379,136151,1,4,3:0:0:0:
387,383,136276,1,2,3:0:0:0:
356,373,136401,1,2,3:0:0:0:
342,362,136526,6,0,P|310:333|203:334,2,127.500004863739,6|0|10,1:2|1:0|0:0,0:0:0:0:
419,311,137526,2,0,P|426:277|431:207,1,85,2|0,1:2|0:0,0:0:0:0:
336,159,137901,2,0,P|329:193|324:263,1,85,2|0,1:2|1:0,0:0:0:0:
234,280,138276,2,0,P|230:297|228:332,1,42.5,10|0,0:0|0:0,0:0:0:0:
0,365,138526,6,0,B|46:365|78:325|38:317|111:272|111:272|53:256|33:318,1,237.999992736817,14|0,0:0|1:0,0:0:0:0:
96,384,138901,6,0,B|69:237|44:326|13:155,1,237.999992736817,14|0,0:0|1:0,0:0:0:0:
160,0,139276,6,0,B|145:81|132:36|119:110,1,118.999996368408,14|0,0:0|1:0,0:0:0:0:
0,50,139526,5,14,0:0:0:0:
0,50,140026,5,10,0:0:0:0:
194,112,140151,1,8,0:0:0:0:
14,163,140276,5,10,0:0:0:0:
226,28,140401,1,8,0:0:0:0:
14,163,140526,6,0,P|98:172|239:218,1,203.999993774414,6|10,1:2|0:0,0:0:0:0:
372,149,140901,2,0,P|413:108|407:63,1,101.999996887207,2|0,1:2|0:0,0:0:0:0:
194,112,141151,1,0,1:0:0:0:
294,0,141276,2,0,P|278:48|272:99,1,101.999996887207,10|0,0:0|0:0,0:0:0:0:
335,260,141526,6,0,P|392:224|499:233,1,152.999995330811,2|0,1:2|0:0,0:0:0:0:
498,235,141776,2,0,P|498:284|460:316,1,101.999996887207,8|0,0:0|0:0,0:0:0:0:
227,320,142026,5,2,1:2:0:0:
384,384,142151,1,0,1:0:0:0:
227,320,142276,2,0,P|233:269|248:220,1,101.999996887207,10|0,0:0|0:0,0:0:0:0:
406,93,142526,6,0,P|462:107|495:239,1,203.999993774414,2|10,1:2|0:0,0:0:0:0:
352,160,142901,2,0,P|250:147|153:117,1,203.999993774414,2|0,1:2|1:0,0:0:0:0:
64,0,143276,2,0,P|114:6|163:21,1,101.999996887207,10|0,0:0|0:0,0:0:0:0:
0,244,143526,2,0,P|76:237|98:151,1,152.999995330811,2|0,1:2|0:0,0:0:0:0:
88,152,143776,2,0,P|94:202|109:251,1,101.999996887207,8|0,0:0|0:0,0:0:0:0:
32,384,144026,5,2,1:2:0:0:
32,384,144151,1,0,1:0:0:0:
190,353,144276,2,0,P|141:337|90:331,1,101.999996887207,10|0,0:0|0:0,0:0:0:0:
248,220,144526,6,0,P|257:289|379:342,1,203.999993774414,6|10,1:2|0:0,0:0:0:0:
512,269,144901,2,0,P|496:317|490:368,1,101.999996887207,6|0,1:2|0:0,0:0:0:0:
358,231,145151,1,0,1:0:0:0:
482,135,145276,2,0,P|468:197|416:219,1,101.999996887207,10|0,0:0|0:0,0:0:0:0:
291,157,145526,6,0,P|240:150|191:135,1,101.999996887207,2|0,1:2|0:0,0:0:0:0:
401,312,145776,2,0,P|387:250|335:228,1,101.999996887207,10|0,0:0|0:0,0:0:0:0:
224,230,146026,6,0,P|173:236|124:251,1,101.999996887207,2|0,1:2|1:0,0:0:0:0:
334,75,146276,2,0,P|320:137|268:159,1,101.999996887207,10|0,0:0|0:0,0:0:0:0:
56,70,146526,6,0,P|154:43|256:32,1,203.999993774414,2|10,1:2|0:0,0:0:0:0:
224,230,146901,2,0,P|162:216|140:164,1,101.999996887207,2|0,1:2|0:0,0:0:0:0:
261,13,147151,1,0,1:0:0:0:
334,75,147276,2,0,P|382:90|433:96,1,101.999996887207,10|0,0:0|0:0,0:0:0:0:
288,320,147526,6,0,P|303:271|309:220,1,101.999996887207,14|0,0:0|1:0,0:0:0:0:
512,90,147776,2,0,P|496:138|490:189,1,101.999996887207,12|0,0:0|1:0,0:0:0:0:
485,376,148026,5,14,0:0:0:0:
505,340,148151,1,0,1:0:0:0:
308,220,148276,5,14,0:0:0:0:
281,142,148401,1,8,0:0:0:0:
464,267,148526,6,0,P|369:295|335:387,1,203.999993774414,6|10,1:2|0:0,0:0:0:0:
192,320,148901,2,0,P|143:304|92:298,1,101.999996887207,2|0,1:2|0:0,0:0:0:0:
256,238,149151,1,0,1:0:0:0:
256,384,149276,2,0,P|298:341|295:288,1,101.999996887207,10|0,0:0|0:0,0:0:0:0:
32,384,149526,6,0,P|41:308|64:235,1,152.999995330811,2|0,1:2|0:0,0:0:0:0:
55,195,149776,2,0,P|98:237|151:234,1,101.999996887207,8|0,0:0|0:0,0:0:0:0:
256,238,150026,5,2,1:2:0:0:
123,158,150151,1,0,1:0:0:0:
256,238,150276,2,0,P|305:226|356:221,1,101.999996887207,10|0,0:0|0:0,0:0:0:0:
484,27,150526,6,0,P|386:34|338:119,1,203.999993774414,2|10,1:2|0:0,0:0:0:0:
470,249,150901,2,0,P|511:208|506:157,1,101.999996887207,2|0,1:2|0:0,0:0:0:0:
319,292,151151,1,0,1:0:0:0:
339,120,151276,2,0,P|344:170|355:220,1,101.999996887207,10|0,0:0|0:0,0:0:0:0:
93,59,151526,6,0,P|131:121|204:126,1,152.999995330811,2|0,1:2|0:0,0:0:0:0:
238,103,151776,2,0,P|288:108|338:119,1,101.999996887207,8|0,0:0|0:0,0:0:0:0:
192,224,152026,5,2,1:2:0:0:
93,59,152151,1,0,1:0:0:0:
192,224,152276,2,0,P|149:255|92:239,1,101.999996887207,10|0,0:0|0:0,0:0:0:0:
0,279,152526,6,0,P|108:289|215:315,1,203.999993774414,6|10,1:2|0:0,0:0:0:0:
460,374,152901,2,0,P|367:347|340:253,1,203.999993774414,6|0,1:2|1:0,0:0:0:0:
439,108,153276,2,0,P|427:157|422:208,1,101.999996887207,10|0,0:0|0:0,0:0:0:0:
171,9,153526,6,0,P|220:20|271:25,1,101.999996887207,2|0,1:2|0:0,0:0:0:0:
100,158,153776,2,0,P|49:163|0:174,1,101.999996887207,10|0,0:0|0:0,0:0:0:0:
0,52,154026,6,0,P|49:63|87:16,1,101.999996887207,2|0,1:2|1:0,0:0:0:0:
252,116,154276,2,0,P|201:121|182:186,1,101.999996887207,10|0,0:0|0:0,0:0:0:0:
380,3,154526,6,0,P|396:68|526:116,1,203.999993774414,2|10,1:2|0:0,0:0:0:0:
416,224,154901,2,0,P|316:202|214:192,1,203.999993774414,2|0,1:2|1:0,0:0:0:0:
117,311,155276,2,0,P|163:312|209:269,1,101.999996887207,10|0,0:0|0:0,0:0:0:0:
111,195,155526,5,14,0:0:0:0:
199,114,155651,1,0,1:0:0:0:
99,222,155776,5,14,0:0:0:0:
121,27,155901,1,0,1:0:0:0:
106,249,156026,5,14,0:0:0:0:
3,15,156151,1,0,1:0:0:0:
2,231,156276,5,14,0:0:0:0:
233,115,156401,1,8,0:0:0:0:
2,231,156526,6,0,P|17:308|128:349,1,187.000005706787,6|10,1:2|0:0,0:0:0:0:
290,280,156901,2,0,P|190:258|88:248,1,187.000005706787,0|2,0:0|0:0,0:0:0:0:
305,133,157276,2,0,P|283:174|234:188,1,93.5000028533936,8|2,0:0|0:0,0:0:0:0:
19,26,157526,6,0,P|85:15|160:96,1,187.000005706787,2|10,1:2|0:0,0:0:0:0:
48,146,157901,2,0,P|148:124|250:114,1,187.000005706787,2|2,0:0|0:0,0:0:0:0:
416,192,158276,2,0,P|369:186|323:176,1,93.5000028533936,8|2,0:0|0:0,0:0:0:0:
288,0,158526,6,0,P|364:-4|424:99,1,187.000005706787,2|10,1:2|0:0,0:0:0:0:
323,176,158901,2,0,P|312:130|307:83,1,93.5000028533936,2|0,0:0|1:0,0:0:0:0:
507,193,159151,5,2,0:0:0:0:
510,220,159276,1,8,0:0:0:0:
502,247,159401,1,2,0:0:0:0:
478,262,159526,2,0,P|431:256|385:246,1,93.5000028533936,2|0,1:2|0:0,0:0:0:0:
254,381,159776,2,0,P|227:337|256:284,1,93.5000028533936,10|0,0:0|0:0,0:0:0:0:
288,160,160026,6,0,P|293:206|303:252,1,93.5000028533936,2|2,1:2|0:0,0:0:0:0:
402,370,160276,2,0,P|446:380|483:354,1,93.5000028533936,8|0,0:0|0:0,0:0:0:0:
343,318,160526,6,0,P|248:328|155:349,1,187.000005706787,6|10,1:2|0:0,0:0:0:0:
13,304,160901,2,0,P|2:260|29:223,1,93.5000028533936,0|0,0:0|1:0,0:0:0:0:
54,384,161151,1,2,0:0:0:0:
158,348,161276,2,0,P|168:301|173:254,1,93.5000028533936,8|2,0:0|0:0,0:0:0:0:
19,87,161526,5,2,1:2:0:0:
30,131,161651,1,0,0:0:0:0:
74,165,161776,1,10,0:0:0:0:
140,162,161901,2,0,P|186:151|233:146,1,93.5000028533936,2|0,0:0|1:0,0:0:0:0:
397,20,162151,1,2,0:0:0:0:
345,86,162276,2,0,P|298:75|251:70,1,93.5000028533936,8|2,0:0|0:0,0:0:0:0:
32,15,162526,6,0,P|9:116|-2:219,1,187.000005706787,2|10,1:2|0:0,0:0:0:0:
91,285,162901,2,0,P|145:281|183:229,1,93.5000028533936,2|0,0:0|1:0,0:0:0:0:
161,88,163151,5,2,0:0:0:0:
195,143,163276,1,8,0:0:0:0:
265,168,163401,1,2,0:0:0:0:
346,146,163526,2,0,P|400:121|446:118,1,93.5000028533936,2|0,1:2|0:0,0:0:0:0:
512,28,163776,2,0,P|466:20|424:0,1,93.5000028533936,8|0,0:0|0:0,0:0:0:0:
320,64,164026,5,14,0:0:0:0:
384,118,164151,1,10,0:0:0:0:
430,176,164276,1,14,0:0:0:0:
459,234,164401,1,8,0:0:0:0:
477,286,164526,6,0,P|420:304|386:279,1,93.5000028533936,6|2,1:2|0:0,0:0:0:0:
498,147,164776,1,8,0:0:0:0:
339,152,164901,2,0,P|384:161|429:175,1,93.5000028533936,2|0,0:0|1:0,0:0:0:0:
384,305,165151,5,2,0:0:0:0:
345,369,165276,1,8,0:0:0:0:
291,384,165401,1,2,0:0:0:0:
255,372,165526,6,0,P|264:326|278:281,1,93.5000028533936,2|0,1:2|0:0,0:0:0:0:
192,192,165776,2,0,P|182:237|168:282,1,93.5000028533936,10|0,0:0|0:0,0:0:0:0:
288,192,166026,6,0,P|297:146|311:101,1,93.5000028533936,2|0,1:2|0:0,0:0:0:0:
225,12,166276,2,0,P|215:57|201:102,1,93.5000028533936,10|0,0:0|0:0,0:0:0:0:
0,245,166526,5,2,1:2:0:0:
19,213,166651,1,2,0:0:0:0:
68,187,166776,1,8,0:0:0:0:
123,191,166901,2,0,P|169:198|213:167,1,93.5000028533936,2|0,0:0|1:0,0:0:0:0:
306,0,167151,5,2,0:0:0:0:
317,54,167276,1,8,0:0:0:0:
372,88,167401,1,2,0:0:0:0:
445,76,167526,5,2,1:2:0:0:
463,54,167651,1,0,0:0:0:0:
461,35,167776,1,8,0:0:0:0:
456,26,167901,2,0,P|446:71|432:116,1,93.5000028533936,2|2,0:0|1:2,0:0:0:0:
308,252,168151,5,0,0:0:0:0:
247,206,168276,2,0,P|286:180|332:180,1,93.5000028533936,10|0,0:0|0:0,0:0:0:0:
478,331,168526,5,6,1:2:0:0:
480,321,168651,1,2,0:0:0:0:
482,311,168776,1,8,0:0:0:0:
484,301,168901,2,0,P|437:284|385:274,1,93.5000028533936,2|0,0:0|1:0,0:0:0:0:
256,352,169151,2,0,P|303:369|355:379,1,93.5000028533936,2|8,0:0|0:0,0:0:0:0:
208,268,169401,5,2,0:0:0:0:
107,368,169526,2,0,P|116:322|132:278,1,93.5000028533936,2|0,1:2|0:0,0:0:0:0:
27,168,169776,2,0,P|17:213|1:257,1,93.5000028533936,10|0,0:0|0:0,0:0:0:0:
124,200,170026,2,0,P|133:154|149:110,1,93.5000028533936,2|0,1:2|0:0,0:0:0:0:
44,0,170276,2,0,P|34:45|18:89,1,93.5000028533936,10|0,0:0|0:0,0:0:0:0:
202,28,170526,5,2,1:2:0:0:
246,13,170651,1,2,0:0:0:0:
300,25,170776,1,8,0:0:0:0:
331,92,170901,2,0,P|285:101|241:117,1,93.5000028533936,2|0,0:0|1:0,0:0:0:0:
124,200,171151,2,0,P|170:209|214:225,1,93.5000028533936,2|8,0:0|0:0,0:0:0:0:
257,290,171401,1,2,0:0:0:0:
485,237,171526,6,0,P|509:205|510:147,1,93.5000028533936,8|4,3:0|3:0,0:0:0:0:
412,123,171776,2,0,P|388:155|387:213,1,93.5000028533936,2|2,3:0|3:0,0:0:0:0:
512,352,172026,5,10,0:0:0:0:
448,312,172151,1,8,0:0:0:0:
393,297,172276,1,10,0:0:0:0:
346,297,172401,1,8,0:0:0:0:
331,302,172526,6,0,B|277:317|299:329|227:347,1,101.999996887207,6|0,1:2|0:0,0:0:0:0:
91,325,172901,2,0,P|138:341|165:384,1,101.999996887207,2|0,0:0|0:0,0:0:0:0:
174,309,173276,1,2,0:0:0:0:
207,213,173526,2,0,P|185:257|173:325,1,101.999996887207,2|0,1:2|0:0,0:0:0:0:
128,160,174026,6,0,P|78:149|32:126,1,101.999996887207,10|2,0:0|0:0,0:0:0:0:
128,32,174526,2,0,P|166:36|192:96,1,101.999996887207,2|0,1:2|0:0,0:0:0:0:
128,192,174901,2,0,P|173:169|223:158,1,101.999996887207,2|0,0:0|0:0,0:0:0:0:
296,184,175276,1,2,0:0:0:0:
296,184,175526,2,0,P|313:229|361:240,2,101.999996887207,2|0|8,1:2|0:0|0:0,0:0:0:0:
384,0,176276,5,2,0:0:0:0:
384,0,176526,2,0,P|399:35|412:106,1,101.999996887207,2|0,1:2|0:0,0:0:0:0:
512,160,176901,2,0,P|497:195|484:266,1,101.999996887207,2|0,0:0|0:0,0:0:0:0:
484,257,177276,1,2,0:0:0:0:
296,296,177526,2,0,P|313:250|361:239,1,101.999996887207,2|0,1:2|0:0,0:0:0:0:
480,373,178026,6,0,P|429:364|382:345,1,101.999996887207,10|2,0:0|0:0,0:0:0:0:
296,296,178526,2,0,P|287:245|268:198,1,101.999996887207,2|0,1:2|0:0,0:0:0:0:
128,128,178901,2,0,P|138:175|184:193,1,101.999996887207,2|0,0:0|0:0,0:0:0:0:
233,135,179276,2,0,P|264:122|297:116,1,50.9999984436036,2|0,0:0|0:0,0:0:0:0:
415,66,179526,6,0,P|462:47|512:38,1,101.999996887207,2|0,1:2|0:0,0:0:0:0:
436,146,179901,2,0,P|388:164|338:173,1,101.999996887207,0|4,1:0|3:0,0:0:0:0:
281,118,180276,2,0,P|268:86|262:53,1,50.9999984436036,2|0,3:0|0:0,0:0:0:0:
115,0,180526,6,0,B|58:14|84:28|12:44,1,101.999996887207,2|0,1:2|0:0,0:0:0:0:
0,124,180901,2,0,P|47:134|65:180,1,101.999996887207,2|0,0:0|0:0,0:0:0:0:
65,180,181276,1,2,0:0:0:0:
184,193,181526,2,0,P|175:142|156:95,1,101.999996887207,2|0,1:2|0:0,0:0:0:0:
117,252,182026,6,0,P|125:302|144:349,1,101.999996887207,10|2,0:0|0:0,0:0:0:0:
214,381,182526,2,0,B|266:368|244:353|313:336,1,101.999996887207,2|0,1:2|0:0,0:0:0:0:
421,274,182901,2,0,B|473:287|451:302|520:319,1,101.999996887207,2|0,0:0|0:0,0:0:0:0:
397,384,183276,2,0,P|392:368|368:317,1,50.9999984436036,2|0,0:0|0:0,0:0:0:0:
256,224,183526,2,0,P|281:258|351:255,1,101.999996887207,2|0,1:2|0:0,0:0:0:0:
431,181,184026,6,0,P|456:147|526:150,1,101.999996887207,10|2,0:0|0:0,0:0:0:0:
512,64,184526,2,0,P|473:57|408:26,1,101.999996887207,2|0,1:2|0:0,0:0:0:0:
270,0,184901,2,0,P|271:49|309:81,1,101.999996887207,2|0,0:0|0:0,0:0:0:0:
309,81,185276,1,2,0:0:0:0:
391,45,185526,5,10,0:0:0:0:
309,81,185776,5,0,1:0:0:0:
246,157,186026,5,8,0:0:0:0:
209,254,186276,5,2,1:2:0:0:
231,372,186526,6,0,B|248:285|314:260|387:304|368:359|316:364,1,237.999992736817,14|0,0:0|1:0,0:0:0:0:
222,293,186901,6,0,B|213:199|114:200|114:200|98:246|139:282,1,237.999992736817,14|0,0:0|1:0,0:0:0:0:
283,219,187276,6,0,P|302:155|341:69,1,118.999996368408,14|0,0:0|1:0,0:0:0:0:
320,0,187526,5,14,0:0:0:0:
440,182,188526,6,0,B|447:136|486:128|491:129|498:132|543:117|555:51|473:8|443:68,1,237.999992736817,14|0,0:0|1:0,0:0:0:0:
431,196,188901,2,0,B|424:149|385:142|380:143|373:145|328:130|316:64|398:21|428:81,1,237.999992736817,14|0,0:0|1:0,0:0:0:0:
442,272,189276,6,0,P|447:310|445:272,1,118.999996368408,14|0,0:0|1:0,0:0:0:0:
339,152,189526,6,0,P|315:181|340:154,1,118.999996368408,14|0,0:0|0:0,0:0:0:0:
239,55,189776,5,0,1:0:0:0:
171,16,189901,1,0,1:0:0:0:
100,7,190026,1,10,0:0:0:0:
49,23,190151,1,8,0:0:0:0:
14,46,190276,1,2,1:2:0:0:
5,65,190401,1,0,1:0:0:0:
64,160,190526,6,0,P|126:135|332:96,1,237.999992736817,14|0,0:0|1:0,0:0:0:0:
217,27,190901,2,0,B|180:56|193:93|196:97|202:102|212:148|161:192|82:142|119:86,1,237.999992736817,14|0,0:0|1:0,0:0:0:0:
266,182,191276,2,0,P|224:136|167:147,1,118.999996368408,14|0,0:0|1:0,0:0:0:0:
114,292,191526,6,0,P|83:279|-20:260,1,118.999996368408,14|0,0:0|0:0,0:0:0:0:
266,182,191776,2,0,P|253:213|234:316,1,118.999996368408,0|0,1:0|1:0,0:0:0:0:
171,365,192026,5,10,0:0:0:0:
224,308,192151,5,8,0:0:0:0:
301,278,192276,5,10,0:0:0:0:
393,288,192401,5,8,0:0:0:0:
472,334,192526,6,0,P|440:282|465:233,1,101.999996887207,6|0,1:2|0:0,0:0:0:0:
512,198,192776,1,10,0:0:0:0:
338,118,192901,2,0,P|383:169|527:194,1,203.999993774414,6|0,1:2|1:0,0:0:0:0:
416,0,193276,2,0,P|406:48|436:87,1,101.999996887207,10|0,0:0|0:0,0:0:0:0:
310,300,193526,6,0,P|308:244|300:190,1,101.999996887207,2|0,1:2|0:0,0:0:0:0:
108,97,193776,2,0,P|156:106|195:76,1,101.999996887207,10|0,0:0|0:0,0:0:0:0:
288,4,194026,6,0,P|290:60|298:114,1,101.999996887207,2|0,1:2|1:0,0:0:0:0:
484,209,194276,2,0,P|435:199|396:229,1,101.999996887207,10|0,0:0|0:0,0:0:0:0:
384,384,194526,6,0,P|343:325|220:353,1,203.999993774414,2|10,1:2|0:0,0:0:0:0:
109,261,194901,2,0,P|102:210|100:159,1,101.999996887207,2|0,1:2|0:0,0:0:0:0:
188,266,195151,1,0,1:0:0:0:
149,343,195276,2,0,P|109:373|61:363,1,101.999996887207,10|0,0:0|0:0,0:0:0:0:
0,168,195526,6,0,P|50:161|101:159,1,101.999996887207,14|0,0:0|1:0,0:0:0:0:
224,32,195776,2,0,P|173:38|122:40,1,101.999996887207,12|0,0:0|1:0,0:0:0:0:
188,181,196026,5,14,0:0:0:0:
266,203,196151,1,0,1:0:0:0:
86,52,196276,5,14,0:0:0:0:
9,80,196401,1,8,0:0:0:0:
188,181,196526,6,0,P|235:121|386:144,1,203.999993774414,6|10,1:2|0:0,0:0:0:0:
509,1,196901,2,0,P|484:52|431:64,1,101.999996887207,2|0,1:2|0:0,0:0:0:0:
362,26,197151,1,0,1:0:0:0:
437,154,197276,2,0,P|450:196|457:273,1,101.999996887207,10|0,0:0|0:0,0:0:0:0:
320,384,197526,6,0,P|299:319|289:200,1,152.999995330811,2|0,1:2|0:0,0:0:0:0:
310,200,197776,2,0,P|287:257|229:261,1,101.999996887207,8|0,0:0|0:0,0:0:0:0:
169,204,198026,5,2,1:2:0:0:
375,290,198151,1,0,1:0:0:0:
169,204,198276,2,0,P|118:209|69:224,1,101.999996887207,10|0,0:0|0:0,0:0:0:0:
229,104,198526,6,0,P|349:117|465:152,1,203.999993774414,2|10,1:2|0:0,0:0:0:0:
246,7,198901,2,0,P|168:19|146:152,1,203.999993774414,2|0,1:2|1:0,0:0:0:0:
288,224,199276,2,0,P|324:194|310:131,1,101.999996887207,10|0,0:0|0:0,0:0:0:0:
245,297,199526,6,0,P|162:276|78:268,1,152.999995330811,2|0,1:2|0:0,0:0:0:0:
59,289,199776,2,0,P|23:259|37:196,1,101.999996887207,8|0,0:0|0:0,0:0:0:0:
227,77,200026,5,2,1:2:0:0:
49,124,200151,1,0,1:0:0:0:
227,77,200276,2,0,P|213:132|207:188,1,101.999996887207,10|0,0:0|0:0,0:0:0:0:
322,374,200526,6,0,P|401:367|439:246,1,203.999993774414,6|10,1:2|0:0,0:0:0:0:
323,203,200901,2,0,P|318:251|355:284,1,101.999996887207,6|0,1:2|0:0,0:0:0:0:
447,78,201151,1,0,1:0:0:0:
512,153,201276,2,0,P|461:159|412:171,1,101.999996887207,10|0,0:0|0:0,0:0:0:0:
157,18,201526,6,0,P|207:11|256:0,1,101.999996887207,2|0,1:2|0:0,0:0:0:0:
110,170,201776,2,0,P|103:119|91:70,1,101.999996887207,10|0,0:0|0:0,0:0:0:0:
333,152,202026,6,0,P|282:158|233:170,1,101.999996887207,2|0,1:2|1:0,0:0:0:0:
384,0,202276,2,0,P|390:50|402:99,1,101.999996887207,10|0,0:0|0:0,0:0:0:0:
512,279,202526,6,0,P|460:238|331:259,1,203.999993774414,2|10,1:2|0:0,0:0:0:0:
200,336,202901,2,0,P|82:321|-31:292,1,203.999993774414,2|0,1:2|1:0,0:0:0:0:
232,170,203276,6,0,P|239:228|253:285,1,101.999996887207,10|0,0:0|0:0,0:0:0:0:
285,384,203526,5,6,1:2:0:0:
285,384,204026,5,14,0:0:0:0:
374,348,204151,5,8,0:0:0:0:
445,268,204276,5,14,0:0:0:0:
468,141,204401,5,8,0:0:0:0:
451,11,204526,6,0,B|419:100|349:111|278:49|324:-12|383:7,1,237.999992736817,6|10,1:2|0:0,0:0:0:0:
111,72,204901,2,0,P|39:41|-33:25,1,118.999996368408,2|0,1:2|0:0,0:0:0:0:
231,172,205151,1,0,1:0:0:0:
248,0,205276,2,0,P|198:41|201:106,1,118.999996368408,10|0,0:0|0:0,0:0:0:0:
54,217,205526,6,0,B|109:210|93:175|135:148|135:148|92:145|78:173,1,178.499994552612,2|0,1:2|0:0,0:0:0:0:
34,238,205776,2,0,P|1:305|35:353,1,118.999996368408,8|0,0:0|0:0,0:0:0:0:
231,172,206026,5,2,1:2:0:0:
83,129,206151,1,0,1:0:0:0:
131,382,206276,2,0,P|158:329|172:272,1,118.999996368408,10|0,0:0|0:0,0:0:0:0:
263,180,206526,6,0,P|144:186|31:223,1,237.999992736817,2|10,1:2|0:0,0:0:0:0:
288,264,206901,2,0,P|338:237|349:180,1,118.999996368408,2|0,1:2|0:0,0:0:0:0:
249,18,207151,1,0,1:0:0:0:
160,64,207276,2,0,P|163:123|181:179,1,118.999996368408,10|0,0:0|0:0,0:0:0:0:
395,9,207526,2,0,P|468:14|504:122,1,178.499994552612,2|0,1:2|0:0,0:0:0:0:
465,158,207776,2,0,P|408:176|349:179,1,118.999996368408,8|0,0:0|0:0,0:0:0:0:
303,87,208026,5,2,1:2:0:0:
404,265,208151,1,0,1:0:0:0:
263,180,208276,2,0,P|203:204|192:263,1,118.999996368408,10|0,0:0|0:0,0:0:0:0:
352,352,208526,6,0,P|365:268|409:101,1,237.999992736817,6|10,1:2|0:0,0:0:0:0:
471,286,208901,2,0,B|414:319|365:261|372:253|378:246|333:182|268:210,1,237.999992736817,6|0,1:2|1:0,0:0:0:0:
487,62,209276,6,0,P|458:112|401:119,1,118.999996368408,10|0,0:0|0:0,0:0:0:0:
246,93,209526,2,0,P|186:76|122:71,1,118.999996368408,2|0,1:2|0:0,0:0:0:0:
265,0,209776,6,0,P|321:7|350:57,1,118.999996368408,10|0,0:0|0:0,0:0:0:0:
269,210,210026,2,0,P|263:150|246:93,1,118.999996368408,2|0,1:2|1:0,0:0:0:0:
401,119,210276,2,0,P|458:112|487:62,1,118.999996368408,10|0,0:0|0:0,0:0:0:0:
269,210,210526,6,0,P|202:118|89:160,1,237.999992736817,2|10,1:2|0:0,0:0:0:0:
0,327,210901,2,0,P|60:310|124:305,1,118.999996368408,2|0,1:2|0:0,0:0:0:0:
31,207,211151,1,0,1:0:0:0:
176,249,211276,2,0,P|203:300|180:358,1,118.999996368408,10|0,0:0|0:0,0:0:0:0:
256,192,211526,6,0,P|315:186|372:169,1,118.999996368408,14|0,0:0|1:0,0:0:0:0:
512,320,211776,2,0,P|452:325|395:342,1,118.999996368408,12|0,0:0|1:0,0:0:0:0:
256,192,212026,5,14,0:0:0:0:
151,132,212151,1,0,1:0:0:0:
497,197,212276,5,14,0:0:0:0:
307,285,212401,1,8,0:0:0:0:
497,197,212526,6,0,B|433:200|371:141|402:61|484:49|489:129,1,237.999992736817,6|10,1:2|0:0,0:0:0:0:
512,288,212901,2,0,P|480:240|423:239,1,118.999996368408,2|0,1:2|0:0,0:0:0:0:
248,284,213151,1,0,1:0:0:0:
324,364,213276,2,0,P|342:310|346:246,1,118.999996368408,10|0,0:0|0:0,0:0:0:0:
192,160,213526,2,0,P|120:165|86:276,1,178.499994552612,2|0,1:2|0:0,0:0:0:0:
133,307,213776,2,0,P|189:288|248:284,1,118.999996368408,8|0,0:0|0:0,0:0:0:0:
346,248,214026,5,2,1:2:0:0:
261,120,214151,1,0,1:0:0:0:
384,160,214276,2,0,P|328:141|269:137,1,118.999996368408,10|0,0:0|0:0,0:0:0:0:
50,0,214526,6,0,P|9:63|110:156,1,237.999992736817,2|10,1:2|0:0,0:0:0:0:
258,13,214901,2,0,P|198:16|142:35,1,118.999996368408,2|0,1:2|0:0,0:0:0:0:
268,137,215151,1,0,1:0:0:0:
205,267,215276,2,0,P|176:217|199:153,1,118.999996368408,10|0,0:0|0:0,0:0:0:0:
300,107,215526,2,0,P|384:133|473:138,1,178.499994552612,2|0,1:2|0:0,0:0:0:0:
512,201,215776,2,0,P|481:245|401:229,1,118.999996368408,8|0,0:0|0:0,0:0:0:0:
383,0,216026,5,2,1:2:0:0:
354,174,216151,1,0,1:0:0:0:
383,0,216276,2,0,P|402:56|405:115,1,118.999996368408,10|0,0:0|0:0,0:0:0:0:
205,267,216526,6,0,P|176:217|199:153,1,118.999996368408,6|0,1:2|0:0,0:0:0:0:
312,267,216776,1,10,0:0:0:0:
163,336,216901,2,0,P|286:297|417:290,1,237.999992736817,6|0,1:2|1:0,0:0:0:0:
510,361,217276,2,0,P|454:380|395:384,1,118.999996368408,10|0,0:0|0:0,0:0:0:0:
470,163,217526,6,0,P|515:200|512:258,1,118.999996368408,2|0,1:2|0:0,0:0:0:0:
394,289,217776,2,0,P|338:270|279:266,1,118.999996368408,10|0,0:0|0:0,0:0:0:0:
160,96,218026,6,0,P|115:132|118:190,1,118.999996368408,2|0,1:2|1:0,0:0:0:0:
278,266,218276,2,0,P|297:210|301:151,1,118.999996368408,10|0,0:0|0:0,0:0:0:0:
102,269,218526,6,0,P|83:325|79:384,1,118.999996368408,2|0,1:2|0:0,0:0:0:0:
182,298,218776,1,10,0:0:0:0:
22,186,218901,2,0,P|36:254|184:296,1,237.999992736817,2|0,1:2|1:0,0:0:0:0:
211,112,219276,2,0,P|153:109|116:153,1,118.999996368408,10|0,0:0|0:0,0:0:0:0:
256,352,219526,6,0,P|312:333|371:329,1,118.999996368408,14|0,0:0|1:0,0:0:0:0:
211,112,219776,2,0,P|230:168|234:227,1,118.999996368408,12|0,0:0|1:0,0:0:0:0:
144,370,220026,5,14,0:0:0:0:
102,269,220151,1,0,1:0:0:0:
316,266,220276,5,14,0:0:0:0:
356,127,220401,1,8,0:0:0:0:
316,266,220526,6,0,P|330:198|478:156,1,237.999992736817,6|8,1:2|0:0,0:0:0:0:
507,317,220901,2,0,P|447:313|391:294,1,118.999996368408,2|0,0:0|1:0,0:0:0:0:
247,97,221151,1,2,0:0:0:0:
192,192,221276,2,0,P|248:173|307:169,1,118.999996368408,8|0,0:0|0:0,0:0:0:0:
492,33,221526,2,0,P|456:84|397:81,1,118.999996368408,2|0,1:2|0:0,0:0:0:0:
321,20,221776,1,10,0:0:0:0:
475,154,221901,2,0,P|369:109|245:98,1,237.999992736817,2|0,0:0|0:0,0:0:0:0:
64,0,222276,2,0,P|100:51|159:48,1,118.999996368408,10|0,0:0|0:0,0:0:0:0:
237,0,222526,6,0,P|191:110|181:229,1,237.999992736817,2|8,1:2|0:0,0:0:0:0:
256,320,222901,2,0,P|307:284|304:225,1,118.999996368408,2|0,0:0|1:0,0:0:0:0:
131,381,223151,1,2,0:0:0:0:
62,323,223276,2,0,P|118:303|177:300,1,118.999996368408,10|0,0:0|0:0,0:0:0:0:
350,175,223526,6,0,P|381:231|495:234,1,178.499994552612,2|0,1:2|0:0,0:0:0:0:
504,195,223776,2,0,P|484:251|481:310,1,118.999996368408,8|0,0:0|0:0,0:0:0:0:
274,277,224026,6,0,P|243:221|129:218,1,178.499994552612,2|0,1:2|0:0,0:0:0:0:
120,257,224276,2,0,P|139:200|142:141,1,118.999996368408,10|0,0:0|0:0,0:0:0:0:
47,0,224526,6,0,P|90:79|252:83,1,237.999992736817,6|8,1:2|0:0,0:0:0:0:
384,32,224901,2,0,P|441:35|472:83,1,118.999996368408,2|0,0:0|1:0,0:0:0:0:
328,137,225151,1,2,0:0:0:0:
285,0,225276,2,0,P|313:59|325:130,1,118.999996368408,8|0,0:0|0:0,0:0:0:0:
512,180,225526,6,0,P|386:207|271:263,1,237.999992736817,2|10,1:2|0:0,0:0:0:0:
131,381,225901,2,0,P|195:352|204:290,1,118.999996368408,2|0,0:0|1:0,0:0:0:0:
0,221,226151,1,0,0:0:0:0:
63,160,226276,2,0,P|120:172|174:198,1,118.999996368408,10|0,0:0|0:0,0:0:0:0:
230,384,226526,6,0,P|254:267|303:159,1,237.999992736817,2|10,1:2|0:0,0:0:0:0:
113,2,226901,2,0,P|142:66|204:75,1,118.999996368408,2|0,0:0|1:0,0:0:0:0:
481,150,227151,1,2,0:0:0:0:
415,198,227276,2,0,P|361:171|303:159,1,118.999996368408,8|0,0:0|0:0,0:0:0:0:
1,40,227526,6,0,P|58:27|112:2,1,118.999996368408,2|0,1:2|0:0,0:0:0:0:
323,65,227776,2,0,P|265:77|211:103,1,118.999996368408,8|0,0:0|0:0,0:0:0:0:
87,106,228026,5,14,0:0:0:0:
210,0,228151,1,8,0:0:0:0:
92,81,228276,5,14,0:0:0:0:
213,252,228401,1,8,0:0:0:0:
92,80,228526,2,0,P|174:181|283:151,1,237.999992736817,6|8,1:2|0:0,0:0:0:0:
342,273,228901,6,0,P|330:331|304:385,1,118.999996368408,2|0,0:0|1:0,0:0:0:0:
512,230,229151,1,2,0:0:0:0:
431,240,229276,2,0,P|465:301|512:310,1,118.999996368408,8|0,0:0|0:0,0:0:0:0:
362,189,229526,6,0,P|243:198|130:232,1,237.999992736817,2|10,1:2|0:0,0:0:0:0:
0,89,229901,2,0,P|34:150|81:159,1,118.999996368408,2|0,0:0|1:0,0:0:0:0:
226,9,230151,1,0,0:0:0:0:
248,106,230276,2,0,P|194:80|136:68,1,118.999996368408,10|0,0:0|0:0,0:0:0:0:
211,197,230526,6,0,P|257:149|424:146,1,237.999992736817,2|8,1:2|0:0,0:0:0:0:
406,324,230901,2,0,P|380:270|368:212,1,118.999996368408,2|0,0:0|1:0,0:0:0:0:
512,0,231151,1,2,0:0:0:0:
431,11,231276,2,0,P|465:72|512:81,1,118.999996368408,10|0,0:0|0:0,0:0:0:0:
256,0,231526,6,0,P|170:41|76:60,1,178.499994552612,2|0,1:2|0:0,0:0:0:0:
41,52,231776,2,0,P|14:102|39:154,1,118.999996368408,8|0,0:0|0:0,0:0:0:0:
249,189,232026,6,0,P|334:147|428:128,1,178.499994552612,2|0,1:2|0:0,0:0:0:0:
464,137,232276,2,0,P|490:86|465:34,1,118.999996368408,10|0,0:0|0:0,0:0:0:0:
256,76,232526,6,0,P|316:202|345:339,1,237.999992736817,6|8,1:2|0:0,0:0:0:0:
429,384,232901,2,0,P|483:366|502:312,1,118.999996368408,2|0,0:0|1:0,0:0:0:0:
274,354,233151,1,2,0:0:0:0:
224,274,233276,2,0,P|287:277|346:300,1,118.999996368408,8|0,0:0|0:0,0:0:0:0:
512,159,233526,6,0,P|429:235|329:184,1,237.999992736817,2|10,1:2|0:0,0:0:0:0:
441,0,233901,2,0,P|438:63|415:122,1,118.999996368408,2|0,0:0|1:0,0:0:0:0:
250,69,234151,1,0,0:0:0:0:
344,41,234276,2,0,P|398:60|418:115,1,118.999996368408,10|0,0:0|0:0,0:0:0:0:
229,227,234526,6,0,P|105:182|-26:177,1,237.999992736817,2|10,1:2|0:0,0:0:0:0:
180,61,234901,2,0,B|223:53|231:-22|139:-39|80:8|103:99,1,237.999992736817,2|2,0:0|0:0,0:0:0:0:
113,275,235276,5,8,0:0:0:0:
203,239,235401,1,2,0:0:0:0:
304,371,235526,2,0,P|350:333|342:275,1,118.999996368408,14|0,0:0|1:0,0:0:0:0:
113,275,235776,2,0,P|47:289|-2:309,1,118.999996368408,12|0,0:0|1:0,0:0:0:0:
60,140,236026,5,14,0:0:0:0:
124,192,236151,5,8,0:0:0:0:
217,207,236276,5,12,0:0:0:0:
315,164,236401,5,8,0:0:0:0:
373,74,236526,6,0,B|405:59|416:21|416:21|469:104|396:182,1,237.999992736817,6|8,1:2|0:0,0:0:0:0:
512,244,236901,2,0,P|395:197|248:175,1,237.999992736817,0|0,1:0|1:0,0:0:0:0:
128,224,237276,2,0,P|69:221|44:163,1,118.999996368408,8|0,0:0|0:0,0:0:0:0:
254,371,237526,6,0,P|238:326|224:250,1,118.999996368408,0|0,1:0|0:0,0:0:0:0:
262,65,237776,1,10,0:0:0:0:
306,0,237901,1,0,0:0:0:0:
385,9,238026,2,0,P|401:54|415:130,1,118.999996368408,0|0,1:0|0:0,0:0:0:0:
328,290,238276,6,0,P|312:245|298:169,1,118.999996368408,10|0,0:0|0:0,0:0:0:0:
255,380,238526,2,0,P|307:323|474:347,1,237.999992736817,2|8,1:2|0:0,0:0:0:0:
489,159,238901,1,0,0:0:0:0:
416,185,239026,2,0,P|454:228|512:234,1,118.999996368408,0|0,1:0|0:0,0:0:0:0:
416,108,239276,2,0,P|371:92|295:78,1,118.999996368408,10|0,0:0|0:0,0:0:0:0:
0,162,239526,6,0,P|93:145|183:115,1,178.499994552612,2|0,1:2|0:0,0:0:0:0:
200,80,239776,2,0,P|179:160|192:194,1,118.999996368408,8|0,0:0|0:0,0:0:0:0:
480,256,240026,6,0,P|386:272|296:302,1,178.499994552612,6|0,1:2|0:0,0:0:0:0:
280,338,240276,2,0,P|301:258|288:224,1,118.999996368408,14|0,0:0|0:0,0:0:0:0:
0,162,240526,6,0,P|35:257|127:266,1,178.499994552612,6|0,1:2|0:0,0:0:0:0:
146,254,240776,2,0,P|158:184|180:117,1,118.999996368408,8|0,0:0|0:0,0:0:0:0:
339,121,241026,2,0,P|326:190|304:257,1,118.999996368408,0|0,1:0|0:0,0:0:0:0:
153,34,241276,5,10,0:0:0:0:
254,153,241401,1,0,0:0:0:0:
153,34,241526,2,0,P|110:77|27:52,1,118.999996368408,2|0,1:2|0:0,0:0:0:0:
288,0,241776,6,0,P|301:65|415:90,1,178.499994552612,8|0,0:0|0:0,0:0:0:0:
443,80,242026,2,0,P|430:149|408:216,1,118.999996368408,0|0,1:0|0:0,0:0:0:0:
316,110,242276,5,10,0:0:0:0:
512,248,242401,1,0,0:0:0:0:
316,110,242526,6,0,P|277:168|304:223,1,118.999996368408,6|0,1:2|0:0,0:0:0:0:
396,308,242776,2,0,P|465:320|532:342,1,118.999996368408,8|0,0:0|0:0,0:0:0:0:
443,80,243026,6,0,P|425:136|416:195,1,118.999996368408,6|0,1:2|0:0,0:0:0:0:
313,295,243276,2,0,P|256:306|212:269,1,118.999996368408,8|0,0:0|0:0,0:0:0:0:
511,334,243526,6,0,P|454:317|396:308,1,118.999996368408,6|0,1:2|0:0,0:0:0:0:
292,213,243776,2,0,P|280:156|318:113,1,118.999996368408,8|0,0:0|0:0,0:0:0:0:
445,7,244026,5,14,0:0:0:0:
393,86,244151,5,8,0:0:0:0:
295,130,244276,5,12,0:0:0:0:
178,115,244401,5,8,0:0:0:0:
91,37,244526,6,0,P|62:132|46:230,1,178.499994552612,6|0,1:2|0:0,0:0:0:0:
48,257,244776,2,0,P|89:303|155:283,1,118.999996368408,8|0,0:0|0:0,0:0:0:0:
292,213,245026,2,0,P|235:195|176:186,1,118.999996368408,0|0,1:0|0:0,0:0:0:0:
229,383,245276,6,0,P|283:341|407:351,1,178.499994552612,10|0,0:0|0:0,0:0:0:0:
426,371,245526,2,0,P|435:312|452:255,1,118.999996368408,2|0,1:2|0:0,0:0:0:0:
339,101,245776,1,8,0:0:0:0:
268,135,245901,2,0,P|310:180|379:167,1,118.999996368408,2|0,0:0|1:0,0:0:0:0:
439,2,246151,5,0,0:0:0:0:
512,33,246276,2,0,P|470:78|401:65,1,118.999996368408,10|0,0:0|0:0,0:0:0:0:
104,0,246526,6,0,P|172:33|210:64,1,118.999996368408,2|0,1:2|0:0,0:0:0:0:
153,148,246776,2,0,P|85:115|47:84,1,118.999996368408,8|2,0:0|0:0,0:0:0:0:
103,213,247026,6,0,P|151:194|197:190,1,85,0|0,1:0|0:0,0:0:0:0:
211,272,247276,2,0,P|174:289|115:299,1,85,10|0,0:0|0:0,0:0:0:0:
252,307,247526,6,0,P|268:267|303:223,1,85,2|0,1:2|0:0,0:0:0:0:
370,277,247776,2,0,P|354:324|319:370,1,85,8|0,0:0|0:0,0:0:0:0:
406,259,248026,6,0,P|387:206|386:144,1,118.999996368408,2|0,1:2|0:0,0:0:0:0:
476,125,248276,2,0,P|497:194|496:249,1,118.999996368408,10|0,0:0|0:0,0:0:0:0:
343,372,248526,6,0,P|291:325|184:331,1,178.499994552612,6|0,1:2|0:0,0:0:0:0:
147,355,248776,2,0,P|122:283|117:234,1,118.999996368408,8|0,0:0|0:0,0:0:0:0:
224,128,249026,2,0,P|265:184|238:238,1,118.999996368408,0|0,1:0|0:0,0:0:0:0:
133,111,249276,5,10,0:0:0:0:
212,18,249401,1,0,0:0:0:0:
7,75,249526,2,0,P|65:83|121:104,1,118.999996368408,2|0,1:2|0:0,0:0:0:0:
251,226,249776,6,0,P|335:196|423:184,1,178.499994552612,8|0,0:0|0:0,0:0:0:0:
469,198,250026,2,0,P|510:142|483:87,1,118.999996368408,0|0,1:0|0:0,0:0:0:0:
416,0,250276,5,10,0:0:0:0:
400,152,250401,1,0,0:0:0:0:
299,89,250526,2,0,P|232:65|162:56,1,118.999996368408,6|0,1:2|0:0,0:0:0:0:
0,192,250776,2,0,P|76:181|103:124,1,118.999996368408,8|0,0:0|0:0,0:0:0:0:
59,0,251026,6,0,P|35:66|26:136,1,118.999996368408,6|0,1:2|0:0,0:0:0:0:
220,235,251276,2,0,P|209:159|152:132,1,118.999996368408,8|0,0:0|0:0,0:0:0:0:
22,378,251526,6,0,P|85:348|203:325,1,178.499994552612,14|0,1:2|0:0,0:0:0:0:
301,343,251776,6,0,P|219:315|223:229,1,178.499994552612,14|0,1:2|0:0,0:0:0:0:
309,168,252026,6,0,B|414:183|345:93|472:114,1,178.499994552612,14|0,1:2|0:0,0:0:0:0:
312,71,252276,6,0,B|207:86|276:-4|149:17,1,178.499994552612,14|0,1:2|0:0,0:0:0:0:
378,8,252526,5,14,1:2:0:0:
