osu file format v14

[General]
AudioFilename: audio.ogg
AudioLeadIn: 0
PreviewTime: 59963
Countdown: 0
SampleSet: Soft
StackLeniency: 0.7
Mode: 0
LetterboxInBreaks: 0
WidescreenStoryboard: 1

[Editor]
DistanceSpacing: 1.1
BeatDivisor: 4
GridSize: 32
TimelineZoom: 8

[Metadata]
Title:Hana ni Ame o, Kimi ni Uta o
TitleUnicode:花に雨を、君に歌を
Artist:Tsukuyomi
ArtistUnicode:月詠み
Creator:Nevertary
Version:Normal
Source:
Tags:THE BINARY mido あかまる akamaru ユリイ・カノン YurryCanon Yue ユエ SERRA セラ 片井雨司 kataiuji cover female vocals vocalist japanese rock j-rock jrock lushifer Crysisters
BeatmapID:4040699
BeatmapSetID:1929568

[Difficulty]
HPDrainRate:3.5
CircleSize:3.3
OverallDifficulty:5
ApproachRate:6
SliderMultiplier:0.8
SliderTickRate:1

[Events]
//Background and Video events
0,0,"BG.jpg",0,0
Video,-58,"bgv.mp4"
//Break Periods
2,172726,179476
//Storyboard Layer 0 (Background)
//Storyboard Layer 1 (Fail)
//Storyboard Layer 2 (Pass)
//Storyboard Layer 3 (Foreground)
//Storyboard Layer 4 (Overlay)
//Storyboard Sound Samples

[TimingPoints]
526,250,4,2,2,50,1,0
4526,-111.111111111111,4,2,2,55,0,0
6526,-105.263157894737,4,2,2,65,0,0
8526,-100,4,2,1,75,0,0
24526,-111.111111111111,4,2,3,50,0,0
36526,-111.111111111111,4,2,3,55,0,0
44526,-105.263157894737,4,2,3,60,0,0
56526,-105.263157894737,4,2,3,65,0,0
58526,-99.9999999999999,4,2,2,70,0,0
60526,-100,4,2,1,80,0,1
92526,-100,4,2,1,75,0,0
108526,-100,4,2,2,60,0,0
116526,-100,4,2,2,65,0,0
124526,-105.263157894737,4,2,3,60,0,0
136526,-105.263157894737,4,2,3,65,0,0
138526,-100,4,2,2,70,0,0
140526,-100,4,2,1,80,0,1
156526,-100,4,2,1,75,0,0
172526,-105.263157894737,4,2,3,60,0,0
186526,-100,4,2,2,70,0,0
188526,-100,4,2,1,75,0,0
192526,-100,4,2,1,80,0,1
203526,-100,4,2,1,80,0,0
204526,-95.2380952380952,4,2,1,80,0,1
236526,-95.2380952380952,4,2,1,80,0,0
244526,-95.2380952380952,4,2,1,80,0,1
252526,-95.2380952380952,4,2,1,80,0,0

[Colours]
Combo1 : 172,172,172
Combo2 : 88,75,122
Combo3 : 94,113,112
Combo4 : 211,154,218

[HitObjects]
258,121,4526,6,0,L|237:14,2,107.999996704102,2|2|2,1:2|0:0|0:0,0:0:0:0:
322,166,5526,2,0,P|377:164|419:198,2,107.999996704102,2|2|2,1:2|0:0|0:0,0:0:0:0:
269,231,6526,5,8,1:2:0:0:
182,321,6901,2,0,B|152:344|152:344|76:330,1,113.999996955872,8|8,1:2|1:2,0:0:0:0:
24,266,7526,1,8,1:2:0:0:
24,266,8526,6,0,B|7:185|7:185|31:157,2,120,6|2|10,1:2|1:2|0:0,0:0:0:0:
77,331,9526,1,2,1:2:0:0:
203,369,9901,2,0,B|239:377|262:350|262:350|285:325|318:335,1,120,2|10,1:2|0:0,0:0:0:0:
398,345,10526,6,0,B|421:328|454:338|454:338|449:301|467:280,1,120,2|2,1:2|1:2,0:0:0:0:
488,149,11276,1,10,0:0:0:0:
458,66,11526,2,0,P|425:41|385:40,1,80,2|10,1:2|0:0,0:0:0:0:
302,63,12026,1,2,1:2:0:0:
250,133,12276,1,10,0:0:0:0:
163,117,12526,6,0,B|78:101|78:101|57:106|58:130,2,120,2|2|10,1:2|1:2|0:0,0:0:0:0:
250,133,13526,1,2,1:2:0:0:
298,255,13901,2,0,P|279:320|231:339,1,120,2|10,1:2|0:0,0:0:0:0:
147,351,14526,5,2,1:2:0:0:
77,296,14776,2,0,L|-3:311,2,80,10|2|10,0:0|1:2|0:0,0:0:0:0:
144,239,15526,2,0,P|154:197|143:162,1,80,10|10,0:0|0:0,0:0:0:0:
100,86,16026,1,10,0:0:0:0:
153,16,16276,1,10,0:0:0:0:
233,52,16526,6,0,B|276:43|276:43|296:53|296:53|349:43,2,120,6|2|10,1:2|1:2|0:0,0:0:0:0:
180,122,17526,1,2,1:2:0:0:
134,245,17901,2,0,B|124:279|151:302|151:302|175:324|168:356,1,120,2|10,1:2|0:0,0:0:0:0:
257,343,18526,6,0,B|338:326|338:326|366:350,1,120,2|2,1:2|1:2,0:0:0:0:
477,278,19276,1,10,0:0:0:0:
494,191,19526,2,0,L|509:109,1,80,2|10,1:2|0:0,0:0:0:0:
459,39,20026,1,2,1:2:0:0:
382,84,20276,1,10,0:0:0:0:
297,59,20526,6,0,B|269:51|242:72|242:72|233:36|209:23,2,120,2|2|10,1:2|1:2|0:0,0:0:0:0:
382,84,21526,1,2,1:2:0:0:
470,181,21901,2,0,B|493:208|493:208|476:294,1,120,2|10,0:0|0:0,0:0:0:0:
406,344,22526,5,2,1:2:0:0:
322,315,22776,2,0,L|242:330,2,80,10|2|10,0:0|1:2|0:0,0:0:0:0:
357,234,23526,2,0,P|367:193|354:158,1,80,10|10,0:0|0:0,0:0:0:0:
298,90,24026,1,10,0:0:0:0:
220,127,24276,1,10,0:0:0:0:
158,67,24526,1,2,0:0:0:0:
256,192,24776,12,2,27526,0:0:0:0:
490,52,28526,6,0,B|448:41|426:74|426:74|403:105|361:96,1,143.999995605469,2|0,1:2|1:0,0:0:0:0:
285,78,29276,1,2,0:0:0:0:
226,131,29526,2,0,B|214:191|214:191|225:212|225:212|214:269,1,143.999995605469,2|0,1:2|1:0,0:0:0:0:
76,348,30526,6,0,P|20:331|3:288,1,107.999996704102,2|2,1:2|0:0,0:0:0:0:
3,208,31151,1,2,0:0:0:0:
14,89,31526,2,0,B|48:65|45:25|45:25|79:44|114:32,1,143.999995605469,2|0,1:2|1:0,0:0:0:0:
188,53,32276,1,2,0:0:0:0:
247,104,32526,6,0,B|272:130|272:130|251:237,1,143.999995605469,2|0,1:2|1:0,0:0:0:0:
232,312,33276,1,2,0:0:0:0:
301,349,33526,2,0,B|343:360|365:327|365:327|388:296|430:305,1,143.999995605469,2|0,1:2|1:0,0:0:0:0:
491,159,34526,6,0,P|502:91|447:48,1,143.999995605469,2|0,1:2|1:0,0:0:0:0:
370,34,35276,1,2,0:0:0:0:
306,81,35526,2,0,L|285:187,1,107.999996704102,2|2,1:2|1:2,0:0:0:0:
261,303,36276,1,2,3:0:0:0:
196,348,36526,6,0,B|135:336|135:336|114:347|114:347|57:336,1,143.999995605469,2|8,1:2|0:1,0:0:0:0:
2,278,37276,1,2,0:0:0:0:
18,200,37526,2,0,B|37:99|37:99|75:83,1,143.999995605469,2|8,1:2|0:1,0:0:0:0:
235,83,38526,6,0,P|257:126|242:183,1,107.999996704102,2|2,1:2|0:0,0:0:0:0:
199,248,39151,1,2,0:0:0:0:
262,348,39526,2,0,B|303:340|329:371|329:371|339:333|373:317,1,143.999995605469,2|8,1:2|0:1,0:0:0:0:
446,295,40276,1,2,0:0:0:0:
482,224,40526,6,0,B|497:186|497:186|476:85,1,143.999995605469,2|8,1:2|0:1,0:0:0:0:
420,28,41276,1,2,0:0:0:0:
340,24,41526,2,0,B|298:13|276:46|276:46|253:77|211:68,1,143.999995605469,2|8,1:2|0:1,0:0:0:0:
60,23,42526,6,0,B|72:83|72:83|61:104|61:104|72:161,1,143.999995605469,2|8,1:2|0:1,0:0:0:0:
121,224,43276,1,2,0:0:0:0:
88,296,43526,2,0,P|36:317|20:366,2,107.999996704102,2|2|0,1:2|0:0|0:0,0:0:0:0:
171,289,44526,6,0,B|282:310|282:310|304:323|303:343,1,151.999995941162,4|8,1:2|0:0,0:0:0:0:
377,380,45276,1,2,0:0:0:0:
455,351,45526,2,0,B|486:331|486:331|500:254,1,113.999996955872,2|2,1:2|0:0,0:0:0:0:
466,133,46276,1,2,0:0:0:0:
387,103,46526,6,0,B|362:93|331:110|331:110|326:75|303:64,2,113.999996955872,2|2|2,1:2|0:0|0:0,0:0:0:0:
466,133,47526,2,0,P|496:196|470:269,1,151.999995941162,2|10,1:2|0:0,0:0:0:0:
410,329,48276,1,2,0:0:0:0:
327,313,48526,6,0,B|266:301|266:301|237:317|237:317|178:305,1,151.999995941162,2|8,1:2|0:0,0:0:0:0:
111,352,49276,1,2,0:0:0:0:
39,308,49526,2,0,P|3:266|9:210,1,113.999996955872,2|2,1:2|0:0,0:0:0:0:
70,101,50276,1,2,0:0:0:0:
150,79,50526,6,0,B|221:66|221:66|240:72|243:98,2,113.999996955872,2|2|2,1:2|0:0|0:0,0:0:0:0:
70,101,51526,2,0,B|40:133|64:170|64:170|90:208|64:240,1,151.999995941162,2|10,1:2|0:0,0:0:0:0:
18,310,52276,1,2,0:0:0:0:
83,362,52526,6,0,B|191:340|191:340|227:364,1,151.999995941162,6|8,1:2|0:0,0:0:0:0:
309,372,53276,1,2,0:0:0:0:
331,291,53526,2,0,P|361:242|415:234,1,113.999996955872,2|2,1:2|0:0,0:0:0:0:
486,131,54276,1,2,0:0:0:0:
424,74,54526,6,0,L|312:52,2,113.999996955872,2|2|2,1:2|0:0|0:0,0:0:0:0:
486,131,55526,1,6,1:2:0:0:
425,286,56026,1,8,3:0:0:0:
391,362,56276,1,2,3:0:0:0:
310,340,56526,6,0,B|204:316|204:316|178:320|172:347,1,151.999995941162,2|0,1:2|0:0,0:0:0:0:
94,373,57276,1,10,0:0:0:0:
31,318,57526,2,0,P|11:268|37:215,1,113.999996955872,2|2,1:2|1:2,0:0:0:0:
137,143,58276,1,10,0:0:0:0:
200,204,58526,6,0,B|216:285|216:285|210:304|184:307,2,120,14|14|14,0:0|0:0|0:0,0:0:0:0:
137,143,59526,1,14,0:0:0:0:
406,67,60526,6,0,B|490:50|490:50|509:37|498:15,2,120,6|2|10,1:2|1:2|0:0,0:0:0:0:
354,138,61526,2,0,P|341:177|351:216,1,80,2|8,1:2|0:0,0:0:0:0:
385,294,62026,1,2,1:2:0:0:
333,365,62276,1,10,0:0:0:0:
251,331,62526,5,2,1:2:0:0:
120,310,62901,2,0,B|84:301|61:328|61:328|38:353|5:343,1,120,2|10,1:2|0:0,0:0:0:0:
9,256,63526,2,0,L|24:175,1,80,2|8,1:2|0:0,0:0:0:0:
45,92,64026,1,2,1:2:0:0:
110,33,64276,1,10,0:0:0:0:
188,73,64526,6,0,P|230:85|265:73,1,80,6|10,1:2|0:0,0:0:0:0:
297,46,64901,2,0,L|273:166,1,120,6|10,1:2|0:0,0:0:0:0:
312,244,65526,2,0,L|296:324,1,80,2|10,1:2|0:0,0:0:0:0:
367,376,66026,1,2,1:2:0:0:
453,362,66276,1,10,0:0:0:0:
497,285,66526,6,0,P|509:240|496:208,1,80,2|10,1:2|0:0,0:0:0:0:
483,167,66901,2,0,L|362:143,1,120,2|10,1:2|0:0,0:0:0:0:
294,91,67526,2,0,L|278:171,1,80,14|12,0:0|0:0,0:0:0:0:
265,256,68026,1,14,0:0:0:0:
213,327,68276,1,14,0:0:0:0:
148,266,68526,6,0,B|121:243|121:243|35:260,2,120,6|2|10,1:2|1:2|0:0,0:0:0:0:
213,327,69526,2,0,P|251:346|288:340,1,80,2|8,1:2|0:0,0:0:0:0:
368,309,70026,1,2,1:2:0:0:
448,343,70276,1,10,0:0:0:0:
507,278,70526,5,2,1:2:0:0:
479,148,70901,2,0,B|470:105|470:105|480:85|480:85|470:32,1,120,2|10,1:2|0:0,0:0:0:0:
383,15,71526,2,0,P|344:24|320:58,1,80,2|8,1:2|0:0,0:0:0:0:
314,142,72026,1,2,1:2:0:0:
358,218,72276,1,10,0:0:0:0:
310,291,72526,6,0,L|231:275,1,80,6|10,1:2|0:0,0:0:0:0:
193,253,72901,2,0,P|165:208|182:143,1,120,6|10,1:2|0:0,0:0:0:0:
213,64,73526,2,0,L|134:48,1,80,2|10,1:2|0:0,0:0:0:0:
46,57,74026,1,2,1:2:0:0:
6,135,74276,1,10,0:0:0:0:
20,221,74526,6,0,L|35:299,1,80,2|10,1:2|0:0,0:0:0:0:
29,343,74901,2,0,P|65:305|132:307,1,120,2|10,1:2|0:0,0:0:0:0:
206,347,75526,2,0,L|284:331,1,80,14|12,0:0|0:0,0:0:0:0:
371,316,76026,1,14,0:0:0:0:
453,347,76276,1,14,0:0:0:0:
491,268,76526,6,0,B|500:232|473:209|473:209|448:186|458:153,1,120,6|2,1:2|0:0,0:0:0:0:
474,73,77151,1,2,0:0:0:0:
344,99,77526,2,0,B|263:82|263:82|235:106,2,120,2|2|10,1:2|0:0|0:0,0:0:0:0:
409,158,78526,6,0,P|421:202|410:236,1,80,2|8,1:2|0:0,0:0:0:0:
395,275,78901,2,0,L|276:251,1,120,2|10,0:0|0:0,0:0:0:0:
203,299,79526,2,0,L|121:283,1,80,2|8,1:2|0:0,0:0:0:0:
38,266,80026,1,2,1:2:0:0:
0,186,80276,1,10,0:0:0:0:
26,101,80526,6,0,P|61:60|124:55,1,120,6|2,1:2|0:0,0:0:0:0:
232,130,81276,1,8,0:0:0:0:
233,220,81526,2,0,B|216:304|216:304|203:323|181:312,2,120,2|2|10,1:2|0:0|0:0,0:0:0:0:
319,203,82526,6,0,L|400:187,1,80,2|10,1:2|0:0,0:0:0:0:
440,178,82901,2,0,P|467:128|444:70,1,120,2|10,0:0|0:0,0:0:0:0:
368,30,83526,2,0,P|329:29|294:52,1,80,2|8,1:2|0:0,0:0:0:0:
223,101,84026,1,14,0:0:0:0:
149,52,84276,1,14,0:0:0:0:
71,93,84526,6,0,B|62:136|62:136|72:156|72:156|62:209,1,120,6|2,1:2|0:0,0:0:0:0:
41,294,85151,1,2,0:0:0:0:
171,316,85526,2,0,B|194:333|195:368|195:368|228:352|254:362,2,120,2|2|10,1:2|0:0|0:0,0:0:0:0:
134,235,86526,6,0,P|125:193|138:158,1,80,2|8,1:2|0:0,0:0:0:0:
163,123,86901,2,0,L|281:99,1,120,2|10,0:0|0:0,0:0:0:0:
355,146,87526,2,0,L|436:130,1,80,2|8,1:2|0:0,0:0:0:0:
501,187,88026,1,2,1:2:0:0:
503,274,88276,1,10,0:0:0:0:
437,333,88526,6,0,B|401:324|378:351|378:351|355:376|322:366,1,120,6|2,1:2|0:0,0:0:0:0:
221,290,89276,1,8,0:0:0:0:
168,220,89526,2,0,B|145:193|145:193|162:107,2,120,2|2|10,1:2|0:0|0:0,0:0:0:0:
255,210,90526,6,0,L|336:194,1,80,2|10,1:2|0:0,0:0:0:0:
377,189,90901,2,0,P|415:230|410:291,1,120,2|8,0:0|0:0,0:0:0:0:
353,358,91526,5,6,1:2:0:0:
255,210,92026,1,6,1:2:0:0:
160,358,92526,1,6,1:2:0:0:
256,192,92776,12,2,94526,1:2:0:0:
250,121,96526,6,0,B|258:85|231:62|231:62|206:39|216:6,2,120,2|2|10,1:2|1:2|0:0,0:0:0:0:
228,206,97526,1,2,1:2:0:0:
319,300,97901,2,0,B|346:323|346:323|432:306,1,120,2|10,1:2|0:0,0:0:0:0:
461,224,98526,5,2,1:2:0:0:
477,137,98776,2,0,L|492:56,2,80,10|2|10,0:0|0:0|0:0,0:0:0:0:
393,166,99526,2,0,P|355:177|316:165,1,80,10|10,0:0|0:0,0:0:0:0:
246,113,100026,1,10,0:0:0:0:
165,147,100276,1,10,0:0:0:0:
105,82,100526,6,0,B|20:66|20:66|-1:71|0:95,2,120,6|2|10,1:2|1:2|0:0,0:0:0:0:
165,147,101526,1,2,1:2:0:0:
184,277,101901,2,0,B|207:294|208:329|208:329|241:313|267:323,1,120,2|10,0:0|0:0,0:0:0:0:
353,305,102526,6,0,B|396:296|396:296|416:306|416:306|469:296,1,120,2|2,1:2|1:2,0:0:0:0:
486,165,103276,1,10,0:0:0:0:
460,80,103526,2,0,P|428:51|389:45,1,80,2|10,1:2|0:0,0:0:0:0:
304,56,104026,1,2,1:2:0:0:
252,127,104276,1,10,0:0:0:0:
165,108,104526,6,0,B|84:91|84:91|56:115,2,120,2|2|10,1:2|1:2|0:0,0:0:0:0:
252,127,105526,1,2,1:2:0:0:
275,256,105901,2,0,P|260:315|209:333,1,120,2|10,0:0|0:0,0:0:0:0:
120,338,106526,5,2,1:2:0:0:
38,303,106776,2,0,L|22:383,2,80,10|2|10,0:0|0:0|0:0,0:0:0:0:
6,221,107526,2,0,L|21:139,1,80,10|10,0:0|0:0,0:0:0:0:
43,57,108026,1,10,0:0:0:0:
119,13,108276,1,10,0:0:0:0:
189,67,108526,6,0,B|216:90|216:90|302:73,1,120,6|2,1:2|1:2,0:0:0:0:
428,47,109276,1,10,0:0:0:0:
482,115,109526,2,0,B|490:151|463:174|463:174|438:197|448:230,2,120,2|2|10,1:2|1:2|0:0,0:0:0:0:
428,47,110526,6,0,L|311:24,1,120,2|2,1:2|1:2,0:0:0:0:
229,60,111151,1,2,1:2:0:0:
101,24,111526,2,0,P|41:35|7:121,1,160,2|0,1:2|0:0,0:0:0:0:
39,201,112276,1,10,0:0:0:0:
24,287,112526,6,0,B|109:271|109:271|130:276|129:300,1,120,2|2,1:2|1:2,0:0:0:0:
237,369,113276,1,10,0:0:0:0:
320,341,113526,2,0,B|347:334|375:356|375:356|384:320|408:306,2,120,2|2|10,1:2|1:2|0:0,0:0:0:0:
255,280,114526,6,0,P|228:204|259:136,1,160,2|0,1:2|0:0,0:0:0:0:
325,77,115276,1,10,0:0:0:0:
405,112,115526,2,0,L|420:31,2,80,2|10|4,1:2|0:0|3:0,0:0:0:0:
389,199,116276,1,10,0:0:0:0:
393,286,116526,6,0,B|350:277|350:277|330:287|330:287|277:277,1,120,6|2,1:2|1:2,0:0:0:0:
168,201,117276,1,10,0:0:0:0:
113,270,117526,2,0,B|88:300|88:300|104:382,2,120,2|2|10,1:2|0:0|0:0,0:0:0:0:
168,201,118526,6,0,B|176:165|149:142|149:142|124:119|134:86,1,120,2|2,1:2|1:2,0:0:0:0:
182,20,119151,1,2,1:2:0:0:
303,72,119526,2,0,B|416:49|416:49|426:72|450:81,1,160,2|0,1:2|1:0,0:0:0:0:
497,152,120276,1,10,0:0:0:0:
492,239,120526,6,0,P|477:304|433:326,1,120,2|2,1:2|1:2,0:0:0:0:
320,255,121276,1,10,0:0:0:0:
232,266,121526,2,0,L|209:382,2,120,2|2|10,1:2|0:0|0:0,0:0:0:0:
320,255,122526,6,0,B|362:237|386:277|386:277|410:316|460:301,1,160,2|0,1:2|0:0,0:0:0:0:
505,228,123276,1,10,0:0:0:0:
464,149,123526,2,0,L|479:70,1,80,10|8,0:0|0:0,0:0:0:0:
409,16,124026,1,4,3:0:0:0:
337,66,124276,1,2,3:0:0:0:
251,50,124526,6,0,B|190:38|190:38|161:54|161:54|102:42,1,151.999995941162,4|8,1:2|0:0,0:0:0:0:
25,69,125276,1,2,0:0:0:0:
3,149,125526,2,0,P|1:202|41:243,1,113.999996955872,2|2,1:2|0:0,0:0:0:0:
165,226,126276,1,2,0:0:0:0:
246,246,126526,6,0,B|317:259|317:259|336:253|339:227,2,113.999996955872,2|2|2,1:2|0:0|0:0,0:0:0:0:
165,226,127526,2,0,P|139:175|172:90,1,151.999995941162,2|10,1:2|0:0,0:0:0:0:
241,45,128276,1,2,0:0:0:0:
322,25,128526,6,0,B|365:17|384:56|384:56|404:98|445:92,1,151.999995941162,2|8,1:2|0:0,0:0:0:0:
492,161,129276,1,2,0:0:0:0:
424,210,129526,2,0,B|393:230|393:230|379:307,1,113.999996955872,2|2,1:2|0:0,0:0:0:0:
270,368,130276,1,2,0:0:0:0:
200,320,130526,6,0,B|175:310|144:327|144:327|139:292|116:281,2,113.999996955872,2|2|2,1:2|0:0|0:0,0:0:0:0:
268,271,131526,2,0,P|289:219|263:129,1,151.999995941162,2|10,1:2|0:0,0:0:0:0:
227,54,132276,1,2,0:0:0:0:
144,69,132526,6,0,B|35:90|35:90|24:128,1,151.999995941162,6|8,1:2|0:0,0:0:0:0:
6,211,133276,1,2,0:0:0:0:
37,288,133526,2,0,L|149:309,1,113.999996955872,2|2,1:2|0:0,0:0:0:0:
261,253,134276,1,2,0:0:0:0:
340,227,134526,6,0,P|399:239|424:285,2,113.999996955872,2|2|2,1:2|0:0|0:0,0:0:0:0:
261,253,135526,1,6,1:2:0:0:
144,373,136026,1,8,3:0:0:0:
73,328,136276,1,2,3:0:0:0:
40,250,136526,6,0,B|20:208|49:179|49:179|77:148|55:111,1,151.999995941162,6|0,1:2|0:0,0:0:0:0:
104,42,137276,1,10,0:0:0:0:
184,64,137526,2,0,B|255:77|255:77|274:71|277:45,2,113.999996955872,2|2|10,1:2|1:2|0:0,0:0:0:0:
122,127,138526,5,14,0:0:0:0:
46,235,138901,2,0,B|25:265|25:265|44:348,1,120,14|14,0:0|0:0,0:0:0:0:
128,371,139526,5,14,0:0:0:0:
193,207,140026,1,10,0:0:0:0:
224,124,140276,1,10,0:0:0:0:
151,73,140526,6,0,B|116:60|91:84|91:84|65:105|33:92,2,120,6|2|10,1:2|1:2|0:0,0:0:0:0:
224,124,141526,2,0,P|236:167|225:202,1,80,2|8,1:2|0:0,0:0:0:0:
175,272,142026,1,2,1:2:0:0:
222,345,142276,1,10,0:0:0:0:
304,314,142526,5,2,1:2:0:0:
431,348,142901,2,0,B|455:333|455:333|472:243,1,120,2|10,1:2|0:0,0:0:0:0:
488,156,143526,2,0,L|503:74,1,80,2|8,1:2|0:0,0:0:0:0:
452,4,144026,1,2,1:2:0:0:
382,58,144276,1,10,0:0:0:0:
299,26,144526,6,0,P|288:69|305:107,1,80,6|10,1:2|0:0,0:0:0:0:
320,140,144901,2,0,P|344:201|320:254,1,120,6|10,1:2|0:0,0:0:0:0:
250,295,145526,2,0,L|168:310,1,80,2|10,1:2|0:0,0:0:0:0:
85,330,146026,1,2,1:2:0:0:
17,273,146276,1,10,0:0:0:0:
36,187,146526,6,0,P|49:143|35:108,1,80,2|10,1:2|0:0,0:0:0:0:
26,69,146901,2,0,P|89:77|133:46,1,120,2|10,1:2|0:0,0:0:0:0:
220,35,147526,2,0,P|258:52|277:87,1,80,14|12,0:0|0:0,0:0:0:0:
322,159,148026,1,14,0:0:0:0:
404,128,148276,1,14,0:0:0:0:
470,185,148526,6,0,B|480:238|480:238|470:258|470:258|479:303,2,120,6|2|10,1:2|1:2|0:0,0:0:0:0:
404,128,149526,2,0,P|367:116|325:129,1,80,2|8,1:2|0:0,0:0:0:0:
257,178,150026,1,2,1:2:0:0:
289,259,150276,1,10,0:0:0:0:
259,341,150526,5,2,1:2:0:0:
129,316,150901,2,0,B|45:299|45:299|26:286|37:264,1,120,2|10,1:2|0:0,0:0:0:0:
24,182,151526,2,0,L|39:100,1,80,2|8,1:2|0:0,0:0:0:0:
99,39,152026,1,2,1:2:0:0:
167,94,152276,1,10,0:0:0:0:
239,43,152526,6,0,L|321:28,1,80,6|10,1:2|0:0,0:0:0:0:
348,60,152901,2,0,B|438:42|438:42|466:64,1,120,6|10,1:2|0:0,0:0:0:0:
497,139,153526,2,0,P|509:183|499:215,1,80,2|10,1:2|0:0,0:0:0:0:
460,293,154026,1,2,1:2:0:0:
378,259,154276,1,10,0:0:0:0:
301,302,154526,6,0,L|286:220,1,80,2|10,1:2|0:0,0:0:0:0:
280,179,154901,2,0,B|264:93|264:93|234:79,1,120,2|10,1:2|0:0,0:0:0:0:
152,45,155526,2,0,P|113:35|73:48,1,80,14|14,0:0|0:0,0:0:0:0:
13,108,156026,1,14,0:0:0:0:
51,187,156276,1,14,0:0:0:0:
16,267,156526,5,6,1:2:0:0:
60,342,156776,2,0,B|141:325|141:325|169:349,1,120,10|2,0:0|0:0,0:0:0:0:
296,315,157526,2,0,B|332:309|352:338|352:338|373:364|406:358,2,120,2|2|8,1:2|0:0|0:0,0:0:0:0:
221,267,158526,5,2,1:2:0:0:
182,187,158776,2,0,P|163:133|189:74,1,120,10|2,0:0|0:0,0:0:0:0:
314,45,159526,2,0,L|394:29,2,80,2|10|2,1:2|0:0|1:2,0:0:0:0:
262,116,160276,1,8,0:0:0:0:
312,188,160526,5,6,1:2:0:0:
267,264,160776,2,0,B|214:274|214:274|194:264|194:264|149:273,1,120,10|2,0:0|0:0,0:0:0:0:
20,253,161526,2,0,B|1:284|20:314|20:314|37:343|18:371,2,120,2|2|8,1:2|0:0|0:0,0:0:0:0:
62,175,162526,5,2,1:2:0:0:
149,187,162776,2,0,B|273:208|273:208|291:221|282:246,1,160,10|8,0:0|0:0,0:0:0:0:
362,280,163526,2,0,P|405:270|430:238,1,80,2|8,1:2|0:0,0:0:0:0:
475,170,164026,1,14,0:0:0:0:
484,82,164276,1,14,0:0:0:0:
411,31,164526,6,0,B|384:12|384:12|293:30,1,120,6|2,1:2|0:0,0:0:0:0:
245,99,165151,1,2,0:0:0:0:
118,60,165526,2,0,P|89:62|51:99,1,80,2|10,1:2|0:0,0:0:0:0:
22,179,166026,2,0,L|36:257,1,80,2|10,1:2|0:0,0:0:0:0:
54,344,166526,6,0,B|135:327|135:327|163:351,1,120,2|2,1:2|0:0,0:0:0:0:
248,372,167151,1,2,0:0:0:0:
279,243,167526,2,0,B|299:203|268:170|268:170|237:135|257:92,1,160,2|2,1:2|1:2,0:0:0:0:
312,28,168276,1,10,0:0:0:0:
399,25,168526,6,0,P|452:36|481:95,1,120,6|2,1:2|0:0,0:0:0:0:
485,178,169151,1,2,0:0:0:0:
360,221,169526,2,0,P|346:264|360:297,2,80,2|10|2,1:2|0:0|1:2,0:0:0:0:
404,148,170276,1,10,0:0:0:0:
345,82,170526,6,0,B|292:72|292:72|272:82|272:82|227:73,1,120,2|2,1:2|0:0,0:0:0:0:
142,57,171151,1,2,0:0:0:0:
39,143,171526,2,0,P|5:172|-1:207,1,80,8|2,3:0|3:0,0:0:0:0:
29,288,172026,1,10,0:0:0:0:
101,238,172276,1,10,0:0:0:0:
176,274,172526,1,6,1:2:0:0:
368,62,180526,6,0,L|480:40,2,113.999996955872,2|2|2,1:2|0:0|0:0,0:0:0:0:
290,30,181526,1,2,1:2:0:0:
153,126,182026,2,0,P|142:165|152:199,1,75.9999979705811,10|2,0:0|0:0,0:0:0:0:
106,268,182526,6,0,P|58:244|-7:243,2,113.999996955872,2|2|2,1:2|0:0|0:0,0:0:0:0:
170,322,183526,1,2,1:2:0:0:
327,376,184026,2,0,P|338:337|328:303,1,75.9999979705811,10|2,0:0|0:0,0:0:0:0:
390,247,184526,6,0,L|502:225,2,113.999996955872,2|2|2,1:2|0:0|0:0,0:0:0:0:
318,204,185526,1,10,0:0:0:0:
258,144,185776,2,0,P|252:102|265:70,1,75.9999979705811,0|8,1:0|0:0,0:0:0:0:
320,9,186276,1,2,1:2:0:0:
402,40,186526,6,0,B|434:60|434:60|449:142,2,120,14|14|14,0:0|0:0|0:0,0:0:0:0:
320,9,187526,1,14,0:0:0:0:
88,87,188526,6,0,P|45:30|-14:33,2,120,14|14|14,0:0|0:0|0:0,0:0:0:0:
108,172,189526,2,0,L|189:156,1,80,14|0,0:0|1:0,0:0:0:0:
261,203,190026,1,10,0:0:0:0:
225,283,190276,1,2,1:2:0:0:
283,348,190526,6,0,B|373:330|373:330|401:352,2,120,14|14|14,0:0|0:0|0:0,0:0:0:0:
225,283,191526,2,0,P|213:238|229:202,1,80,14|0,0:0|1:0,0:0:0:0:
273,134,192026,1,10,0:0:0:0:
232,55,192276,1,10,0:0:0:0:
145,73,192526,6,0,L|62:56,1,80,6|10,1:2|0:0,0:0:0:0:
32,29,192901,2,0,L|57:158,1,120,6|10,1:2|0:0,0:0:0:0:
20,227,193526,2,0,L|35:307,1,80,2|10,1:2|0:0,0:0:0:0:
98,366,194026,1,2,1:2:0:0:
167,311,194276,1,10,0:0:0:0:
246,349,194526,6,0,P|292:358|323:343,1,80,2|10,1:2|0:0,0:0:0:0:
357,319,194901,2,0,P|395:296|473:325,1,120,2|10,1:2|0:0,0:0:0:0:
494,232,195526,2,0,P|504:188|488:153,1,80,14|12,0:0|0:0,0:0:0:0:
444,81,196026,1,14,0:0:0:0:
364,118,196276,1,14,0:0:0:0:
290,69,196526,6,0,B|259:47|259:47|177:63,2,120,6|2|10,1:2|1:2|0:0,0:0:0:0:
364,118,197526,2,0,P|378:161|365:201,1,80,2|8,1:2|0:0,0:0:0:0:
333,274,198026,1,2,1:2:0:0:
246,258,198276,1,10,0:0:0:0:
198,332,198526,5,2,1:2:0:0:
70,297,198901,2,0,B|52:265|72:236|72:236|89:207|71:178,1,120,2|10,1:2|0:0,0:0:0:0:
29,107,199526,2,0,P|18:62|31:30,1,80,2|8,1:2|0:0,0:0:0:0:
114,6,200026,1,2,1:2:0:0:
190,50,200276,1,10,0:0:0:0:
271,16,200526,6,0,P|282:61|269:93,1,80,6|10,1:2|0:0,0:0:0:0:
247,128,200901,2,0,P|224:197|249:241,1,120,6|10,1:2|0:0,0:0:0:0:
323,274,201526,2,0,L|403:259,1,80,2|10,1:2|0:0,0:0:0:0:
488,241,202026,1,2,1:2:0:0:
510,155,202276,1,10,0:0:0:0:
472,75,202526,6,0,L|392:60,1,80,2|10,1:2|0:0,0:0:0:0:
357,85,202901,2,0,L|224:59,1,120,2|10,1:2|0:0,0:0:0:0:
152,45,203526,1,6,1:2:0:0:
22,163,204026,1,14,0:0:0:0:
90,218,204276,1,14,0:0:0:0:
99,307,204526,6,0,B|9:324|9:324|-5:372,2,125.999996154785,6|2|10,1:2|1:2|0:0,0:0:0:0:
182,347,205526,2,0,L|266:330,1,83.9999974365235,2|8,1:2|0:0,0:0:0:0:
355,316,206026,1,2,1:2:0:0:
438,356,206276,1,10,0:0:0:0:
497,285,206526,6,0,P|513:201|478:159,1,125.999996154785,2|2,1:2|1:2,0:0:0:0:
416,70,207276,1,10,0:0:0:0:
337,119,207526,2,0,P|305:149|300:196,1,83.9999974365235,2|8,1:2|0:0,0:0:0:0:
305,280,208026,1,2,1:2:0:0:
251,355,208276,1,10,0:0:0:0:
166,317,208526,5,6,1:2:0:0:
95,375,208776,1,10,0:0:0:0:
95,375,208901,2,0,B|57:360|57:360|41:275,1,125.999996154785,6|10,1:2|0:0,0:0:0:0:
26,185,209526,1,2,1:2:0:0:
89,117,209776,1,10,0:0:0:0:
180,126,210026,2,0,L|196:210,1,83.9999974365235,2|10,1:2|0:0,0:0:0:0:
216,298,210526,5,2,1:2:0:0:
291,360,210776,1,10,0:0:0:0:
291,360,210901,2,0,B|327:375|352:345|352:345|377:315|415:331,1,125.999996154785,2|10,1:2|0:0,0:0:0:0:
485,284,211526,2,0,P|506:244|499:201,1,83.9999974365235,14|12,0:0|0:0,0:0:0:0:
489,115,212026,1,14,0:0:0:0:
416,57,212276,1,14,0:0:0:0:
326,78,212526,6,0,B|229:59|229:59|220:41|236:21,2,125.999996154785,6|2|10,1:2|1:2|0:0,0:0:0:0:
365,161,213526,2,0,P|381:214|368:248,1,83.9999974365235,2|8,1:2|0:0,0:0:0:0:
336,324,214026,1,2,1:2:0:0:
259,376,214276,1,10,0:0:0:0:
192,312,214526,6,0,B|138:301|138:301|117:310|117:310|62:300,1,125.999996154785,2|2,1:2|1:2,0:0:0:0:
0,181,215276,1,10,0:0:0:0:
26,92,215526,2,0,P|56:53|100:47,1,83.9999974365235,2|8,1:2|0:0,0:0:0:0:
181,40,216026,1,2,1:2:0:0:
257,91,216276,1,10,0:0:0:0:
334,40,216526,5,6,1:2:0:0:
422,65,216776,1,10,0:0:0:0:
422,65,216901,2,0,B|452:90|485:83|485:83|471:119|491:148,1,125.999996154785,6|10,1:2|0:0,0:0:0:0:
491,231,217526,1,2,1:2:0:0:
461,318,217776,1,10,0:0:0:0:
372,342,218026,2,0,L|288:326,1,83.9999974365235,2|10,1:2|0:0,0:0:0:0:
225,259,218526,5,2,1:2:0:0:
268,179,218776,1,10,0:0:0:0:
268,179,218901,2,0,P|289:115|254:54,1,125.999996154785,2|10,1:2|0:0,0:0:0:0:
186,17,219526,2,0,L|100:33,1,83.9999974365235,14|12,0:0|0:0,0:0:0:0:
22,76,220026,1,14,0:0:0:0:
64,159,220276,1,14,0:0:0:0:
21,240,220526,6,0,B|38:330|38:330|86:344,1,125.999996154785,6|2,1:2|0:0,0:0:0:0:
160,364,221151,1,2,0:0:0:0:
289,315,221526,2,0,P|342:322|389:378,2,125.999996154785,2|2|10,1:2|0:0|0:0,0:0:0:0:
202,281,222526,5,2,1:2:0:0:
137,223,222776,1,8,0:0:0:0:
137,223,222901,2,0,B|107:194|107:194|124:110,1,125.999996154785,2|10,0:0|0:0,0:0:0:0:
185,41,223526,2,0,P|230:29|267:41,1,83.9999974365235,2|8,1:2|0:0,0:0:0:0:
349,78,224026,1,2,1:2:0:0:
435,46,224276,1,10,0:0:0:0:
490,120,224526,6,0,B|508:216|508:216|495:232|471:224,1,125.999996154785,6|2,1:2|0:0,0:0:0:0:
391,223,225151,1,2,0:0:0:0:
255,253,225526,2,0,B|240:289|270:314|270:314|300:339|284:377,2,125.999996154785,2|2|10,1:2|0:0|0:0,0:0:0:0:
290,167,226526,5,2,1:2:0:0:
257,85,226776,1,10,0:0:0:0:
257,85,226901,2,0,B|203:74|203:74|182:83|182:83|127:73,1,125.999996154785,2|8,0:0|0:0,0:0:0:0:
42,77,227526,2,0,P|9:114|7:151,1,83.9999974365235,2|8,1:2|0:0,0:0:0:0:
38,233,228026,1,14,0:0:0:0:
26,324,228276,1,14,0:0:0:0:
106,368,228526,6,0,P|161:364|195:303,1,125.999996154785,6|2,1:2|0:0,0:0:0:0:
199,215,229151,1,2,0:0:0:0:
155,83,229526,2,0,B|116:80|93:105|93:105|83:68|50:56,2,125.999996154785,2|2|10,1:2|0:0|0:0,0:0:0:0:
239,45,230526,5,2,1:2:0:0:
333,65,230776,1,8,0:0:0:0:
333,65,230901,2,0,B|423:82|423:82|437:130,1,125.999996154785,2|10,0:0|0:0,0:0:0:0:
458,204,231526,2,0,L|474:289,1,83.9999974365235,2|8,1:2|0:0,0:0:0:0:
424,364,232026,1,2,1:2:0:0:
343,318,232276,1,10,0:0:0:0:
268,372,232526,6,0,B|230:357|230:357|214:272,1,125.999996154785,6|2,1:2|0:0,0:0:0:0:
200,181,233151,1,2,0:0:0:0:
269,61,233526,2,0,B|365:42|365:42|374:24|358:4,2,125.999996154785,2|2|10,1:2|0:0|0:0,0:0:0:0:
183,26,234526,5,2,1:2:0:0:
94,36,234776,1,10,0:0:0:0:
94,36,234901,2,0,P|31:62|19:117,1,125.999996154785,2|8,0:0|0:0,0:0:0:0:
9,205,235526,2,0,L|25:290,1,83.9999974365235,14|12,0:0|0:0,0:0:0:0:
45,377,236026,1,14,0:0:0:0:
122,326,236276,1,12,0:0:0:0:
208,359,236526,6,0,B|267:278|194:208|194:208|122:134|181:55,1,335.999989746094,6|0,1:2|1:0,0:0:0:0:
265,24,237776,2,0,L|350:7,1,83.9999974365235,10|0,0:0|1:0,0:0:0:0:
436,32,238276,1,10,0:0:0:0:
492,105,238526,6,0,B|478:175|478:175|496:198|496:198|483:265,1,167.999994873047,2|0,1:2|1:0,0:0:0:0:
461,353,239276,1,10,0:0:0:0:
387,296,239526,2,0,P|345:285|302:300,1,83.9999974365235,2|8,1:2|0:0,0:0:0:0:
252,371,240026,1,6,1:2:0:0:
193,299,240276,1,14,0:0:0:0:
113,345,240526,6,0,B|71:335|33:363|33:363|38:314|10:285,1,167.999994873047,6|0,1:2|1:0,0:0:0:0:
0,193,241276,1,10,0:0:0:0:
10,99,241526,2,0,B|38:70|33:21|33:21|71:49|113:39,1,167.999994873047,2|0,1:2|1:0,0:0:0:0:
203,24,242276,1,10,0:0:0:0:
266,91,242526,6,0,P|277:133|262:176,1,83.9999974365235,6|8,1:2|0:0,0:0:0:0:
215,249,243026,2,0,P|204:291|219:334,1,83.9999974365235,6|8,1:2|0:0,0:0:0:0:
296,374,243526,2,0,L|381:357,1,83.9999974365235,6|8,1:2|0:0,0:0:0:0:
468,338,244026,1,14,0:0:0:0:
510,255,244276,1,12,0:0:0:0:
494,163,244526,6,0,B|375:139|375:139|343:158|348:183,1,167.999994873047,6|0,1:2|1:0,0:0:0:0:
305,258,245276,1,10,0:0:0:0:
214,241,245526,2,0,P|180:211|174:170,1,83.9999974365235,2|8,1:2|0:0,0:0:0:0:
178,82,246026,1,0,1:0:0:0:
96,37,246276,1,10,0:0:0:0:
28,100,246526,6,0,B|9:197|9:197|33:220,2,125.999996154785,2|2|10,1:2|0:0|0:0,0:0:0:0:
96,37,247526,2,0,P|138:22|180:36,1,83.9999974365235,2|8,1:2|0:0,0:0:0:0:
248,89,248026,1,2,1:2:0:0:
319,31,248276,1,10,0:0:0:0:
409,51,248526,6,0,P|469:84|491:177,1,167.999994873047,6|0,1:2|1:0,0:0:0:0:
468,265,249276,1,10,0:0:0:0:
378,243,249526,2,0,B|329:230|308:269|308:269|283:315|230:300,1,167.999994873047,2|0,1:2|1:0,0:0:0:0:
146,280,250276,1,10,0:0:0:0:
69,331,250526,6,0,L|52:246,1,83.9999974365235,6|8,1:2|0:0,0:0:0:0:
96,167,251026,2,0,L|79:82,1,83.9999974365235,6|8,1:2|0:0,0:0:0:0:
146,20,251526,1,14,1:2:0:0:
217,78,251776,1,14,1:2:0:0:
297,33,252026,1,14,1:2:0:0:
368,91,252276,1,14,1:2:0:0:
450,48,252526,1,6,1:2:0:0:
