osu file format v14

[General]
AudioFilename: audio.ogg
AudioLeadIn: 0
PreviewTime: 59963
Countdown: 0
SampleSet: Soft
StackLeniency: 0.3
Mode: 0
LetterboxInBreaks: 0
WidescreenStoryboard: 1

[Editor]
DistanceSpacing: 1.5
BeatDivisor: 4
GridSize: 32
TimelineZoom: 8

[Metadata]
Title:Hana ni Ame o, Kimi ni Uta o
TitleUnicode:花に雨を、君に歌を
Artist:Tsukuyomi
ArtistUnicode:月詠み
Creator:Nevertary
Version:Insane
Source:
Tags:THE BINARY mido あかまる akamaru ユリイ・カノン YurryCanon Yue ユエ SERRA セラ 片井雨司 kataiuji cover female vocals vocalist japanese rock j-rock jrock lushifer Crysisters
BeatmapID:3988999
BeatmapSetID:1929568

[Difficulty]
HPDrainRate:5
CircleSize:4
OverallDifficulty:8
ApproachRate:9
SliderMultiplier:1.6
SliderTickRate:1

[Events]
//Background and Video events
0,0,"BG.jpg",0,0
Video,-58,"bgv.mp4"
//Break Periods
2,172726,179676
//Storyboard Layer 0 (Background)
//Storyboard Layer 1 (Fail)
//Storyboard Layer 2 (Pass)
//Storyboard Layer 3 (Foreground)
//Storyboard Layer 4 (Overlay)
//Storyboard Sound Samples

[TimingPoints]
526,250,4,2,2,50,1,0
4526,-166.666666666667,4,2,2,55,0,0
5026,-142.857142857143,4,2,2,60,0,0
5526,-125,4,2,2,65,0,0
6526,-111.111111111111,4,2,2,65,0,0
8526,-105.263157894737,4,2,1,75,0,0
24526,-200,4,2,3,60,0,0
28026,-1000,4,2,3,60,0,0
28464,-1000,4,2,3,5,0,0
28526,-181.818181818182,4,2,3,50,0,0
36526,-166.666666666667,4,2,3,55,0,0
44526,-142.857142857143,4,2,3,60,0,0
56526,-125,4,2,3,65,0,0
58526,-100,4,2,2,70,0,0
60526,-100,4,2,1,80,0,1
64901,-83.3333333333333,4,2,1,80,0,1
65276,-100,4,2,1,80,0,1
72901,-83.3333333333333,4,2,1,80,0,1
73276,-100,4,2,1,80,0,1
82901,-83.3333333333333,4,2,1,80,0,1
83276,-100,4,2,1,80,0,1
90901,-83.3333333333333,4,2,1,80,0,1
91276,-100,4,2,1,80,0,1
92526,-105.263157894737,4,2,1,75,0,0
108526,-111.111111111111,4,2,2,60,0,0
116526,-111.111111111111,4,2,2,65,0,0
124526,-142.857142857143,4,2,3,60,0,0
136526,-125,4,2,3,65,0,0
138526,-100,4,2,2,70,0,0
140526,-100,4,2,1,80,0,1
144901,-83.3333333333333,4,2,1,80,0,1
145276,-100,4,2,1,80,0,1
152901,-83.3333333333333,4,2,1,80,0,1
153276,-100,4,2,1,80,0,1
156526,-100,4,2,1,75,0,0
172526,-142.857142857143,4,2,3,60,0,0
186526,-100,4,2,2,70,0,0
188526,-100,4,2,1,75,0,0
192526,-100,4,2,1,80,0,1
192901,-83.3333333333333,4,2,1,80,0,1
193276,-100,4,2,1,80,0,1
200901,-83.3333333333333,4,2,1,80,0,1
201276,-100,4,2,1,80,0,1
203526,-100,4,2,1,80,0,0
204526,-83.3333333333333,4,2,1,80,0,1
208901,-71.4285714285714,4,2,1,80,0,1
209276,-83.3333333333333,4,2,1,80,0,1
216901,-71.4285714285714,4,2,1,80,0,1
217276,-83.3333333333333,4,2,1,80,0,1
226901,-71.4285714285714,4,2,1,80,0,1
227151,-83.3333333333333,4,2,1,80,0,1
234901,-71.4285714285714,4,2,1,80,0,1
235151,-83.3333333333333,4,2,1,80,0,1
236526,-83.3333333333333,4,2,1,80,0,0
244526,-83.3333333333333,4,2,1,80,0,1
252526,-83.3333333333333,4,2,1,80,0,0

[Colours]
Combo1 : 172,172,172
Combo2 : 88,75,122
Combo3 : 94,113,112
Combo4 : 211,154,218

[HitObjects]
466,38,4526,6,0,P|408:41|386:67,1,95.9999970703126,2|0,1:2|0:0,0:0:0:0:
352,134,4901,1,2,0:0:0:0:
349,144,5026,1,0,1:0:0:0:
146,15,5276,2,0,P|169:32|177:60,1,55.9999982910157,2|0,0:0|0:0,0:0:0:0:
174,163,5526,6,0,L|47:187,1,128,2|0,1:2|0:0,0:0:0:0:
16,276,5901,2,0,L|83:262,1,64,2|0,0:0|1:0,0:0:0:0:
154,253,6151,1,2,0:0:0:0:
164,252,6276,1,2,0:0:0:0:
318,24,6526,5,8,1:2:0:0:
308,24,6651,2,0,P|270:38|255:71,1,71.9999978027344,8|0,0:0|0:0,0:0:0:0:
412,124,6901,1,8,1:2:0:0:
404,116,7026,2,0,P|367:99|333:111,1,71.9999978027344,8|0,0:0|0:0,0:0:0:0:
204,24,7276,2,0,P|242:38|257:71,1,71.9999978027344,8|8,1:2|0:0,0:0:0:0:
256,160,7526,5,8,1:2:0:0:
44,255,8526,6,0,B|-5:267|12:310|84:303|118:249,1,151.999995941162,6|8,1:2|0:0,0:0:0:0:
224,170,8901,2,0,B|187:202|187:202|208:309,1,151.999995941162,2|0,1:2|1:0,0:0:0:0:
224,383,9276,1,10,0:0:0:0:
420,174,9526,6,0,P|412:214|431:242,1,75.9999979705811,2|0,1:2|0:0,0:0:0:0:
506,333,9776,1,8,0:0:0:0:
512,252,9901,2,0,B|464:241|444:280|444:280|424:315|377:306,1,151.999995941162,2|2,1:2|1:2,0:0:0:0:
260,252,10276,2,0,L|335:237,1,75.9999979705811,10|0,0:0|0:0,0:0:0:0:
420,174,10526,6,0,B|383:167|383:167|350:126|367:82|397:69,1,151.999995941162,2|8,1:2|0:0,0:0:0:0:
470,4,10901,2,0,L|484:79,1,75.9999979705811,2|0,1:2|0:0,0:0:0:0:
504,159,11151,1,0,1:0:0:0:
506,171,11276,1,10,0:0:0:0:
261,89,11526,6,0,P|226:77|187:92,1,75.9999979705811,2|0,1:2|0:0,0:0:0:0:
193,224,11776,2,0,P|220:199|227:158,1,75.9999979705811,10|0,0:0|1:0,0:0:0:0:
110,97,12026,2,0,P|117:133|149:159,1,75.9999979705811,2|0,0:0|1:0,0:0:0:0:
190,89,12276,1,10,0:0:0:0:
0,321,12526,6,0,B|105:300|105:300|117:324|143:327,1,151.999995941162,2|8,1:2|0:0,0:0:0:0:
303,349,12901,2,0,B|279:383|232:371|232:371|210:331|235:302,1,151.999995941162,2|0,1:2|1:0,0:0:0:0:
308,268,13276,1,10,0:0:0:0:
389,0,13526,6,0,L|404:77,1,75.9999979705811,2|0,1:2|0:0,0:0:0:0:
446,166,13776,1,8,0:0:0:0:
481,83,13901,2,0,B|382:102|382:102|356:122|369:154,1,151.999995941162,2|2,1:2|1:2,0:0:0:0:
428,233,14276,2,0,P|449:199|445:164,1,75.9999979705811,10|0,0:0|0:0,0:0:0:0:
283,31,14526,6,0,B|270:94|270:94|282:115|282:115|270:181,1,151.999995941162,2|10,1:2|0:0,0:0:0:0:
110,156,14901,1,0,1:0:0:0:
120,154,15026,2,0,L|197:138,1,75.9999979705811,2|0,0:0|1:0,0:0:0:0:
270,177,15276,1,10,0:0:0:0:
128,29,15526,6,0,P|89:34|65:62,1,75.9999979705811,10|0,0:0|1:0,0:0:0:0:
270,177,15776,2,0,P|284:141|271:106,1,75.9999979705811,10|0,0:0|1:0,0:0:0:0:
63,217,16026,2,0,P|86:247|123:253,1,75.9999979705811,10|0,0:0|1:0,0:0:0:0:
221,29,16276,1,10,0:0:0:0:
222,19,16401,1,8,0:0:0:0:
305,35,16526,6,0,B|411:55|411:55|371:75,1,151.999995941162,6|8,1:2|0:0,0:0:0:0:
270,177,16901,2,0,B|376:156|376:156|346:189,1,151.999995941162,2|0,1:2|1:0,0:0:0:0:
299,254,17276,1,10,0:0:0:0:
20,33,17526,6,0,P|55:50|67:85,1,75.9999979705811,2|0,1:2|0:0,0:0:0:0:
78,174,17776,1,8,0:0:0:0:
0,140,17901,2,0,P|41:106|140:95,1,151.999995941162,2|2,0:0|1:2,0:0:0:0:
263,13,18276,2,0,P|227:25|209:59,1,75.9999979705811,10|0,0:0|0:0,0:0:0:0:
171,201,18526,6,0,B|150:305|150:305|163:274|185:273,1,151.999995941162,2|8,1:2|0:0,0:0:0:0:
311,196,18901,2,0,P|269:201|248:229,1,75.9999979705811,2|0,1:2|0:0,0:0:0:0:
256,309,19151,1,0,1:0:0:0:
258,322,19276,1,10,0:0:0:0:
355,27,19526,6,0,L|432:11,1,75.9999979705811,2|0,1:2|0:0,0:0:0:0:
386,182,19776,2,0,L|311:197,1,75.9999979705811,10|0,0:0|0:0,0:0:0:0:
331,113,20026,2,0,L|408:97,1,75.9999979705811,2|0,1:2|1:0,0:0:0:0:
386,182,20276,1,10,0:0:0:0:
98,28,20526,6,0,P|28:40|5:114,1,151.999995941162,2|8,1:2|0:0,0:0:0:0:
145,155,20901,2,0,B|190:176|204:132|144:92|83:113,1,151.999995941162,2|0,1:2|1:0,0:0:0:0:
45,181,21276,1,10,0:0:0:0:
319,30,21526,6,0,L|335:107,1,75.9999979705811,2|0,1:2|0:0,0:0:0:0:
354,186,21776,1,8,0:0:0:0:
264,142,21901,2,0,B|327:129|327:129|348:141|348:141|414:129,1,151.999995941162,2|2,0:0|1:2,0:0:0:0:
501,16,22276,2,0,P|463:26|445:61,1,75.9999979705811,10|0,0:0|0:0,0:0:0:0:
430,213,22526,6,0,B|410:311|410:311|419:343|453:343,1,151.999995941162,2|10,1:2|0:0,0:0:0:0:
492,170,22901,1,0,1:0:0:0:
481,168,23026,2,0,P|442:183|429:217,1,75.9999979705811,2|0,0:0|1:0,0:0:0:0:
495,277,23276,1,10,0:0:0:0:
208,235,23526,6,0,L|192:312,1,75.9999979705811,10|0,0:0|1:0,0:0:0:0:
44,377,23776,2,0,L|28:300,1,75.9999979705811,10|0,0:0|1:0,0:0:0:0:
0,135,24026,5,10,0:0:0:0:
1,145,24151,1,8,0:0:0:0:
76,194,24276,1,10,0:0:0:0:
75,184,24401,1,8,0:0:0:0:
128,119,24526,5,2,0:0:0:0:
256,192,24589,12,2,27526,0:0:0:0:
77,54,28026,6,0,L|82:80,1,28,2|0,0:0|0:0,0:0:0:0:
85,94,28526,6,0,L|175:111,1,88.000002685547,2|0,1:2|0:0,0:0:0:0:
250,126,28901,2,0,P|198:126|162:190,1,132.00000402832,2|2,0:0|0:0,0:0:0:0:
294,361,29526,6,0,L|302:314,1,44.0000013427735,2|0,1:2|0:0,0:0:0:0:
316,240,29776,1,0,0:0:0:0:
327,238,29901,2,0,L|417:220,1,88.000002685547,2|0,0:0|0:0,0:0:0:0:
489,203,30276,1,2,0:0:0:0:
282,52,30526,6,0,P|315:62|340:110,1,88.000002685547,2|0,1:2|0:0,0:0:0:0:
282,164,30901,2,0,L|234:173,1,44.0000013427735,2|0,0:0|1:0,0:0:0:0:
152,236,31151,2,0,L|161:188,1,44.0000013427735,2|0,0:0|0:0,0:0:0:0:
108,59,31401,5,0,0:0:0:0:
107,68,31526,2,0,L|89:157,1,88.000002685547,2|0,1:2|0:0,0:0:0:0:
73,231,31901,1,0,0:0:0:0:
72,241,32026,1,0,1:0:0:0:
231,379,32276,2,0,P|210:367|201:346,1,44.0000013427735,2|0,0:0|0:0,0:0:0:0:
231,272,32526,6,0,L|318:255,1,88.000002685547,2|0,1:2|0:0,0:0:0:0:
389,184,32901,2,0,P|337:174|312:102,1,132.00000402832,2|2,0:0|0:0,0:0:0:0:
374,19,33401,5,0,0:0:0:0:
376,29,33526,2,0,L|385:76,1,44.0000013427735,2|0,1:2|0:0,0:0:0:0:
249,52,33776,1,0,0:0:0:0:
239,50,33901,2,0,L|149:32,1,88.000002685547,2|0,0:0|0:0,0:0:0:0:
77,19,34276,1,2,0:0:0:0:
0,200,34526,6,0,P|65:198|118:284,1,176.000005371094,2|0,1:2|1:0,0:0:0:0:
117,284,35276,2,0,L|163:275,1,44.0000013427735,2|0,0:0|0:0,0:0:0:0:
258,171,35526,6,0,L|240:260,1,88.000002685547,2|0,1:2|0:0,0:0:0:0:
365,127,35901,2,0,L|382:216,1,88.000002685547,2|4,1:2|3:0,0:0:0:0:
258,171,36276,1,2,3:0:0:0:
0,26,36526,6,0,P|31:60|79:64,1,95.9999970703126,2|0,1:2|0:0,0:0:0:0:
149,40,36901,1,2,0:0:0:0:
158,36,37026,1,8,0:1:0:0:
126,215,37276,2,0,L|117:266,1,47.9999985351563,2|0,0:0|0:0,0:0:0:0:
80,350,37526,6,0,L|174:331,1,95.9999970703126,2|0,1:2|0:0,0:0:0:0:
264,267,37901,2,0,L|255:318,1,47.9999985351563,2|8,0:0|0:1,0:0:0:0:
329,376,38151,1,2,0:0:0:0:
331,365,38276,2,0,L|339:317,1,47.9999985351563,0|0,0:0|0:0,0:0:0:0:
427,269,38526,6,0,P|464:256|485:206,1,95.9999970703126,2|0,1:2|0:0,0:0:0:0:
394,125,38901,2,0,L|442:135,1,47.9999985351563,2|8,0:0|0:1,0:0:0:0:
284,27,39151,2,0,L|380:45,1,95.9999970703126,2|0,0:0|0:0,0:0:0:0:
311,120,39526,6,0,P|254:144|241:177,1,95.9999970703126,2|0,1:2|0:0,0:0:0:0:
243,247,39901,1,0,0:0:0:0:
246,258,40026,1,8,0:1:0:0:
62,54,40276,2,0,P|86:65|98:87,1,47.9999985351563,2|0,0:0|0:0,0:0:0:0:
84,175,40526,6,0,L|65:271,1,95.9999970703126,2|0,1:2|0:0,0:0:0:0:
51,342,40901,1,2,0:0:0:0:
49,354,41026,1,8,0:1:0:0:
233,199,41276,2,0,L|242:246,1,47.9999985351563,2|0,0:0|0:0,0:0:0:0:
221,353,41526,6,0,P|249:330|307:332,1,95.9999970703126,2|0,1:2|0:0,0:0:0:0:
379,384,41901,2,0,L|397:287,1,95.9999970703126,2|0,0:0|0:0,0:0:0:0:
413,209,42276,1,2,0:0:0:0:
483,11,42526,6,0,P|454:73|339:76,1,191.999994140625,2|8,1:2|0:1,0:0:0:0:
341,78,43276,2,0,L|331:127,1,47.9999985351563,2|0,0:0|0:0,0:0:0:0:
317,206,43526,6,0,L|220:187,1,95.9999970703126,2|0,1:2|0:0,0:0:0:0:
100,286,43901,2,0,L|196:267,1,95.9999970703126,2|2,0:0|0:0,0:0:0:0:
131,144,44276,2,0,L|140:193,1,47.9999985351563,0|2,0:0|0:0,0:0:0:0:
206,353,44526,6,0,P|252:337|276:280,1,111.999996582031,4|2,1:2|0:0,0:0:0:0:
290,161,44901,1,0,0:0:0:0:
280,162,45026,2,0,P|255:180|247:206,1,55.9999982910157,8|0,0:0|0:0,0:0:0:0:
276,282,45276,1,2,0:0:0:0:
502,114,45526,6,0,L|391:92,1,111.999996582031,2|0,1:2|0:0,0:0:0:0:
318,76,45901,1,2,0:0:0:0:
306,74,46026,1,8,0:0:0:0:
122,21,46276,2,0,L|111:76,1,55.9999982910157,2|0,0:0|0:0,0:0:0:0:
26,175,46526,6,0,P|48:151|72:146,1,55.9999982910157,2|0,1:2|0:0,0:0:0:0:
154,222,46776,1,0,0:0:0:0:
143,221,46901,2,0,P|97:225|60:276,1,111.999996582031,2|0,0:0|0:0,0:0:0:0:
127,358,47276,2,0,L|137:302,1,55.9999982910157,2|0,0:0|0:0,0:0:0:0:
221,139,47526,6,0,L|242:249,1,111.999996582031,2|0,1:2|0:0,0:0:0:0:
431,309,48026,2,0,L|441:253,1,55.9999982910157,10|0,0:0|0:0,0:0:0:0:
420,178,48276,2,0,L|409:233,1,55.9999982910157,2|0,0:0|0:0,0:0:0:0:
497,380,48526,6,0,P|482:329|426:309,1,111.999996582031,2|0,1:2|0:0,0:0:0:0:
352,333,48901,2,0,P|337:359|338:387,1,55.9999982910157,2|8,0:0|0:0,0:0:0:0:
409,232,49151,2,0,L|464:221,2,55.9999982910157,0|2|0,0:0|0:0|0:0,0:0:0:0:
293,272,49526,6,0,P|262:275|240:261,1,55.9999982910157,2|0,1:2|0:0,0:0:0:0:
172,188,49776,1,0,0:0:0:0:
184,190,49901,2,0,P|228:178|257:122,1,111.999996582031,2|0,0:0|0:0,0:0:0:0:
241,43,50276,1,2,0:0:0:0:
28,183,50526,6,0,L|38:238,1,55.9999982910157,2|0,1:2|0:0,0:0:0:0:
0,327,50776,1,0,0:0:0:0:
11,325,50901,2,0,L|121:303,1,111.999996582031,2|0,0:0|0:0,0:0:0:0:
205,317,51276,2,0,L|194:259,1,55.9999982910157,2|0,0:0|0:0,0:0:0:0:
164,150,51526,6,0,P|135:141|118:120,3,55.9999982910157,2|0|2|0,1:2|0:0|0:0|0:0,0:0:0:0:
248,155,52026,1,10,0:0:0:0:
264,155,52151,1,2,0:0:0:0:
279,150,52276,1,2,0:0:0:0:
291,142,52401,1,2,0:0:0:0:
302,129,52526,6,0,L|323:239,1,111.999996582031,6|2,1:2|0:0,0:0:0:0:
274,331,52901,1,0,0:0:0:0:
283,329,53026,2,0,L|338:318,1,55.9999982910157,8|0,0:0|0:0,0:0:0:0:
378,228,53276,2,0,L|322:238,1,55.9999982910157,2|0,0:0|0:0,0:0:0:0:
207,264,53526,6,0,P|161:285|106:262,1,111.999996582031,2|0,1:2|0:0,0:0:0:0:
67,197,53901,1,2,0:0:0:0:
63,186,54026,1,8,0:0:0:0:
187,15,54276,2,0,P|202:37|204:65,1,55.9999982910157,2|0,0:0|0:0,0:0:0:0:
185,153,54526,6,0,L|239:142,1,55.9999982910157,2|0,1:2|0:0,0:0:0:0:
310,81,54776,1,0,0:0:0:0:
312,92,54901,2,0,L|333:202,1,111.999996582031,2|0,0:0|0:0,0:0:0:0:
427,255,55276,2,0,L|416:200,1,55.9999982910157,2|0,0:0|0:0,0:0:0:0:
477,143,55526,1,6,1:2:0:0:
161,19,56026,6,0,P|143:36|139:71,1,55.9999982910157,8|4,3:0|3:0,0:0:0:0:
209,100,56276,2,0,P|227:83|231:48,1,55.9999982910157,2|2,3:0|3:0,0:0:0:0:
43,8,56526,6,0,L|68:134,1,128,2|0,1:2|0:0,0:0:0:0:
34,251,56901,2,0,P|73:216|146:224,1,128,0|0,1:0|1:0,0:0:0:0:
296,194,57276,2,0,L|233:208,1,64,10|0,0:0|0:0,0:0:0:0:
137,359,57526,6,0,P|165:341|175:310,1,64,2|0,1:2|0:0,0:0:0:0:
153,232,57776,1,0,0:0:0:0:
144,222,57901,2,0,P|83:212|34:251,1,128,2|0,1:2|1:0,0:0:0:0:
137,359,58276,2,0,P|165:341|175:310,1,64,10|0,0:0|0:0,0:0:0:0:
264,103,58526,6,0,L|295:259,1,160,14|0,0:0|1:0,0:0:0:0:
354,15,58901,2,0,L|384:171,1,160,14|0,0:0|1:0,0:0:0:0:
175,84,59276,2,0,L|191:162,1,80,14|0,0:0|0:0,0:0:0:0:
249,20,59526,5,14,0:0:0:0:
249,20,60526,6,0,B|218:57|248:96|248:96|275:133|247:169,1,160,6|10,1:2|0:0,0:0:0:0:
149,287,60901,2,0,P|169:247|204:237,1,80,2|0,1:2|0:0,0:0:0:0:
328,181,61151,1,0,1:0:0:0:
317,186,61276,2,0,P|278:190|247:165,1,80,10|0,0:0|0:0,0:0:0:0:
120,38,61526,6,0,P|44:43|6:114,2,160,2|8|2,1:2|0:0|1:2,0:0:0:0:
271,86,62151,1,0,1:0:0:0:
203,25,62276,2,0,L|187:105,1,80,10|0,0:0|0:0,0:0:0:0:
306,230,62526,6,0,B|405:210|405:210|438:225|431:257,1,160,2|10,1:2|0:0,0:0:0:0:
327,304,62901,2,0,B|296:313|288:336|288:336|307:226,1,160,2|0,1:2|1:0,0:0:0:0:
355,129,63276,2,0,P|397:145|411:176,1,80,10|0,0:0|0:0,0:0:0:0:
219,247,63526,6,0,L|133:263,1,80,2|0,1:2|0:0,0:0:0:0:
61,282,63776,1,8,0:0:0:0:
9,33,64026,1,2,1:2:0:0:
12,44,64151,1,0,1:0:0:0:
14,55,64276,2,0,L|31:138,1,80,10|0,0:0|0:0,0:0:0:0:
228,107,64526,6,0,P|262:82|270:43,1,80,6|0,1:2|0:0,0:0:0:0:
190,34,64776,1,10,0:0:0:0:
153,152,64901,6,0,B|289:125|289:125|302:153|331:161,1,191.999994140625,6|0,1:2|1:0,0:0:0:0:
370,86,65276,1,10,0:0:0:0:
257,293,65526,6,0,P|216:275|203:240,1,80,2|0,1:2|0:0,0:0:0:0:
327,160,65776,2,0,P|289:182|279:218,1,80,10|0,0:0|0:0,0:0:0:0:
431,368,66026,2,0,P|471:350|484:315,1,80,2|0,1:2|1:0,0:0:0:0:
361,235,66276,2,0,P|398:257|408:293,1,80,10|0,0:0|0:0,0:0:0:0:
196,358,66526,6,0,P|155:340|142:305,1,80,2|0,1:2|0:0,0:0:0:0:
92,243,66776,1,10,0:0:0:0:
0,298,66901,2,0,B|106:276|106:276|116:306|151:311,1,160,2|0,1:2|1:0,0:0:0:0:
182,235,67276,1,10,0:0:0:0:
391,371,67526,6,0,L|374:288,1,80,14|0,0:0|1:0,0:0:0:0:
480,215,67776,2,0,L|463:136,1,80,12|0,0:0|1:0,0:0:0:0:
302,350,68026,2,0,L|285:267,1,80,14|0,0:0|1:0,0:0:0:0:
308,14,68276,1,14,0:0:0:0:
306,27,68401,1,8,0:0:0:0:
343,104,68526,6,0,P|308:59|208:66,1,160,6|10,1:2|0:0,0:0:0:0:
130,55,68901,2,0,P|130:96|157:126,1,80,2|0,1:2|0:0,0:0:0:0:
243,222,69151,1,0,1:0:0:0:
246,209,69276,2,0,L|263:126,1,80,10|0,0:0|0:0,0:0:0:0:
443,96,69526,6,0,B|456:142|413:166|413:166|373:189|384:233,2,160,2|8|2,1:2|0:0|1:2,0:0:0:0:
405,22,70151,1,0,1:0:0:0:
343,104,70276,2,0,P|351:149|378:169,1,80,10|0,0:0|0:0,0:0:0:0:
474,328,70526,6,0,B|407:315|407:315|382:333|382:333|319:320,1,160,2|10,1:2|0:0,0:0:0:0:
163,337,70901,2,0,B|196:316|239:340|239:340|228:294|263:265,1,160,2|0,1:2|1:0,0:0:0:0:
143,181,71276,2,0,P|145:223|179:249,1,80,10|0,0:0|0:0,0:0:0:0:
309,192,71526,6,0,L|324:111,1,80,2|0,1:2|0:0,0:0:0:0:
339,31,71776,1,8,0:0:0:0:
108,0,72026,1,2,1:2:0:0:
111,11,72151,1,0,1:0:0:0:
113,22,72276,2,0,L|130:105,1,80,10|0,0:0|0:0,0:0:0:0:
12,310,72526,6,0,P|31:269|65:257,1,80,6|0,1:2|0:0,0:0:0:0:
181,253,72776,1,10,0:0:0:0:
60,175,72901,6,0,B|86:312|86:312|102:259,1,191.999994140625,6|0,1:2|1:0,0:0:0:0:
143,181,73276,1,10,0:0:0:0:
333,306,73526,6,0,L|416:289,1,80,2|0,1:2|0:0,0:0:0:0:
445,130,73776,2,0,L|428:213,1,80,10|0,0:0|0:0,0:0:0:0:
264,236,74026,2,0,L|347:219,1,80,2|0,1:2|1:0,0:0:0:0:
376,60,74276,2,0,L|359:143,1,80,10|0,0:0|0:0,0:0:0:0:
250,320,74526,6,0,P|207:335|174:324,1,80,2|0,1:2|0:0,0:0:0:0:
33,264,74776,1,10,0:0:0:0:
147,222,74901,2,0,B|124:335|124:335|107:294,1,160,2|0,1:2|1:0,0:0:0:0:
73,191,75276,1,10,0:0:0:0:
361,231,75526,6,0,P|403:220|423:185,1,80,14|0,0:0|1:0,0:0:0:0:
218,105,75776,2,0,P|206:146|226:181,1,80,12|0,0:0|1:0,0:0:0:0:
402,39,76026,2,0,P|371:8|331:8,1,80,14|0,0:0|1:0,0:0:0:0:
121,109,76276,1,14,0:0:0:0:
119,122,76401,1,8,0:0:0:0:
40,75,76526,6,0,P|119:81|165:19,1,160,6|8,1:2|0:0,0:0:0:0:
46,168,76901,2,0,B|33:214|76:238|76:238|116:261|105:305,1,160,2|2,0:0|0:0,0:0:0:0:
39,356,77276,2,0,P|15:371|37:352,1,80,8|0,0:0|0:0,0:0:0:0:
190,299,77526,6,0,P|234:285|271:282,1,80,2|0,1:2|0:0,0:0:0:0:
361,304,77776,1,10,0:0:0:0:
350,304,77901,2,0,P|279:259|283:188,1,160,2|0,0:0|0:0,0:0:0:0:
343,131,78276,1,10,0:0:0:0:
49,13,78526,6,0,P|88:32|100:67,1,80,2|0,1:2|0:0,0:0:0:0:
93,178,78776,1,8,0:0:0:0:
22,119,78901,2,0,P|74:97|182:81,1,160,2|2,0:0|0:0,0:0:0:0:
257,43,79276,2,0,P|270:19|253:39,1,80,10|0,0:0|0:0,0:0:0:0:
222,157,79526,6,0,B|192:194|222:233|222:233|250:269|222:306,1,160,2|8,1:2|0:0,0:0:0:0:
512,106,80026,2,0,P|468:92|431:89,1,80,2|0,1:2|0:0,0:0:0:0:
338,189,80276,2,0,P|375:176|415:171,1,80,10|0,0:0|0:0,0:0:0:0:
512,338,80526,6,0,P|471:265|398:263,1,160,6|8,1:2|0:0,0:0:0:0:
259,384,80901,2,0,P|311:362|419:346,1,160,2|2,0:0|0:0,0:0:0:0:
338,189,81276,2,0,P|306:215|304:255,1,80,8|0,0:0|0:0,0:0:0:0:
214,312,81526,6,0,B|167:298|143:342|143:342|120:382|77:371,1,160,2|10,1:2|0:0,0:0:0:0:
0,243,81901,2,0,B|46:229|70:273|70:273|93:313|137:302,1,160,2|0,0:0|0:0,0:0:0:0:
141,217,82276,1,10,0:0:0:0:
463,13,82526,6,0,P|424:32|412:67,1,80,2|0,1:2|0:0,0:0:0:0:
429,176,82776,1,10,0:0:0:0:
498,92,82901,6,0,P|417:95|310:144,1,191.999994140625,2|0,0:0|0:0,0:0:0:0:
194,40,83276,2,0,P|236:50|255:83,1,80,10|0,0:0|0:0,0:0:0:0:
141,217,83526,6,0,P|65:223|16:158,1,160,2|8,1:2|0:0,0:0:0:0:
188,9,84026,1,14,0:0:0:0:
190,20,84151,1,8,0:0:0:0:
192,30,84276,1,14,0:0:0:0:
194,40,84401,1,8,0:0:0:0:
190,123,84526,6,0,B|236:136|260:93|260:93|283:52|327:63,1,160,6|8,1:2|0:0,0:0:0:0:
434,43,84901,2,0,P|397:91|373:189,1,160,2|2,0:0|0:0,0:0:0:0:
412,273,85276,2,0,P|430:296|421:268,1,80,8|0,0:0|0:0,0:0:0:0:
281,231,85526,6,0,P|237:217|200:214,1,80,2|0,1:2|0:0,0:0:0:0:
106,189,85776,1,10,0:0:0:0:
117,188,85901,2,0,P|188:233|184:304,1,160,2|0,0:0|0:0,0:0:0:0:
144,376,86276,1,10,0:0:0:0:
332,163,86526,6,0,P|363:192|366:229,1,80,2|0,1:2|0:0,0:0:0:0:
361,341,86776,1,8,0:0:0:0:
293,286,86901,2,0,P|350:250|446:240,1,160,2|2,0:0|0:0,0:0:0:0:
490,168,87276,2,0,P|498:141|485:167,1,80,10|0,0:0|0:0,0:0:0:0:
440,239,87526,6,0,B|391:243|376:196|376:196|361:152|316:154,1,160,2|8,1:2|0:0,0:0:0:0:
89,21,88026,2,0,P|103:65|106:102,1,80,2|0,1:2|0:0,0:0:0:0:
5,203,88276,2,0,P|9:163|23:125,1,80,10|0,0:0|0:0,0:0:0:0:
181,22,88526,6,0,P|245:75|233:146,1,160,6|8,1:2|0:0,0:0:0:0:
148,273,88901,2,0,P|207:249|303:235,1,160,2|2,0:0|0:0,0:0:0:0:
365,155,89276,2,0,P|373:131|361:155,1,80,8|0,0:0|0:0,0:0:0:0:
161,104,89526,6,0,B|112:99|97:146|97:146|82:190|37:188,1,160,2|10,1:2|0:0,0:0:0:0:
60,24,89901,2,0,P|123:24|159:108,1,160,2|0,0:0|0:0,0:0:0:0:
175,188,90276,1,10,0:0:0:0:
432,21,90526,6,0,P|399:46|391:82,1,80,2|0,1:2|0:0,0:0:0:0:
403,168,90776,1,10,0:0:0:0:
310,118,90901,6,0,P|391:121|498:170,1,191.999994140625,2|2,0:0|0:0,0:0:0:0:
504,76,91276,1,8,0:0:0:0:
510,63,91401,1,2,0:0:0:0:
403,168,91526,5,6,1:2:0:0:
154,55,92026,5,6,1:2:0:0:
180,316,92526,5,6,1:2:0:0:
256,192,92589,12,2,94526,1:2:0:0:
348,155,96526,6,0,B|368:50|368:50|358:82|335:90,1,151.999995941162,2|8,1:2|0:0,0:0:0:0:
263,153,96901,2,0,B|267:199|231:220|231:220|271:205|306:226,1,151.999995941162,2|0,1:2|1:0,0:0:0:0:
348,155,97276,1,10,0:0:0:0:
182,286,97526,6,0,P|179:334|197:358,1,75.9999979705811,2|0,1:2|0:0,0:0:0:0:
232,220,97776,1,8,0:0:0:0:
152,207,97901,2,0,B|104:196|84:235|84:235|64:270|17:261,1,151.999995941162,2|2,1:2|1:2,0:0:0:0:
10,102,98276,2,0,L|25:180,1,75.9999979705811,10|0,0:0|0:0,0:0:0:0:
9,356,98526,6,0,B|113:335|113:335|125:361|151:365,1,151.999995941162,2|10,1:2|0:0,0:0:0:0:
164,206,98901,1,0,1:0:0:0:
152,207,99026,2,0,P|113:226|104:257,1,75.9999979705811,2|0,0:0|1:0,0:0:0:0:
114,337,99276,1,10,0:0:0:0:
315,202,99526,6,0,L|330:280,1,75.9999979705811,10|0,0:0|1:0,0:0:0:0:
448,92,99776,2,0,L|463:170,1,75.9999979705811,10|0,0:0|1:0,0:0:0:0:
288,125,100026,2,0,L|303:203,1,75.9999979705811,10|0,0:0|1:0,0:0:0:0:
401,22,100276,1,10,0:0:0:0:
402,12,100401,1,8,0:0:0:0:
448,92,100526,6,0,P|397:53|308:45,1,151.999995941162,6|8,1:2|0:0,0:0:0:0:
159,64,100901,2,0,B|110:52|127:9|199:16|233:70,1,151.999995941162,2|0,1:2|1:0,0:0:0:0:
288,125,101276,1,10,0:0:0:0:
133,366,101526,6,0,L|148:288,1,75.9999979705811,2|0,1:2|0:0,0:0:0:0:
48,203,101776,1,8,0:0:0:0:
0,275,101901,2,0,B|65:287|65:287|82:278|82:278|150:292,1,151.999995941162,2|2,0:0|1:2,0:0:0:0:
142,134,102276,2,0,L|127:208,1,75.9999979705811,10|0,0:0|0:0,0:0:0:0:
253,300,102526,6,0,B|301:289|321:328|321:328|341:363|388:354,1,151.999995941162,2|8,1:2|0:0,0:0:0:0:
502,269,102901,2,0,P|468:295|434:290,1,75.9999979705811,2|0,1:2|0:0,0:0:0:0:
383,227,103151,1,0,1:0:0:0:
375,217,103276,1,10,0:0:0:0:
127,59,103526,6,0,L|142:137,1,75.9999979705811,2|0,1:2|0:0,0:0:0:0:
74,194,103776,2,0,L|59:119,1,75.9999979705811,10|0,0:0|0:0,0:0:0:0:
196,5,104026,2,0,L|211:83,1,75.9999979705811,2|0,1:2|1:0,0:0:0:0:
127,59,104276,1,10,0:0:0:0:
500,35,104526,6,0,B|399:54|399:54|378:76|392:101,1,151.999995941162,2|8,1:2|0:0,0:0:0:0:
491,230,104901,2,0,P|514:188|438:181,1,151.999995941162,2|0,1:2|1:0,0:0:0:0:
413,257,105276,1,10,0:0:0:0:
151,143,105526,6,0,P|195:153|210:179,1,75.9999979705811,2|0,1:2|0:0,0:0:0:0:
226,278,105776,1,8,0:0:0:0:
148,237,105901,2,0,P|190:208|289:199,1,151.999995941162,2|2,0:0|1:2,0:0:0:0:
284,312,106276,2,0,P|240:302|225:276,1,75.9999979705811,10|0,0:0|0:0,0:0:0:0:
352,64,106526,6,0,B|372:169|372:169|362:137|339:129,1,151.999995941162,2|10,1:2|0:0,0:0:0:0:
187,79,106901,1,0,1:0:0:0:
199,81,107026,2,0,L|277:96,1,75.9999979705811,2|0,0:0|1:0,0:0:0:0:
244,7,107276,1,10,0:0:0:0:
120,264,107526,6,0,P|161:258|184:231,1,75.9999979705811,10|0,0:0|1:0,0:0:0:0:
5,109,107776,2,0,P|-10:147|1:180,1,75.9999979705811,10|0,0:0|1:0,0:0:0:0:
133,22,108026,5,10,0:0:0:0:
132,32,108151,1,8,0:0:0:0:
200,91,108276,1,10,0:0:0:0:
199,81,108401,1,8,0:0:0:0:
271,26,108526,6,0,L|298:167,1,143.999995605469,6|8,1:2|0:0,0:0:0:0:
259,247,108901,2,0,P|293:200|374:200,1,143.999995605469,2|0,1:2|1:0,0:0:0:0:
444,254,109276,2,0,L|457:184,1,71.9999978027344,10|0,0:0|0:0,0:0:0:0:
498,66,109526,6,0,B|455:52|433:87|433:87|411:122|368:108,1,143.999995605469,2|8,1:2|0:0,0:0:0:0:
250,38,109901,2,0,P|285:50|300:82,1,71.9999978027344,2|0,1:2|0:0,0:0:0:0:
289,162,110151,1,0,1:0:0:0:
287,171,110276,1,10,0:0:0:0:
18,72,110526,6,0,B|122:51|122:51|92:79,1,143.999995605469,2|8,1:2|0:0,0:0:0:0:
108,148,110901,2,0,L|94:78,1,71.9999978027344,2|0,1:2|0:0,0:0:0:0:
200,12,111151,2,0,L|213:81,1,71.9999978027344,2|8,1:2|0:0,0:0:0:0:
229,166,111401,1,0,0:0:0:0:
231,175,111526,1,2,1:2:0:0:
68,341,111776,5,8,0:0:0:0:
11,272,111901,2,0,B|107:253|107:253|134:266|132:289,1,143.999995605469,0|0,1:0|1:0,0:0:0:0:
117,383,112276,2,0,P|76:364|67:335,1,71.9999978027344,10|0,0:0|0:0,0:0:0:0:
227,243,112526,6,0,L|200:384,1,143.999995605469,2|8,1:2|0:0,0:0:0:0:
383,372,112901,2,0,P|376:316|298:291,1,143.999995605469,2|0,1:2|1:0,0:0:0:0:
199,384,113276,2,0,L|269:370,1,71.9999978027344,10|0,0:0|0:0,0:0:0:0:
391,279,113526,6,0,B|405:236|370:214|370:214|335:192|349:149,1,143.999995605469,2|8,1:2|0:0,0:0:0:0:
406,75,113901,2,0,P|432:104|432:136,1,71.9999978027344,2|0,1:2|0:0,0:0:0:0:
408,214,114151,1,0,1:0:0:0:
406,223,114276,1,10,0:0:0:0:
10,30,114526,6,0,B|71:42|71:42|84:58|84:58|145:70,1,143.999995605469,2|8,1:2|0:0,0:0:0:0:
227,54,114901,2,0,P|164:88|134:159,1,143.999995605469,0|0,1:0|1:0,0:0:0:0:
132,235,115276,1,10,0:0:0:0:
422,191,115526,6,0,L|492:177,1,71.9999978027344,2|0,1:2|0:0,0:0:0:0:
402,95,115776,1,10,0:0:0:0:
392,94,115901,1,8,3:0:0:0:
383,95,116026,2,0,P|348:115|336:145,1,71.9999978027344,4|2,3:0|3:0,0:0:0:0:
343,228,116276,1,10,0:0:0:0:
342,238,116401,1,8,0:0:0:0:
257,220,116526,6,0,B|162:201|162:201|152:229|128:235,1,143.999995605469,6|8,1:2|0:0,0:0:0:0:
16,135,116901,2,0,P|58:101|83:166,1,143.999995605469,2|0,1:2|1:0,0:0:0:0:
131,234,117276,2,0,L|117:305,1,71.9999978027344,10|0,0:0|0:0,0:0:0:0:
30,356,117526,6,0,B|55:329|48:290|48:290|85:314|118:304,1,143.999995605469,2|8,1:2|0:0,0:0:0:0:
259,233,117901,2,0,P|222:248|208:277,1,71.9999978027344,2|0,0:0|1:0,0:0:0:0:
195,359,118151,1,0,1:0:0:0:
193,368,118276,1,10,0:0:0:0:
465,282,118526,6,0,B|507:294|507:294|405:314,1,143.999995605469,2|8,1:2|0:0,0:0:0:0:
451,211,118901,2,0,L|465:283,1,71.9999978027344,2|0,1:2|0:0,0:0:0:0:
339,374,119151,2,0,L|324:301,1,71.9999978027344,2|8,1:2|0:0,0:0:0:0:
306,222,119401,1,0,0:0:0:0:
304,213,119526,1,2,1:2:0:0:
486,39,119776,6,0,P|470:108|404:127,1,143.999995605469,8|0,0:0|1:0,0:0:0:0:
343,10,120151,1,0,1:0:0:0:
354,10,120276,2,0,P|393:22|408:50,1,71.9999978027344,10|0,0:0|0:0,0:0:0:0:
288,130,120526,6,0,B|191:148|191:148|171:170|182:191,1,143.999995605469,2|8,1:2|0:0,0:0:0:0:
98,216,120901,2,0,P|166:213|204:273,1,143.999995605469,2|0,1:2|1:0,0:0:0:0:
358,245,121276,2,0,L|285:259,1,71.9999978027344,10|0,0:0|0:0,0:0:0:0:
156,341,121526,6,0,B|119:333|90:359|90:359|91:315|66:292,1,143.999995605469,2|8,1:2|0:0,0:0:0:0:
53,167,121901,2,0,P|87:187|97:217,1,71.9999978027344,2|0,0:0|1:0,0:0:0:0:
66,292,122151,1,0,1:0:0:0:
64,301,122276,1,10,0:0:0:0:
358,245,122526,6,0,B|419:233|419:233|437:243|437:243|498:231,1,143.999995605469,2|8,1:2|0:0,0:0:0:0:
512,147,122901,2,0,B|530:50|530:50|502:90,1,143.999995605469,0|0,1:0|1:0,0:0:0:0:
433,130,123276,1,10,0:0:0:0:
180,24,123526,6,0,P|210:37|226:74,1,71.9999978027344,10|0,0:0|1:0,0:0:0:0:
0,115,123776,2,0,P|-3:81|20:49,1,71.9999978027344,8|8,0:0|3:0,0:0:0:0:
97,21,124026,5,4,3:0:0:0:
99,30,124151,1,2,3:0:0:0:
101,39,124276,1,2,3:0:0:0:
103,48,124401,1,2,3:0:0:0:
105,59,124526,6,0,L|126:171,1,111.999996582031,4|2,1:2|0:0,0:0:0:0:
107,248,124901,1,0,0:0:0:0:
105,240,125026,2,0,L|94:182,1,55.9999982910157,8|0,0:0|0:0,0:0:0:0:
45,130,125276,2,0,L|56:188,1,55.9999982910157,2|0,0:0|0:0,0:0:0:0:
72,316,125526,6,0,P|123:281|174:291,1,111.999996582031,2|0,1:2|0:0,0:0:0:0:
229,333,125901,1,2,0:0:0:0:
234,341,126026,1,8,0:0:0:0:
434,146,126276,2,0,P|408:161|398:184,1,55.9999982910157,2|0,0:0|0:0,0:0:0:0:
443,266,126526,6,0,L|330:244,1,111.999996582031,2|0,1:2|0:0,0:0:0:0:
252,254,126901,2,0,L|263:196,1,55.9999982910157,2|8,0:0|0:0,0:0:0:0:
193,141,127151,1,0,0:0:0:0:
191,149,127276,2,0,L|180:207,1,55.9999982910157,2|0,0:0|0:0,0:0:0:0:
258,96,127526,6,0,P|205:63|155:72,1,111.999996582031,2|0,1:2|0:0,0:0:0:0:
44,271,128026,2,0,P|26:254|22:219,1,55.9999982910157,10|0,0:0|0:0,0:0:0:0:
92,190,128276,2,0,P|110:207|114:242,1,55.9999982910157,2|0,0:0|0:0,0:0:0:0:
78,348,128526,6,0,L|190:326,1,111.999996582031,2|0,1:2|0:0,0:0:0:0:
258,280,128901,1,2,0:0:0:0:
260,288,129026,2,0,L|271:346,1,55.9999982910157,8|0,0:0|0:0,0:0:0:0:
395,285,129276,2,0,L|337:296,1,55.9999982910157,2|0,0:0|0:0,0:0:0:0:
360,141,129526,6,0,P|421:144|453:184,1,111.999996582031,2|0,1:2|0:0,0:0:0:0:
475,253,129901,1,2,0:0:0:0:
474,262,130026,1,8,0:0:0:0:
319,72,130276,2,0,P|293:87|283:110,1,55.9999982910157,2|0,0:0|0:0,0:0:0:0:
295,197,130526,6,0,L|182:175,1,111.999996582031,2|0,1:2|0:0,0:0:0:0:
70,252,130901,1,2,0:0:0:0:
78,250,131026,2,0,L|136:239,1,55.9999982910157,8|0,0:0|0:0,0:0:0:0:
95,107,131276,2,0,L|106:165,1,55.9999982910157,2|0,0:0|0:0,0:0:0:0:
136,320,131526,6,0,L|147:378,3,55.9999982910157,2|0|2|0,1:2|0:0|0:0|0:0,0:0:0:0:
206,273,132026,1,10,0:0:0:0:
221,265,132151,1,2,0:0:0:0:
236,263,132276,1,2,0:0:0:0:
250,265,132401,1,2,0:0:0:0:
268,271,132526,6,0,P|317:287|370:258,1,111.999996582031,6|2,1:2|0:0,0:0:0:0:
346,154,132901,1,0,0:0:0:0:
338,158,133026,2,0,P|317:179|312:205,1,55.9999982910157,8|0,0:0|0:0,0:0:0:0:
368,260,133276,1,2,0:0:0:0:
462,40,133526,6,0,L|484:153,1,111.999996582031,2|0,1:2|0:0,0:0:0:0:
467,231,133901,1,2,0:0:0:0:
465,223,134026,2,0,L|454:165,1,55.9999982910157,8|0,0:0|0:0,0:0:0:0:
348,102,134276,2,0,L|337:160,1,55.9999982910157,2|0,0:0|0:0,0:0:0:0:
314,243,134526,6,0,P|275:215|214:224,1,111.999996582031,2|0,1:2|0:0,0:0:0:0:
75,165,134901,2,0,P|128:175|174:145,1,111.999996582031,2|0,0:0|0:0,0:0:0:0:
201,5,135276,2,0,L|190:63,1,55.9999982910157,2|0,0:0|0:0,0:0:0:0:
174,145,135526,1,6,1:2:0:0:
23,327,136026,6,0,P|5:310|1:275,1,55.9999982910157,8|4,3:0|3:0,0:0:0:0:
71,246,136276,2,0,P|89:263|93:298,1,55.9999982910157,2|2,3:0|3:0,0:0:0:0:
93,376,136526,6,0,L|219:351,1,128,6|0,1:2|0:0,0:0:0:0:
360,296,136901,2,0,L|233:271,1,128,0|0,1:0|1:0,0:0:0:0:
194,200,137276,1,10,0:0:0:0:
456,20,137526,6,0,P|425:40|416:70,1,64,2|0,1:2|0:0,0:0:0:0:
431,179,137776,1,0,0:0:0:0:
484,107,137901,2,0,P|406:102|362:126,1,128,2|0,1:2|1:0,0:0:0:0:
315,255,138276,2,0,P|346:235|355:205,1,64,10|0,0:0|0:0,0:0:0:0:
140,38,138526,6,0,L|109:194,1,160,14|0,0:0|1:0,0:0:0:0:
0,140,138901,2,0,L|30:296,1,160,14|0,0:0|1:0,0:0:0:0:
194,200,139276,2,0,L|178:278,1,80,14|0,0:0|0:0,0:0:0:0:
140,38,139526,5,14,0:0:0:0:
140,38,140026,5,10,0:0:0:0:
142,49,140151,1,8,0:0:0:0:
144,59,140276,1,10,0:0:0:0:
146,69,140401,1,8,0:0:0:0:
104,153,140526,6,0,B|212:131|212:131|184:140|176:169,1,160,6|10,1:2|0:0,0:0:0:0:
77,247,140901,2,0,P|39:222|33:187,1,80,2|0,1:2|0:0,0:0:0:0:
172,153,141151,1,0,1:0:0:0:
177,164,141276,2,0,P|181:202|156:233,1,80,10|0,0:0|0:0,0:0:0:0:
363,119,141526,6,0,B|429:106|429:106|446:80|446:80|509:68,2,160,2|8|2,1:2|0:0|1:2,0:0:0:0:
225,84,142151,1,0,1:0:0:0:
254,7,142276,2,0,P|291:27|305:66,1,80,10|0,0:0|0:0,0:0:0:0:
372,204,142526,6,0,B|394:320|394:320|359:287,1,160,2|10,1:2|0:0,0:0:0:0:
287,157,142901,2,0,B|264:273|264:273|299:240,1,160,2|0,1:2|1:0,0:0:0:0:
363,119,143276,2,0,P|339:85|300:73,1,80,10|0,0:0|0:0,0:0:0:0:
145,99,143526,6,0,L|64:114,1,80,2|0,1:2|0:0,0:0:0:0:
95,28,143776,1,8,0:0:0:0:
0,239,144026,1,2,1:2:0:0:
11,242,144151,1,0,1:0:0:0:
22,244,144276,2,0,L|105:261,1,80,10|0,0:0|0:0,0:0:0:0:
239,183,144526,6,0,P|196:195|176:230,1,80,6|0,1:2|0:0,0:0:0:0:
331,224,144776,1,10,0:0:0:0:
177,223,144901,6,0,B|237:212|255:268|255:268|272:321|335:309,1,191.999994140625,6|0,1:2|1:0,0:0:0:0:
239,311,145276,1,10,0:0:0:0:
448,131,145526,6,0,L|432:52,1,80,2|0,1:2|0:0,0:0:0:0:
426,217,145776,2,0,L|506:201,1,80,10|0,0:0|0:0,0:0:0:0:
295,0,146026,2,0,L|310:78,1,80,2|0,1:2|1:0,0:0:0:0:
288,164,146276,2,0,L|368:148,1,80,10|0,0:0|0:0,0:0:0:0:
141,31,146526,6,0,P|98:43|78:78,1,80,2|0,1:2|0:0,0:0:0:0:
60,154,146776,1,10,0:0:0:0:
0,73,146901,2,0,B|46:60|70:103|70:103|93:143|137:132,1,160,2|0,1:2|1:0,0:0:0:0:
202,88,147276,1,10,0:0:0:0:
173,351,147526,6,0,L|188:272,1,80,14|0,0:0|1:0,0:0:0:0:
331,160,147776,2,0,L|346:238,1,80,12|0,0:0|1:0,0:0:0:0:
101,295,148026,2,0,L|116:216,1,80,14|0,0:0|1:0,0:0:0:0:
289,35,148276,1,14,0:0:0:0:
291,48,148401,1,8,0:0:0:0:
370,67,148526,6,0,B|263:87|263:87|265:119|234:136,1,160,6|10,1:2|0:0,0:0:0:0:
116,44,148901,2,0,P|160:48|182:77,1,80,2|0,1:2|0:0,0:0:0:0:
293,191,149151,1,0,1:0:0:0:
281,190,149276,2,0,P|248:168|241:130,1,80,10|0,0:0|0:0,0:0:0:0:
446,26,149526,6,0,B|402:41|402:41|380:155,2,160,2|8|2,1:2|0:0|1:2,0:0:0:0:
478,103,150151,1,0,1:0:0:0:
308,68,150276,2,0,L|227:52,1,80,10|0,0:0|0:0,0:0:0:0:
0,28,150526,6,0,P|70:30|105:110,1,160,2|10,1:2|0:0,0:0:0:0:
224,171,150901,2,0,P|154:173|119:253,1,160,2|0,1:2|1:0,0:0:0:0:
0,295,151276,2,0,P|45:298|69:327,1,80,10|0,0:0|0:0,0:0:0:0:
236,309,151526,6,0,L|155:324,1,80,2|0,1:2|0:0,0:0:0:0:
277,237,151776,1,8,0:0:0:0:
68,82,152026,1,2,1:2:0:0:
79,85,152151,1,0,1:0:0:0:
90,87,152276,2,0,L|173:104,1,80,10|0,0:0|0:0,0:0:0:0:
387,86,152526,6,0,P|416:59|420:19,1,80,6|0,1:2|0:0,0:0:0:0:
336,17,152776,1,10,0:0:0:0:
314,134,152901,6,0,B|289:262|289:262|256:287|227:259,1,191.999994140625,6|0,1:2|1:0,0:0:0:0:
220,182,153276,1,10,0:0:0:0:
437,321,153526,6,0,P|475:301|487:266,1,80,2|0,1:2|0:0,0:0:0:0:
457,191,153776,2,0,P|419:211|407:246,1,80,10|0,0:0|0:0,0:0:0:0:
286,384,154026,2,0,P|248:364|236:329,1,80,2|0,1:2|1:0,0:0:0:0:
266,254,154276,2,0,P|304:274|316:309,1,80,10|0,0:0|0:0,0:0:0:0:
106,383,154526,6,0,P|68:363|56:328,1,80,2|0,1:2|0:0,0:0:0:0:
75,203,154776,1,10,0:0:0:0:
2,256,154901,2,0,B|101:236|101:236|134:251|127:283,1,160,2|0,1:2|1:0,0:0:0:0:
57,330,155276,1,10,0:0:0:0:
289,104,155526,6,0,L|204:120,1,80,14|0,0:0|1:0,0:0:0:0:
405,225,155776,2,0,L|320:241,1,80,14|0,0:0|1:0,0:0:0:0:
314,16,156026,2,0,L|229:32,1,80,14|0,0:0|1:0,0:0:0:0:
199,264,156276,1,14,0:0:0:0:
197,277,156401,1,8,0:0:0:0:
222,358,156526,6,0,P|259:342|274:302,1,80,6|0,1:2|0:0,0:0:0:0:
212,135,156776,2,0,B|175:166|175:166|197:278,1,160,10|0,0:0|1:0,0:0:0:0:
352,207,157151,2,0,L|272:222,1,80,2|8,0:0|0:0,0:0:0:0:
110,280,157401,5,2,0:0:0:0:
107,293,157526,2,0,L|91:372,2,80,2|0|10,1:2|0:0|0:0,0:0:0:0:
32,140,157901,2,0,P|13:204|82:191,1,160,2|2,0:0|0:0,0:0:0:0:
112,116,158276,2,0,P|97:80|60:61,1,80,8|2,0:0|0:0,0:0:0:0:
173,228,158526,6,0,B|219:241|243:198|243:198|266:158|310:169,1,160,2|10,1:2|0:0,0:0:0:0:
443,139,158901,2,0,B|397:152|373:109|373:109|350:69|306:80,1,160,2|2,0:0|0:0,0:0:0:0:
226,99,159276,2,0,P|222:144|244:172,1,80,8|2,0:0|0:0,0:0:0:0:
308,79,159526,6,0,L|392:62,1,80,2|0,1:2|0:0,0:0:0:0:
185,26,159776,2,0,L|269:9,1,80,10|0,0:0|0:0,0:0:0:0:
93,176,160026,1,2,1:2:0:0:
97,165,160151,2,0,B|116:120|116:120|228:98,1,160,2|0,0:0|0:0,0:0:0:0:
308,79,160526,5,6,1:2:0:0:
485,222,160776,2,0,P|455:163|369:155,1,160,10|0,0:0|1:0,0:0:0:0:
314,222,161151,2,0,P|313:263|338:297,1,80,2|8,0:0|0:0,0:0:0:0:
368,155,161401,5,2,0:0:0:0:
371,142,161526,2,0,L|386:62,2,80,2|0|10,1:2|0:0|0:0,0:0:0:0:
314,222,161901,2,0,B|248:235|248:235|231:261|231:261|168:273,1,160,2|2,0:0|0:0,0:0:0:0:
107,124,162276,2,0,P|147:133|167:168,1,80,8|2,0:0|0:0,0:0:0:0:
91,313,162526,6,0,B|68:197|68:197|99:230,1,160,2|10,1:2|0:0,0:0:0:0:
176,357,162901,2,0,B|198:241|198:241|167:274,1,160,2|2,0:0|0:0,0:0:0:0:
91,313,163276,2,0,L|12:328,1,80,8|2,0:0|0:0,0:0:0:0:
276,287,163526,6,0,B|384:265|384:265|356:274|348:303,1,160,2|8,1:2|0:0,0:0:0:0:
462,59,164026,1,14,0:0:0:0:
464,48,164151,1,10,0:0:0:0:
466,38,164276,1,14,0:0:0:0:
468,28,164401,1,8,0:0:0:0:
377,75,164526,6,0,P|337:53|326:20,2,80,6|2|8,1:2|0:0|0:0,0:0:0:0:
445,140,164901,2,0,P|405:162|394:195,1,80,2|0,0:0|1:0,0:0:0:0:
344,276,165151,2,0,P|322:236|289:225,1,80,2|8,0:0|0:0,0:0:0:0:
250,66,165401,5,2,0:0:0:0:
247,79,165526,2,0,L|232:159,1,80,2|0,1:2|0:0,0:0:0:0:
146,180,165776,2,0,L|160:101,1,80,10|0,0:0|0:0,0:0:0:0:
176,23,166026,2,0,L|161:103,1,80,2|0,1:2|0:0,0:0:0:0:
73,123,166276,1,10,0:0:0:0:
324,32,166526,6,0,P|367:18|400:32,2,80,2|2|8,1:2|0:0|0:0,0:0:0:0:
405,166,166901,2,0,P|435:140|441:102,1,80,2|0,0:0|1:0,0:0:0:0:
281,104,167151,2,0,P|289:143|320:168,1,80,2|8,0:0|0:0,0:0:0:0:
477,258,167401,5,2,0:0:0:0:
465,251,167526,2,0,B|419:238|395:281|395:281|372:321|328:310,1,160,2|8,1:2|0:0,0:0:0:0:
233,379,167901,1,2,0:0:0:0:
236,366,168026,2,0,L|251:286,1,80,2|0,1:2|0:0,0:0:0:0:
268,204,168276,1,10,0:0:0:0:
1,23,168526,5,6,1:2:0:0:
0,35,168651,2,0,P|9:69|49:92,1,80,2|8,0:0|0:0,0:0:0:0:
199,58,168901,2,0,P|165:48|125:71,1,80,2|0,0:0|1:0,0:0:0:0:
83,219,169151,2,0,P|107:194|107:148,1,80,2|8,0:0|0:0,0:0:0:0:
276,15,169401,5,2,0:0:0:0:
279,28,169526,2,0,L|294:108,1,80,2|0,1:2|0:0,0:0:0:0:
373,139,169776,2,0,L|388:219,1,80,10|0,0:0|0:0,0:0:0:0:
427,8,170026,2,0,L|442:88,1,80,2|0,1:2|0:0,0:0:0:0:
373,139,170276,1,10,0:0:0:0:
178,32,170526,6,0,P|135:18|102:32,2,80,2|2|8,1:2|0:0|0:0,0:0:0:0:
97,166,170901,2,0,P|67:140|61:102,1,80,2|0,0:0|1:0,0:0:0:0:
221,104,171151,2,0,P|213:143|182:168,1,80,2|8,0:0|0:0,0:0:0:0:
122,346,171401,5,2,0:0:0:0:
134,344,171526,2,0,L|214:329,1,80,8|4,3:0|3:0,0:0:0:0:
378,344,171776,2,0,L|298:329,1,80,2|2,3:0|3:0,0:0:0:0:
184,177,172026,5,10,0:0:0:0:
183,167,172151,1,8,0:0:0:0:
256,222,172276,1,10,0:0:0:0:
256,232,172401,1,8,0:0:0:0:
328,177,172526,5,6,1:2:0:0:
53,39,180276,5,2,3:0:0:0:
56,49,180401,1,0,0:0:0:0:
41,124,180526,2,0,P|73:82|132:81,1,111.999996582031,2|0,1:2|0:0,0:0:0:0:
217,47,180901,2,0,L|195:159,1,111.999996582031,2|0,0:0|0:0,0:0:0:0:
224,232,181276,2,0,L|235:174,1,55.9999982910157,2|0,0:0|0:0,0:0:0:0:
299,127,181526,5,2,1:2:0:0:
299,127,182026,2,0,L|356:115,1,55.9999982910157,10|0,0:0|0:0,0:0:0:0:
417,64,182276,2,0,L|359:75,1,55.9999982910157,2|0,0:0|0:0,0:0:0:0:
321,208,182526,6,0,P|319:239|334:261,1,55.9999982910157,2|0,1:2|0:0,0:0:0:0:
383,338,182776,1,0,0:0:0:0:
382,328,182901,2,0,P|350:286|291:285,1,111.999996582031,2|0,0:0|0:0,0:0:0:0:
227,331,183276,2,0,P|219:359|227:383,1,55.9999982910157,2|0,0:0|0:0,0:0:0:0:
294,283,183526,5,2,1:2:0:0:
294,283,184026,2,0,L|306:226,1,55.9999982910157,10|0,0:0|0:0,0:0:0:0:
297,150,184276,2,0,L|285:207,1,55.9999982910157,2|0,0:0|0:0,0:0:0:0:
167,273,184526,6,0,P|137:281|109:269,1,55.9999982910157,2|0,1:2|0:0,0:0:0:0:
25,291,184776,1,0,0:0:0:0:
35,290,184901,2,0,P|77:258|78:199,1,111.999996582031,2|0,0:0|0:0,0:0:0:0:
28,138,185276,2,0,P|4:161|-1:186,1,55.9999982910157,2|0,0:0|0:0,0:0:0:0:
155,165,185526,6,0,L|267:143,1,111.999996582031,10|0,0:0|1:0,0:0:0:0:
358,65,185901,1,2,0:0:0:0:
356,76,186026,2,0,L|344:133,1,55.9999982910157,8|0,0:0|0:0,0:0:0:0:
410,208,186276,2,0,L|422:151,1,55.9999982910157,2|0,1:2|0:0,0:0:0:0:
282,32,186526,6,0,P|215:20|155:84,1,160,14|0,0:0|1:0,0:0:0:0:
0,142,186901,2,0,P|67:130|127:194,1,160,14|0,0:0|1:0,0:0:0:0:
251,230,187276,2,0,P|208:231|183:260,1,80,14|0,0:0|0:0,0:0:0:0:
153,333,187526,5,14,0:0:0:0:
410,32,188526,6,0,L|378:192,1,160,14|0,0:0|1:0,0:0:0:0:
336,69,188901,2,0,B|349:115|397:110|397:110|444:104|456:149,1,160,14|0,0:0|1:0,0:0:0:0:
322,248,189276,2,0,P|334:211|376:196,1,80,14|0,0:0|0:0,0:0:0:0:
442,359,189526,6,0,L|281:327,1,160,14|0,0:0|1:0,0:0:0:0:
20,366,190026,1,10,0:0:0:0:
30,370,190151,1,8,0:0:0:0:
41,371,190276,2,0,P|82:342|85:311,1,80,2|0,1:2|0:0,0:0:0:0:
48,155,190526,6,0,P|107:111|198:111,1,160,14|0,0:0|1:0,0:0:0:0:
37,70,190901,2,0,B|41:118|89:122|89:122|136:125|139:172,1,160,14|0,0:0|1:0,0:0:0:0:
261,60,191276,2,0,P|218:74|203:111,1,80,14|0,0:0|0:0,0:0:0:0:
194,253,191526,6,0,L|354:221,1,160,14|0,0:0|1:0,0:0:0:0:
431,1,192026,1,10,0:0:0:0:
429,12,192151,1,8,0:0:0:0:
427,22,192276,1,10,0:0:0:0:
425,32,192401,1,8,0:0:0:0:
392,115,192526,6,0,L|471:99,1,80,6|0,1:2|0:0,0:0:0:0:
425,32,192776,1,10,0:0:0:0:
330,156,192901,6,0,B|305:164|307:195|343:219|372:217|397:199|410:163|412:139|389:111,1,191.999994140625,6|0,1:2|1:0,0:0:0:0:
321,74,193276,1,10,0:0:0:0:
129,334,193526,6,0,P|95:315|81:275,1,80,2|0,1:2|0:0,0:0:0:0:
172,189,193776,2,0,P|155:224|164:262,1,80,10|0,0:0|0:0,0:0:0:0:
294,358,194026,2,0,P|331:352|357:319,1,80,2|0,1:2|1:0,0:0:0:0:
301,208,194276,2,0,P|303:247|280:279,1,80,10|0,0:0|0:0,0:0:0:0:
129,334,194526,6,0,L|49:349,1,80,2|0,1:2|0:0,0:0:0:0:
211,319,194776,1,10,0:0:0:0:
108,256,194901,2,0,B|46:295|59:369|121:363|134:347|127:330,1,160,2|0,1:2|1:0,0:0:0:0:
138,177,195276,1,10,0:0:0:0:
461,22,195526,6,0,P|427:38|414:83,1,80,14|0,0:0|1:0,0:0:0:0:
484,275,195776,2,0,P|486:237|453:203,1,80,12|0,0:0|1:0,0:0:0:0:
250,172,196026,2,0,P|282:193|321:186,1,80,14|0,0:0|1:0,0:0:0:0:
413,76,196276,1,14,0:0:0:0:
416,66,196401,1,8,0:0:0:0:
489,115,196526,6,0,B|423:102|423:102|397:119|397:119|334:107,1,160,6|10,1:2|0:0,0:0:0:0:
206,22,196901,2,0,P|249:34|265:66,1,80,2|0,1:2|0:0,0:0:0:0:
318,198,197151,1,0,1:0:0:0:
321,185,197276,2,0,L|338:102,1,80,10|0,0:0|0:0,0:0:0:0:
295,350,197526,6,0,B|311:302|311:302|422:280,2,160,2|8|2,1:2|0:0|1:2,0:0:0:0:
227,298,198151,1,0,1:0:0:0:
321,185,198276,2,0,L|336:265,1,80,10|0,0:0|0:0,0:0:0:0:
151,254,198526,6,0,B|106:237|78:277|78:277|51:314|8:299,1,160,2|10,1:2|0:0,0:0:0:0:
97,171,198901,2,0,B|118:61|118:61|88:104,1,160,2|0,1:2|1:0,0:0:0:0:
27,222,199276,2,0,L|11:303,1,80,10|0,0:0|0:0,0:0:0:0:
182,179,199526,6,0,L|265:162,1,80,2|0,1:2|0:0,0:0:0:0:
206,93,199776,1,8,0:0:0:0:
512,251,200026,1,2,1:2:0:0:
501,248,200151,1,0,1:0:0:0:
490,246,200276,2,0,L|407:229,1,80,10|0,0:0|0:0,0:0:0:0:
259,310,200526,6,0,P|297:293|312:258,1,80,6|0,1:2|0:0,0:0:0:0:
294,180,200776,1,10,0:0:0:0:
198,262,200901,6,0,P|264:262|372:331,1,191.999994140625,6|0,1:2|1:0,0:0:0:0:
431,384,201276,1,10,0:0:0:0:
512,65,201526,6,0,L|496:143,1,80,2|0,1:2|0:0,0:0:0:0:
351,207,201776,2,0,L|433:190,1,80,10|0,0:0|0:0,0:0:0:0:
435,28,202026,2,0,L|419:106,1,80,2|0,1:2|1:0,0:0:0:0:
340,122,202276,2,0,L|422:105,1,80,10|0,0:0|0:0,0:0:0:0:
95,24,202526,6,0,P|140:36|155:64,1,80,2|0,1:2|0:0,0:0:0:0:
172,149,202776,1,10,0:0:0:0:
234,71,202901,6,0,P|168:72|86:122,1,160,2|0,1:2|1:0,0:0:0:0:
0,240,203276,2,0,P|26:203|60:198,1,80,10|0,0:0|0:0,0:0:0:0:
188,229,203526,5,6,1:2:0:0:
188,229,204026,5,14,0:0:0:0:
186,240,204151,1,8,0:0:0:0:
184,250,204276,1,14,0:0:0:0:
182,260,204401,1,8,0:0:0:0:
113,309,204526,6,0,B|240:284|240:284|251:314|287:319,1,191.999994140625,6|10,1:2|0:0,0:0:0:0:
443,315,204901,2,0,B|464:338|460:370|433:388|411:386|385:374|368:353|360:325|369:298|376:283,1,191.999994140625,2|0,1:2|1:0,0:0:0:0:
429,174,205276,2,0,B|453:168|465:143|465:143|458:172|474:190,1,95.9999970703126,10|0,0:0|0:0,0:0:0:0:
287,319,205526,6,0,L|191:337,1,95.9999970703126,2|0,1:2|0:0,0:0:0:0:
308,233,205776,1,8,0:0:0:0:
187,37,206026,1,2,1:2:0:0:
182,58,206151,1,0,1:0:0:0:
178,78,206276,2,0,L|160:174,1,95.9999970703126,10|0,0:0|0:0,0:0:0:0:
61,254,206526,6,0,B|35:124|35:124|45:159|83:169,1,191.999994140625,2|10,1:2|0:0,0:0:0:0:
64,366,206901,2,0,P|30:331|117:324,1,191.999994140625,2|0,1:2|1:0,0:0:0:0:
276,346,207276,2,0,B|247:374|247:374|187:362,1,95.9999970703126,10|0,0:0|0:0,0:0:0:0:
222,128,207526,6,0,P|267:146|284:191,1,95.9999970703126,2|0,1:2|0:0,0:0:0:0:
200,212,207776,1,8,0:0:0:0:
511,25,208026,1,2,1:2:0:0:
492,15,208151,1,0,1:0:0:0:
470,14,208276,2,0,P|425:32|409:77,1,95.9999970703126,10|0,0:0|0:0,0:0:0:0:
390,186,208526,6,0,L|408:283,1,95.9999970703126,6|0,1:2|0:0,0:0:0:0:
426,368,208776,1,10,0:0:0:0:
512,292,208901,6,0,P|409:292|311:366,1,223.999993164063,6|0,1:2|1:0,0:0:0:0:
243,310,209276,1,10,0:0:0:0:
372,91,209526,6,0,L|391:192,1,95.9999970703126,2|0,1:2|0:0,0:0:0:0:
466,141,209776,2,0,L|448:46,1,95.9999970703126,10|0,0:0|0:0,0:0:0:0:
260,215,210026,2,0,L|241:316,1,95.9999970703126,2|0,1:2|1:0,0:0:0:0:
166,265,210276,2,0,L|184:170,1,95.9999970703126,10|0,0:0|0:0,0:0:0:0:
346,7,210526,6,0,P|375:44|370:94,1,95.9999970703126,2|0,1:2|0:0,0:0:0:0:
343,184,210776,1,10,0:0:0:0:
271,105,210901,2,0,P|342:97|441:159,1,191.999994140625,2|0,1:2|1:0,0:0:0:0:
484,236,211276,1,10,0:0:0:0:
147,186,211526,6,0,L|165:91,1,95.9999970703126,14|0,0:0|1:0,0:0:0:0:
250,338,211776,2,0,L|268:243,1,95.9999970703126,12|0,0:0|1:0,0:0:0:0:
73,118,212026,2,0,L|55:213,1,95.9999970703126,14|0,0:0|1:0,0:0:0:0:
117,368,212276,1,14,0:0:0:0:
118,384,212401,1,8,0:0:0:0:
46,326,212526,6,0,B|-11:309|-11:309|125:283,1,191.999994140625,6|10,1:2|0:0,0:0:0:0:
242,193,212901,2,0,B|161:208|161:208|137:196|137:196|55:212,1,191.999994140625,2|0,1:2|1:0,0:0:0:0:
172,43,213276,2,0,B|198:1|198:1|204:53,1,95.9999970703126,10|0,0:0|0:0,0:0:0:0:
264,282,213526,6,0,L|282:377,1,95.9999970703126,2|0,1:2|0:0,0:0:0:0:
361,313,213776,1,8,0:0:0:0:
139,144,214026,1,2,1:2:0:0:
158,134,214151,1,0,1:0:0:0:
180,133,214276,2,0,P|225:151|241:196,1,95.9999970703126,10|0,0:0|0:0,0:0:0:0:
160,350,214526,6,0,B|116:336|67:369|67:369|91:314|67:280,1,191.999994140625,2|10,1:2|0:0,0:0:0:0:
35,108,214901,2,0,P|7:139|93:145,1,191.999994140625,2|0,1:2|1:0,0:0:0:0:
139,49,215276,2,0,B|127:28|139:3|139:3|120:27|95:25,1,95.9999970703126,10|0,0:0|0:0,0:0:0:0:
159,251,215526,6,0,L|178:345,1,95.9999970703126,2|0,1:2|0:0,0:0:0:0:
85,315,215776,1,8,0:0:0:0:
361,209,216026,1,2,1:2:0:0:
356,230,216151,1,0,1:0:0:0:
352,250,216276,2,0,L|334:345,1,95.9999970703126,10|0,0:0|0:0,0:0:0:0:
392,94,216526,6,0,P|397:54|361:12,1,95.9999970703126,6|0,1:2|0:0,0:0:0:0:
361,209,216776,1,10,0:0:0:0:
284,134,216901,6,0,B|384:114|384:114|407:127|407:127|508:107,1,223.999993164063,6|0,1:2|1:0,0:0:0:0:
474,194,217276,1,10,0:0:0:0:
272,50,217526,6,0,P|226:61|203:112,1,95.9999970703126,2|0,1:2|0:0,0:0:0:0:
72,201,217776,2,0,P|40:166|43:120,1,95.9999970703126,10|0,0:0|0:0,0:0:0:0:
134,50,218026,2,0,P|180:61|203:112,1,95.9999970703126,2|0,1:2|1:0,0:0:0:0:
346,201,218276,2,0,P|377:166|374:120,1,95.9999970703126,10|0,0:0|0:0,0:0:0:0:
230,203,218526,6,0,L|211:297,1,95.9999970703126,2|0,1:2|0:0,0:0:0:0:
193,384,218776,1,10,0:0:0:0:
121,322,218901,2,0,B|209:305|209:305|227:318|227:318|306:303,1,191.999994140625,2|0,1:2|1:0,0:0:0:0:
375,358,219276,1,10,0:0:0:0:
196,96,219526,6,0,P|160:62|160:16,1,95.9999970703126,14|0,0:0|1:0,0:0:0:0:
314,148,219776,2,0,P|350:114|350:68,1,95.9999970703126,12|0,0:0|1:0,0:0:0:0:
151,239,220026,2,0,P|115:205|115:159,1,95.9999970703126,14|0,0:0|1:0,0:0:0:0:
331,275,220276,1,14,0:0:0:0:
334,291,220401,1,8,0:0:0:0:
387,353,220526,6,0,P|343:321|203:307,1,191.999994140625,6|8,1:2|0:0,0:0:0:0:
117,356,220901,2,0,P|92:381|120:360,1,95.9999970703126,2|0,0:0|1:0,0:0:0:0:
148,251,221151,2,0,P|193:262|209:306,1,95.9999970703126,2|8,0:0|0:0,0:0:0:0:
54,274,221401,5,0,0:0:0:0:
49,261,221526,2,0,P|38:220|30:164,1,95.9999970703126,2|0,1:2|0:0,0:0:0:0:
99,17,221776,1,10,0:0:0:0:
135,98,221901,2,0,P|199:121|179:35,1,191.999994140625,2|0,0:0|0:0,0:0:0:0:
99,17,222276,1,10,0:0:0:0:
253,204,222526,6,0,P|263:244|271:300,1,95.9999970703126,2|0,1:2|0:0,0:0:0:0:
264,384,222776,1,8,0:0:0:0:
191,309,222901,2,0,P|239:259|353:277,1,191.999994140625,2|2,0:0|0:0,0:0:0:0:
494,373,223276,2,0,P|444:357|434:314,1,95.9999970703126,10|0,0:0|0:0,0:0:0:0:
395,167,223526,6,0,B|448:187|486:153|486:153|463:201|500:247,1,191.999994140625,2|8,1:2|0:0,0:0:0:0:
294,63,224026,2,0,P|312:33|306:68,1,95.9999970703126,2|0,1:2|0:0,0:0:0:0:
269,147,224276,2,0,P|258:187|250:243,1,95.9999970703126,10|0,0:0|0:0,0:0:0:0:
295,381,224526,6,0,B|292:347|266:322|231:326|231:326|195:329|161:304|170:265,1,191.999994140625,6|8,1:2|0:0,0:0:0:0:
269,147,224901,2,0,P|313:162|330:211,1,95.9999970703126,2|0,0:0|1:0,0:0:0:0:
176,179,225151,1,2,0:0:0:0:
162,178,225276,2,0,P|120:173|65:160,1,95.9999970703126,8|0,0:0|0:0,0:0:0:0:
39,359,225526,6,0,B|7:321|7:321|33:261|91:254|122:296,1,191.999994140625,2|10,1:2|0:0,0:0:0:0:
262,320,225901,2,0,P|202:359|118:287,1,191.999994140625,2|0,0:0|0:0,0:0:0:0:
199,262,226276,1,10,0:0:0:0:
383,37,226526,6,0,P|394:77|402:133,1,95.9999970703126,2|0,1:2|0:0,0:0:0:0:
409,231,226776,1,10,0:0:0:0:
293,177,226901,6,0,P|362:161|516:130,1,223.999993164063,2|2,0:0|0:0,0:0:0:0:
483,38,227276,2,0,P|501:11|485:39,1,95.9999970703126,8|0,0:0|0:0,0:0:0:0:
409,231,227526,6,0,P|419:308|477:256,1,191.999994140625,2|8,1:2|0:0,0:0:0:0:
262,0,228026,1,14,0:0:0:0:
265,18,228151,1,8,0:0:0:0:
268,34,228276,1,14,0:0:0:0:
270,50,228401,1,8,0:0:0:0:
218,126,228526,6,0,B|268:100|269:49|269:49|289:99|348:103,1,191.999994140625,6|8,1:2|0:0,0:0:0:0:
432,65,228901,2,0,P|461:48|430:61,1,95.9999970703126,2|0,0:0|1:0,0:0:0:0:
299,179,229151,1,2,0:0:0:0:
295,193,229276,2,0,P|283:233|275:289,1,95.9999970703126,8|0,0:0|0:0,0:0:0:0:
418,383,229526,6,0,P|395:337|353:327,1,95.9999970703126,2|0,1:2|0:0,0:0:0:0:
270,372,229776,1,10,0:0:0:0:
354,326,229901,2,0,B|388:338|421:317|430:282|430:282|437:245|470:225|505:238,1,191.999994140625,2|0,0:0|0:0,0:0:0:0:
510,319,230276,1,10,0:0:0:0:
261,116,230526,6,0,P|250:156|242:212,1,95.9999970703126,2|0,1:2|0:0,0:0:0:0:
243,302,230776,1,8,0:0:0:0:
351,239,230901,2,0,B|367:204|367:204|327:153|261:160|241:213,1,191.999994140625,2|2,0:0|0:0,0:0:0:0:
180,356,231276,2,0,P|225:344|243:302,1,95.9999970703126,10|0,0:0|0:0,0:0:0:0:
36,228,231526,6,0,B|82:259|75:310|75:310|102:264|161:268,1,191.999994140625,2|8,1:2|0:0,0:0:0:0:
417,166,232026,2,0,P|405:206|397:262,1,95.9999970703126,2|0,1:2|0:0,0:0:0:0:
461,331,232276,2,0,P|494:334|465:324,1,95.9999970703126,10|0,0:0|0:0,0:0:0:0:
318,194,232526,6,0,P|220:205|153:270,1,191.999994140625,6|8,1:2|0:0,0:0:0:0:
0,173,232901,2,0,P|21:207|75:217,1,95.9999970703126,2|0,0:0|1:0,0:0:0:0:
152,114,233151,1,2,0:0:0:0:
157,100,233276,2,0,P|168:59|176:3,1,95.9999970703126,8|0,0:0|0:0,0:0:0:0:
72,218,233526,6,0,P|114:148|218:156,1,191.999994140625,2|10,1:2|0:0,0:0:0:0:
305,214,233901,2,0,B|288:185|300:152|333:138|333:138|366:124|385:86|358:56,1,191.999994140625,2|0,0:0|0:0,0:0:0:0:
397,206,234276,1,10,0:0:0:0:
282,26,234526,6,0,P|327:22|361:64,1,95.9999970703126,2|0,1:2|0:0,0:0:0:0:
442,114,234776,1,10,0:0:0:0:
289,134,234901,6,0,P|205:157|76:228,1,223.999993164063,2|2,0:0|0:0,0:0:0:0:
9,171,235276,1,8,0:0:0:0:
4,156,235401,1,2,0:0:0:0:
115,75,235526,6,0,P|163:96|172:140,1,95.9999970703126,14|0,0:0|1:0,0:0:0:0:
136,290,235776,2,0,P|88:269|79:225,1,95.9999970703126,12|0,0:0|1:0,0:0:0:0:
242,44,236026,5,14,0:0:0:0:
245,59,236151,1,8,0:0:0:0:
317,120,236276,1,12,0:0:0:0:
320,106,236401,1,8,0:0:0:0:
394,49,236526,6,0,P|453:46|490:156,1,191.999994140625,6|8,1:2|0:0,0:0:0:0:
386,263,236901,1,0,0:0:0:0:
318,200,237026,2,0,L|413:181,1,95.9999970703126,0|0,1:0|0:0,0:0:0:0:
375,347,237276,2,0,P|323:328|308:290,1,95.9999970703126,8|0,0:0|0:0,0:0:0:0:
318,200,237526,1,0,1:0:0:0:
114,102,237776,5,10,0:0:0:0:
101,92,237901,1,0,0:0:0:0:
87,91,238026,2,0,P|41:111|24:152,1,95.9999970703126,0|0,1:0|0:0,0:0:0:0:
94,226,238276,2,0,P|141:205|158:164,1,95.9999970703126,10|0,0:0|0:0,0:0:0:0:
31,64,238526,6,0,B|-2:18|-2:18|25:157,1,191.999994140625,2|8,1:2|0:0,0:0:0:0:
229,60,238901,1,0,0:0:0:0:
216,63,239026,2,0,L|121:82,1,95.9999970703126,0|0,1:0|0:0,0:0:0:0:
248,146,239276,2,0,L|343:127,1,95.9999970703126,10|0,0:0|0:0,0:0:0:0:
458,36,239526,6,0,P|395:27|342:127,1,191.999994140625,2|8,1:2|0:0,0:0:0:0:
303,284,239901,1,0,0:0:0:0:
302,271,240026,2,0,P|326:228|379:218,1,95.9999970703126,6|0,1:2|0:0,0:0:0:0:
456,317,240276,2,0,P|432:360|379:370,1,95.9999970703126,14|0,0:0|0:0,0:0:0:0:
149,296,240526,6,0,B|181:285|214:299|224:333|224:333|235:367|272:389|304:365,2,191.999994140625,6|8|0,1:2|0:0|1:0,0:0:0:0:
24,11,241276,1,10,0:0:0:0:
21,26,241401,1,0,0:0:0:0:
18,40,241526,2,0,L|-1:135,1,95.9999970703126,2|0,1:2|0:0,0:0:0:0:
81,197,241776,2,0,L|100:102,1,95.9999970703126,8|0,0:0|0:0,0:0:0:0:
187,62,242026,1,0,1:0:0:0:
472,74,242276,5,10,0:0:0:0:
461,63,242401,1,0,0:0:0:0:
447,59,242526,2,0,P|398:70|374:108,1,95.9999970703126,6|0,1:2|0:0,0:0:0:0:
456,160,242776,2,0,P|498:187|507:231,1,95.9999970703126,8|0,0:0|0:0,0:0:0:0:
275,129,243026,2,0,P|227:140|202:178,1,95.9999970703126,6|0,1:2|0:0,0:0:0:0:
323,36,243276,2,0,P|364:63|374:107,1,95.9999970703126,8|0,0:0|0:0,0:0:0:0:
493,322,243526,6,0,L|394:302,1,95.9999970703126,6|0,1:2|0:0,0:0:0:0:
300,338,243776,2,0,L|318:243,1,95.9999970703126,8|0,0:0|0:0,0:0:0:0:
134,17,244026,5,14,0:0:0:0:
137,35,244151,1,8,0:0:0:0:
140,51,244276,1,12,0:0:0:0:
142,67,244401,1,8,0:0:0:0:
240,77,244526,6,0,B|152:93|152:93|140:113|140:113|60:129,1,191.999994140625,6|8,1:2|0:0,0:0:0:0:
0,229,244901,1,0,0:0:0:0:
13,227,245026,2,0,L|108:208,1,95.9999970703126,0|0,1:0|0:0,0:0:0:0:
80,34,245276,2,0,L|61:129,1,95.9999970703126,10|0,0:0|0:0,0:0:0:0:
0,360,245526,6,0,P|62:307|165:331,1,191.999994140625,2|8,1:2|0:0,0:0:0:0:
334,377,245901,1,2,0:0:0:0:
319,378,246026,2,0,P|272:359|257:314,1,95.9999970703126,0|0,1:0|0:0,0:0:0:0:
275,231,246276,1,10,0:0:0:0:
512,23,246526,6,0,B|480:12|447:26|437:60|437:60|426:94|389:116|357:92,1,191.999994140625,2|8,1:2|0:0,0:0:0:0:
194,8,246901,1,2,0:0:0:0:
208,8,247026,2,0,P|256:29|271:69,1,95.9999970703126,0|0,1:0|0:0,0:0:0:0:
409,198,247276,5,10,0:0:0:0:
394,196,247401,1,0,0:0:0:0:
381,194,247526,2,0,L|286:175,1,95.9999970703126,2|0,1:2|0:0,0:0:0:0:
199,156,247776,1,8,0:0:0:0:
45,328,248026,2,0,L|140:309,1,95.9999970703126,2|0,1:2|0:0,0:0:0:0:
228,292,248276,2,0,L|323:273,1,95.9999970703126,10|0,0:0|0:0,0:0:0:0:
186,70,248526,6,0,P|135:86|117:129,1,95.9999970703126,6|0,1:2|0:0,0:0:0:0:
82,199,248776,2,0,P|37:169|31:123,1,95.9999970703126,8|0,0:0|0:0,0:0:0:0:
55,45,249026,1,0,1:0:0:0:
326,218,249276,5,10,0:0:0:0:
340,215,249401,1,0,0:0:0:0:
353,212,249526,2,0,L|448:193,1,95.9999970703126,2|0,1:2|0:0,0:0:0:0:
485,9,249776,2,0,L|466:104,1,95.9999970703126,8|0,0:0|0:0,0:0:0:0:
447,193,250026,1,0,1:0:0:0:
152,203,250276,5,10,0:0:0:0:
137,203,250401,1,0,0:0:0:0:
124,198,250526,2,0,P|84:166|79:121,1,95.9999970703126,6|0,1:2|0:0,0:0:0:0:
186,24,250776,2,0,L|167:119,1,95.9999970703126,8|0,0:0|0:0,0:0:0:0:
330,265,251026,2,0,P|369:233|374:188,1,95.9999970703126,6|0,1:2|0:0,0:0:0:0:
268,91,251276,2,0,L|287:186,1,95.9999970703126,8|0,0:0|0:0,0:0:0:0:
88,285,251526,6,0,L|183:266,1,95.9999970703126,14|0,1:2|0:0,0:0:0:0:
349,360,251776,2,0,L|330:265,1,95.9999970703126,14|0,1:2|0:0,0:0:0:0:
163,24,252026,2,0,L|182:119,1,95.9999970703126,14|0,1:2|0:0,0:0:0:0:
424,99,252276,2,0,L|329:118,1,95.9999970703126,14|0,1:2|0:0,0:0:0:0:
256,192,252526,5,14,1:2:0:0:
