osu file format v14

[General]
AudioFilename: audio.ogg
AudioLeadIn: 0
PreviewTime: 59963
Countdown: 0
SampleSet: Soft
StackLeniency: 0.6
Mode: 0
LetterboxInBreaks: 0
WidescreenStoryboard: 1

[Editor]
Bookmarks: 4555,24555,44555,60555,76555,92555,108555,124555,140555,156555,172555,188555,204555,220555,236555,252555
DistanceSpacing: 1.3
BeatDivisor: 4
GridSize: 32
TimelineZoom: 8

[Metadata]
Title:Hana ni Ame o, Kimi ni Uta o
TitleUnicode:花に雨を、君に歌を
Artist:Tsukuyomi
ArtistUnicode:月詠み
Creator:Nevertary
Version:Crysisters x Nevertary's Hard
Source:
Tags:THE BINARY mido あかまる akamaru ユリイ・カノン YurryCanon Yue ユエ SERRA セラ 片井雨司 kataiuji cover female vocals vocalist japanese rock j-rock jrock lushifer Crysisters
BeatmapID:3985625
BeatmapSetID:1929568

[Difficulty]
HPDrainRate:4.5
CircleSize:3.5
OverallDifficulty:7
ApproachRate:8
SliderMultiplier:1.1
SliderTickRate:1

[Events]
//Background and Video events
0,0,"BG.jpg",0,0
Video,-58,"bgv.mp4"
//Break Periods
2,172726,179776
//Storyboard Layer 0 (Background)
//Storyboard Layer 1 (Fail)
//Storyboard Layer 2 (Pass)
//Storyboard Layer 3 (Foreground)
//Storyboard Layer 4 (Overlay)
//Storyboard Sound Samples

[TimingPoints]
526,250,4,2,2,50,1,0
4526,-125,4,2,2,55,0,0
5526,-111.111111111111,4,2,2,65,0,0
6526,-100,4,2,2,65,0,0
8526,-90.9090909090909,4,2,1,75,0,0
24526,-90.9090909090909,4,2,3,60,0,0
28526,-125,4,2,3,50,0,0
36526,-125,4,2,3,55,0,0
44526,-111.111111111111,4,2,3,60,0,0
56526,-111.111111111111,4,2,3,65,0,0
58526,-100,4,2,2,70,0,0
60526,-83.3333333333333,4,2,1,80,0,1
92526,-90.9090909090909,4,2,1,75,0,0
108526,-100,4,2,2,60,0,0
116526,-100,4,2,2,65,0,0
124526,-111.111111111111,4,2,3,60,0,0
136526,-99.9999999999999,4,2,3,65,0,0
138526,-90.9090909090909,4,2,2,70,0,0
140526,-83.3333333333333,4,2,1,80,0,1
156526,-90.9090909090909,4,2,1,75,0,0
172526,-111.111111111111,4,2,3,60,0,0
186526,-90.9090909090909,4,2,2,70,0,0
188526,-83.3333333333333,4,2,1,75,0,0
192526,-83.3333333333333,4,2,1,80,0,1
203526,-83.3333333333333,4,2,1,80,0,0
204526,-76.9230769230769,4,2,1,80,0,1
236526,-76.9230769230769,4,2,1,80,0,0
244526,-76.9230769230769,4,2,1,80,0,1
252526,-76.9230769230769,4,2,1,80,0,0

[Colours]
Combo1 : 172,172,172
Combo2 : 88,75,122
Combo3 : 94,113,112
Combo4 : 211,154,218

[HitObjects]
133,46,4526,6,0,L|2:17,2,132,2|2|2,1:2|0:0|0:0,0:0:0:0:
250,103,5526,2,0,P|269:145|254:202,1,98.9999969787599,2|0,1:2|0:0,0:0:0:0:
195,257,5901,2,0,P|232:231|292:223,1,98.9999969787599,2|0,0:0|0:0,0:0:0:0:
369,226,6276,1,2,0:0:0:0:
248,369,6526,5,8,1:2:0:0:
248,369,6651,2,0,P|219:364|200:344,1,55,8|0,0:0|0:0,0:0:0:0:
122,350,6901,5,8,1:2:0:0:
122,350,7026,2,0,P|105:326|105:299,1,55,8|0,0:0|0:0,0:0:0:0:
38,251,7276,6,0,P|43:222|63:203,1,55,8|8,1:2|0:0,0:0:0:0:
135,182,7526,1,8,1:2:0:0:
473,46,8526,6,0,P|434:86|372:83,1,121.000003692627,6|8,1:2|0:0,0:0:0:0:
305,23,8901,2,0,B|244:32|244:32|237:41|237:41|171:49,1,121.000003692627,2|0,1:2|1:0,0:0:0:0:
109,11,9276,1,10,0:0:0:0:
9,165,9526,6,0,P|66:160|110:221,1,121.000003692627,2|8,1:2|0:0,0:0:0:0:
150,284,9901,2,0,P|189:241|248:245,1,121.000003692627,2|2,1:2|1:2,0:0:0:0:
329,281,10276,2,0,P|351:260|376:244,1,60.5000018463135,10|0,0:0|0:0,0:0:0:0:
470,165,10526,6,0,B|418:157|418:157|409:147|409:147|345:136,1,121.000003692627,2|8,1:2|0:0,0:0:0:0:
271,157,10901,2,0,B|247:119|247:119|276:42,1,121.000003692627,2|0,1:2|1:0,0:0:0:0:
352,13,11276,1,10,0:0:0:0:
355,2,11401,1,0,0:0:0:0:
273,47,11526,6,0,P|249:25|207:20,1,60.5000018463135,2|0,1:2|0:0,0:0:0:0:
136,1,11776,2,0,P|107:8|85:29,1,60.5000018463135,10|0,0:0|1:0,0:0:0:0:
19,90,12026,2,0,L|37:152,1,60.5000018463135,2|0,0:0|1:0,0:0:0:0:
107,203,12276,1,10,0:0:0:0:
0,321,12526,6,0,B|29:322|56:340|56:340|71:312|94:293,1,121.000003692627,2|8,1:2|0:0,0:0:0:0:
177,255,12901,2,0,P|212:297|296:289,1,121.000003692627,2|0,1:2|1:0,0:0:0:0:
344,242,13276,1,10,0:0:0:0:
466,376,13526,6,0,P|479:323|504:238,1,121.000003692627,2|8,1:2|0:0,0:0:0:0:
471,171,13901,2,0,P|436:126|374:127,1,121.000003692627,2|2,1:2|1:2,0:0:0:0:
290,143,14276,2,0,P|256:144|222:114,1,60.5000018463135,10|0,0:0|0:0,0:0:0:0:
127,67,14526,6,0,B|115:122|115:122|120:143|120:143|109:197,1,121.000003692627,2|10,1:2|0:0,0:0:0:0:
40,248,14901,2,0,P|20:215|-10:207,2,60.5000018463135,0|2|0,1:0|0:0|1:0,0:0:0:0:
8,331,15276,1,10,0:0:0:0:
7,343,15401,1,2,0:0:0:0:
98,349,15526,6,0,L|170:365,1,60.5000018463135,10|0,0:0|1:0,0:0:0:0:
208,286,15776,2,0,L|267:272,1,60.5000018463135,10|0,0:0|1:0,0:0:0:0:
317,362,16026,2,0,L|376:375,1,60.5000018463135,10|0,0:0|1:0,0:0:0:0:
484,284,16276,5,10,0:0:0:0:
478,299,16401,1,8,0:0:0:0:
471,315,16526,2,0,P|418:293|407:219,1,121.000003692627,6|8,1:2|0:0,0:0:0:0:
335,175,16901,2,0,P|350:118|404:95,1,121.000003692627,2|0,1:2|1:0,0:0:0:0:
461,24,17276,1,10,0:0:0:0:
281,52,17526,6,0,B|226:39|226:39|214:44|214:44|144:29,1,121.000003692627,2|8,1:2|0:0,0:0:0:0:
75,28,17901,2,0,P|26:40|13:119,1,121.000003692627,2|2,0:0|1:2,0:0:0:0:
14,191,18276,2,0,L|-4:266,1,60.5000018463135,10|0,0:0|0:0,0:0:0:0:
101,209,18526,6,0,B|130:211|157:234|157:234|166:205|189:188,1,121.000003692627,2|8,1:2|0:0,0:0:0:0:
262,136,18901,2,0,L|294:277,1,121.000003692627,2|0,1:2|1:0,0:0:0:0:
293,347,19276,1,10,0:0:0:0:
288,357,19401,1,0,0:0:0:0:
379,373,19526,6,0,P|404:348|438:340,1,60.5000018463135,2|0,1:2|0:0,0:0:0:0:
448,258,19776,2,0,P|476:268|496:290,1,60.5000018463135,10|0,0:0|0:0,0:0:0:0:
512,189,20026,2,0,P|487:164|479:130,1,60.5000018463135,2|0,1:2|1:0,0:0:0:0:
460,56,20276,1,10,0:0:0:0:
291,150,20526,6,0,B|271:126|260:96|260:96|237:117|204:122,1,121.000003692627,2|8,1:2|0:0,0:0:0:0:
147,54,20901,2,0,B|118:49|95:28|95:28|83:59|64:82,1,121.000003692627,2|0,1:2|1:0,0:0:0:0:
14,159,21276,1,10,0:0:0:0:
114,331,21526,6,0,B|165:312|165:312|177:315|177:315|249:291,1,121.000003692627,2|8,1:2|0:0,0:0:0:0:
308,255,21901,2,0,P|339:310|400:318,1,121.000003692627,2|2,0:0|1:2,0:0:0:0:
470,365,22276,2,0,P|476:335|483:306,1,60.5000018463135,10|0,0:0|0:0,0:0:0:0:
497,188,22526,6,0,L|467:70,1,121.000003692627,2|10,1:2|0:0,0:0:0:0:
377,69,22901,2,0,L|356:-14,2,60.5000018463135,0|2|0,1:0|0:0|1:0,0:0:0:0:
326,143,23276,1,10,0:0:0:0:
324,155,23401,1,2,0:0:0:0:
260,80,23526,6,0,P|225:54|198:50,1,60.5000018463135,10|0,0:0|1:0,0:0:0:0:
132,0,23776,2,0,P|103:9|81:29,1,60.5000018463135,10|0,0:0|1:0,0:0:0:0:
20,96,24026,5,10,0:0:0:0:
10,94,24151,1,8,0:0:0:0:
41,180,24276,5,10,0:0:0:0:
36,190,24401,1,8,0:0:0:0:
124,194,24526,5,2,0:0:0:0:
256,192,24651,12,2,27526,0:0:0:0:
318,79,28526,6,0,L|406:61,1,88,2|0,1:2|0:0,0:0:0:0:
478,123,28901,1,2,0:0:0:0:
478,123,29026,2,0,P|442:138|427:184,1,88,0|2,1:0|0:0,0:0:0:0:
470,308,29526,5,2,1:2:0:0:
342,283,29776,1,0,0:0:0:0:
342,283,29901,2,0,L|254:265,1,88,2|0,0:0|0:0,0:0:0:0:
175,244,30276,1,2,0:0:0:0:
50,356,30526,6,0,P|95:340|109:301,1,88,2|0,1:2|0:0,0:0:0:0:
79,226,30901,2,0,P|42:211|25:167,2,88,2|2|0,0:0|0:0|0:0,0:0:0:0:
134,160,31526,6,0,L|152:72,1,88,2|0,1:2|0:0,0:0:0:0:
221,29,31901,1,0,0:0:0:0:
221,29,32026,1,0,1:0:0:0:
290,125,32276,6,0,P|304:147|305:166,1,44,2|0,0:0|0:0,0:0:0:0:
269,246,32526,2,0,P|286:211|333:197,1,88,2|0,1:2|0:0,0:0:0:0:
416,211,32901,1,2,0:0:0:0:
416,211,33026,1,0,1:0:0:0:
477,48,33276,6,0,P|463:70|462:89,1,44,2|0,0:0|0:0,0:0:0:0:
498,169,33526,2,0,P|480:134|433:120,1,88,2|0,1:2|0:0,0:0:0:0:
352,103,33901,2,0,L|264:85,1,88,2|0,0:0|0:0,0:0:0:0:
217,18,34276,1,2,0:0:0:0:
170,143,34526,6,0,B|144:191|183:222|183:222|226:257|205:299,1,176,2|0,1:2|1:0,0:0:0:0:
116,384,35276,1,2,0:0:0:0:
22,296,35526,6,0,L|4:208,1,88,2|0,1:2|0:0,0:0:0:0:
50,139,35901,1,2,1:2:0:0:
22,28,36151,1,4,3:0:0:0:
22,28,36276,1,2,3:0:0:0:
132,64,36526,6,0,P|177:78|216:61,1,88,2|0,1:2|0:0,0:0:0:0:
290,23,36901,1,2,0:0:0:0:
290,23,37026,1,8,0:1:0:0:
392,88,37276,6,0,L|434:78,1,44,2|0,0:0|0:0,0:0:0:0:
493,19,37526,1,2,1:2:0:0:
510,146,37776,1,0,0:0:0:0:
510,146,37901,2,0,L|492:234,1,88,2|2,0:0|0:0,0:0:0:0:
512,313,38276,2,0,L|502:355,1,44
424,384,38526,5,2,1:2:0:0:
328,311,38776,1,0,0:0:0:0:
328,311,38901,2,0,P|285:316|258:353,2,88,2|2|0,0:0|0:0|0:0,0:0:0:0:
351,230,39526,6,0,L|369:142,1,88,2|0,1:2|0:0,0:0:0:0:
387,63,39901,1,0,0:0:0:0:
387,63,40026,1,8,0:1:0:0:
254,16,40276,6,0,P|240:38|239:57,1,44,2|0,0:0|0:0,0:0:0:0:
275,137,40526,2,0,P|257:102|210:88,1,88,2|0,1:2|0:0,0:0:0:0:
134,82,40901,1,2,0:0:0:0:
134,82,41026,1,8,0:1:0:0:
19,145,41276,6,0,P|33:167|34:186,1,44,2|0,0:0|0:0,0:0:0:0:
0,261,41526,1,2,1:2:0:0:
91,353,41776,1,0,0:0:0:0:
91,353,41901,2,0,P|109:318|156:304,1,88,2|0,0:0|0:0,0:0:0:0:
233,324,42276,2,0,P|251:339|258:362,1,44,2|0,0:0|0:0,0:0:0:0:
340,376,42526,6,0,B|394:376|403:327|403:327|414:273|463:273,1,176,2|8,1:2|0:1,0:0:0:0:
448,103,43276,6,0,L|438:145,1,44,2|0,0:0|0:0,0:0:0:0:
511,192,43526,2,0,L|423:174,1,88,2|0,1:2|0:0,0:0:0:0:
340,171,43901,2,0,P|293:185|279:220,1,88,2|2,0:0|0:0,0:0:0:0:
278,301,44276,2,0,L|287:343,1,44,0|2,0:0|0:0,0:0:0:0:
205,378,44526,6,0,B|159:366|159:366|149:368|149:368|96:356,1,98.9999969787599,4|2,1:2|0:0,0:0:0:0:
17,359,44901,1,0,0:0:0:0:
17,359,45026,2,0,P|28:337|42:299,1,49.4999984893799,8|0,0:0|0:0,0:0:0:0:
88,253,45276,1,2,0:0:0:0:
6,99,45526,2,0,B|48:111|48:111|57:117|57:117|101:130,1,98.9999969787599,2|0,1:2|0:0,0:0:0:0:
162,197,45901,1,2,0:0:0:0:
162,197,46026,2,0,P|183:175|182:140,1,49.4999984893799,8|0,0:0|0:0,0:0:0:0:
160,26,46276,5,2,0:0:0:0:
155,40,46401,1,0,0:0:0:0:
150,55,46526,2,0,L|262:37,1,98.9999969787599,2|0,1:2|0:0,0:0:0:0:
328,0,46901,2,0,P|374:24|370:83,1,98.9999969787599,2|0,0:0|0:0,0:0:0:0:
336,146,47276,2,0,L|272:135,1,49.4999984893799,2|0,0:0|0:0,0:0:0:0:
162,197,47526,6,0,L|258:217,2,98.9999969787599,2|0|10,1:2|0:0|0:0,0:0:0:0:
22,278,48276,2,0,L|33:340,1,49.4999984893799,2|0,0:0|0:0,0:0:0:0:
106,382,48526,6,0,P|140:341|196:339,1,98.9999969787599,2|0,1:2|0:0,0:0:0:0:
273,363,48901,1,2,0:0:0:0:
273,363,49026,2,0,P|302:368|337:352,1,49.4999984893799,8|0,0:0|0:0,0:0:0:0:
413,271,49276,5,2,0:0:0:0:
405,284,49401,1,0,0:0:0:0:
396,294,49526,2,0,P|347:276|296:276,1,98.9999969787599,2|0,1:2|0:0,0:0:0:0:
270,194,49901,1,2,0:0:0:0:
270,194,50026,2,0,L|290:133,1,49.4999984893799,8|0,0:0|0:0,0:0:0:0:
342,82,50276,1,2,0:0:0:0:
172,11,50526,6,0,L|184:70,1,49.4999984893799,2|0,1:2|0:0,0:0:0:0:
116,142,50776,1,0,0:0:0:0:
116,142,50901,2,0,L|95:39,1,98.9999969787599,2|0,0:0|0:0,0:0:0:0:
13,38,51276,2,0,L|24:104,1,49.4999984893799,2|0,0:0|0:0,0:0:0:0:
0,178,51526,6,0,P|24:185|56:212,3,49.4999984893799,2|0|2|0,1:2|0:0|0:0|0:0,0:0:0:0:
110,259,52026,2,0,L|177:242,3,49.4999984893799,10|2|2|2,0:0|0:0|0:0|0:0,0:0:0:0:
243,223,52526,6,0,P|295:231|316:281,1,98.9999969787599,6|2,1:2|0:0,0:0:0:0:
387,326,52901,1,0,0:0:0:0:
387,326,53026,2,0,L|374:376,2,49.4999984893799,8|0|2,0:0|0:0|0:0,0:0:0:0:
508,167,53526,6,0,P|468:153|439:104,1,98.9999969787599,2|0,1:2|0:0,0:0:0:0:
381,0,53901,1,2,0:0:0:0:
381,0,54026,2,0,L|365:65,1,49.4999984893799,8|0,0:0|0:0,0:0:0:0:
271,140,54276,5,2,0:0:0:0:
266,126,54401,1,0,0:0:0:0:
261,111,54526,2,0,P|309:112|334:173,1,98.9999969787599,2|0,1:2|0:0,0:0:0:0:
287,231,54901,2,0,P|258:224|196:279,1,98.9999969787599,2|0,0:0|0:0,0:0:0:0:
149,336,55276,2,0,P|124:352|91:359,1,49.4999984893799,2|0,0:0|0:0,0:0:0:0:
20,316,55526,5,6,1:2:0:0:
20,316,56026,6,0,L|44:255,1,49.4999984893799,8|4,3:0|3:0,0:0:0:0:
117,219,56276,2,0,L|98:172,1,49.4999984893799,2|2,3:0|3:0,0:0:0:0:
8,146,56526,2,0,P|32:99|93:90,1,98.9999969787599,2|0,1:2|0:0,0:0:0:0:
141,21,56901,1,0,1:0:0:0:
141,21,57026,2,0,L|201:42,1,49.4999984893799,0|0,0:0|1:0,0:0:0:0:
253,104,57276,1,10,0:0:0:0:
403,20,57526,6,0,P|355:36|337:85,1,98.9999969787599,2|0,1:2|0:0,0:0:0:0:
379,161,57901,2,0,P|427:177|445:226,1,98.9999969787599,2|0,1:2|1:0,0:0:0:0:
396,299,58276,2,0,L|338:317,1,49.4999984893799,10|0,0:0|0:0,0:0:0:0:
270,367,58526,6,0,P|244:344|240:261,1,110,14|0,0:0|1:0,0:0:0:0:
212,175,58901,2,0,P|164:211|107:203,1,110,14|0,0:0|1:0,0:0:0:0:
17,215,59276,2,0,L|42:140,1,55,14|0,0:0|1:0,0:0:0:0:
68,77,59526,1,14,0:0:0:0:
403,20,60526,6,0,L|373:147,1,131.99999597168,6|10,1:2|0:0,0:0:0:0:
395,239,60901,2,0,P|368:195|291:191,1,131.99999597168,2|0,1:2|1:0,0:0:0:0:
226,249,61276,2,0,L|210:319,1,65.9999979858399,10|0,0:0|0:0,0:0:0:0:
123,384,61526,6,0,B|109:324|109:324|116:310|116:310|103:256,1,131.99999597168,2|8,1:2|0:0,0:0:0:0:
33,126,62026,1,2,1:2:0:0:
26,113,62151,1,0,1:0:0:0:
26,98,62276,2,0,P|41:72|74:58,1,65.9999979858399,10|0,0:0|0:0,0:0:0:0:
163,10,62526,6,0,L|194:143,1,131.99999597168,2|10,1:2|0:0,0:0:0:0:
161,224,62901,2,0,P|197:181|266:193,1,131.99999597168,2|0,1:2|1:0,0:0:0:0:
334,249,63276,2,0,L|398:234,1,65.9999979858399,10|0,0:0|0:0,0:0:0:0:
495,163,63526,6,0,B|517:195|495:223|495:223|475:250|498:283,2,131.99999597168,2|8|2,1:2|0:0|1:2,0:0:0:0:
453,88,64151,1,0,1:0:0:0:
443,78,64276,1,10,0:0:0:0:
288,28,64526,6,0,P|257:39|242:72,1,65.9999979858399,6|0,1:2|0:0,0:0:0:0:
262,160,64776,1,10,0:0:0:0:
249,157,64901,2,0,B|188:143|188:143|174:150|174:150|120:137,1,131.99999597168,6|0,1:2|1:0,0:0:0:0:
55,80,65276,1,10,0:0:0:0:
32,284,65526,6,0,L|48:220,1,65.9999979858399,2|0,1:2|0:0,0:0:0:0:
119,281,65776,2,0,L|105:346,1,65.9999979858399,10|0,0:0|0:0,0:0:0:0:
197,319,66026,2,0,L|213:255,1,65.9999979858399,2|0,1:2|1:0,0:0:0:0:
285,310,66276,2,0,L|271:375,1,65.9999979858399,10|0,0:0|0:0,0:0:0:0:
401,280,66526,6,0,L|417:216,1,65.9999979858399,2|0,1:2|0:0,0:0:0:0:
494,145,66776,1,10,0:0:0:0:
486,154,66901,2,0,P|425:173|379:127,1,131.99999597168,2|0,1:2|1:0,0:0:0:0:
371,44,67276,1,10,0:0:0:0:
417,216,67526,6,0,L|401:283,1,65.9999979858399,14|0,0:0|1:0,0:0:0:0:
302,372,67776,2,0,L|318:308,1,65.9999979858399,12|0,0:0|1:0,0:0:0:0:
262,192,68026,2,0,L|246:259,1,65.9999979858399,14|0,0:0|1:0,0:0:0:0:
165,344,68276,5,14,0:0:0:0:
152,352,68401,1,8,0:0:0:0:
136,355,68526,2,0,B|96:360|81:327|81:327|67:297|27:301,1,131.99999597168,6|10,1:2|0:0,0:0:0:0:
17,213,68901,2,0,P|28:154|94:134,1,131.99999597168,2|0,1:2|1:0,0:0:0:0:
164,181,69276,2,0,P|172:218|160:245,1,65.9999979858399,10|0,0:0|0:0,0:0:0:0:
306,227,69526,6,0,B|366:213|366:213|380:220|380:220|434:207,1,131.99999597168,2|8,1:2|0:0,0:0:0:0:
352,37,70026,1,2,1:2:0:0:
348,51,70151,1,0,1:0:0:0:
345,65,70276,2,0,L|329:132,1,65.9999979858399,10|0,0:0|0:0,0:0:0:0:
306,227,70526,6,0,B|215:206|215:206|186:233,1,131.99999597168,2|10,1:2|0:0,0:0:0:0:
125,295,70901,2,0,B|96:316|94:353|94:353|76:321|40:321,1,131.99999597168,2|0,1:2|1:0,0:0:0:0:
8,239,71276,2,0,P|-4:214|5:173,1,65.9999979858399,10|0,0:0|0:0,0:0:0:0:
106,79,71526,6,0,B|145:84|160:51|160:51|174:21|214:25,2,131.99999597168,2|8|2,1:2|0:0|1:2,0:0:0:0:
29,43,72151,1,0,1:0:0:0:
18,37,72276,1,10,0:0:0:0:
51,207,72526,6,0,L|66:274,1,65.9999979858399,6|0,1:2|0:0,0:0:0:0:
31,371,72776,1,10,0:0:0:0:
34,359,72901,2,0,P|88:310|145:328,1,131.99999597168,6|0,1:2|1:0,0:0:0:0:
213,369,73276,2,0,P|246:363|265:337,1,65.9999979858399,10|0,0:0|0:0,0:0:0:0:
284,255,73526,6,0,P|318:260|336:286,1,65.9999979858399,2|0,1:2|0:0,0:0:0:0:
411,241,73776,2,0,P|431:269|426:300,1,65.9999979858399,10|0,0:0|0:0,0:0:0:0:
512,317,74026,2,0,P|506:351|480:369,1,65.9999979858399,2|0,1:2|1:0,0:0:0:0:
396,379,74276,1,10,0:0:0:0:
363,170,74526,6,0,L|348:105,1,65.9999979858399,2|0,1:2|0:0,0:0:0:0:
275,48,74776,1,10,0:0:0:0:
272,61,74901,2,0,B|258:121|258:121|265:135|265:135|252:189,1,131.99999597168,2|0,1:2|1:0,0:0:0:0:
236,274,75276,1,10,0:0:0:0:
45,292,75526,6,0,P|14:281|-1:252,1,65.9999979858399,14|0,0:0|1:0,0:0:0:0:
131,281,75776,2,0,P|137:312|119:339,1,65.9999979858399,12|0,0:0|1:0,0:0:0:0:
77,213,76026,2,0,P|101:191|133:193,1,65.9999979858399,14|0,0:0|1:0,0:0:0:0:
242,214,76276,5,14,0:0:0:0:
254,221,76401,1,8,0:0:0:0:
268,230,76526,2,0,P|305:196|281:119,1,131.99999597168,6|8,1:2|0:0,0:0:0:0:
287,36,76901,2,0,B|207:44|232:94|167:102,1,131.99999597168,2|2,0:0|0:0,0:0:0:0:
103,46,77276,2,0,B|108:13|108:13|148:17,1,65.9999979858399,8|0,0:0|0:0,0:0:0:0:
176,100,77526,6,0,L|192:172,1,65.9999979858399,2|0,1:2|0:0,0:0:0:0:
287,123,77776,1,10,0:0:0:0:
299,121,77901,2,0,B|379:129|354:179|419:187,1,131.99999597168,2|0,0:0|0:0,0:0:0:0:
492,212,78276,1,10,0:0:0:0:
292,215,78526,6,0,L|309:280,1,65.9999979858399,2|0,1:2|0:0,0:0:0:0:
241,355,78776,1,8,0:0:0:0:
238,345,78901,2,0,L|221:281,1,65.9999979858399,2|0,0:0|0:0,0:0:0:0:
152,212,79151,1,2,0:0:0:0:
149,223,79276,2,0,L|132:286,1,65.9999979858399,10|0,0:0|0:0,0:0:0:0:
79,373,79526,6,0,P|15:353|2:286,1,131.99999597168,2|8,1:2|0:0,0:0:0:0:
2,61,80026,2,0,L|19:124,1,65.9999979858399,2|0,1:2|0:0,0:0:0:0:
111,137,80276,2,0,L|93:73,1,65.9999979858399,10|0,0:0|0:0,0:0:0:0:
180,11,80526,6,0,B|231:24|231:24|249:43|249:43|303:57,1,131.99999597168,6|8,1:2|0:0,0:0:0:0:
363,129,80901,2,0,P|407:76|485:94,1,131.99999597168,2|2,0:0|0:0,0:0:0:0:
512,156,81276,2,0,P|496:187|484:223,1,65.9999979858399,8|0,0:0|0:0,0:0:0:0:
460,300,81526,5,2,1:2:0:0:
337,227,81776,1,10,0:0:0:0:
324,225,81901,2,0,P|283:232|277:324,1,131.99999597168,2|0,0:0|0:0,0:0:0:0:
206,378,82276,2,0,P|174:361|138:350,1,65.9999979858399,10|0,0:0|0:0,0:0:0:0:
51,376,82526,6,0,P|36:325|67:236,1,131.99999597168,2|10,1:2|0:0,0:0:0:0:
118,189,82901,2,0,P|133:149|119:107,1,65.9999979858399,2|0,0:0|0:0,0:0:0:0:
106,44,83151,2,0,L|34:62,2,65.9999979858399,0|10|0,0:0|0:0|0:0,0:0:0:0:
204,77,83526,6,0,B|233:62|247:27|247:27|277:47|326:52,1,131.99999597168,2|8,1:2|0:0,0:0:0:0:
480,185,84026,2,0,P|465:156|437:139,1,65.9999979858399,14|8,0:0|0:0,0:0:0:0:
351,131,84276,2,0,P|323:147|308:176,1,65.9999979858399,14|8,0:0|0:0,0:0:0:0:
220,242,84526,6,0,B|161:224|161:224|136:230|136:230|76:216,1,131.99999597168,6|8,1:2|0:0,0:0:0:0:
49,143,84901,2,0,P|18:168|6:200,1,65.9999979858399,2|0,0:0|1:0,0:0:0:0:
0,284,85151,1,2,0:0:0:0:
11,288,85276,2,0,L|96:309,1,65.9999979858399,8|0,0:0|0:0,0:0:0:0:
134,381,85526,2,0,P|169:341|256:341,1,131.99999597168,2|10,1:2|0:0,0:0:0:0:
324,379,85901,2,0,P|337:316|360:239,1,131.99999597168,2|0,0:0|0:0,0:0:0:0:
387,169,86276,1,10,0:0:0:0:
235,226,86526,6,0,P|181:200|182:123,1,131.99999597168,2|8,1:2|0:0,0:0:0:0:
241,68,86901,2,0,L|329:92,1,65.9999979858399,2|0,0:0|0:0,0:0:0:0:
183,6,87151,1,2,0:0:0:0:
172,9,87276,2,0,L|85:27,1,65.9999979858399,10|0,0:0|0:0,0:0:0:0:
43,93,87526,6,0,B|0:118|12:165|12:165|36:185|42:215,1,131.99999597168,2|8,1:2|0:0,0:0:0:0:
140,371,88026,2,0,P|164:336|200:328,1,65.9999979858399,2|0,1:2|0:0,0:0:0:0:
238,251,88276,2,0,P|253:279|282:293,1,65.9999979858399,10|0,0:0|0:0,0:0:0:0:
368,357,88526,6,0,P|381:294|404:217,1,131.99999597168,6|8,1:2|0:0,0:0:0:0:
450,153,88901,2,0,P|426:98|337:100,1,131.99999597168,2|2,0:0|0:0,0:0:0:0:
285,137,89276,2,0,P|249:150|209:131,1,65.9999979858399,8|0,0:0|0:0,0:0:0:0:
159,86,89526,5,2,1:2:0:0:
64,273,89776,1,10,0:0:0:0:
74,265,89901,2,0,B|135:278|135:278|148:291|148:291|206:305,1,131.99999597168,2|0,0:0|0:0,0:0:0:0:
256,372,90276,2,0,L|325:355,1,65.9999979858399,10|0,0:0|0:0,0:0:0:0:
425,334,90526,6,0,P|438:271|461:194,1,131.99999597168,2|10,1:2|0:0,0:0:0:0:
487,122,90901,1,2,0:0:0:0:
329,236,91151,1,2,0:0:0:0:
319,242,91276,2,0,L|244:220,1,65.9999979858399,8|2,0:0|0:0,0:0:0:0:
175,279,91526,6,0,P|90:322|13:240,1,197.99999395752,6|0,1:2|0:0,0:0:0:0:
0,171,92026,1,6,1:2:0:0:
0,171,92526,6,0,L|119:198,1,121.000003692627,6|8,1:2|0:0,0:0:0:0:
208,189,92901,2,0,P|255:149|255:93,1,121.000003692627,2|0,1:2|1:0,0:0:0:0:
217,12,93276,1,10,0:0:0:0:
118,197,93526,6,0,P|101:247|94:320,1,121.000003692627,2|8,1:2|0:0,0:0:0:0:
168,365,93901,2,0,B|200:381|223:356|223:356|247:332|279:345,1,121.000003692627,2|2,1:2|1:2,0:0:0:0:
362,372,94276,2,0,P|391:353|398:329,1,60.5000018463135,10|0,0:0|0:0,0:0:0:0:
407,207,94526,6,0,B|441:197|464:220|464:220|471:185|501:171,1,121.000003692627,2|8,1:2|0:0,0:0:0:0:
503,83,94901,2,0,P|488:45|412:30,1,121.000003692627,2|0,1:2|1:0,0:0:0:0:
344,83,95276,1,10,0:0:0:0:
341,94,95401,1,0,0:0:0:0:
261,42,95526,6,0,L|248:103,1,60.5000018463135,2|0,1:2|0:0,0:0:0:0:
174,159,95776,2,0,L|161:97,1,60.5000018463135,10|0,0:0|1:0,0:0:0:0:
84,49,96026,2,0,L|73:109,1,60.5000018463135,2|0,0:0|1:0,0:0:0:0:
53,194,96276,1,10,0:0:0:0:
14,384,96526,6,0,P|48:341|116:339,1,121.000003692627,2|8,1:2|0:0,0:0:0:0:
194,366,96901,2,0,B|216:338|197:310|197:310|179:281|199:253,1,121.000003692627,2|0,1:2|1:0,0:0:0:0:
254,184,97276,1,10,0:0:0:0:
179,49,97526,6,0,L|298:21,1,121.000003692627,2|8,1:2|0:0,0:0:0:0:
386,24,97901,2,0,P|442:37|460:95,1,121.000003692627,2|2,1:2|1:2,0:0:0:0:
512,167,98276,2,0,P|502:201|479:218,1,60.5000018463135,10|0,0:0|0:0,0:0:0:0:
393,297,98526,6,0,B|305:276|305:276|281:301,1,121.000003692627,2|10,1:2|0:0,0:0:0:0:
201,332,98901,2,0,P|183:353|149:358,2,60.5000018463135,0|2|0,1:0|0:0|1:0,0:0:0:0:
216,243,99276,1,10,0:0:0:0:
219,233,99401,1,2,0:0:0:0:
126,266,99526,6,0,L|64:253,1,60.5000018463135,10|0,0:0|1:0,0:0:0:0:
0,174,99776,2,0,L|61:161,1,60.5000018463135,10|0,0:0|1:0,0:0:0:0:
127,83,100026,2,0,L|66:70,1,60.5000018463135,10|0,0:0|1:0,0:0:0:0:
173,171,100276,5,10,0:0:0:0:
180,180,100401,1,8,0:0:0:0:
191,188,100526,2,0,P|250:175|272:121,1,121.000003692627,6|8,1:2|0:0,0:0:0:0:
344,63,100901,2,0,P|362:118|404:169,1,121.000003692627,2|0,1:2|1:0,0:0:0:0:
469,220,101276,1,10,0:0:0:0:
320,331,101526,6,0,B|285:321|267:350|267:350|247:378|214:370,1,121.000003692627,2|8,1:2|0:0,0:0:0:0:
122,363,101901,2,0,B|93:341|64:354|64:354|70:319|47:295,1,121.000003692627,2|2,0:0|1:2,0:0:0:0:
15,215,102276,2,0,P|7:183|20:155,1,60.5000018463135,10|0,0:0|0:0,0:0:0:0:
116,61,102526,6,0,L|144:180,1,121.000003692627,2|8,1:2|0:0,0:0:0:0:
141,269,102901,2,0,P|169:213|223:206,1,121.000003692627,2|0,1:2|1:0,0:0:0:0:
311,229,103276,1,10,0:0:0:0:
316,219,103401,1,0,0:0:0:0:
392,269,103526,6,0,P|406:237|400:210,1,60.5000018463135,2|0,1:2|0:0,0:0:0:0:
484,186,103776,2,0,P|471:153|447:138,1,60.5000018463135,10|0,0:0|0:0,0:0:0:0:
493,64,104026,2,0,P|461:50|434:56,1,60.5000018463135,2|0,1:2|1:0,0:0:0:0:
370,113,104276,1,10,0:0:0:0:
205,31,104526,6,0,B|117:10|117:10|93:35,1,121.000003692627,2|8,1:2|0:0,0:0:0:0:
30,97,104901,2,0,B|20:131|49:149|49:149|77:169|69:202,1,121.000003692627,2|0,1:2|1:0,0:0:0:0:
36,284,105276,1,10,0:0:0:0:
134,384,105526,6,0,P|139:323|158:266,1,121.000003692627,2|8,1:2|0:0,0:0:0:0:
231,218,105901,2,0,P|289:213|336:254,1,121.000003692627,2|2,0:0|1:2,0:0:0:0:
418,282,106276,2,0,P|443:275|463:242,1,60.5000018463135,10|0,0:0|0:0,0:0:0:0:
512,120,106526,6,0,L|393:92,1,121.000003692627,2|10,1:2|0:0,0:0:0:0:
309,68,106901,2,0,L|324:2,2,60.5000018463135,0|2|0,1:0|0:0|1:0,0:0:0:0:
290,162,107276,1,10,0:0:0:0:
288,173,107401,1,2,0:0:0:0:
221,99,107526,6,0,P|189:85|162:91,1,60.5000018463135,10|0,0:0|1:0,0:0:0:0:
83,53,107776,2,0,P|50:65|35:89,1,60.5000018463135,10|0,0:0|1:0,0:0:0:0:
19,173,108026,5,10,0:0:0:0:
22,186,108151,1,8,0:0:0:0:
87,242,108276,5,10,0:0:0:0:
87,255,108401,1,8,0:0:0:0:
30,316,108526,6,0,P|55:341|138:328,1,110,6|8,1:2|0:0,0:0:0:0:
184,281,108901,2,0,P|209:256|292:269,1,110,2|0,1:2|1:0,0:0:0:0:
361,261,109276,2,0,L|339:329,1,55,10|0,0:0|0:0,0:0:0:0:
412,360,109526,2,0,L|451:233,1,110,2|8,1:2|0:0,0:0:0:0:
493,188,109901,2,0,B|474:169|463:141|463:141|433:158|403:159,1,110,2|0,1:2|1:0,0:0:0:0:
345,110,110276,1,10,0:0:0:0:
279,258,110526,6,0,B|266:220|266:220|267:203|267:203|251:149,1,110,2|8,1:2|0:0,0:0:0:0:
243,69,110901,2,0,P|202:81|181:103,1,55,2|0,1:2|0:0,0:0:0:0:
123,134,111151,2,0,L|69:119,1,55,2|8,1:2|0:0,0:0:0:0:
66,36,111401,1,0,0:0:0:0:
66,36,111526,2,0,L|118:50,1,55,2|0,1:2|0:0,0:0:0:0:
192,88,111776,1,8,0:0:0:0:
335,7,112026,2,0,P|350:43|423:66,1,110,2|10,0:0|0:0,0:0:0:0:
498,59,112401,1,0,0:0:0:0:
498,59,112526,6,0,L|478:183,1,110,2|8,1:2|0:0,0:0:0:0:
468,249,112901,2,0,P|418:251|384:297,1,110,2|0,1:2|1:0,0:0:0:0:
344,369,113276,2,0,P|319:348|285:349,1,55,10|0,0:0|0:0,0:0:0:0:
215,335,113526,2,0,P|229:288|246:208,1,110,2|8,1:2|0:0,0:0:0:0:
299,169,113901,2,0,P|282:116|271:62,1,110,2|0,1:2|1:0,0:0:0:0:
202,15,114276,1,10,0:0:0:0:
42,58,114526,6,0,P|29:109|75:165,1,110,2|8,1:2|0:0,0:0:0:0:
130,193,114901,1,0,1:0:0:0:
130,193,115026,2,0,L|198:172,1,55,0|0,0:0|1:0,0:0:0:0:
103,276,115276,2,0,L|51:260,1,55,10|0,0:0|0:0,0:0:0:0:
145,351,115526,2,0,B|172:339|186:309|186:309|206:331|241:338,1,110,2|10,1:2|0:0,0:0:0:0:
393,367,116026,1,4,3:0:0:0:
411,357,116151,1,2,3:0:0:0:
419,342,116276,2,0,L|406:281,1,55,10|8,0:0|0:0,0:0:0:0:
338,243,116526,6,0,P|375:202|431:211,1,110,6|8,1:2|0:0,0:0:0:0:
484,149,116901,2,0,P|449:108|396:113,1,110,2|0,1:2|1:0,0:0:0:0:
317,139,117276,2,0,L|247:119,1,55,10|0,0:0|0:0,0:0:0:0:
183,106,117526,2,0,B|158:40|158:40|225:72,1,110,2|8,1:2|0:0,0:0:0:0:
206,185,117901,2,0,B|189:243|189:243|191:254|191:254|175:311,1,110,2|0,0:0|1:0,0:0:0:0:
155,369,118276,1,10,0:0:0:0:
11,286,118526,6,0,P|63:290|103:226,1,110,2|8,1:2|0:0,0:0:0:0:
117,169,118901,2,0,L|92:107,1,55,2|0,1:2|0:0,0:0:0:0:
160,65,119151,1,2,1:2:0:0:
160,65,119276,2,0,L|180:116,1,55,8|0,0:0|0:0,0:0:0:0:
221,187,119526,1,2,1:2:0:0:
335,67,119776,2,0,P|364:77|381:101,1,55,8|0,0:0|0:0,0:0:0:0:
406,173,120026,1,0,1:0:0:0:
414,187,120151,1,0,1:0:0:0:
422,200,120276,2,0,L|484:185,1,55,10|0,0:0|0:0,0:0:0:0:
378,291,120526,6,0,P|434:304|455:370,1,110,2|8,1:2|0:0,0:0:0:0:
379,378,120901,2,0,L|270:354,1,110,2|0,1:2|1:0,0:0:0:0:
237,278,121276,2,0,L|170:301,1,55,10|0,0:0|0:0,0:0:0:0:
132,359,121526,2,0,P|102:319|110:262,1,110,2|8,1:2|0:0,0:0:0:0:
164,199,121901,2,0,P|194:159|186:102,1,110,2|0,0:0|1:0,0:0:0:0:
149,28,122276,1,10,0:0:0:0:
0,108,122526,6,0,B|47:116|47:116|62:126|62:126|112:136,1,110,2|8,1:2|0:0,0:0:0:0:
164,199,122901,1,0,1:0:0:0:
164,199,123026,2,0,L|151:268,1,55,0|0,0:0|1:0,0:0:0:0:
220,310,123276,2,0,L|288:295,1,55,10|0,0:0|0:0,0:0:0:0:
337,359,123526,2,0,P|372:318|425:316,1,110,10|8,0:0|0:0,0:0:0:0:
472,192,124026,1,4,3:0:0:0:
464,185,124151,1,2,3:0:0:0:
459,176,124276,2,0,L|472:114,1,55,2|2,3:0|3:0,0:0:0:0:
402,9,124526,6,0,L|379:106,1,98.9999969787599,4|2,1:2|0:0,0:0:0:0:
314,165,124901,1,0,0:0:0:0:
314,165,125026,2,0,P|297:147|270:140,2,49.4999984893799,8|0|2,0:0|0:0|0:0,0:0:0:0:
317,258,125401,5,0,0:0:0:0:
317,258,125526,2,0,P|284:282|227:273,1,98.9999969787599,2|0,1:2|0:0,0:0:0:0:
168,219,125901,1,2,0:0:0:0:
168,219,126026,1,8,0:0:0:0:
45,274,126276,6,0,L|32:224,1,49.4999984893799,2|0,0:0|0:0,0:0:0:0:
8,145,126526,1,2,1:2:0:0:
90,34,126776,1,0,0:0:0:0:
90,34,126901,2,0,P|143:33|173:67,1,98.9999969787599,2|0,0:0|0:0,0:0:0:0:
196,151,127276,2,0,L|207:199,1,49.4999984893799,2|0,0:0|0:0,0:0:0:0:
182,288,127526,6,0,L|279:265,1,98.9999969787599,2|0,1:2|0:0,0:0:0:0:
447,206,128026,2,0,P|456:222|454:253,1,49.4999984893799,10|0,0:0|0:0,0:0:0:0:
373,269,128276,2,0,P|363:252|365:221,1,49.4999984893799,2|0,0:0|0:0,0:0:0:0:
388,132,128526,6,0,L|411:35,1,98.9999969787599,2|0,1:2|0:0,0:0:0:0:
328,21,128901,1,2,0:0:0:0:
328,21,129026,2,0,L|305:118,1,98.9999969787599,8|2,0:0|0:0,0:0:0:0:
201,234,129526,6,0,L|178:137,1,98.9999969787599,2|0,1:2|0:0,0:0:0:0:
161,55,129901,1,2,0:0:0:0:
161,55,130026,1,8,0:0:0:0:
102,186,130276,2,0,L|113:236,1,49.4999984893799,2|0,0:0|0:0,0:0:0:0:
136,318,130526,6,0,P|194:317|222:346,1,98.9999969787599,2|0,1:2|0:0,0:0:0:0:
311,357,130901,1,2,0:0:0:0:
311,357,131026,2,0,P|369:358|397:329,1,98.9999969787599,8|2,0:0|0:0,0:0:0:0:
465,215,131526,6,0,P|487:216|513:203,3,49.4999984893799,2|0|2|0,1:2|0:0|0:0|0:0,0:0:0:0:
398,159,132026,2,0,P|396:136|409:110,3,49.4999984893799,10|2|2|2,0:0|0:0|0:0|0:0,0:0:0:0:
312,183,132526,6,0,P|271:197|254:246,1,98.9999969787599,6|2,1:2|0:0,0:0:0:0:
200,319,132901,1,0,0:0:0:0:
200,319,133026,2,0,L|187:368,2,49.4999984893799,8|0|2,0:0|0:0|0:0,0:0:0:0:
58,251,133526,6,0,L|35:154,1,98.9999969787599,2|0,1:2|0:0,0:0:0:0:
19,73,133901,1,2,0:0:0:0:
19,73,134026,1,8,0:0:0:0:
146,127,134276,2,0,P|174:119|190:101,1,49.4999984893799,2|0,0:0|0:0,0:0:0:0:
257,36,134526,6,0,L|280:133,1,98.9999969787599,2|0,1:2|0:0,0:0:0:0:
370,149,134901,2,0,L|347:52,1,98.9999969787599,2|0,0:0|0:0,0:0:0:0:
422,0,135276,2,0,L|433:49,1,49.4999984893799,2|0,0:0|0:0,0:0:0:0:
492,113,135526,5,6,1:2:0:0:
256,6,136026,6,0,P|233:17|221:39,1,49.4999984893799,8|4,3:0|3:0,0:0:0:0:
139,42,136276,2,0,P|130:66|137:90,1,49.4999984893799,2|2,3:0|3:0,0:0:0:0:
185,174,136526,6,0,P|133:175|95:220,1,110,6|0,1:2|0:0,0:0:0:0:
53,294,136901,2,0,P|105:300|156:329,1,110,0|0,1:0|1:0,0:0:0:0:
219,383,137276,1,10,0:0:0:0:
363,327,137526,6,0,P|381:316|393:284,1,55,2|0,1:2|0:0,0:0:0:0:
378,198,137776,1,0,0:0:0:0:
378,198,137901,2,0,P|413:238|466:239,1,110,2|0,1:2|1:0,0:0:0:0:
512,168,138276,1,10,0:0:0:0:
359,66,138526,6,0,P|292:88|252:125,1,121.000003692627,14|0,0:0|1:0,0:0:0:0:
170,187,138901,2,0,P|237:209|276:246,1,121.000003692627,14|0,0:0|1:0,0:0:0:0:
365,303,139276,2,0,P|334:309|310:324,1,60.5000018463135,14|0,0:0|1:0,0:0:0:0:
247,384,139526,5,14,0:0:0:0:
111,200,140026,6,0,L|171:186,1,60.5000018463135,10|8,0:0|0:0,0:0:0:0:
226,114,140276,2,0,L|167:100,1,60.5000018463135,10|8,0:0|0:0,0:0:0:0:
117,21,140526,6,0,P|85:34|69:121,1,131.99999597168,6|10,1:2|0:0,0:0:0:0:
111,200,140901,2,0,P|143:213|159:300,1,131.99999597168,2|0,1:2|1:0,0:0:0:0:
87,358,141276,2,0,L|8:340,1,65.9999979858399,10|0,0:0|0:0,0:0:0:0:
158,300,141526,6,0,B|215:284|215:284|229:291|229:291|299:269,1,131.99999597168,2|8,1:2|0:0,0:0:0:0:
413,141,142026,1,2,1:2:0:0:
399,136,142151,1,0,1:0:0:0:
384,138,142276,2,0,L|409:223,1,65.9999979858399,10|0,0:0|0:0,0:0:0:0:
398,291,142526,6,0,P|337:309|282:272,1,131.99999597168,2|10,1:2|0:0,0:0:0:0:
271,188,142901,2,0,B|282:138|282:138|297:121|297:121|315:56,1,131.99999597168,2|0,1:2|1:0,0:0:0:0:
252,3,143276,2,0,P|212:12|190:43,1,65.9999979858399,10|0,0:0|0:0,0:0:0:0:
111,114,143526,6,0,B|42:103|65:54|-11:49,2,131.99999597168,2|8|2,1:2|0:0|1:2,0:0:0:0:
169,186,144151,1,0,1:0:0:0:
165,197,144276,1,10,0:0:0:0:
78,355,144526,6,0,P|78:316|114:284,1,65.9999979858399,6|0,1:2|0:0,0:0:0:0:
183,278,144776,1,10,0:0:0:0:
197,282,144901,2,0,L|336:311,1,131.99999597168,6|0,1:2|1:0,0:0:0:0:
392,372,145276,1,10,0:0:0:0:
485,216,145526,6,0,P|504:244|506:278,1,65.9999979858399,2|0,1:2|0:0,0:0:0:0:
426,300,145776,2,0,P|407:273|403:240,1,65.9999979858399,10|0,0:0|0:0,0:0:0:0:
427,151,146026,2,0,P|445:124|449:91,1,65.9999979858399,2|0,1:2|1:0,0:0:0:0:
362,58,146276,2,0,P|343:84|339:117,1,65.9999979858399,10|0,0:0|0:0,0:0:0:0:
282,189,146526,6,0,L|198:176,1,65.9999979858399,2|0,1:2|0:0,0:0:0:0:
150,112,146776,1,10,0:0:0:0:
142,122,146901,2,0,P|120:183|161:252,1,131.99999597168,2|0,1:2|1:0,0:0:0:0:
211,306,147276,1,10,0:0:0:0:
394,258,147526,6,0,P|423:257|457:274,1,65.9999979858399,14|0,0:0|1:0,0:0:0:0:
430,361,147776,2,0,P|400:361|366:344,1,65.9999979858399,12|0,0:0|1:0,0:0:0:0:
305,279,148026,2,0,P|275:278|241:295,1,65.9999979858399,14|0,0:0|1:0,0:0:0:0:
147,370,148276,5,14,0:0:0:0:
131,366,148401,1,8,0:0:0:0:
119,358,148526,2,0,B|90:335|78:306|78:306|51:329|8:336,1,131.99999597168,6|10,1:2|0:0,0:0:0:0:
2,242,148901,2,0,L|32:95,1,131.99999597168,2|0,1:2|1:0,0:0:0:0:
70,30,149276,2,0,P|104:52|115:76,1,65.9999979858399,10|0,0:0|0:0,0:0:0:0:
111,205,149526,6,0,P|163:156|223:174,1,131.99999597168,2|8,1:2|0:0,0:0:0:0:
338,306,150026,1,2,1:2:0:0:
350,301,150151,1,0,1:0:0:0:
362,296,150276,2,0,L|332:209,1,65.9999979858399,10|0,0:0|0:0,0:0:0:0:
300,150,150526,6,0,B|316:116|319:73|319:73|339:105|370:123,1,131.99999597168,2|10,1:2|0:0,0:0:0:0:
448,83,150901,2,0,B|432:49|429:6|429:6|408:38|378:56,1,131.99999597168,2|0,1:2|1:0,0:0:0:0:
418,175,151276,2,0,L|483:191,1,65.9999979858399,10|0,0:0|0:0,0:0:0:0:
340,233,151526,6,0,B|260:241|285:291|220:299,2,131.99999597168,2|8|2,1:2|0:0|1:2,0:0:0:0:
424,270,152151,1,0,1:0:0:0:
428,283,152276,1,10,0:0:0:0:
300,150,152526,6,0,L|317:68,1,65.9999979858399,6|0,1:2|0:0,0:0:0:0:
248,10,152776,1,10,0:0:0:0:
244,26,152901,2,0,L|207:182,1,131.99999597168,6|0,1:2|1:0,0:0:0:0:
158,228,153276,2,0,P|132:199|129:150,1,65.9999979858399,10|0,0:0|0:0,0:0:0:0:
51,113,153526,6,0,P|38:146|38:197,1,65.9999979858399,2|0,1:2|0:0,0:0:0:0:
11,265,153776,2,0,P|33:292|77:318,1,65.9999979858399,10|0,0:0|0:0,0:0:0:0:
126,374,154026,2,0,P|161:368|205:343,1,65.9999979858399,2|0,1:2|1:0,0:0:0:0:
263,302,154276,1,10,0:0:0:0:
441,367,154526,6,0,B|448:340|448:340|445:331|445:331|456:288,1,65.9999979858399,2|0,1:2|0:0,0:0:0:0:
473,214,154776,1,10,0:0:0:0:
476,201,154901,2,0,P|435:188|362:244,1,131.99999597168,2|0,1:2|1:0,0:0:0:0:
275,210,155276,2,0,L|192:189,1,65.9999979858399,10|0,0:0|0:0,0:0:0:0:
144,303,155526,6,0,P|148:271|122:229,1,65.9999979858399,14|0,0:0|1:0,0:0:0:0:
0,172,155776,2,0,P|25:191|74:189,1,65.9999979858399,14|0,0:0|1:0,0:0:0:0:
185,109,156026,2,0,P|155:121|132:165,1,65.9999979858399,14|0,0:0|1:0,0:0:0:0:
246,218,156276,5,14,0:0:0:0:
260,214,156401,1,8,0:0:0:0:
275,210,156526,2,0,L|335:197,1,60.5000018463135,6|0,1:2|0:0,0:0:0:0:
375,117,156776,2,0,P|404:88|481:95,1,121.000003692627,10|0,0:0|1:0,0:0:0:0:
507,179,157151,2,0,L|493:239,1,60.5000018463135,2|8,0:0|0:0,0:0:0:0:
418,353,157401,5,2,0:0:0:0:
423,342,157526,2,0,P|447:324|477:325,2,60.5000018463135,2|0|10,1:2|0:0|0:0,0:0:0:0:
333,349,157901,2,0,L|212:325,1,121.000003692627,2|2,0:0|0:0,0:0:0:0:
138,373,158276,1,8,0:0:0:0:
22,274,158526,6,0,P|9:221|51:167,1,121.000003692627,2|10,1:2|0:0,0:0:0:0:
121,116,158901,2,0,L|144:236,1,121.000003692627,2|2,0:0|0:0,0:0:0:0:
219,294,159276,2,0,L|233:234,1,60.5000018463135,8|2,0:0|0:0,0:0:0:0:
290,164,159526,6,0,P|308:183|343:188,1,60.5000018463135,2|0,1:2|0:0,0:0:0:0:
424,163,159776,2,0,P|443:144|448:109,1,60.5000018463135,10|0,0:0|0:0,0:0:0:0:
404,32,160026,1,2,1:2:0:0:
395,26,160151,2,0,P|305:38|286:74,1,121.000003692627,2|0,0:0|0:0,0:0:0:0:
189,114,160526,6,0,P|155:116|129:99,1,60.5000018463135,6|0,1:2|0:0,0:0:0:0:
56,52,160776,2,0,L|32:172,1,121.000003692627,10|0,0:0|1:0,0:0:0:0:
15,261,161151,2,0,L|74:247,1,60.5000018463135,2|8,0:0|0:0,0:0:0:0:
154,288,161401,5,2,0:0:0:0:
147,299,161526,2,0,P|142:328|157:354,2,60.5000018463135,2|0|10,1:2|0:0|0:0,0:0:0:0:
202,215,161901,2,0,P|238:173|222:110,1,121.000003692627,2|2,0:0|0:0,0:0:0:0:
173,41,162276,1,8,0:0:0:0:
324,113,162526,6,0,L|442:89,1,121.000003692627,2|10,1:2|0:0,0:0:0:0:
490,166,162901,2,0,P|493:240|463:273,1,121.000003692627,2|2,0:0|0:0,0:0:0:0:
387,315,163276,2,0,L|328:301,1,60.5000018463135,8|2,0:0|0:0,0:0:0:0:
256,359,163526,6,0,L|137:335,1,121.000003692627,2|8,1:2|0:0,0:0:0:0:
10,228,164026,1,14,0:0:0:0:
5,214,164151,1,10,0:0:0:0:
4,200,164276,2,0,P|15:172|43:158,1,60.5000018463135,14|8,0:0|0:0,0:0:0:0:
129,177,164526,5,6,1:2:0:0:
140,174,164651,2,0,L|200:160,1,60.5000018463135,2|8,0:0|0:0,0:0:0:0:
234,78,164901,2,0,P|263:34|334:29,2,121.000003692627,2|2|2,0:0|0:0|0:0,0:0:0:0:
198,160,165526,6,0,L|170:278,1,121.000003692627,2|10,1:2|0:0,0:0:0:0:
146,372,165901,1,0,0:0:0:0:
158,371,166026,2,0,L|221:356,1,60.5000018463135,2|0,1:2|0:0,0:0:0:0:
298,331,166276,1,10,0:0:0:0:
429,361,166526,5,2,1:2:0:0:
439,366,166651,2,0,P|472:361|490:339,1,60.5000018463135,2|8,0:0|0:0,0:0:0:0:
486,252,166901,2,0,L|513:134,2,121.000003692627,2|2|2,0:0|0:0|0:0,0:0:0:0:
403,229,167526,6,0,P|343:234|310:283,1,121.000003692627,2|8,1:2|0:0,0:0:0:0:
254,362,167901,1,2,0:0:0:0:
253,350,168026,2,0,P|234:326|203:317,1,60.5000018463135,2|0,1:2|0:0,0:0:0:0:
119,334,168276,1,10,0:0:0:0:
26,230,168526,6,0,L|53:112,1,121.000003692627,6|8,1:2|0:0,0:0:0:0:
122,59,168901,2,0,P|83:20|23:30,2,121.000003692627,2|2|2,0:0|0:0|0:0,0:0:0:0:
184,123,169526,6,0,P|206:137|241:136,1,60.5000018463135,2|0,1:2|0:0,0:0:0:0:
281,209,169776,2,0,P|306:203|330:177,1,60.5000018463135,10|0,0:0|0:0,0:0:0:0:
412,203,170026,2,0,P|426:181|425:146,1,60.5000018463135,2|0,1:2|0:0,0:0:0:0:
357,93,170276,1,10,0:0:0:0:
198,64,170526,6,0,L|183:127,1,60.5000018463135,2|2,1:2|0:0,0:0:0:0:
108,174,170776,1,8,0:0:0:0:
96,170,170901,2,0,P|37:184|15:240,2,121.000003692627,2|2|2,0:0|0:0|0:0,0:0:0:0:
191,214,171526,6,0,L|254:199,1,60.5000018463135,8|4,3:0|3:0,0:0:0:0:
325,147,171776,2,0,L|340:210,1,60.5000018463135,2|2,3:0|3:0,0:0:0:0:
363,291,172026,5,10,0:0:0:0:
365,302,172151,1,8,0:0:0:0:
427,226,172276,5,10,0:0:0:0:
429,237,172401,1,8,0:0:0:0:
511,268,172526,5,6,1:2:0:0:
160,297,180526,6,0,B|95:314|95:314|81:334|81:334|23:350,2,148.49999546814,2|2|2,1:2|0:0|0:0,0:0:0:0:
252,351,181526,2,0,P|275:308|322:299,1,98.9999969787599,2|0,1:2|0:0,0:0:0:0:
420,311,182026,1,10,0:0:0:0:
464,223,182276,1,2,0:0:0:0:
417,131,182526,2,0,P|370:124|327:156,1,98.9999969787599,2|0,1:2|0:0,0:0:0:0:
268,201,182901,1,2,0:0:0:0:
268,201,183026,2,0,P|224:200|185:143,1,98.9999969787599,8|2,0:0|0:0,0:0:0:0:
155,65,183526,1,2,1:2:0:0:
155,65,184026,5,10,0:0:0:0:
78,8,184276,1,2,0:0:0:0:
11,80,184526,2,0,P|42:118|34:178,1,98.9999969787599,2|0,1:2|0:0,0:0:0:0:
9,240,184901,1,2,0:0:0:0:
9,240,185026,2,0,P|7:288|38:325,1,98.9999969787599,8|2,0:0|0:0,0:0:0:0:
118,382,185526,2,0,L|222:352,1,98.9999969787599,10|0,0:0|1:0,0:0:0:0:
365,303,186026,2,0,L|261:273,1,98.9999969787599,8|2,0:0|1:2,0:0:0:0:
174,242,186526,6,0,P|170:177|211:133,1,121.000003692627,14|0,0:0|1:0,0:0:0:0:
274,77,186901,2,0,B|253:44|246:13|246:13|226:33|206:44,1,121.000003692627,14|0,0:0|1:0,0:0:0:0:
125,86,187276,2,0,L|59:108,1,60.5000018463135,14|0,0:0|1:0,0:0:0:0:
0,47,187526,1,14,0:0:0:0:
14,175,188526,6,0,P|82:185|121:140,1,131.99999597168,14|0,0:0|1:0,0:0:0:0:
202,81,188901,2,0,B|216:141|216:141|209:155|209:155|222:209,1,131.99999597168,14|0,0:0|1:0,0:0:0:0:
243,297,189276,1,14,0:0:0:0:
412,123,189526,6,0,B|451:121|460:86|460:86|470:55|510:52,2,131.99999597168,14|0|10,0:0|1:0|0:0,0:0:0:0:
325,118,190151,1,8,0:0:0:0:
310,114,190276,1,2,1:2:0:0:
162,42,190526,6,0,B|71:21|71:21|42:48,1,131.99999597168,14|0,0:0|1:0,0:0:0:0:
0,130,190901,2,0,P|5:192|67:223,1,131.99999597168,14|0,0:0|1:0,0:0:0:0:
149,210,191276,1,14,0:0:0:0:
325,118,191526,6,0,L|457:87,1,131.99999597168,14|0,0:0|1:0,0:0:0:0:
343,271,192026,2,0,L|329:335,1,65.9999979858399,10|8,0:0|0:0,0:0:0:0:
256,271,192276,2,0,L|270:207,1,65.9999979858399,10|8,0:0|0:0,0:0:0:0:
171,299,192526,6,0,P|140:310|125:343,1,65.9999979858399,6|0,1:2|0:0,0:0:0:0:
46,384,192776,1,10,0:0:0:0:
43,371,192901,2,0,B|29:310|29:310|36:296|36:296|23:242,1,131.99999597168,6|0,1:2|1:0,0:0:0:0:
63,165,193276,1,10,0:0:0:0:
171,299,193526,6,0,L|242:316,1,65.9999979858399,2|0,1:2|0:0,0:0:0:0:
309,368,193776,2,0,L|325:296,1,65.9999979858399,10|0,0:0|0:0,0:0:0:0:
375,230,194026,2,0,L|304:213,1,65.9999979858399,2|0,1:2|1:0,0:0:0:0:
238,160,194276,2,0,L|222:232,1,65.9999979858399,10|0,0:0|0:0,0:0:0:0:
171,299,194526,6,0,P|142:306|105:293,1,65.9999979858399,2|0,1:2|0:0,0:0:0:0:
50,227,194776,1,10,0:0:0:0:
46,215,194901,2,0,B|41:176|74:161|74:161|104:147|100:107,1,131.99999597168,2|0,1:2|1:0,0:0:0:0:
136,26,195276,1,10,0:0:0:0:
303,169,195526,6,0,P|296:138|272:117,1,65.9999979858399,14|0,0:0|1:0,0:0:0:0:
372,251,195776,2,0,P|390:224|389:192,1,65.9999979858399,12|0,0:0|1:0,0:0:0:0:
427,321,196026,2,0,P|407:345|373:352,1,65.9999979858399,14|0,0:0|1:0,0:0:0:0:
258,296,196276,5,14,0:0:0:0:
243,292,196401,1,8,0:0:0:0:
228,288,196526,2,0,B|137:267|137:267|108:294,1,131.99999597168,6|10,1:2|0:0,0:0:0:0:
32,240,196901,2,0,P|11:189|49:128,1,131.99999597168,2|0,1:2|1:0,0:0:0:0:
122,70,197276,2,0,L|136:133,1,65.9999979858399,10|0,0:0|0:0,0:0:0:0:
240,200,197526,6,0,B|301:186|301:186|315:193|315:193|369:180,1,131.99999597168,2|8,1:2|0:0,0:0:0:0:
462,24,198026,1,2,1:2:0:0:
447,19,198151,1,0,1:0:0:0:
432,19,198276,2,0,P|404:28|384:58,1,65.9999979858399,10|0,0:0|0:0,0:0:0:0:
292,78,198526,6,0,B|253:83|238:50|238:50|224:20|184:24,1,131.99999597168,2|10,1:2|0:0,0:0:0:0:
93,40,198901,2,0,B|59:56|28:38|28:38|45:67|36:100,1,131.99999597168,2|0,1:2|1:0,0:0:0:0:
10,185,199276,2,0,P|9:219|27:245,1,65.9999979858399,10|0,0:0|0:0,0:0:0:0:
160,256,199526,6,0,L|129:387,2,131.99999597168,2|8|2,1:2|0:0|1:2,0:0:0:0:
134,170,200151,1,0,1:0:0:0:
130,157,200276,1,10,0:0:0:0:
288,263,200526,6,0,L|353:247,1,65.9999979858399,6|0,1:2|0:0,0:0:0:0:
429,293,200776,1,10,0:0:0:0:
440,291,200901,2,0,B|482:281|482:281|502:194,1,131.99999597168,6|0,1:2|1:0,0:0:0:0:
430,119,201276,2,0,L|414:191,1,65.9999979858399,10|0,0:0|0:0,0:0:0:0:
352,247,201526,6,0,P|318:242|300:216,1,65.9999979858399,2|0,1:2|0:0,0:0:0:0:
225,261,201776,2,0,P|205:233|210:202,1,65.9999979858399,10|0,0:0|0:0,0:0:0:0:
124,185,202026,2,0,P|130:151|156:133,1,65.9999979858399,2|0,1:2|1:0,0:0:0:0:
240,121,202276,1,10,0:0:0:0:
412,7,202526,6,0,L|397:72,1,65.9999979858399,2|0,1:2|0:0,0:0:0:0:
345,156,202776,1,10,0:0:0:0:
348,145,202901,2,0,P|399:103|461:118,1,131.99999597168,2|0,1:2|1:0,0:0:0:0:
512,189,203276,2,0,L|496:254,1,65.9999979858399,10|0,0:0|0:0,0:0:0:0:
471,338,203526,5,6,1:2:0:0:
182,261,204026,6,0,P|151:274|140:306,1,65.9999979858399,14|8,0:0|0:0,0:0:0:0:
204,360,204276,2,0,P|234:346|245:314,1,65.9999979858399,14|8,0:0|0:0,0:0:0:0:
266,233,204526,6,0,P|224:181|147:184,1,142.99999345398,6|10,1:2|0:0,0:0:0:0:
64,212,204901,2,0,B|53:181|28:144|28:144|58:133|93:101,1,142.99999345398,2|0,1:2|1:0,0:0:0:0:
133,29,205276,2,0,P|162:48|217:61,1,71.4999967269899,10|0,0:0|0:0,0:0:0:0:
347,5,205526,6,0,P|287:39|287:107,1,142.99999345398,2|8,1:2|0:0,0:0:0:0:
465,198,206026,1,2,1:2:0:0:
461,177,206151,1,0,1:0:0:0:
456,159,206276,2,0,P|418:158|392:192,1,71.4999967269899,10|0,0:0|0:0,0:0:0:0:
343,252,206526,6,0,P|303:296|221:271,1,142.99999345398,2|10,1:2|0:0,0:0:0:0:
154,224,206901,2,0,P|88:204|38:251,1,142.99999345398,2|0,1:2|1:0,0:0:0:0:
47,339,207276,2,0,L|131:320,1,71.4999967269899,10|0,0:0|0:0,0:0:0:0:
228,279,207526,6,0,B|245:229|245:229|242:204|242:204|265:133,2,142.99999345398,2|8|2,1:2|0:0|1:2,0:0:0:0:
249,368,208151,1,0,1:0:0:0:
255,384,208276,1,10,0:0:0:0:
423,361,208526,6,0,P|443:324|484:305,1,71.4999967269899,6|0,1:2|0:0,0:0:0:0:
506,225,208776,1,10,0:0:0:0:
497,211,208901,2,0,P|477:178|471:76,1,142.99999345398,6|0,1:2|1:0,0:0:0:0:
411,4,209276,1,10,0:0:0:0:
302,154,209526,6,0,L|220:123,1,71.4999967269899,2|0,1:2|0:0,0:0:0:0:
213,38,209776,2,0,P|175:50|152:78,1,71.4999967269899,10|0,0:0|0:0,0:0:0:0:
64,48,210026,2,0,P|55:86|68:120,1,71.4999967269899,2|0,1:2|1:0,0:0:0:0:
15,195,210276,2,0,P|44:221|80:227,1,71.4999967269899,10|0,0:0|0:0,0:0:0:0:
163,200,210526,6,0,L|229:225,1,71.4999967269899,2|0,1:2|0:0,0:0:0:0:
305,280,210776,1,10,0:0:0:0:
311,297,210901,2,0,P|301:354|216:375,1,142.99999345398,2|0,1:2|1:0,0:0:0:0:
155,319,211276,1,10,0:0:0:0:
310,196,211526,6,0,L|283:106,1,71.4999967269899,14|0,0:0|1:0,0:0:0:0:
197,115,211776,2,0,L|224:25,1,71.4999967269899,12|0,0:0|1:0,0:0:0:0:
118,201,212026,2,0,L|91:111,1,71.4999967269899,14|0,0:0|1:0,0:0:0:0:
26,29,212276,5,14,0:0:0:0:
18,57,212401,1,8,0:0:0:0:
12,80,212526,2,0,P|68:104|131:48,1,142.99999345398,6|10,1:2|0:0,0:0:0:0:
208,15,212901,2,0,B|273:28|273:28|286:43|286:43|356:57,1,142.99999345398,2|0,1:2|1:0,0:0:0:0:
426,90,213276,2,0,P|445:64|432:9,1,71.4999967269899,10|0,0:0|0:0,0:0:0:0:
360,149,213526,6,0,B|365:213|430:200|414:285,1,142.99999345398,2|8,1:2|0:0,0:0:0:0:
254,367,214026,1,2,1:2:0:0:
231,373,214151,1,0,1:0:0:0:
209,378,214276,2,0,P|192:337|209:296,1,71.4999967269899,10|0,0:0|0:0,0:0:0:0:
236,227,214526,6,0,P|252:178|189:111,1,142.99999345398,2|10,1:2|0:0,0:0:0:0:
186,19,214901,2,0,B|105:35|141:89|49:91,1,142.99999345398,2|0,1:2|1:0,0:0:0:0:
30,175,215276,2,0,P|-1:150|-12:107,1,71.4999967269899,10|0,0:0|0:0,0:0:0:0:
132,173,215526,6,0,L|97:342,2,142.99999345398,2|8|2,1:2|0:0|1:2,0:0:0:0:
198,112,216151,1,0,1:0:0:0:
194,100,216276,1,10,0:0:0:0:
336,219,216526,6,0,P|362:189|417:178,1,71.4999967269899,6|0,1:2|0:0,0:0:0:0:
480,149,216776,1,10,0:0:0:0:
477,164,216901,2,0,L|446:317,1,142.99999345398,6|0,1:2|1:0,0:0:0:0:
376,363,217276,2,0,P|349:336|304:328,1,71.4999967269899,10|0,0:0|0:0,0:0:0:0:
258,254,217526,6,0,P|231:281|186:289,1,71.4999967269899,2|0,1:2|0:0,0:0:0:0:
184,382,217776,2,0,P|147:372|117:337,1,71.4999967269899,10|0,0:0|0:0,0:0:0:0:
34,377,218026,2,0,P|24:340|39:297,1,71.4999967269899,2|0,1:2|1:0,0:0:0:0:
1,220,218276,1,10,0:0:0:0:
163,128,218526,6,0,P|191:150|249:154,1,71.4999967269899,2|0,1:2|0:0,0:0:0:0:
286,240,218776,1,10,0:0:0:0:
291,224,218901,2,0,P|324:182|411:190,1,142.99999345398,2|0,1:2|1:0,0:0:0:0:
498,171,219276,2,0,L|477:88,1,71.4999967269899,10|0,0:0|0:0,0:0:0:0:
456,11,219526,6,0,P|421:16|391:53,1,71.4999967269899,14|0,0:0|1:0,0:0:0:0:
319,93,219776,2,0,P|293:68|258:63,1,71.4999967269899,12|0,0:0|1:0,0:0:0:0:
170,93,220026,2,0,L|184:23,1,71.4999967269899,14|0,0:0|1:0,0:0:0:0:
60,5,220276,5,14,0:0:0:0:
39,10,220401,1,8,0:0:0:0:
21,15,220526,2,0,B|34:71|34:71|47:84|47:84|62:149,1,142.99999345398,6|8,1:2|0:0,0:0:0:0:
23,231,220901,2,0,P|54:188|141:198,1,142.99999345398,2|2,0:0|0:0,0:0:0:0:
224,229,221276,2,0,P|259:221|282:189,1,71.4999967269899,8|0,0:0|0:0,0:0:0:0:
317,107,221526,6,0,L|390:90,1,71.4999967269899,2|0,1:2|0:0,0:0:0:0:
473,71,221776,1,10,0:0:0:0:
478,82,221901,2,0,B|494:121|459:146|459:146|425:170|438:208,1,142.99999345398,2|0,0:0|0:0,0:0:0:0:
476,287,222276,1,10,0:0:0:0:
290,230,222526,6,0,P|260:218|223:229,1,71.4999967269899,2|0,1:2|0:0,0:0:0:0:
160,170,222776,1,8,0:0:0:0:
147,167,222901,2,0,P|117:179|98:213,1,71.4999967269899,2|0,0:0|1:0,0:0:0:0:
24,255,223151,1,2,0:0:0:0:
14,263,223276,2,0,P|2:294|13:330,1,71.4999967269899,10|0,0:0|0:0,0:0:0:0:
127,344,223526,6,0,B|162:340|188:375|188:375|195:333|225:316,1,142.99999345398,2|8,1:2|0:0,0:0:0:0:
366,182,224026,2,0,P|393:158|401:119,1,71.4999967269899,2|0,1:2|0:0,0:0:0:0:
352,55,224276,2,0,P|324:78|316:117,1,71.4999967269899,10|0,0:0|0:0,0:0:0:0:
293,238,224526,6,0,B|306:294|306:294|319:307|319:307|334:372,1,142.99999345398,6|8,1:2|0:0,0:0:0:0:
238,353,224901,2,0,B|138:330|138:330|115:365,1,142.99999345398,2|2,0:0|0:0,0:0:0:0:
41,317,225276,2,0,P|23:294|21:248,1,71.4999967269899,8|0,0:0|0:0,0:0:0:0:
36,165,225526,6,0,L|109:148,1,71.4999967269899,2|0,1:2|0:0,0:0:0:0:
178,76,225776,1,10,0:0:0:0:
180,88,225901,2,0,B|203:189|203:189|214:144,1,142.99999345398,2|0,0:0|0:0,0:0:0:0:
286,104,226276,2,0,L|359:87,1,71.4999967269899,10|0,0:0|0:0,0:0:0:0:
463,73,226526,6,0,P|442:98|441:137,1,71.4999967269899,2|0,1:2|0:0,0:0:0:0:
512,205,226776,1,10,0:0:0:0:
507,192,226901,2,0,P|443:168|384:227,1,142.99999345398,2|0,0:0|0:0,0:0:0:0:
304,259,227276,2,0,P|303:223|282:195,1,71.4999967269899,8|0,0:0|0:0,0:0:0:0:
201,136,227526,6,0,B|170:168|170:168|68:145,1,142.99999345398,2|8,1:2|0:0,0:0:0:0:
97,314,228026,2,0,L|114:387,1,71.4999967269899,14|8,0:0|0:0,0:0:0:0:
193,328,228276,2,0,L|210:255,1,71.4999967269899,14|8,0:0|0:0,0:0:0:0:
293,341,228526,6,0,B|328:336|356:368|356:368|360:327|389:308,1,142.99999345398,6|8,1:2|0:0,0:0:0:0:
462,252,228901,2,0,B|478:149|478:149|444:125,1,142.99999345398,2|2,0:0|0:0,0:0:0:0:
363,94,229276,2,0,P|336:101|310:141,1,71.4999967269899,8|0,0:0|0:0,0:0:0:0:
261,52,229526,6,0,P|245:30|198:20,1,71.4999967269899,2|0,1:2|0:0,0:0:0:0:
167,97,229776,1,10,0:0:0:0:
155,99,229901,2,0,B|99:112|99:112|86:125|86:125|21:140,1,142.99999345398,2|0,0:0|0:0,0:0:0:0:
0,230,230276,1,10,0:0:0:0:
74,374,230526,6,0,L|90:300,1,71.4999967269899,2|0,1:2|0:0,0:0:0:0:
171,270,230776,1,8,0:0:0:0:
182,272,230901,2,0,P|235:264|263:186,1,142.99999345398,2|2,0:0|0:0,0:0:0:0:
311,110,231276,2,0,L|327:36,1,71.4999967269899,10|0,0:0|0:0,0:0:0:0:
382,168,231526,6,0,B|421:152|446:187|446:187|470:221|508:208,1,142.99999345398,2|8,1:2|0:0,0:0:0:0:
417,384,232026,2,0,L|434:311,1,71.4999967269899,2|0,1:2|0:0,0:0:0:0:
361,256,232276,2,0,L|344:329,1,71.4999967269899,10|0,0:0|0:0,0:0:0:0:
225,359,232526,6,0,B|125:336|125:336|102:371,1,142.99999345398,6|8,1:2|0:0,0:0:0:0:
34,315,232901,2,0,P|5:259|45:193,1,142.99999345398,2|2,0:0|0:0,0:0:0:0:
127,172,233276,2,0,P|159:185|178:218,1,71.4999967269899,8|0,0:0|0:0,0:0:0:0:
251,276,233526,6,0,L|267:206,1,71.4999967269899,2|0,1:2|0:0,0:0:0:0:
287,120,233776,1,10,0:0:0:0:
291,108,233901,2,0,B|307:69|349:76|349:76|390:83|408:47,1,142.99999345398,2|0,0:0|0:0,0:0:0:0:
489,25,234276,1,10,0:0:0:0:
425,199,234526,6,0,P|410:227|419:270,1,71.4999967269899,2|0,1:2|0:0,0:0:0:0:
478,339,234776,1,10,0:0:0:0:
470,331,234901,2,0,B|439:300|439:300|337:323,1,142.99999345398,2|2,0:0|0:0,0:0:0:0:
269,380,235276,2,0,L|251:305,1,71.4999967269899,8|2,0:0|0:0,0:0:0:0:
227,200,235526,6,0,P|187:190|157:204,1,71.4999967269899,14|0,0:0|1:0,0:0:0:0:
75,157,235776,2,0,P|43:172|28:204,1,71.4999967269899,12|0,0:0|1:0,0:0:0:0:
33,303,236026,5,14,0:0:0:0:
36,316,236151,1,8,0:0:0:0:
112,358,236276,5,12,0:0:0:0:
115,371,236401,1,8,0:0:0:0:
182,297,236526,6,0,L|272:314,1,71.4999967269899,6|0,1:2|0:0,0:0:0:0:
329,362,236776,2,0,B|354:337|396:334|396:334|372:303|364:255,1,142.99999345398,8|0,0:0|1:0,0:0:0:0:
313,199,237151,1,0,0:0:0:0:
321,190,237276,2,0,P|337:160|345:117,1,71.4999967269899,8|0,0:0|0:0,0:0:0:0:
407,61,237526,1,0,1:0:0:0:
207,4,237776,5,10,0:0:0:0:
191,8,237901,1,0,0:0:0:0:
176,14,238026,2,0,L|198:87,1,71.4999967269899,0|0,1:0|0:0,0:0:0:0:
125,143,238276,2,0,L|103:70,1,71.4999967269899,10|0,0:0|0:0,0:0:0:0:
8,56,238526,6,0,L|59:225,1,142.99999345398,2|8,1:2|0:0,0:0:0:0:
29,288,238901,1,0,0:0:0:0:
39,280,239026,2,0,P|76:282|114:317,1,71.4999967269899,0|0,1:0|0:0,0:0:0:0:
169,366,239276,1,10,0:0:0:0:
253,204,239526,6,0,P|289:249|388:237,1,142.99999345398,2|8,1:2|0:0,0:0:0:0:
468,283,239901,1,0,0:0:0:0:
464,271,240026,2,0,L|436:188,1,71.4999967269899,6|0,1:2|0:0,0:0:0:0:
352,163,240276,2,0,L|382:82,1,71.4999967269899,14|0,0:0|0:0,0:0:0:0:
386,3,240526,6,0,B|300:3|332:65|249:64,1,142.99999345398,6|8,1:2|0:0,0:0:0:0:
223,134,240901,1,0,0:0:0:0:
207,127,241026,1,0,1:0:0:0:
64,31,241276,5,10,0:0:0:0:
60,46,241401,1,0,0:0:0:0:
56,62,241526,2,0,L|38:148,1,71.4999967269899,2|0,1:2|0:0,0:0:0:0:
23,216,241776,2,0,P|62:221|86:266,1,71.4999967269899,8|0,0:0|0:0,0:0:0:0:
142,305,242026,1,0,1:0:0:0:
291,204,242276,5,10,0:0:0:0:
304,201,242401,1,0,0:0:0:0:
319,198,242526,2,0,L|300:295,1,71.4999967269899,6|0,1:2|0:0,0:0:0:0:
327,352,242776,2,0,P|364:337|386:290,1,71.4999967269899,8|0,0:0|0:0,0:0:0:0:
469,255,243026,6,0,P|432:240|410:193,1,71.4999967269899,6|0,1:2|0:0,0:0:0:0:
507,104,243276,2,0,L|484:186,1,71.4999967269899,8|0,0:0|0:0,0:0:0:0:
369,131,243526,6,0,L|388:62,1,71.4999967269899,6|0,1:2|0:0,0:0:0:0:
311,24,243776,2,0,L|291:92,1,71.4999967269899,8|0,0:0|0:0,0:0:0:0:
216,145,244026,5,14,0:0:0:0:
219,158,244151,1,8,0:0:0:0:
137,90,244276,5,12,0:0:0:0:
140,103,244401,1,8,0:0:0:0:
81,175,244526,6,0,L|98:265,1,71.4999967269899,6|0,1:2|0:0,0:0:0:0:
152,317,244776,2,0,B|189:316|209:352|209:352|211:311|243:288,1,142.99999345398,8|0,0:0|1:0,0:0:0:0:
290,204,245151,1,0,0:0:0:0:
295,216,245276,2,0,P|319:240|378:249,1,71.4999967269899,10|0,0:0|0:0,0:0:0:0:
407,322,245526,1,2,1:2:0:0:
510,150,245776,6,0,L|489:77,1,71.4999967269899,8|2,0:0|0:0,0:0:0:0:
433,2,246026,1,0,1:0:0:0:
431,15,246151,2,0,P|406:44|355:48,1,71.4999967269899,0|10,0:0|0:0,0:0:0:0:
296,99,246401,5,0,0:0:0:0:
290,86,246526,2,0,P|246:37|160:45,2,142.99999345398,2|8|0,1:2|0:0|1:0,0:0:0:0:
356,155,247151,1,0,0:0:0:0:
368,150,247276,1,10,0:0:0:0:
305,334,247526,6,0,B|246:316|246:316|227:322|227:322|151:303,1,142.99999345398,2|8,1:2|0:0,0:0:0:0:
20,211,248026,2,0,P|53:203|88:167,1,71.4999967269899,2|0,1:2|0:0,0:0:0:0:
133,102,248276,2,0,P|166:110|201:146,1,71.4999967269899,10|0,0:0|0:0,0:0:0:0:
261,200,248526,6,0,P|329:207|377:157,1,142.99999345398,6|8,1:2|0:0,0:0:0:0:
434,94,248901,1,0,0:0:0:0:
429,79,249026,1,0,1:0:0:0:
499,256,249276,2,0,L|474:332,1,71.4999967269899,10|0,0:0|0:0,0:0:0:0:
401,373,249526,6,0,B|377:348|333:345|333:345|359:315|362:279,1,142.99999345398,2|8,1:2|0:0,0:0:0:0:
415,213,249901,1,0,0:0:0:0:
405,206,250026,2,0,P|374:165|369:139,1,71.4999967269899,0|0,1:0|0:0,0:0:0:0:
319,25,250276,2,0,L|299:93,1,71.4999967269899,10|0,0:0|0:0,0:0:0:0:
263,184,250526,6,0,P|226:164|214:59,1,142.99999345398,6|8,1:2|0:0,0:0:0:0:
133,7,250901,1,0,0:0:0:0:
132,21,251026,2,0,P|114:61|84:75,1,71.4999967269899,6|0,1:2|0:0,0:0:0:0:
11,101,251276,1,8,0:0:0:0:
120,251,251526,6,0,L|139:182,1,71.4999967269899,14|0,1:2|0:0,0:0:0:0:
22,302,251776,2,0,L|2:233,1,71.4999967269899,14|0,1:2|0:0,0:0:0:0:
114,359,252026,2,0,P|155:337|202:347,1,71.4999967269899,14|0,1:2|0:0,0:0:0:0:
256,285,252276,2,0,P|295:309|310:355,1,71.4999967269899,14|0,1:2|0:0,0:0:0:0:
388,374,252526,5,6,1:2:0:0:
