osu file format v14

[General]
AudioFilename: audio.ogg
AudioLeadIn: 0
PreviewTime: 59963
Countdown: 0
SampleSet: Soft
StackLeniency: 0.7
Mode: 0
LetterboxInBreaks: 0
WidescreenStoryboard: 1

[Editor]
DistanceSpacing: 0.9
BeatDivisor: 4
GridSize: 32
TimelineZoom: 8

[Metadata]
Title:Hana ni Ame o, Kimi ni Uta o
TitleUnicode:花に雨を、君に歌を
Artist:Tsukuyomi
ArtistUnicode:月詠み
Creator:Nevertary
Version:Advanced
Source:
Tags:THE BINARY mido あかまる akamaru ユリイ・カノン YurryCanon Yue ユエ SERRA セラ 片井雨司 kataiuji cover female vocals vocalist japanese rock j-rock jrock lushifer Crysisters
BeatmapID:4033558
BeatmapSetID:1929568

[Difficulty]
HPDrainRate:4
CircleSize:3.4
OverallDifficulty:6
ApproachRate:7.5
SliderMultiplier:1
SliderTickRate:1

[Events]
//Background and Video events
0,0,"BG.jpg",0,0
Video,-58,"bgv.mp4"
//Break Periods
2,172726,179701
//Storyboard Layer 0 (Background)
//Storyboard Layer 1 (Fail)
//Storyboard Layer 2 (Pass)
//Storyboard Layer 3 (Foreground)
//Storyboard Layer 4 (Overlay)
//Storyboard Sound Samples

[TimingPoints]
526,250,4,2,2,50,1,0
4526,-117.647058823529,4,2,2,55,0,0
6526,-100,4,2,2,65,0,0
8526,-90.9090909090908,4,2,1,75,0,0
24526,-117.647058823529,4,2,3,50,0,0
36526,-111.111111111111,4,2,3,55,0,0
44526,-100,4,2,3,60,0,0
56526,-100,4,2,3,65,0,0
58526,-99.9999999999999,4,2,2,70,0,0
60526,-83.3333333333333,4,2,1,80,0,1
92526,-90.9090909090909,4,2,1,75,0,0
108526,-95.2380952380952,4,2,2,60,0,0
116526,-95.2380952380952,4,2,2,65,0,0
124526,-100,4,2,3,60,0,0
136526,-100,4,2,3,65,0,0
138526,-100,4,2,2,70,0,0
140526,-83.3333333333333,4,2,1,80,0,1
156526,-90.9090909090909,4,2,1,75,0,0
172526,-100,4,2,3,60,0,0
186526,-90.9090909090909,4,2,2,70,0,0
188526,-90.9090909090909,4,2,1,75,0,0
192526,-83.3333333333333,4,2,1,80,0,1
203526,-83.3333333333333,4,2,1,80,0,0
204526,-76.9230769230769,4,2,1,80,0,1
236526,-76.9230769230769,4,2,1,80,0,0
244526,-76.9230769230769,4,2,1,80,0,1
252526,-76.9230769230769,4,2,1,80,0,0

[Colours]
Combo1 : 172,172,172
Combo2 : 88,75,122
Combo3 : 94,113,112
Combo4 : 211,154,218

[HitObjects]
128,46,4526,6,0,L|2:24,2,127.50000243187,2|2|2,1:2|0:0|0:0,0:0:0:0:
192,99,5526,2,0,P|208:133|196:179,1,85.0000016212464,2|0,1:2|0:0,0:0:0:0:
179,211,5901,2,0,P|163:245|175:291,1,85.0000016212464,2|0,0:0|0:0,0:0:0:0:
194,321,6276,1,2,0:0:0:0:
272,370,6526,5,8,1:2:0:0:
272,370,6651,1,8,0:0:0:0:
328,301,6901,1,8,1:2:0:0:
328,301,7026,1,8,0:0:0:0:
406,345,7276,2,0,L|454:335,1,50,8|8,1:2|0:0,0:0:0:0:
498,327,7526,1,8,1:2:0:0:
0,71,8526,6,0,B|51:61|51:61|67:69|67:69|107:61,1,110.000003356934,6|8,1:2|0:0,0:0:0:0:
153,77,8901,2,0,B|178:100|178:100|163:176,1,110.000003356934,2|0,1:2|1:0,0:0:0:0:
160,224,9276,1,10,0:0:0:0:
226,297,9526,1,2,1:2:0:0:
309,244,9776,1,8,0:0:0:0:
309,244,9901,2,0,P|360:220|410:238,1,110.000003356934,2|2,1:2|1:2,0:0:0:0:
452,259,10276,2,0,L|463:201,1,55.0000016784668,10|0,0:0|0:0,0:0:0:0:
474,156,10526,5,2,1:2:0:0:
415,82,10776,1,8,0:0:0:0:
415,82,10901,2,0,B|386:89|367:63|367:63|347:37|318:44,1,110.000003356934,2|0,1:2|1:0,0:0:0:0:
269,46,11276,1,10,0:0:0:0:
177,82,11526,2,0,L|122:71,1,55.0000016784668,2|0,1:2|0:0,0:0:0:0:
73,68,11776,1,10,0:0:0:0:
2,137,12026,1,2,1:2:0:0:
11,235,12276,1,10,0:0:0:0:
76,309,12526,6,0,B|105:306|125:332|125:332|130:299|157:288,1,110.000003356934,2|8,1:2|0:0,0:0:0:0:
194,264,12901,2,0,B|225:219|225:219|213:164,1,110.000003356934,2|0,1:2|1:0,0:0:0:0:
201,116,13276,1,10,0:0:0:0:
267,42,13526,1,2,1:2:0:0:
359,89,13776,1,8,0:0:0:0:
359,89,13901,2,0,P|405:119|456:107,1,110.000003356934,2|2,1:2|1:2,0:0:0:0:
497,79,14276,1,10,0:0:0:0:
509,177,14526,6,0,B|499:228|499:228|507:244|507:244|499:284,1,110.000003356934,2|10,1:2|0:0,0:0:0:0:
485,334,14901,1,0,1:0:0:0:
485,334,15026,2,0,P|454:350|430:349,1,55.0000016784668,2|0,0:0|1:0,0:0:0:0:
384,344,15276,1,10,0:0:0:0:
286,333,15526,2,0,L|232:322,1,55.0000016784668,10|0,0:0|1:0,0:0:0:0:
186,340,15776,2,0,L|132:329,1,55.0000016784668,10|0,0:0|1:0,0:0:0:0:
82,323,16026,1,10,0:0:0:0:
11,253,16276,2,0,P|5:228|15:197,1,55.0000016784668,10|8,0:0|0:0,0:0:0:0:
20,151,16526,6,0,B|48:158|67:132|67:132|87:106|116:113,1,110.000003356934,6|8,1:2|0:0,0:0:0:0:
165,113,16901,2,0,B|186:224,1,110.000003356934,2|0,1:2|1:0,0:0:0:0:
193,269,17276,1,10,0:0:0:0:
263,338,17526,1,2,1:2:0:0:
341,285,17776,1,8,0:0:0:0:
341,285,17901,2,0,P|400:265|442:282,1,110.000003356934,2|2,0:0|1:2,0:0:0:0:
491,281,18276,2,0,P|507:251|505:228,1,55.0000016784668,10|0,0:0|0:0,0:0:0:0:
501,181,18526,5,2,1:2:0:0:
470,92,18776,1,8,0:0:0:0:
470,92,18901,2,0,B|395:77|395:77|372:102,1,110.000003356934,2|0,1:2|1:0,0:0:0:0:
343,142,19276,1,10,0:0:0:0:
264,82,19526,2,0,L|210:71,1,55.0000016784668,2|0,1:2|0:0,0:0:0:0:
160,62,19776,1,10,0:0:0:0:
61,65,20026,1,2,1:2:0:0:
9,149,20276,1,10,0:0:0:0:
14,247,20526,6,0,B|39:263|38:296|38:296|63:273|91:281,1,110.000003356934,2|8,1:2|0:0,0:0:0:0:
133,266,20901,2,0,P|183:249|229:278,1,110.000003356934,2|0,1:2|1:0,0:0:0:0:
263,313,21276,1,10,0:0:0:0:
345,367,21526,1,2,1:2:0:0:
441,335,21776,1,8,0:0:0:0:
441,335,21901,2,0,B|450:283|450:283|442:267|442:267|450:227,1,110.000003356934,2|2,0:0|1:2,0:0:0:0:
462,180,22276,1,10,0:0:0:0:
475,81,22526,6,0,B|446:89|427:63|427:63|407:37|378:44,1,110.000003356934,2|10,1:2|0:0,0:0:0:0:
336,64,22901,1,0,1:0:0:0:
336,64,23026,2,0,P|313:91|309:114,1,55.0000016784668,2|0,0:0|1:0,0:0:0:0:
303,158,23276,1,10,0:0:0:0:
246,239,23526,2,0,L|193:228,1,55.0000016784668,10|0,0:0|1:0,0:0:0:0:
142,219,23776,1,10,0:0:0:0:
50,184,24026,2,0,L|39:237,1,55.0000016784668,10|8,0:0|0:0,0:0:0:0:
62,282,24276,2,0,L|51:335,1,55.0000016784668,10|8,0:0|0:0,0:0:0:0:
46,384,24526,5,2,0:0:0:0:
256,192,24651,12,2,27526,0:0:0:0:
19,59,28526,6,0,L|104:42,1,85.0000016212464,2|0,1:2|0:0,0:0:0:0:
139,66,28901,1,2,0:0:0:0:
139,66,29026,2,0,L|222:48,1,85.0000016212464,0|2,1:0|0:0,0:0:0:0:
285,90,29526,2,0,B|320:95|339:64|339:64|358:34|397:44,2,127.50000243187,2|2|2,1:2|0:0|0:0,0:0:0:0:
228,142,30526,6,0,P|204:203|228:256,1,127.50000243187,2|2,1:2|0:0,0:0:0:0:
288,304,31151,2,0,L|374:287,1,85.0000016212464,2|0,0:0|0:0,0:0:0:0:
409,281,31526,2,0,B|442:249|442:249|418:125,1,170.000003242493,2|0,1:2|1:0,0:0:0:0:
403,52,32276,1,2,0:0:0:0:
326,44,32526,6,0,P|286:53|257:90,1,85.0000016212464,2|0,1:2|0:0,0:0:0:0:
252,126,32901,1,2,0:0:0:0:
252,126,33026,2,0,L|268:212,1,85.0000016212464,0|2,1:0|0:0,0:0:0:0:
322,263,33526,2,0,B|407:246|407:246|419:226|405:205,2,127.50000243187,2|2|2,1:2|0:0|0:0,0:0:0:0:
249,288,34526,6,0,B|213:307|205:357|205:357|169:324|117:331,1,170.000003242493,2|0,1:2|1:0,0:0:0:0:
51,336,35276,1,2,0:0:0:0:
1,277,35526,2,0,L|23:194,1,85.0000016212464,2|0,1:2|0:0,0:0:0:0:
10,158,35901,2,0,L|34:63,1,85.0000016212464,2|4,1:2|3:0,0:0:0:0:
44,39,36276,1,2,3:0:0:0:
123,54,36526,6,0,L|213:72,1,89.9999972534181,2|0,1:2|0:0,0:0:0:0:
239,108,36901,1,2,0:0:0:0:
239,108,37026,2,0,P|252:154|233:191,1,89.9999972534181,8|2,0:1|0:0,0:0:0:0:
170,239,37526,2,0,B|117:250|117:250|100:270|100:270|47:281,2,134.999995880127,2|2|0,1:2|0:0|0:0,0:0:0:0:
249,223,38526,6,0,L|267:316,1,89.9999972534181,2|0,1:2|0:0,0:0:0:0:
273,351,38901,1,2,0:0:0:0:
353,342,39151,2,0,L|442:325,1,89.9999972534181,2|0,0:0|0:0,0:0:0:0:
463,291,39526,2,0,B|492:248|454:211|454:211|414:174|444:127,1,179.999994506836,2|8,1:2|0:1,0:0:0:0:
390,66,40276,1,2,0:0:0:0:
311,90,40526,6,0,P|294:133|307:173,1,89.9999972534181,2|0,1:2|0:0,0:0:0:0:
325,214,40901,1,2,0:0:0:0:
325,214,41026,2,0,P|282:197|242:210,1,89.9999972534181,8|2,0:1|0:0,0:0:0:0:
182,265,41526,2,0,B|171:306|202:325|202:325|232:344|220:388,2,134.999995880127,2|2|2,1:2|0:0|0:0,0:0:0:0:
168,185,42526,6,0,B|42:159|42:159|8:200,1,179.999994506836,2|8,1:2|0:1,0:0:0:0:
4,279,43276,1,2,0:0:0:0:
33,354,43526,2,0,P|76:366|120:352,1,89.9999972534181,2|0,1:2|0:0,0:0:0:0:
151,330,43901,2,0,P|194:318|238:332,1,89.9999972534181,2|2,0:0|0:0,0:0:0:0:
269,354,44276,1,0,0:0:0:0:
357,369,44526,6,0,L|455:349,1,100,4|2,1:2|0:0,0:0:0:0:
498,338,44901,1,0,0:0:0:0:
512,252,45151,1,0,0:0:0:0:
512,252,45276,1,2,0:0:0:0:
490,164,45526,2,0,L|470:65,1,100,2|0,1:2|0:0,0:0:0:0:
462,26,45901,1,2,0:0:0:0:
462,26,46026,1,8,0:0:0:0:
372,26,46276,2,0,P|346:40|334:60,1,50,2|0,0:0|0:0,0:0:0:0:
311,94,46526,6,0,L|291:192,1,100,2|0,1:2|0:0,0:0:0:0:
279,235,46901,2,0,B|240:219|213:250|213:250|183:285|141:268,1,150,2|2,0:0|0:0,0:0:0:0:
61,233,47526,2,0,P|29:202|25:149,1,100,2|0,1:2|0:0,0:0:0:0:
74,68,48026,1,10,0:0:0:0:
155,107,48276,1,2,0:0:0:0:
229,56,48526,6,0,L|327:36,1,100,2|0,1:2|0:0,0:0:0:0:
371,28,48901,1,2,0:0:0:0:
448,73,49151,2,0,L|499:63,2,50,0|2|0,0:0|0:0|0:0,0:0:0:0:
423,111,49526,2,0,P|406:160|425:207,1,100,2|0,1:2|0:0,0:0:0:0:
450,238,49901,1,2,0:0:0:0:
450,238,50026,1,8,0:0:0:0:
422,323,50276,1,2,0:0:0:0:
343,279,50526,6,0,L|245:259,1,100,2|0,1:2|0:0,0:0:0:0:
209,286,50901,2,0,B|197:225|197:225|208:202|208:202|196:140,1,150,2|2,0:0|0:0,0:0:0:0:
192,50,51526,2,0,P|144:20|103:27,1,100,2|2,1:2|0:0,0:0:0:0:
48,96,52026,2,0,L|-5:85,2,50,10|2|2,0:0|0:0|0:0,0:0:0:0:
85,125,52401,5,2,0:0:0:0:
85,125,52526,2,0,L|104:224,1,100,6|2,1:2|0:0,0:0:0:0:
97,270,52901,1,0,0:0:0:0:
97,270,53026,2,0,P|144:242|188:253,1,100,8|2,0:0|0:0,0:0:0:0:
266,291,53526,2,0,P|314:299|355:272,1,100,2|0,1:2|0:0,0:0:0:0:
383,238,53901,1,2,0:0:0:0:
383,238,54026,1,8,0:0:0:0:
437,166,54276,2,0,L|427:114,1,50,2|0,0:0|0:0,0:0:0:0:
416,73,54526,6,0,P|368:93|324:77,1,100,2|0,1:2|0:0,0:0:0:0:
283,60,54901,2,0,B|244:44|217:75|217:75|187:110|145:93,1,150,2|2,0:0|0:0,0:0:0:0:
71,46,55526,1,6,1:2:0:0:
12,216,56026,2,0,L|62:206,1,50,8|4,3:0|3:0,0:0:0:0:
100,227,56276,2,0,L|150:217,1,50,2|2,3:0|3:0,0:0:0:0:
193,212,56526,6,0,B|181:273|181:273|192:296|192:296|180:358,2,150,2|0|10,1:2|1:0|0:0,0:0:0:0:
209,123,57526,2,0,L|218:72,1,50,2|0,1:2|0:0,0:0:0:0:
243,37,57776,1,0,0:0:0:0:
243,37,57901,2,0,P|291:20|338:37,1,100,2|0,1:2|1:0,0:0:0:0:
367,67,58276,1,10,0:0:0:0:
437,123,58526,6,0,B|449:151|432:174|432:174|417:193|426:218,1,100,14|0,0:0|1:0,0:0:0:0:
440,260,58901,2,0,P|403:253|356:290,1,100,14|0,0:0|1:0,0:0:0:0:
340,331,59276,1,14,0:0:0:0:
264,281,59526,1,14,0:0:0:0:
248,24,60526,6,0,B|286:35|286:35|302:114,1,119.999996337891,6|10,1:2|0:0,0:0:0:0:
288,166,60901,2,0,P|326:121|389:123,1,119.999996337891,2|0,1:2|1:0,0:0:0:0:
433,140,61276,1,10,0:0:0:0:
503,222,61526,2,0,B|494:272|494:272|502:291|502:291|493:341,1,119.999996337891,2|8,1:2|0:0,0:0:0:0:
386,319,62026,2,0,L|326:307,1,59.9999981689454,2|0,1:2|1:0,0:0:0:0:
273,297,62276,1,10,0:0:0:0:
193,370,62526,6,0,B|164:386|137:361|137:361|111:339|80:353,1,119.999996337891,2|10,1:2|0:0,0:0:0:0:
29,362,62901,2,0,B|12:371|-4:358|-4:358|12:275,1,119.999996337891,2|0,1:2|1:0,0:0:0:0:
23,222,63276,1,10,0:0:0:0:
47,117,63526,2,0,P|110:102|130:54,1,119.999996337891,2|8,1:2|0:0,0:0:0:0:
232,19,64026,2,0,L|244:79,1,59.9999981689454,2|0,1:2|1:0,0:0:0:0:
254,132,64276,1,10,0:0:0:0:
353,89,64526,6,0,P|384:74|411:79,1,59.9999981689454,6|0,1:2|0:0,0:0:0:0:
454,106,64776,1,10,0:0:0:0:
454,106,64901,2,0,B|486:130|486:130|471:209,1,119.999996337891,6|0,1:2|1:0,0:0:0:0:
460,261,65276,1,10,0:0:0:0:
393,346,65526,1,2,1:2:0:0:
286,329,65776,1,10,0:0:0:0:
255,225,66026,2,0,P|247:200|256:163,1,59.9999981689454,2|0,1:2|1:0,0:0:0:0:
276,118,66276,1,10,0:0:0:0:
195,46,66526,6,0,L|135:34,1,59.9999981689454,2|0,1:2|0:0,0:0:0:0:
87,27,66776,1,10,0:0:0:0:
87,27,66901,2,0,B|69:118|69:118|93:140,1,119.999996337891,2|0,1:2|1:0,0:0:0:0:
126,175,67276,1,10,0:0:0:0:
67,266,67526,1,14,0:0:0:0:
129,354,67776,1,12,0:0:0:0:
229,314,68026,2,0,P|260:306|290:315,1,59.9999981689454,14|0,0:0|1:0,0:0:0:0:
335,335,68276,2,0,P|366:343|396:334,1,59.9999981689454,14|8,0:0|0:0,0:0:0:0:
442,315,68526,6,0,B|458:232|458:232|442:219|425:228,1,119.999996337891,6|10,1:2|0:0,0:0:0:0:
373,211,68901,2,0,B|341:187|341:187|356:108,1,119.999996337891,2|0,1:2|1:0,0:0:0:0:
370,56,69276,1,10,0:0:0:0:
263,75,69526,2,0,B|234:91|207:66|207:66|181:44|150:58,1,119.999996337891,2|8,1:2|0:0,0:0:0:0:
59,113,70026,2,0,P|33:134|25:162,1,59.9999981689454,2|0,1:2|1:0,0:0:0:0:
31,212,70276,1,10,0:0:0:0:
35,319,70526,6,0,B|85:310|85:310|104:318|104:318|154:309,1,119.999996337891,2|10,1:2|0:0,0:0:0:0:
205,302,70901,2,0,P|245:253|236:197,1,119.999996337891,2|0,1:2|1:0,0:0:0:0:
215,151,71276,1,10,0:0:0:0:
272,59,71526,2,0,B|296:27|296:27|375:42,1,119.999996337891,2|8,1:2|0:0,0:0:0:0:
474,86,72026,2,0,P|498:108|504:137,1,59.9999981689454,2|0,1:2|1:0,0:0:0:0:
495,187,72276,1,10,0:0:0:0:
470,292,72526,6,0,L|410:280,1,59.9999981689454,6|0,1:2|0:0,0:0:0:0:
364,302,72776,1,10,0:0:0:0:
364,302,72901,2,0,B|281:286|281:286|262:299|266:318,1,119.999996337891,6|0,1:2|1:0,0:0:0:0:
270,369,73276,1,10,0:0:0:0:
172,322,73526,1,2,1:2:0:0:
79,376,73776,1,10,0:0:0:0:
4,298,74026,2,0,L|16:238,1,59.9999981689454,2|0,1:2|1:0,0:0:0:0:
27,186,74276,1,10,0:0:0:0:
53,81,74526,6,0,P|79:57|108:54,1,59.9999981689454,2|0,1:2|0:0,0:0:0:0:
156,63,74776,1,10,0:0:0:0:
156,63,74901,2,0,B|185:79|212:54|212:54|238:32|269:46,1,119.999996337891,2|0,1:2|1:0,0:0:0:0:
315,69,75276,1,10,0:0:0:0:
412,22,75526,1,14,0:0:0:0:
496,88,75776,1,12,0:0:0:0:
475,193,76026,2,0,L|463:251,1,59.9999981689454,14|0,0:0|1:0,0:0:0:0:
418,282,76276,2,0,L|406:340,1,59.9999981689454,14|8,0:0|0:0,0:0:0:0:
360,369,76526,6,0,P|294:350|277:305,1,119.999996337891,6|8,1:2|0:0,0:0:0:0:
279,252,76901,1,2,0:0:0:0:
317,151,77151,1,2,0:0:0:0:
317,151,77276,2,0,P|311:119|299:91,1,59.9999981689454,8|0,0:0|0:0,0:0:0:0:
262,55,77526,2,0,B|233:39|206:64|206:64|180:86|149:72,1,119.999996337891,2|10,1:2|0:0,0:0:0:0:
100,54,77901,2,0,P|34:66|14:110,1,119.999996337891,2|0,0:0|0:0,0:0:0:0:
16,163,78276,1,10,0:0:0:0:
83,247,78526,6,0,P|99:275|99:304,1,59.9999981689454,2|0,1:2|0:0,0:0:0:0:
94,359,78776,1,8,0:0:0:0:
94,359,78901,2,0,P|133:341|210:327,1,119.999996337891,2|2,0:0|0:0,0:0:0:0:
263,328,79276,1,10,0:0:0:0:
364,363,79526,2,0,P|426:360|456:314,1,119.999996337891,2|8,1:2|0:0,0:0:0:0:
439,208,80026,2,0,P|444:176|456:148,1,59.9999981689454,2|0,1:2|0:0,0:0:0:0:
481,103,80276,1,10,0:0:0:0:
401,29,80526,6,0,B|372:13|345:38|345:38|319:60|288:46,1,119.999996337891,6|8,1:2|0:0,0:0:0:0:
239,29,80901,1,2,0:0:0:0:
135,37,81151,1,2,0:0:0:0:
135,37,81276,2,0,P|99:43|80:63,1,59.9999981689454,8|0,0:0|0:0,0:0:0:0:
53,105,81526,2,0,P|35:144|21:221,1,119.999996337891,2|10,1:2|0:0,0:0:0:0:
18,273,81901,2,0,P|67:272|114:326,1,119.999996337891,2|0,0:0|0:0,0:0:0:0:
136,370,82276,1,10,0:0:0:0:
216,297,82526,6,0,P|232:269|232:239,1,59.9999981689454,2|0,1:2|0:0,0:0:0:0:
220,193,82776,1,10,0:0:0:0:
220,193,82901,2,0,B|204:164|229:137|229:137|251:111|237:80,1,119.999996337891,2|0,0:0|0:0,0:0:0:0:
219,30,83276,1,10,0:0:0:0:
326,33,83526,2,0,P|385:41|440:64,1,119.999996337891,2|8,1:2|0:0,0:0:0:0:
489,160,84026,2,0,P|505:188|505:217,1,59.9999981689454,14|8,0:0|0:0,0:0:0:0:
488,266,84276,2,0,P|479:297|459:318,1,59.9999981689454,14|8,0:0|0:0,0:0:0:0:
412,341,84526,6,0,B|383:357|356:332|356:332|330:310|299:324,1,119.999996337891,6|8,1:2|0:0,0:0:0:0:
252,347,84901,1,2,0:0:0:0:
164,293,85151,1,2,0:0:0:0:
164,293,85276,2,0,P|132:299|104:311,1,59.9999981689454,8|0,0:0|0:0,0:0:0:0:
53,315,85526,2,0,P|7:264|19:218,1,119.999996337891,2|10,1:2|0:0,0:0:0:0:
49,173,85901,2,0,P|72:117|80:58,1,119.999996337891,2|0,0:0|0:0,0:0:0:0:
68,5,86276,1,10,0:0:0:0:
175,18,86526,6,0,P|206:26|226:46,1,59.9999981689454,2|0,1:2|0:0,0:0:0:0:
250,99,86776,1,8,0:0:0:0:
250,99,86901,2,0,B|266:128|241:155|241:155|219:181|233:212,1,119.999996337891,2|2,0:0|0:0,0:0:0:0:
253,259,87276,1,10,0:0:0:0:
347,311,87526,2,0,P|410:315|446:270,1,119.999996337891,2|8,1:2|0:0,0:0:0:0:
490,177,88026,2,0,P|484:145|472:117,1,59.9999981689454,2|0,1:2|0:0,0:0:0:0:
444,74,88276,1,10,0:0:0:0:
348,23,88526,6,0,P|292:46|233:54,1,119.999996337891,6|8,1:2|0:0,0:0:0:0:
179,53,88901,1,2,0:0:0:0:
75,68,89151,1,2,0:0:0:0:
75,68,89276,2,0,P|47:85|33:111,1,59.9999981689454,8|0,0:0|0:0,0:0:0:0:
18,160,89526,2,0,B|2:189|27:216|27:216|49:242|35:273,1,119.999996337891,2|10,1:2|0:0,0:0:0:0:
22,323,89901,2,0,P|63:293|130:302,1,119.999996337891,2|0,0:0|0:0,0:0:0:0:
174,329,90276,1,10,0:0:0:0:
273,371,90526,6,0,P|279:339|291:311,1,59.9999981689454,2|0,1:2|0:0,0:0:0:0:
315,266,90776,1,10,0:0:0:0:
315,266,90901,2,0,P|378:276|417:237,1,119.999996337891,2|2,0:0|0:0,0:0:0:0:
441,192,91276,2,0,P|435:160|423:132,1,59.9999981689454,8|2,0:0|0:0,0:0:0:0:
403,85,91526,5,6,1:2:0:0:
222,204,92026,1,6,1:2:0:0:
204,6,92526,1,6,1:2:0:0:
256,192,92651,12,2,94526,1:2:0:0:
254,22,96526,6,0,B|264:73|264:73|256:89|256:89|264:129,1,110.000003356934,2|8,1:2|0:0,0:0:0:0:
274,177,96901,2,0,P|310:142|369:144,1,110.000003356934,2|0,1:2|1:0,0:0:0:0:
410,167,97276,1,10,0:0:0:0:
484,231,97526,1,2,1:2:0:0:
431,316,97776,1,8,0:0:0:0:
431,316,97901,2,0,B|402:309|383:335|383:335|363:361|334:354,1,110.000003356934,2|2,1:2|1:2,0:0:0:0:
286,345,98276,1,10,0:0:0:0:
190,370,98526,6,0,B|79:349,1,110.000003356934,2|10,1:2|0:0,0:0:0:0:
43,328,98901,1,0,1:0:0:0:
43,328,99026,2,0,P|25:301|25:279,1,55.0000016784668,2|0,0:0|1:0,0:0:0:0:
32,230,99276,1,10,0:0:0:0:
43,131,99526,2,0,L|97:120,1,55.0000016784668,10|0,0:0|1:0,0:0:0:0:
143,138,99776,2,0,L|197:127,1,55.0000016784668,10|0,0:0|1:0,0:0:0:0:
247,121,100026,1,10,0:0:0:0:
291,209,100276,2,0,P|297:234|287:265,1,55.0000016784668,10|8,0:0|0:0,0:0:0:0:
280,310,100526,6,0,B|306:322|310:354|310:354|331:329|360:333,1,110.000003356934,6|8,1:2|0:0,0:0:0:0:
405,332,100901,2,0,P|463:333|493:295,1,110.000003356934,2|0,1:2|1:0,0:0:0:0:
504,247,101276,1,10,0:0:0:0:
507,148,101526,1,2,1:2:0:0:
437,85,101776,1,8,0:0:0:0:
437,85,101901,2,0,B|392:54|392:54|337:66,1,110.000003356934,2|2,0:0|1:2,0:0:0:0:
296,93,102276,2,0,P|287:128|292:147,1,55.0000016784668,10|0,0:0|0:0,0:0:0:0:
309,191,102526,5,2,1:2:0:0:
249,270,102776,1,8,0:0:0:0:
249,270,102901,2,0,B|174:255|174:255|151:280,1,110.000003356934,2|0,1:2|1:0,0:0:0:0:
123,321,103276,1,10,0:0:0:0:
40,266,103526,2,0,L|29:212,1,55.0000016784668,2|0,1:2|0:0,0:0:0:0:
20,162,103776,1,10,0:0:0:0:
48,67,104026,1,2,1:2:0:0:
144,43,104276,1,10,0:0:0:0:
221,104,104526,6,0,B|250:111|269:85|269:85|289:59|318:66,1,110.000003356934,2|8,1:2|0:0,0:0:0:0:
361,87,104901,2,0,B|389:108|389:108|465:93,1,110.000003356934,2|0,1:2|1:0,0:0:0:0:
511,88,105276,1,10,0:0:0:0:
486,184,105526,1,2,1:2:0:0:
512,283,105776,1,8,0:0:0:0:
512,283,105901,2,0,B|461:273|461:273|445:281|445:281|405:273,1,110.000003356934,2|2,0:0|1:2,0:0:0:0:
356,263,106276,1,10,0:0:0:0:
257,249,106526,6,0,P|238:210|257:150,1,110.000003356934,2|10,1:2|0:0,0:0:0:0:
289,111,106901,1,0,1:0:0:0:
289,111,107026,2,0,P|294:80|288:56,1,55.0000016784668,2|0,0:0|1:0,0:0:0:0:
265,13,107276,1,10,0:0:0:0:
168,33,107526,2,0,L|114:44,1,55.0000016784668,10|0,0:0|1:0,0:0:0:0:
65,55,107776,1,10,0:0:0:0:
23,144,108026,2,0,P|15:173|23:198,1,55.0000016784668,10|8,0:0|0:0,0:0:0:0:
40,241,108276,2,0,P|48:270|40:295,1,55.0000016784668,10|8,0:0|0:0,0:0:0:0:
21,336,108526,6,0,P|68:307|117:317,1,104.999996795654,6|8,1:2|0:0,0:0:0:0:
155,340,108901,2,0,L|310:309,1,157.499995193482,2|10,1:2|0:0,0:0:0:0:
397,343,109526,2,0,B|424:325|447:333|447:333|444:305|463:281,1,104.999996795654,2|8,1:2|0:0,0:0:0:0:
477,239,109901,1,2,1:2:0:0:
432,159,110151,1,0,1:0:0:0:
432,159,110276,1,10,0:0:0:0:
483,79,110526,6,0,L|378:58,1,104.999996795654,2|8,1:2|0:0,0:0:0:0:
333,52,110901,1,2,1:2:0:0:
249,95,111151,2,0,P|182:115|150:101,1,104.999996795654,2|0,1:2|0:0,0:0:0:0:
112,76,111526,1,2,1:2:0:0:
33,125,111776,1,8,0:0:0:0:
33,125,111901,2,0,B|6:178|54:174|30:228,1,104.999996795654,0|0,1:0|1:0,0:0:0:0:
10,267,112276,1,10,0:0:0:0:
58,348,112526,6,0,L|163:327,1,104.999996795654,2|8,1:2|0:0,0:0:0:0:
204,310,112901,2,0,P|233:254|191:163,1,157.499995193482,2|10,1:2|0:0,0:0:0:0:
244,84,113526,2,0,B|276:80|292:98|292:98|303:72|331:60,1,104.999996795654,2|8,1:2|0:0,0:0:0:0:
365,32,113901,1,2,1:2:0:0:
459,63,114151,1,0,1:0:0:0:
459,63,114276,1,10,0:0:0:0:
484,154,114526,6,0,B|511:207|463:204|489:257,1,104.999996795654,2|8,1:2|0:0,0:0:0:0:
495,301,114901,2,0,P|452:271|401:275,1,104.999996795654,0|0,1:0|1:0,0:0:0:0:
360,297,115276,1,10,0:0:0:0:
277,250,115526,2,0,L|256:145,1,104.999996795654,2|10,1:2|0:0,0:0:0:0:
249,100,115901,1,8,3:0:0:0:
249,100,116026,1,4,3:0:0:0:
160,66,116276,2,0,P|133:61|106:70,1,52.4999983978272,10|8,0:0|0:0,0:0:0:0:
72,97,116526,6,0,B|48:152|95:146|73:201,1,104.999996795654,6|8,1:2|0:0,0:0:0:0:
55,241,116901,2,0,P|125:256|143:341,1,157.499995193482,2|10,1:2|0:0,0:0:0:0:
234,367,117526,2,0,L|339:346,1,104.999996795654,2|8,1:2|0:0,0:0:0:0:
383,336,117901,1,2,0:0:0:0:
480,351,118151,1,0,1:0:0:0:
480,351,118276,1,10,0:0:0:0:
497,258,118526,6,0,B|520:202|473:208|495:153,1,104.999996795654,2|8,1:2|0:0,0:0:0:0:
503,111,118901,1,2,1:2:0:0:
409,96,119151,2,0,P|344:87|320:56,1,104.999996795654,2|0,1:2|0:0,0:0:0:0:
299,16,119526,2,0,L|278:121,1,104.999996795654,2|8,1:2|0:0,0:0:0:0:
311,207,120026,2,0,L|364:217,2,52.4999983978272,0|0|10,1:0|1:0|0:0,0:0:0:0:
273,234,120401,5,0,0:0:0:0:
273,234,120526,2,0,P|219:243|196:285,1,104.999996795654,2|8,1:2|0:0,0:0:0:0:
185,330,120901,2,0,B|94:313|130:384|33:364,1,157.499995193482,2|10,1:2|0:0,0:0:0:0:
8,275,121526,2,0,L|28:172,1,104.999996795654,2|8,1:2|0:0,0:0:0:0:
36,125,121901,1,2,0:0:0:0:
95,52,122151,1,0,1:0:0:0:
95,52,122276,1,10,0:0:0:0:
187,76,122526,6,0,P|239:93|285:75,1,104.999996795654,2|8,1:2|0:0,0:0:0:0:
326,53,122901,2,0,B|386:45|367:89|426:83,1,104.999996795654,0|0,1:0|1:0,0:0:0:0:
469,78,123276,1,10,0:0:0:0:
508,163,123526,1,10,0:0:0:0:
432,219,123776,1,8,0:0:0:0:
432,219,123901,1,8,3:0:0:0:
496,287,124151,2,0,P|503:307|497:339,1,52.4999983978272,2|2,3:0|3:0,0:0:0:0:
461,365,124401,5,2,3:0:0:0:
461,365,124526,2,0,L|361:345,1,100,4|2,1:2|0:0,0:0:0:0:
318,338,124901,1,0,0:0:0:0:
318,338,125026,1,8,0:0:0:0:
265,264,125276,2,0,P|258:238|265:213,1,50,2|0,0:0|0:0,0:0:0:0:
284,176,125526,2,0,P|300:125|284:83,1,100,2|0,1:2|0:0,0:0:0:0:
256,46,125901,1,2,0:0:0:0:
256,46,126026,1,8,0:0:0:0:
168,27,126276,6,0,L|114:16,1,50,2|0,0:0|0:0,0:0:0:0:
74,11,126526,2,0,P|31:42|27:87,1,100,2|0,1:2|0:0,0:0:0:0:
26,130,126901,2,0,L|53:278,1,150,2|2,0:0|0:0,0:0:0:0:
74,365,127526,2,0,P|114:372|165:346,1,100,2|0,1:2|0:0,0:0:0:0:
235,289,128026,1,10,0:0:0:0:
315,331,128276,1,2,0:0:0:0:
365,256,128526,6,0,P|392:225|448:219,1,100,2|0,1:2|0:0,0:0:0:0:
493,240,128901,1,2,0:0:0:0:
493,240,129026,2,0,L|512:140,1,100,8|2,0:0|0:0,0:0:0:0:
480,57,129526,2,0,P|453:26|397:20,1,100,2|0,1:2|0:0,0:0:0:0:
358,43,129901,1,2,0:0:0:0:
358,43,130026,1,8,0:0:0:0:
289,101,130276,2,0,L|299:151,1,50,2|0,0:0|0:0,0:0:0:0:
334,178,130526,6,0,L|354:276,1,100,2|0,1:2|0:0,0:0:0:0:
362,320,130901,2,0,B|323:304|296:335|296:335|266:370|224:353,1,150,2|2,0:0|0:0,0:0:0:0:
140,329,131526,2,0,L|130:379,2,50,2|0|2,1:2|0:0|0:0,0:0:0:0:
54,299,132026,2,0,L|44:349,2,50,10|2|2,0:0|0:0|0:0,0:0:0:0:
51,258,132401,5,2,0:0:0:0:
51,258,132526,2,0,L|31:158,1,100,6|2,1:2|0:0,0:0:0:0:
47,120,132901,1,0,0:0:0:0:
47,120,133026,2,0,P|74:89|130:83,1,100,8|2,0:0|0:0,0:0:0:0:
219,95,133526,2,0,P|267:92|302:58,1,100,2|0,1:2|0:0,0:0:0:0:
335,26,133901,1,2,0:0:0:0:
335,26,134026,1,8,0:0:0:0:
421,57,134276,2,0,P|428:83|421:108,1,50,2|0,0:0|0:0,0:0:0:0:
402,145,134526,6,0,P|386:196|402:238,1,100,2|0,1:2|0:0,0:0:0:0:
421,278,134901,2,0,P|374:250|285:296,1,150,2|2,0:0|0:0,0:0:0:0:
247,364,135526,1,6,1:2:0:0:
72,319,136026,2,0,L|82:269,1,50,8|4,3:0|3:0,0:0:0:0:
65,227,136276,2,0,L|75:177,1,50,2|2,3:0|3:0,0:0:0:0:
89,135,136526,6,0,P|131:79|206:85,2,150,6|0|10,1:2|1:0|0:0,0:0:0:0:
64,227,137526,2,0,P|58:252|65:279,1,50,2|0,1:2|0:0,0:0:0:0:
90,318,137776,1,0,0:0:0:0:
90,318,137901,2,0,L|186:298,1,100,2|0,1:2|1:0,0:0:0:0:
232,290,138276,1,10,0:0:0:0:
310,334,138526,6,0,P|329:284|311:238,1,100,14|0,0:0|1:0,0:0:0:0:
292,202,138901,2,0,P|272:152|290:106,1,100,14|0,0:0|1:0,0:0:0:0:
303,68,139276,1,14,0:0:0:0:
230,15,139526,1,14,0:0:0:0:
6,206,140026,6,0,P|0:179|8:156,1,50,10|8,0:0|0:0,0:0:0:0:
23,115,140276,2,0,P|29:88|21:65,1,50,10|8,0:0|0:0,0:0:0:0:
20,22,140526,6,0,B|103:38|103:38|124:49|121:67,1,119.999996337891,6|10,1:2|0:0,0:0:0:0:
123,119,140901,2,0,P|169:82|227:94,1,119.999996337891,2|0,1:2|1:0,0:0:0:0:
259,134,141276,1,10,0:0:0:0:
280,239,141526,2,0,L|303:357,1,119.999996337891,2|8,1:2|0:0,0:0:0:0:
410,370,142026,2,0,P|445:369|466:352,1,59.9999981689454,2|0,1:2|1:0,0:0:0:0:
497,311,142276,1,10,0:0:0:0:
452,212,142526,6,0,B|461:162|461:162|453:143|453:143|462:93,1,119.999996337891,2|10,1:2|0:0,0:0:0:0:
432,49,142901,2,0,B|396:44|377:20|377:20|384:52|364:76,1,119.999996337891,2|0,1:2|1:0,0:0:0:0:
318,100,143276,1,10,0:0:0:0:
221,51,143526,2,0,B|192:35|165:60|165:60|139:82|108:68,1,119.999996337891,2|8,1:2|0:0,0:0:0:0:
33,145,144026,2,0,L|20:207,1,59.9999981689454,2|0,1:2|1:0,0:0:0:0:
7,255,144276,1,10,0:0:0:0:
49,357,144526,6,0,P|79:364|104:354,1,59.9999981689454,6|0,1:2|0:0,0:0:0:0:
151,324,144776,1,10,0:0:0:0:
151,324,144901,2,0,P|211:300|256:328,1,119.999996337891,6|0,1:2|1:0,0:0:0:0:
289,368,145276,1,10,0:0:0:0:
396,375,145526,1,2,1:2:0:0:
447,280,145776,1,10,0:0:0:0:
397,183,146026,2,0,P|390:149|399:122,1,59.9999981689454,2|0,1:2|1:0,0:0:0:0:
424,78,146276,1,10,0:0:0:0:
319,51,146526,6,0,L|257:38,1,59.9999981689454,2|0,1:2|0:0,0:0:0:0:
217,69,146776,1,10,0:0:0:0:
217,69,146901,2,0,B|185:93|185:93|200:172,1,119.999996337891,2|0,1:2|1:0,0:0:0:0:
217,223,147276,1,10,0:0:0:0:
176,323,147526,2,0,L|114:336,1,59.9999981689454,14|0,0:0|1:0,0:0:0:0:
65,349,147776,1,12,0:0:0:0:
14,253,148026,2,0,P|7:219|16:192,1,59.9999981689454,14|0,0:0|1:0,0:0:0:0:
44,150,148276,2,0,P|51:116|42:89,1,59.9999981689454,14|8,0:0|0:0,0:0:0:0:
28,40,148526,6,0,B|119:58|119:58|141:34,1,119.999996337891,6|10,1:2|0:0,0:0:0:0:
182,7,148901,2,0,P|166:68|201:109,1,119.999996337891,2|0,1:2|1:0,0:0:0:0:
248,130,149276,1,10,0:0:0:0:
354,109,149526,2,0,B|436:92|436:92|450:109|440:125,1,119.999996337891,2|8,1:2|0:0,0:0:0:0:
423,232,150026,2,0,L|410:294,1,59.9999981689454,2|0,1:2|1:0,0:0:0:0:
399,343,150276,1,10,0:0:0:0:
292,326,150526,6,0,B|263:310|236:335|236:335|210:357|179:343,1,119.999996337891,2|10,1:2|0:0,0:0:0:0:
131,322,150901,2,0,B|95:327|76:351|76:351|83:319|63:295,1,119.999996337891,2|0,1:2|1:0,0:0:0:0:
26,260,151276,1,10,0:0:0:0:
42,153,151526,2,0,B|51:103|51:103|43:84|43:84|52:34,1,119.999996337891,2|8,1:2|0:0,0:0:0:0:
159,21,152026,2,0,P|187:33|203:61,1,59.9999981689454,2|0,1:2|1:0,0:0:0:0:
212,110,152276,1,10,0:0:0:0:
232,215,152526,6,0,L|245:277,1,59.9999981689454,6|0,1:2|0:0,0:0:0:0:
265,328,152776,1,10,0:0:0:0:
265,328,152901,2,0,P|315:291|369:305,1,119.999996337891,6|0,1:2|1:0,0:0:0:0:
408,339,153276,1,10,0:0:0:0:
503,288,153526,1,2,1:2:0:0:
440,199,153776,1,10,0:0:0:0:
495,106,154026,2,0,P|504:82|498:47,1,59.9999981689454,2|0,1:2|1:0,0:0:0:0:
472,3,154276,1,10,0:0:0:0:
384,65,154526,6,0,L|322:52,1,59.9999981689454,2|0,1:2|0:0,0:0:0:0:
281,81,154776,1,10,0:0:0:0:
281,81,154901,2,0,L|161:57,1,119.999996337891,2|0,1:2|1:0,0:0:0:0:
109,47,155276,1,10,0:0:0:0:
24,113,155526,2,0,P|15:137|21:172,1,59.9999981689454,14|0,0:0|1:0,0:0:0:0:
39,220,155776,2,0,P|48:244|42:279,1,59.9999981689454,14|0,0:0|1:0,0:0:0:0:
24,327,156026,1,14,0:0:0:0:
123,368,156276,2,0,L|185:355,1,59.9999981689454,14|8,0:0|0:0,0:0:0:0:
230,345,156526,5,6,1:2:0:0:
248,247,156776,2,0,L|269:136,1,110.000003356934,10|0,0:0|1:0,0:0:0:0:
278,90,157151,1,2,0:0:0:0:
373,56,157401,5,2,0:0:0:0:
373,56,157526,2,0,L|361:-2,2,55.0000016784668,2|0|10,1:2|0:0|0:0,0:0:0:0:
387,103,157901,1,2,0:0:0:0:
466,161,158151,2,0,P|490:179|498:203,1,55.0000016784668,2|8,0:0|0:0,0:0:0:0:
507,255,158401,5,2,0:0:0:0:
507,255,158526,2,0,B|478:248|459:274|459:274|439:300|410:293,1,110.000003356934,2|10,1:2|0:0,0:0:0:0:
361,288,158901,2,0,P|326:303|319:319,1,55.0000016784668,2|0,0:0|0:0,0:0:0:0:
299,362,159151,1,2,0:0:0:0:
207,340,159401,5,2,0:0:0:0:
207,340,159526,2,0,L|154:329,1,55.0000016784668,2|0,1:2|0:0,0:0:0:0:
106,345,159776,2,0,L|53:334,1,55.0000016784668,10|0,0:0|0:0,0:0:0:0:
24,295,160026,2,0,P|16:261|25:237,1,55.0000016784668,2|2,1:2|0:0,0:0:0:0:
41,198,160276,1,8,0:0:0:0:
87,117,160526,5,6,1:2:0:0:
179,95,160776,2,0,B|230:85|230:85|246:93|246:93|286:85,1,110.000003356934,10|0,0:0|1:0,0:0:0:0:
333,74,161151,1,2,0:0:0:0:
426,106,161401,5,2,0:0:0:0:
426,106,161526,2,0,P|449:82|453:61,2,55.0000016784668,2|0|10,1:2|0:0|0:0,0:0:0:0:
416,154,161901,2,0,P|418:204|462:241,1,110.000003356934,2|2,0:0|0:0,0:0:0:0:
508,257,162276,2,0,P|485:281|481:302,1,55.0000016784668,8|2,0:0|0:0,0:0:0:0:
435,340,162526,5,2,1:2:0:0:
346,340,162776,1,10,0:0:0:0:
346,340,162901,2,0,B|317:337|297:363|297:363|292:330|265:319,1,110.000003356934,2|2,0:0|0:0,0:0:0:0:
236,283,163276,2,0,P|230:257|236:229,1,55.0000016784668,8|2,0:0|0:0,0:0:0:0:
253,183,163526,6,0,B|268:108|268:108|243:85,1,110.000003356934,2|8,1:2|0:0,0:0:0:0:
162,28,164026,2,0,L|150:86,1,55.0000016784668,14|10,0:0|0:0,0:0:0:0:
138,129,164276,1,14,0:0:0:0:
126,230,164526,5,6,1:2:0:0:
126,230,164651,2,0,L|114:288,1,55.0000016784668,2|8,0:0|0:0,0:0:0:0:
109,333,164901,2,0,B|80:326|61:352|61:352|41:378|12:371,2,110.000003356934,2|2|2,0:0|0:0|0:0,0:0:0:0:
155,351,165526,6,0,P|184:357|210:350,1,55.0000016784668,2|0,1:2|0:0,0:0:0:0:
252,329,165776,1,10,0:0:0:0:
339,282,166026,2,0,P|368:276|394:283,1,55.0000016784668,2|0,1:2|0:0,0:0:0:0:
436,305,166276,1,10,0:0:0:0:
462,220,166526,5,2,1:2:0:0:
462,220,166651,2,0,L|474:162,1,55.0000016784668,2|8,0:0|0:0,0:0:0:0:
451,120,166901,2,0,B|461:69|461:69|453:53|453:53|461:13,2,110.000003356934,2|2|2,0:0|0:0|0:0,0:0:0:0:
401,134,167526,6,0,B|378:159|378:159|302:144,1,110.000003356934,2|8,1:2|0:0,0:0:0:0:
244,64,168026,2,0,L|186:52,1,55.0000016784668,2|0,1:2|0:0,0:0:0:0:
142,39,168276,1,10,0:0:0:0:
47,34,168526,5,6,1:2:0:0:
47,34,168651,2,0,P|20:46|6:71,1,55.0000016784668,2|8,0:0|0:0,0:0:0:0:
7,116,168901,2,0,L|19:174,1,55.0000016784668,2|0,0:0|1:0,0:0:0:0:
33,216,169151,2,0,L|57:340,1,110.000003356934,2|2,0:0|0:0,0:0:0:0:
66,371,169526,5,2,1:2:0:0:
147,314,169776,1,10,0:0:0:0:
240,347,170026,1,2,1:2:0:0:
321,298,170276,1,10,0:0:0:0:
412,310,170526,6,0,L|400:368,2,55.0000016784668,2|2|8,1:2|0:0|0:0,0:0:0:0:
442,270,170901,2,0,P|451:243|444:219,1,55.0000016784668,2|0,0:0|1:0,0:0:0:0:
443,170,171151,2,0,P|434:143|441:119,1,55.0000016784668,2|8,0:0|0:0,0:0:0:0:
459,74,171401,5,2,0:0:0:0:
459,74,171526,1,8,3:0:0:0:
381,22,171776,1,2,3:0:0:0:
292,49,172026,2,0,L|280:107,1,55.0000016784668,10|8,0:0|0:0,0:0:0:0:
302,139,172276,2,0,L|290:197,1,55.0000016784668,10|8,0:0|0:0,0:0:0:0:
310,236,172526,5,6,1:2:0:0:
375,90,180526,6,0,P|413:37|494:48,2,150,2|2|2,1:2|0:0|0:0,0:0:0:0:
356,178,181526,2,0,L|336:276,1,100,2|0,1:2|0:0,0:0:0:0:
270,337,182026,1,10,0:0:0:0:
190,294,182276,1,2,0:0:0:0:
110,335,182526,6,0,P|59:326|33:287,1,100,2|0,1:2|0:0,0:0:0:0:
24,248,182901,1,2,0:0:0:0:
24,248,183026,2,0,L|41:149,1,100,8|2,0:0|0:0,0:0:0:0:
61,61,183526,2,0,L|159:41,1,100,2|0,1:2|0:0,0:0:0:0:
241,78,184026,1,10,0:0:0:0:
310,20,184276,1,2,0:0:0:0:
393,54,184526,6,0,P|428:91|427:138,1,100,2|0,1:2|0:0,0:0:0:0:
407,177,184901,1,2,0:0:0:0:
407,177,185026,2,0,P|371:214|372:261,1,100,8|2,0:0|0:0,0:0:0:0:
334,346,185526,2,0,L|235:329,1,100,10|0,0:0|1:0,0:0:0:0:
191,321,185901,1,2,0:0:0:0:
191,321,186026,1,8,0:0:0:0:
104,365,186276,1,2,1:2:0:0:
32,300,186526,6,0,B|17:274|37:248|37:248|56:222|41:196,1,110.000003356934,14|0,0:0|1:0,0:0:0:0:
30,148,186901,2,0,P|96:156|125:127,1,110.000003356934,14|0,0:0|1:0,0:0:0:0:
155,89,187276,1,14,0:0:0:0:
207,169,187526,1,14,0:0:0:0:
0,93,188526,6,0,B|46:84|46:84|65:92|65:92|108:84,1,110.000003356934,14|0,0:0|1:0,0:0:0:0:
155,89,188901,2,0,P|190:134|179:187,1,110.000003356934,14|0,0:0|1:0,0:0:0:0:
160,228,189276,1,14,0:0:0:0:
221,305,189526,2,0,B|253:313|261:340|261:340|280:319|310:321,1,110.000003356934,14|0,0:0|1:0,0:0:0:0:
408,323,190026,2,0,P|434:305|444:282,1,55.0000016784668,10|8,0:0|0:0,0:0:0:0:
454,236,190276,1,2,1:2:0:0:
459,137,190526,6,0,L|350:115,1,110.000003356934,14|0,0:0|1:0,0:0:0:0:
301,119,190901,2,0,B|271:132|271:132|256:209,1,110.000003356934,14|0,0:0|1:0,0:0:0:0:
247,257,191276,1,14,0:0:0:0:
177,327,191526,2,0,B|144:335|136:362|136:362|117:341|87:343,1,110.000003356934,14|0,0:0|1:0,0:0:0:0:
6,287,192026,2,0,P|0:255|8:232,1,55.0000016784668,10|8,0:0|0:0,0:0:0:0:
29,190,192276,1,10,0:0:0:0:
13,84,192526,6,0,L|75:71,1,59.9999981689454,6|0,1:2|0:0,0:0:0:0:
126,68,192776,1,10,0:0:0:0:
126,68,192901,2,0,B|142:151|142:151|162:157|174:142,1,119.999996337891,6|0,1:2|1:0,0:0:0:0:
212,104,193276,1,10,0:0:0:0:
288,28,193526,1,2,1:2:0:0:
394,48,193776,1,10,0:0:0:0:
446,142,194026,2,0,L|433:204,1,59.9999981689454,2|0,1:2|1:0,0:0:0:0:
422,253,194276,1,10,0:0:0:0:
349,333,194526,6,0,P|317:344|287:336,1,59.9999981689454,2|0,1:2|0:0,0:0:0:0:
245,322,194776,1,10,0:0:0:0:
245,322,194901,2,0,B|216:307|189:332|189:332|163:354|132:340,1,119.999996337891,2|0,1:2|1:0,0:0:0:0:
81,328,195276,1,10,0:0:0:0:
8,247,195526,2,0,L|20:184,1,59.9999981689454,14|0,0:0|1:0,0:0:0:0:
32,135,195776,1,12,0:0:0:0:
11,28,196026,2,0,L|73:15,1,59.9999981689454,14|0,0:0|1:0,0:0:0:0:
116,43,196276,2,0,L|178:30,1,59.9999981689454,14|8,0:0|0:0,0:0:0:0:
220,60,196526,6,0,P|249:116|229:169,1,119.999996337891,6|10,1:2|0:0,0:0:0:0:
203,213,196901,2,0,B|208:248|190:273|190:273|219:258|247:271,1,119.999996337891,2|0,1:2|1:0,0:0:0:0:
291,299,197276,1,10,0:0:0:0:
389,343,197526,2,0,B|427:332|427:332|443:253,1,119.999996337891,2|8,1:2|0:0,0:0:0:0:
464,147,198026,2,0,L|477:85,1,59.9999981689454,2|0,1:2|1:0,0:0:0:0:
491,36,198276,1,10,0:0:0:0:
383,42,198526,6,0,B|333:33|333:33|314:41|314:41|264:32,1,119.999996337891,2|10,1:2|0:0,0:0:0:0:
213,47,198901,2,0,B|122:29|122:29|100:53,1,119.999996337891,2|0,1:2|1:0,0:0:0:0:
69,92,199276,1,10,0:0:0:0:
7,181,199526,2,0,B|23:264|23:264|41:275|57:264,1,119.999996337891,2|8,1:2|0:0,0:0:0:0:
155,221,200026,2,0,P|183:208|211:211,1,59.9999981689454,2|0,1:2|1:0,0:0:0:0:
261,227,200276,1,10,0:0:0:0:
295,124,200526,6,0,L|308:62,1,59.9999981689454,6|0,1:2|0:0,0:0:0:0:
347,29,200776,1,10,0:0:0:0:
347,29,200901,2,0,P|411:21|448:59,1,119.999996337891,6|0,1:2|1:0,0:0:0:0:
467,107,201276,1,10,0:0:0:0:
422,205,201526,1,2,1:2:0:0:
470,301,201776,1,10,0:0:0:0:
376,354,202026,2,0,L|314:341,1,59.9999981689454,2|0,1:2|1:0,0:0:0:0:
265,327,202276,1,10,0:0:0:0:
213,231,202526,6,0,P|204:196|215:171,1,59.9999981689454,2|0,1:2|0:0,0:0:0:0:
234,125,202776,1,10,0:0:0:0:
234,125,202901,2,0,B|205:141|178:116|178:116|152:94|121:108,1,119.999996337891,2|0,1:2|1:0,0:0:0:0:
73,127,203276,1,10,0:0:0:0:
22,37,203526,1,6,1:2:0:0:
237,29,204026,6,0,L|294:17,1,59.9999981689454,14|8,0:0|0:0,0:0:0:0:
341,46,204276,2,0,L|398:34,1,59.9999981689454,14|8,0:0|0:0,0:0:0:0:
452,59,204526,6,0,B|525:96|501:173|464:158|471:146,1,129.999994049073,6|10,1:2|0:0,0:0:0:0:
413,163,204901,2,0,P|385:163|353:186,1,64.9999970245363,2|0,1:2|0:0,0:0:0:0:
318,228,205151,1,0,1:0:0:0:
318,228,205276,1,10,0:0:0:0:
216,286,205526,2,0,B|205:232|205:232|185:215|185:215|176:167,1,129.999994049073,2|8,1:2|0:0,0:0:0:0:
62,138,206026,2,0,L|49:203,1,64.9999970245363,2|0,1:2|1:0,0:0:0:0:
34,258,206276,1,10,0:0:0:0:
12,373,206526,6,0,P|68:335|128:355,1,129.999994049073,2|10,1:2|0:0,0:0:0:0:
182,361,206901,2,0,P|207:351|227:318,1,64.9999970245363,2|0,1:2|0:0,0:0:0:0:
249,268,207151,1,0,1:0:0:0:
249,268,207276,1,10,0:0:0:0:
319,174,207526,2,0,B|406:157|406:157|418:137|404:116,1,129.999994049073,2|8,1:2|0:0,0:0:0:0:
295,76,208026,2,0,P|259:88|242:113,1,64.9999970245363,2|0,1:2|1:0,0:0:0:0:
220,163,208276,1,10,0:0:0:0:
121,100,208526,6,0,L|54:87,1,64.9999970245363,6|0,1:2|0:0,0:0:0:0:
19,50,208776,1,10,0:0:0:0:
19,50,208901,2,0,L|44:180,1,129.999994049073,6|0,1:2|1:0,0:0:0:0:
31,234,209276,2,0,L|43:300,1,64.9999970245363,10|0,0:0|0:0,0:0:0:0:
60,354,209526,1,2,1:2:0:0:
147,276,209776,1,10,0:0:0:0:
250,330,210026,2,0,P|282:314|298:288,1,64.9999970245363,2|0,1:2|1:0,0:0:0:0:
319,237,210276,1,10,0:0:0:0:
237,153,210526,6,0,L|249:86,1,64.9999970245363,2|0,1:2|0:0,0:0:0:0:
262,35,210776,1,10,0:0:0:0:
262,35,210901,2,0,B|354:17|354:17|383:43,1,129.999994049073,2|0,1:2|1:0,0:0:0:0:
423,81,211276,1,10,0:0:0:0:
493,174,211526,2,0,P|505:207|499:237,1,64.9999970245363,14|0,0:0|1:0,0:0:0:0:
477,290,211776,1,12,0:0:0:0:
392,370,212026,2,0,L|325:358,1,64.9999970245363,14|0,0:0|1:0,0:0:0:0:
283,319,212276,2,0,L|216:307,1,64.9999970245363,14|8,0:0|0:0,0:0:0:0:
172,344,212526,6,0,B|118:333|118:333|101:313|101:313|53:304,1,129.999994049073,6|10,1:2|0:0,0:0:0:0:
14,260,212901,2,0,P|0:225|8:193,1,64.9999970245363,2|0,1:2|0:0,0:0:0:0:
33,147,213151,1,0,1:0:0:0:
33,147,213276,1,10,0:0:0:0:
103,53,213526,2,0,B|140:61|159:30|159:30|178:0|217:10,1,129.999994049073,2|8,1:2|0:0,0:0:0:0:
316,67,214026,2,0,L|383:55,1,64.9999970245363,2|0,1:2|1:0,0:0:0:0:
438,46,214276,1,10,0:0:0:0:
490,150,214526,6,0,B|473:237|473:237|453:249|432:235,1,129.999994049073,2|10,1:2|0:0,0:0:0:0:
380,212,214901,2,0,P|348:202|316:214,1,64.9999970245363,2|0,1:2|0:0,0:0:0:0:
265,237,215151,1,0,1:0:0:0:
265,237,215276,1,10,0:0:0:0:
205,136,215526,2,0,B|185:40|185:40|175:74,1,129.999994049073,2|8,1:2|0:0,0:0:0:0:
68,117,216026,2,0,P|38:140|32:170,1,64.9999970245363,2|0,1:2|1:0,0:0:0:0:
17,221,216276,1,10,0:0:0:0:
6,337,216526,6,0,L|73:325,1,64.9999970245363,6|0,1:2|0:0,0:0:0:0:
115,287,216776,1,10,0:0:0:0:
115,287,216901,2,0,B|207:269|207:269|236:295,1,129.999994049073,6|0,1:2|1:0,0:0:0:0:
280,330,217276,2,0,L|292:263,1,64.9999970245363,10|0,0:0|0:0,0:0:0:0:
304,208,217526,1,2,1:2:0:0:
416,241,217776,1,10,0:0:0:0:
500,160,218026,2,0,P|509:117|500:98,1,64.9999970245363,2|0,1:2|1:0,0:0:0:0:
470,50,218276,1,10,0:0:0:0:
355,73,218526,6,0,L|288:61,1,64.9999970245363,2|0,1:2|0:0,0:0:0:0:
237,54,218776,1,10,0:0:0:0:
237,54,218901,2,0,B|203:82|203:82|116:65,1,129.999994049073,2|0,1:2|1:0,0:0:0:0:
73,27,219276,2,0,L|61:94,1,64.9999970245363,10|0,0:0|0:0,0:0:0:0:
50,148,219526,1,14,0:0:0:0:
25,262,219776,1,12,0:0:0:0:
98,353,220026,2,0,P|129:372|158:368,1,64.9999970245363,14|0,0:0|1:0,0:0:0:0:
210,348,220276,2,0,P|236:322|239:292,1,64.9999970245363,14|8,0:0|0:0,0:0:0:0:
228,238,220526,6,0,B|220:201|251:182|251:182|281:163|271:124,1,129.999994049073,6|8,1:2|0:0,0:0:0:0:
254,69,220901,1,2,0:0:0:0:
363,23,221151,1,2,0:0:0:0:
363,23,221276,2,0,P|399:24|423:44,1,64.9999970245363,8|0,0:0|0:0,0:0:0:0:
458,86,221526,2,0,P|492:126|507:204,1,129.999994049073,2|10,1:2|0:0,0:0:0:0:
498,258,221901,2,0,B|461:250|442:281|442:281|423:311|384:301,1,129.999994049073,2|0,0:0|0:0,0:0:0:0:
327,292,222276,1,10,0:0:0:0:
221,241,222526,6,0,P|211:261|202:305,1,64.9999970245363,2|0,1:2|0:0,0:0:0:0:
203,365,222776,1,8,0:0:0:0:
203,365,222901,2,0,P|154:318|94:327,1,129.999994049073,2|2,0:0|0:0,0:0:0:0:
52,364,223276,2,0,P|46:332|34:302,1,64.9999970245363,10|0,0:0|0:0,0:0:0:0:
18,245,223526,2,0,P|15:180|44:123,1,129.999994049073,2|8,1:2|0:0,0:0:0:0:
108,24,224026,2,0,P|144:21|170:40,1,64.9999970245363,2|0,1:2|0:0,0:0:0:0:
215,69,224276,2,0,P|246:86|278:80,1,64.9999970245363,10|0,0:0|0:0,0:0:0:0:
328,59,224526,6,0,P|391:44|437:88,1,129.999994049073,6|8,1:2|0:0,0:0:0:0:
456,138,224901,1,2,0:0:0:0:
428,254,225151,1,2,0:0:0:0:
428,254,225276,2,0,P|418:274|409:318,1,64.9999970245363,8|0,0:0|0:0,0:0:0:0:
353,328,225526,2,0,B|316:320|297:351|297:351|278:381|239:371,1,129.999994049073,2|10,1:2|0:0,0:0:0:0:
186,349,225901,2,0,P|166:299|202:235,1,129.999994049073,2|0,0:0|0:0,0:0:0:0:
250,206,226276,1,10,0:0:0:0:
334,125,226526,6,0,P|328:93|316:63,1,64.9999970245363,2|0,1:2|0:0,0:0:0:0:
270,36,226776,1,10,0:0:0:0:
270,36,226901,2,0,P|238:41|208:53,1,64.9999970245363,2|0,0:0|0:0,0:0:0:0:
155,79,227151,2,0,B|118:87|99:56|99:56|80:26|41:36,1,129.999994049073,2|0,0:0|0:0,0:0:0:0:
13,86,227526,2,0,P|1:143|9:216,1,129.999994049073,2|8,1:2|0:0,0:0:0:0:
59,319,228026,2,0,P|90:338|119:334,1,64.9999970245363,14|8,0:0|0:0,0:0:0:0:
171,314,228276,2,0,P|197:288|200:258,1,64.9999970245363,14|8,0:0|0:0,0:0:0:0:
223,207,228526,6,0,P|256:249|330:255,1,129.999994049073,6|8,1:2|0:0,0:0:0:0:
384,237,228901,1,2,0:0:0:0:
494,193,229151,1,2,0:0:0:0:
494,193,229276,2,0,P|504:173|513:129,1,64.9999970245363,8|0,0:0|0:0,0:0:0:0:
510,72,229526,2,0,B|473:80|454:49|454:49|435:19|396:29,1,129.999994049073,2|10,1:2|0:0,0:0:0:0:
340,43,229901,2,0,P|314:104|305:173,1,129.999994049073,2|0,0:0|0:0,0:0:0:0:
308,225,230276,1,10,0:0:0:0:
291,340,230526,6,0,P|260:359|231:355,1,64.9999970245363,2|0,1:2|0:0,0:0:0:0:
193,319,230776,1,8,0:0:0:0:
193,319,230901,2,0,P|154:274|89:279,1,129.999994049073,2|2,0:0|0:0,0:0:0:0:
32,295,231276,2,0,P|13:264|17:235,1,64.9999970245363,10|0,0:0|0:0,0:0:0:0:
28,179,231526,2,0,B|65:187|84:156|84:156|103:126|142:136,1,129.999994049073,2|8,1:2|0:0,0:0:0:0:
257,127,232026,2,0,P|267:107|276:63,1,64.9999970245363,2|0,1:2|0:0,0:0:0:0:
296,10,232276,2,0,P|301:41|314:71,1,64.9999970245363,10|0,0:0|0:0,0:0:0:0:
357,112,232526,6,0,P|414:85|474:112,1,129.999994049073,6|8,1:2|0:0,0:0:0:0:
503,158,232901,1,2,0:0:0:0:
482,276,233151,1,2,0:0:0:0:
482,276,233276,2,0,P|459:304|431:311,1,64.9999970245363,8|0,0:0|0:0,0:0:0:0:
375,319,233526,2,0,P|310:310|248:292,1,129.999994049073,2|10,1:2|0:0,0:0:0:0:
209,248,233901,2,0,B|201:211|232:192|232:192|262:173|252:134,1,129.999994049073,2|0,0:0|0:0,0:0:0:0:
235,79,234276,1,10,0:0:0:0:
140,9,234526,6,0,P|130:29|121:73,1,64.9999970245363,2|0,1:2|0:0,0:0:0:0:
124,133,234776,1,10,0:0:0:0:
124,133,234901,2,0,P|56:147|34:204,1,129.999994049073,2|2,0:0|0:0,0:0:0:0:
45,255,235276,2,0,P|55:275|64:319,1,64.9999970245363,8|2,0:0|0:0,0:0:0:0:
61,375,235526,1,14,0:0:0:0:
159,311,235776,1,12,0:0:0:0:
262,366,236026,2,0,P|296:377|323:367,1,64.9999970245363,14|8,0:0|0:0,0:0:0:0:
367,331,236276,2,0,P|401:319|428:329,1,64.9999970245363,12|8,0:0|0:0,0:0:0:0:
472,366,236526,6,0,B|483:312|483:312|503:295|503:295|512:247,1,129.999994049073,6|8,1:2|0:0,0:0:0:0:
480,203,236901,1,0,0:0:0:0:
480,203,237026,2,0,L|492:136,1,64.9999970245363,0|0,1:0|0:0,0:0:0:0:
463,88,237276,1,8,0:0:0:0:
365,152,237526,1,0,1:0:0:0:
272,80,237776,2,0,P|241:58|210:58,1,64.9999970245363,10|0,0:0|0:0,0:0:0:0:
157,68,238026,1,0,1:0:0:0:
48,112,238276,2,0,L|35:175,1,64.9999970245363,10|0,0:0|0:0,0:0:0:0:
27,233,238526,6,0,B|64:225|83:256|83:256|102:286|141:276,1,129.999994049073,2|8,1:2|0:0,0:0:0:0:
198,261,238901,1,0,0:0:0:0:
198,261,239026,2,0,P|176:292|176:323,1,64.9999970245363,0|0,1:0|0:0,0:0:0:0:
195,373,239276,1,10,0:0:0:0:
295,312,239526,1,2,1:2:0:0:
393,374,239776,1,8,0:0:0:0:
468,284,240026,2,0,L|480:220,1,64.9999970245363,6|0,1:2|0:0,0:0:0:0:
444,173,240276,2,0,L|456:109,1,64.9999970245363,14|0,0:0|0:0,0:0:0:0:
426,58,240526,6,0,B|513:41|513:41|525:21|511:0,2,129.999994049073,6|8|0,1:2|0:0|1:0,0:0:0:0:
314,20,241276,2,0,P|305:59|315:86,1,64.9999970245363,10|0,0:0|0:0,0:0:0:0:
338,134,241526,2,0,B|305:104|305:104|217:121,2,129.999994049073,2|8|0,1:2|0:0|1:0,0:0:0:0:
382,242,242276,2,0,P|391:281|381:308,1,64.9999970245363,10|0,0:0|0:0,0:0:0:0:
349,352,242526,5,6,1:2:0:0:
244,299,242776,1,8,0:0:0:0:
139,351,243026,2,0,L|75:338,1,64.9999970245363,6|0,1:2|0:0,0:0:0:0:
17,325,243276,1,8,0:0:0:0:
4,208,243526,2,0,L|67:195,1,64.9999970245363,6|0,1:2|0:0,0:0:0:0:
126,186,243776,1,8,0:0:0:0:
240,164,244026,2,0,P|261:135|263:106,1,64.9999970245363,14|8,0:0|0:0,0:0:0:0:
269,48,244276,2,0,P|285:79|310:94,1,64.9999970245363,12|8,0:0|0:0,0:0:0:0:
365,114,244526,6,0,B|402:41|479:65|464:102|452:95,1,129.999994049073,6|8,1:2|0:0,0:0:0:0:
473,156,244901,1,0,0:0:0:0:
473,156,245026,2,0,P|482:189|471:219,1,64.9999970245363,0|0,1:0|0:0,0:0:0:0:
444,267,245276,1,10,0:0:0:0:
357,346,245526,2,0,B|318:338|294:363|294:363|287:328|255:312,1,129.999994049073,2|8,1:2|0:0,0:0:0:0:
226,272,245901,1,2,0:0:0:0:
226,272,246026,2,0,P|217:232|226:209,1,64.9999970245363,0|0,1:0|0:0,0:0:0:0:
258,162,246276,1,10,0:0:0:0:
206,56,246526,6,0,B|114:38|114:38|85:64,1,129.999994049073,2|8,1:2|0:0,0:0:0:0:
47,106,246901,1,2,0:0:0:0:
47,106,247026,1,0,1:0:0:0:
8,216,247276,2,0,L|20:279,1,64.9999970245363,10|0,0:0|0:0,0:0:0:0:
36,336,247526,2,0,P|88:297|149:313,1,129.999994049073,2|8,1:2|0:0,0:0:0:0:
257,353,248026,2,0,P|266:313|257:290,1,64.9999970245363,2|0,1:2|0:0,0:0:0:0:
239,235,248276,2,0,P|230:195|239:172,1,64.9999970245363,10|0,0:0|0:0,0:0:0:0:
271,125,248526,6,0,B|308:133|327:102|327:102|346:72|385:82,2,129.999994049073,6|8|0,1:2|0:0|1:0,0:0:0:0:
154,106,249276,2,0,L|90:93,1,64.9999970245363,10|0,0:0|0:0,0:0:0:0:
54,46,249526,2,0,B|43:100|43:100|23:117|23:117|14:165,2,129.999994049073,2|8|0,1:2|0:0|1:0,0:0:0:0:
154,106,250276,2,0,L|217:93,1,64.9999970245363,10|0,0:0|0:0,0:0:0:0:
262,131,250526,6,0,P|271:171|262:194,1,64.9999970245363,6|0,1:2|0:0,0:0:0:0:
233,242,250776,1,8,0:0:0:0:
326,312,251026,2,0,P|366:303|389:312,1,64.9999970245363,6|0,1:2|0:0,0:0:0:0:
437,341,251276,1,8,0:0:0:0:
504,245,251526,5,14,1:2:0:0:
427,156,251776,1,14,1:2:0:0:
317,196,252026,1,14,1:2:0:0:
326,312,252276,1,14,1:2:0:0:
437,341,252526,1,6,1:2:0:0:
