osu file format v14

[General]
AudioFilename: audio.mp3
AudioLeadIn: 0
PreviewTime: 48288
Countdown: 0
SampleSet: Soft
StackLeniency: 0.3
Mode: 0
LetterboxInBreaks: 0
WidescreenStoryboard: 1

[Editor]
Bookmarks: 15758,26920,38083,49246,71572,82734,93897,105060,116223,127386,138548,149711,165061
DistanceSpacing: 1
BeatDivisor: 4
GridSize: 32
TimelineZoom: 2.5

[Metadata]
Title:Gyakutengeki
TitleUnicode:逆転劇
Artist:Tsukuyomi
ArtistUnicode:月詠み
Creator:Vanya2
Version:Insane
Source:異世界でチート能力を手にした俺は、現実世界をも無双する ~レベルアップは人生を変えた~
Tags:freezinganimenz my angel jeremy japanese rock jrock j-rock pop jpop j-pop anime opening op intro theme song isekai de cheat skill wo te ni shita ore wa genjitsu sekai mo musou suru: level up jinsei kaeta i got a in another world and became unrivaled the real too gyakuten geki
BeatmapID:4101728
BeatmapSetID:1975680

[Difficulty]
HPDrainRate:4.5
CircleSize:3.6
OverallDifficulty:8
ApproachRate:9
SliderMultiplier:1.8
SliderTickRate:1

[Events]
//Background and Video events
0,0,"sdad.jpg",0,0
//Break Periods
2,127586,130972
//Storyboard Layer 0 (Background)
//Storyboard Layer 1 (Fail)
//Storyboard Layer 2 (Pass)
//Storyboard Layer 3 (Foreground)
//Storyboard Layer 4 (Overlay)
//Storyboard Sound Samples

[TimingPoints]
1820,348.837209302326,4,2,1,70,1,0
1820,-250,4,2,1,70,0,0
5991,348.837209302326,4,2,1,70,1,0
7386,348.837209302326,4,2,1,70,1,0
7909,-100,4,2,2,70,0,0
8781,-100,4,2,1,70,0,0
10525,-100,4,2,2,70,0,0
10873,-100,4,2,1,70,0,0
11223,-100,4,2,2,70,0,0
11572,-100,4,2,1,70,0,0
12618,-100,4,2,2,70,0,0
12967,-100,4,2,1,70,0,0
15758,348.837209302326,4,2,1,80,1,0
15758,-90.9090909090909,4,2,1,80,0,0
16106,-90.9090909090909,4,2,2,80,0,0
16455,-90.9090909090909,4,2,1,80,0,0
17502,-90.9090909090909,4,2,2,80,0,0
18548,-90.9090909090909,4,2,1,80,0,0
19595,-90.9090909090909,4,2,2,80,0,0
19943,-90.9090909090909,4,2,1,80,0,0
20292,-90.9090909090909,4,2,2,80,0,0
21339,-90.9090909090909,4,2,1,80,0,0
21688,-90.9090909090909,4,2,2,80,0,0
22037,-90.9090909090909,4,2,1,80,0,0
22123,-90.9090909090909,4,2,2,80,0,0
22211,-90.9090909090909,4,2,1,80,0,0
22386,-90.9090909090909,4,2,2,80,0,0
22734,-90.9090909090909,4,2,1,80,0,0
22908,-90.9090909090909,4,2,1,80,0,0
23083,-90.9090909090909,4,2,2,80,0,0
24130,-90.9090909090909,4,2,1,80,0,0
25176,-90.9090909090909,4,2,2,80,0,0
25525,-90.9090909090909,4,2,1,80,0,0
25874,-90.9090909090909,4,2,2,80,0,0
26920,-133.333333333333,4,2,1,50,0,0
27268,-133.333333333333,4,2,3,50,0,0
27444,-133.333333333333,4,2,1,50,0,0
27618,-133.333333333333,4,2,4,50,0,0
27792,-133.333333333333,4,2,1,50,0,0
27967,-133.333333333333,4,2,3,50,0,0
28141,-133.333333333333,4,2,1,50,0,0
28316,-133.333333333333,4,2,3,50,0,0
28490,-133.333333333333,4,2,1,50,0,0
28664,-133.333333333333,4,2,3,50,0,0
28839,-133.333333333333,4,2,1,50,0,0
29013,-133.333333333333,4,2,4,50,0,0
29188,-133.333333333333,4,2,1,50,0,0
29362,-133.333333333333,4,2,3,50,0,0
29537,-133.333333333333,4,2,1,50,0,0
30059,-133.333333333333,4,2,3,50,0,0
30234,-133.333333333333,4,2,1,50,0,0
30409,-133.333333333333,4,2,4,50,0,0
30583,-133.333333333333,4,2,1,50,0,0
30758,-133.333333333333,4,2,3,50,0,0
30932,-133.333333333333,4,2,1,50,0,0
32502,-133.333333333333,4,2,1,60,0,0
32850,-133.333333333333,4,2,3,60,0,0
33025,-133.333333333333,4,2,1,60,0,0
33199,-133.333333333333,4,2,4,60,0,0
33374,-133.333333333333,4,2,1,60,0,0
33548,-133.333333333333,4,2,3,60,0,0
33722,-133.333333333333,4,2,1,60,0,0
33897,-133.333333333333,4,2,3,60,0,0
34072,-133.333333333333,4,2,1,60,0,0
34158,-133.333333333333,4,2,1,60,0,0
34246,-133.333333333333,4,2,3,60,0,0
34420,-133.333333333333,4,2,1,60,0,0
34594,-133.333333333333,4,2,4,60,0,0
34769,-133.333333333333,4,2,1,60,0,0
34944,-133.333333333333,4,2,3,60,0,0
35118,-133.333333333333,4,2,1,60,0,0
35640,-133.333333333333,4,2,3,60,0,0
35816,-133.333333333333,4,2,1,60,0,0
35990,-133.333333333333,4,2,4,60,0,0
36165,-133.333333333333,4,2,1,60,0,0
36339,-133.333333333333,4,2,3,60,0,0
36513,-133.333333333333,4,2,1,60,0,0
38083,-111.111111111111,4,2,2,80,0,0
39130,-111.111111111111,4,2,1,80,0,0
40001,-111.111111111111,4,2,5,80,0,0
40525,-111.111111111111,4,2,1,80,0,0
40874,-111.111111111111,4,2,2,80,0,0
41920,-111.111111111111,4,2,1,80,0,0
42531,-111.111111111111,4,2,4,80,0,0
42618,-111.111111111111,4,2,1,80,0,0
42880,-111.111111111111,4,2,4,80,0,0
42967,-111.111111111111,4,2,1,80,0,0
43228,-111.111111111111,4,2,4,80,0,0
43316,-111.111111111111,4,2,1,80,0,0
43577,-111.111111111111,4,2,4,80,0,0
43665,-111.111111111111,4,2,1,60,0,0
45060,-111.111111111111,4,2,1,70,0,0
46455,-111.111111111111,4,2,1,80,0,0
46979,-100,4,2,1,80,0,0
49246,-83.3333333333333,4,2,1,90,0,1
49595,-83.3333333333333,4,2,2,90,0,1
49943,-83.3333333333333,4,2,1,90,0,1
50292,-83.3333333333333,4,2,2,90,0,1
50641,-83.3333333333333,4,2,1,90,0,1
50990,-83.3333333333333,4,2,2,90,0,1
51339,-83.3333333333333,4,2,1,90,0,1
51688,-83.3333333333333,4,2,2,90,0,1
52037,-83.3333333333333,4,2,1,90,0,1
52386,-83.3333333333333,4,2,2,90,0,1
52734,-83.3333333333333,4,2,1,90,0,1
53083,-83.3333333333333,4,2,2,90,0,1
53432,-83.3333333333333,4,2,1,90,0,1
53781,-83.3333333333333,4,2,2,90,0,1
53955,-83.3333333333333,4,2,1,90,0,1
54479,-83.3333333333333,4,2,2,90,0,1
54827,-83.3333333333333,4,2,1,90,0,1
54915,-83.3333333333333,4,2,4,90,0,1
55002,-83.3333333333333,4,2,1,90,0,1
55088,-83.3333333333333,4,2,4,90,0,1
55350,-83.3333333333333,4,2,2,90,0,1
55438,-83.3333333333333,4,2,4,90,0,1
55699,-83.3333333333333,4,2,2,90,0,1
55787,-83.3333333333333,4,2,4,90,0,1
55874,-83.3333333333333,4,2,1,90,0,1
55961,-83.3333333333333,4,2,4,90,0,1
56048,-83.3333333333333,4,2,2,90,0,1
56136,-83.3333333333333,4,2,4,90,0,1
56223,-83.3333333333333,4,2,1,90,0,1
57966,-83.3333333333333,4,2,2,90,0,1
58315,-83.3333333333333,4,2,1,90,0,1
58665,-83.3333333333333,4,2,2,90,0,1
59013,-83.3333333333333,4,2,1,90,0,1
60758,-83.3333333333333,4,2,2,90,0,1
61106,-83.3333333333333,4,2,1,90,0,1
61455,-83.3333333333333,4,2,2,90,0,1
61804,-83.3333333333333,4,2,1,90,0,1
62153,-83.3333333333333,4,2,2,90,0,1
62502,-83.3333333333333,4,2,1,90,0,1
62588,-83.3333333333333,4,2,2,90,0,1
62676,-83.3333333333333,4,2,1,90,0,1
62851,-83.3333333333333,4,2,2,90,0,1
63199,-83.3333333333333,4,2,1,90,0,1
63548,-83.3333333333333,4,2,2,90,0,1
63897,-83.3333333333333,4,2,1,90,0,1
63984,-83.3333333333333,4,2,2,90,0,1
64072,-83.3333333333333,4,2,1,90,0,1
64246,-83.3333333333333,4,2,2,90,0,1
64595,-83.3333333333333,4,2,1,90,0,1
64944,-83.3333333333333,4,2,2,90,0,1
65118,-83.3333333333333,4,2,1,90,0,1
65641,-83.3333333333333,4,2,2,90,0,1
65990,-83.3333333333333,4,2,1,90,0,1
66077,-83.3333333333333,4,2,4,90,0,1
66165,-83.3333333333333,4,2,1,90,0,1
66251,-83.3333333333333,4,2,4,90,0,1
66513,-83.3333333333333,4,2,2,90,0,1
66601,-83.3333333333333,4,2,4,90,0,1
66862,-83.3333333333333,4,2,2,90,0,1
66949,-83.3333333333333,4,2,4,90,0,1
67037,-83.3333333333333,4,2,1,90,0,1
67124,-83.3333333333333,4,2,4,90,0,1
67211,-83.3333333333333,4,2,2,90,0,1
67298,-83.3333333333333,4,2,4,90,0,1
67386,-83.3333333333333,4,2,1,90,0,1
69130,-83.3333333333333,4,2,2,90,0,1
69479,-83.3333333333333,4,2,1,90,0,1
69827,-83.3333333333333,4,2,2,90,0,1
70176,-83.3333333333333,4,2,1,90,0,1
71571,-100,4,2,1,70,0,0
71746,-100,4,2,3,70,0,0
71833,-100,4,2,4,70,0,0
71920,-100,4,2,1,70,0,0
72094,-100,4,2,3,70,0,0
72182,-100,4,2,4,70,0,0
72269,-100,4,2,1,70,0,0
72443,-100,4,2,3,70,0,0
72531,-100,4,2,4,70,0,0
72618,-100,4,2,1,70,0,0
72792,-100,4,2,3,70,0,0
72880,-100,4,2,4,70,0,0
73053,-100,4,2,3,70,0,0
73141,-100,4,2,3,70,0,0
73229,-100,4,2,4,70,0,0
73316,-100,4,2,1,70,0,0
73490,-100,4,2,3,70,0,0
73577,-100,4,2,4,70,0,0
73664,-100,4,2,4,70,0,0
73839,-100,4,2,3,70,0,0
73926,-100,4,2,4,70,0,0
74013,-100,4,2,1,70,0,0
74188,-100,4,2,3,70,0,0
74275,-100,4,2,4,70,0,0
74362,-100,4,2,1,70,0,0
74536,-100,4,2,3,70,0,0
74624,-100,4,2,4,70,0,0
74711,-100,4,2,1,70,0,0
74885,-100,4,2,3,70,0,0
74973,-100,4,2,4,70,0,0
75060,-100,4,2,1,70,0,0
75234,-100,4,2,3,70,0,0
75322,-100,4,2,4,70,0,0
75409,-100,4,2,1,70,0,0
75583,-100,4,2,3,70,0,0
75670,-100,4,2,4,70,0,0
75844,-100,4,2,3,70,0,0
75932,-100,4,2,4,70,0,0
76106,-100,4,2,1,70,0,0
76455,-100,4,2,2,70,0,0
77153,-100,4,2,1,70,0,0
77327,-100,4,2,3,70,0,0
77415,-100,4,2,4,70,0,0
77502,-100,4,2,1,70,0,0
77676,-100,4,2,3,70,0,0
77763,-100,4,2,4,70,0,0
77851,-100,4,2,1,70,0,0
78025,-100,4,2,3,70,0,0
78112,-100,4,2,4,70,0,0
78199,-100,4,2,1,70,0,0
78374,-100,4,2,3,70,0,0
78461,-100,4,2,4,70,0,0
78635,-100,4,2,3,70,0,0
78723,-100,4,2,3,70,0,0
78810,-100,4,2,4,70,0,0
78897,-100,4,2,1,70,0,0
79072,-100,4,2,3,70,0,0
79159,-100,4,2,4,70,0,0
79246,-100,4,2,4,70,0,0
79420,-100,4,2,3,70,0,0
79508,-100,4,2,4,70,0,0
79595,-100,4,2,1,70,0,0
79769,-100,4,2,3,70,0,0
79856,-100,4,2,4,70,0,0
79944,-100,4,2,1,70,0,0
80118,-100,4,2,3,70,0,0
80205,-100,4,2,4,70,0,0
80292,-100,4,2,1,70,0,0
80466,-100,4,2,3,70,0,0
80554,-100,4,2,4,70,0,0
80641,-100,4,2,1,70,0,0
80815,-100,4,2,3,70,0,0
80903,-100,4,2,4,70,0,0
80990,-100,4,2,1,70,0,0
81165,-100,4,2,3,70,0,0
81252,-100,4,2,4,70,0,0
81339,-100,4,2,4,70,0,0
81688,-100,4,2,1,70,0,0
82734,-111.111111111111,4,2,2,60,0,0
88316,-111.111111111111,4,2,1,60,0,0
88781,-111.111111111111,4,2,2,60,0,0
88795,-111.111111111111,4,2,2,60,0,0
91106,-133.333333333333,4,2,2,60,0,0
92502,-90.9090909090909,4,2,1,70,0,0
93199,-90.9090909090909,4,2,2,70,0,0
93897,-90.9090909090909,4,2,1,80,0,0
94246,-90.9090909090909,4,2,2,80,0,0
94594,-90.9090909090909,4,2,1,80,0,0
95292,-90.9090909090909,4,2,2,80,0,0
95641,-90.9090909090909,4,2,1,80,0,0
95990,-90.9090909090909,4,2,2,80,0,0
96339,-90.9090909090909,4,2,1,80,0,0
97734,-90.9090909090909,4,2,2,80,0,0
98083,-90.9090909090909,4,2,1,80,0,0
98432,-90.9090909090909,4,2,2,80,0,0
99479,-90.9090909090909,4,2,1,80,0,0
99827,-90.9090909090909,4,2,2,80,0,0
100176,-90.9090909090909,4,2,1,80,0,0
101223,-90.9090909090909,4,2,2,80,0,0
102269,-90.9090909090909,4,2,1,80,0,0
103315,-90.9090909090909,4,2,2,80,0,0
103664,-90.9090909090909,4,2,1,80,0,0
104013,-90.9090909090909,4,2,2,80,0,0
105060,-133.333333333333,4,2,1,50,0,0
105408,-133.333333333333,4,2,3,50,0,0
105583,-133.333333333333,4,2,1,50,0,0
105757,-133.333333333333,4,2,4,50,0,0
105932,-133.333333333333,4,2,1,50,0,0
106106,-133.333333333333,4,2,3,50,0,0
106280,-133.333333333333,4,2,1,50,0,0
106455,-133.333333333333,4,2,3,50,0,0
106629,-133.333333333333,4,2,1,50,0,0
106804,-133.333333333333,4,2,3,50,0,0
106979,-133.333333333333,4,2,1,50,0,0
107153,-133.333333333333,4,2,4,50,0,0
107327,-133.333333333333,4,2,1,50,0,0
107502,-133.333333333333,4,2,3,50,0,0
107676,-133.333333333333,4,2,1,50,0,0
108199,-133.333333333333,4,2,3,50,0,0
108374,-133.333333333333,4,2,1,50,0,0
108548,-133.333333333333,4,2,4,50,0,0
108723,-133.333333333333,4,2,1,50,0,0
108897,-133.333333333333,4,2,3,50,0,0
109071,-133.333333333333,4,2,1,50,0,0
110641,-133.333333333333,4,2,1,60,0,0
110989,-133.333333333333,4,2,3,60,0,0
111165,-133.333333333333,4,2,1,60,0,0
111339,-133.333333333333,4,2,4,60,0,0
111513,-133.333333333333,4,2,1,60,0,0
111688,-133.333333333333,4,2,3,60,0,0
111862,-133.333333333333,4,2,1,60,0,0
112037,-133.333333333333,4,2,3,60,0,0
112211,-133.333333333333,4,2,1,60,0,0
112386,-133.333333333333,4,2,3,60,0,0
112560,-133.333333333333,4,2,1,60,0,0
112734,-133.333333333333,4,2,4,60,0,0
112909,-133.333333333333,4,2,1,60,0,0
113083,-133.333333333333,4,2,3,60,0,0
113258,-133.333333333333,4,2,1,60,0,0
113780,-133.333333333333,4,2,3,60,0,0
113955,-133.333333333333,4,2,1,60,0,0
114129,-133.333333333333,4,2,4,60,0,0
114304,-133.333333333333,4,2,1,60,0,0
114479,-133.333333333333,4,2,3,60,0,0
114653,-133.333333333333,4,2,1,60,0,0
116223,-111.111111111111,4,2,2,80,0,0
117269,-111.111111111111,4,2,1,80,0,0
118140,-111.111111111111,4,2,5,80,0,0
118665,-111.111111111111,4,2,1,80,0,0
119013,-111.111111111111,4,2,2,80,0,0
120060,-111.111111111111,4,2,1,80,0,0
120670,-111.111111111111,4,2,4,80,0,0
120758,-111.111111111111,4,2,1,80,0,0
121019,-111.111111111111,4,2,4,80,0,0
121106,-111.111111111111,4,2,1,80,0,0
121368,-111.111111111111,4,2,4,80,0,0
121455,-111.111111111111,4,2,1,80,0,0
121716,-111.111111111111,4,2,4,80,0,0
121804,-111.111111111111,4,2,1,60,0,0
123199,-111.111111111111,4,2,1,70,0,0
124595,-111.111111111111,4,2,1,80,0,0
125118,-100,4,2,1,80,0,0
127386,-100,4,2,1,40,0,0
131572,-100,4,2,1,60,0,0
133054,-100,4,2,4,60,0,0
133141,-100,4,2,1,60,0,0
133228,-100,4,2,4,60,0,0
133316,-100,4,2,1,60,0,0
133403,-100,4,2,4,60,0,0
133490,-100,4,2,2,60,0,0
133577,-100,4,2,4,60,0,0
133664,-100,4,2,1,60,0,0
133752,-100,4,2,4,60,0,0
133839,-100,4,2,2,60,0,0
133926,-100,4,2,4,60,0,0
134013,-100,4,2,1,60,0,0
134101,-100,4,2,4,60,0,0
134187,-100,4,2,2,60,0,0
134275,-100,4,2,4,60,0,0
134362,-100,4,2,1,60,0,0
135758,-100,4,2,1,70,0,0
136106,-100,4,2,2,70,0,0
136455,-100,4,2,1,70,0,0
136804,-100,4,2,2,70,0,0
137153,-100,4,2,1,80,0,0
138548,-83.3333333333333,4,2,1,90,0,1
138897,-83.3333333333333,4,2,2,90,0,1
139246,-83.3333333333333,4,2,1,90,0,1
139420,-83.3333333333333,4,2,1,90,0,1
139595,-83.3333333333333,4,2,2,90,0,1
139944,-83.3333333333333,4,2,1,90,0,1
140292,-83.3333333333333,4,2,2,90,0,1
140641,-83.3333333333333,4,2,1,90,0,1
140728,-83.3333333333333,4,2,2,90,0,1
140816,-83.3333333333333,4,2,1,90,0,1
140990,-83.3333333333333,4,2,2,90,0,1
141339,-83.3333333333333,4,2,1,90,0,1
141688,-83.3333333333333,4,2,2,90,0,1
142037,-83.3333333333333,4,2,1,90,0,1
142123,-83.3333333333333,4,2,2,90,0,1
142211,-83.3333333333333,4,2,1,90,0,1
142386,-83.3333333333333,4,2,2,90,0,1
142734,-83.3333333333333,4,2,1,90,0,1
143083,-83.3333333333333,4,2,2,90,0,1
143258,-83.3333333333333,4,2,1,90,0,1
143781,-83.3333333333333,4,2,2,90,0,1
144130,-83.3333333333333,4,2,1,90,0,1
144217,-83.3333333333333,4,2,4,90,0,1
144304,-83.3333333333333,4,2,1,90,0,1
144391,-83.3333333333333,4,2,4,90,0,1
144653,-83.3333333333333,4,2,2,90,0,1
144740,-83.3333333333333,4,2,4,90,0,1
145001,-83.3333333333333,4,2,2,90,0,1
145089,-83.3333333333333,4,2,4,90,0,1
145176,-83.3333333333333,4,2,1,90,0,1
145263,-83.3333333333333,4,2,4,90,0,1
145351,-83.3333333333333,4,2,2,90,0,1
145438,-83.3333333333333,4,2,4,90,0,1
145525,-83.3333333333333,4,2,1,90,0,1
147967,-83.3333333333333,4,2,2,90,0,1
148316,-83.3333333333333,4,2,1,90,0,1
149013,-83.3333333333333,4,2,2,90,0,1
149362,-83.3333333333333,4,2,1,90,0,1
149711,-83.3333333333333,4,2,1,100,0,1
150060,-83.3333333333333,4,2,2,100,0,1
150409,-83.3333333333333,4,2,1,100,0,1
150495,-83.3333333333333,4,2,2,100,0,1
150583,-83.3333333333333,4,2,1,100,0,1
150758,-83.3333333333333,4,2,2,100,0,1
151106,-83.3333333333333,4,2,1,100,0,1
151455,-83.3333333333333,4,2,2,100,0,1
151804,-83.3333333333333,4,2,1,100,0,1
151891,-83.3333333333333,4,2,2,100,0,1
151979,-83.3333333333333,4,2,1,100,0,1
152851,-83.3333333333333,4,2,2,100,0,1
153199,-83.3333333333333,4,2,1,100,0,1
153286,-83.3333333333333,4,2,2,100,0,1
153374,-83.3333333333333,4,2,1,100,0,1
153548,-83.3333333333333,4,2,2,100,0,1
153897,-83.3333333333333,4,2,1,100,0,1
154246,-83.3333333333333,4,2,2,100,0,1
154420,-83.3333333333333,4,2,1,100,0,1
154944,-83.3333333333333,4,2,2,100,0,1
155292,-83.3333333333333,4,2,1,100,0,1
155380,-83.3333333333333,4,2,4,100,0,1
155467,-83.3333333333333,4,2,1,100,0,1
155553,-83.3333333333333,4,2,4,100,0,1
155816,-83.3333333333333,4,2,2,100,0,1
155903,-83.3333333333333,4,2,4,100,0,1
156164,-83.3333333333333,4,2,2,100,0,1
156252,-83.3333333333333,4,2,4,100,0,1
156339,-83.3333333333333,4,2,1,100,0,1
156426,-83.3333333333333,4,2,4,100,0,1
156513,-83.3333333333333,4,2,2,100,0,1
156601,-83.3333333333333,4,2,4,100,0,1
156688,-83.3333333333333,4,2,1,100,0,1
158432,-83.3333333333333,4,2,2,100,0,1
158780,-83.3333333333333,4,2,1,100,0,1
159130,-83.3333333333333,4,2,2,100,0,1
159479,-83.3333333333333,4,2,1,100,0,1
161223,-83.3333333333333,4,2,2,100,0,1
161571,-83.3333333333333,4,2,1,100,0,1
161920,-83.3333333333333,4,2,2,100,0,1
162269,-83.3333333333333,4,2,1,100,0,1
163316,-83.3333333333333,4,2,2,100,0,1
163664,-83.3333333333333,4,2,2,80,0,0
164362,-133.333333333333,4,2,2,80,0,0
165061,348.837209302326,4,2,1,80,1,0
165061,-90.9090909090909,4,2,1,80,0,0
165409,-90.9090909090909,4,2,2,80,0,0
165758,-90.9090909090909,4,2,1,80,0,0
166805,-90.9090909090909,4,2,2,80,0,0
167851,-90.9090909090909,4,2,1,80,0,0
168898,-90.9090909090909,4,2,2,80,0,0
169246,-90.9090909090909,4,2,1,80,0,0
169595,-90.9090909090909,4,2,2,80,0,0
170642,-90.9090909090909,4,2,1,80,0,0
170991,-90.9090909090909,4,2,2,80,0,0
171340,-90.9090909090909,4,2,1,80,0,0
171426,-90.9090909090909,4,2,2,80,0,0
171514,-90.9090909090909,4,2,1,80,0,0
172386,-90.9090909090909,4,2,2,80,0,0
173433,-90.9090909090909,4,2,1,80,0,0
174479,-90.9090909090909,4,2,2,80,0,0
174828,-90.9090909090909,4,2,1,80,0,0
175176,-90.9090909090909,4,2,2,80,0,0
176223,-90.9090909090909,4,2,1,90,0,0
177444,-181.818181818182,4,2,1,90,0,0

[Colours]
Combo1 : 37,226,170
Combo2 : 152,250,165
Combo3 : 252,153,148
Combo4 : 168,228,239

[HitObjects]
495,126,1820,6,0,P|371:101|248:71,1,252,6|2,3:2|2:0,0:0:0:0:
475,206,3216,2,0,P|352:176|228:151,1,252,6|2,3:2|2:0,0:0:0:0:
32,241,4611,6,0,P|100:226|131:97,1,216,6|2,3:2|2:0,0:0:0:0:
209,384,5991,2,0,L|190:250,1,135,6|0,3:2|0:0,0:0:0:0:
199,240,6339,1,2,1:2:0:0:
371,244,6514,2,0,P|326:237|282:228,1,90,6|0,3:2|0:0,0:0:0:0:
390,341,6863,1,2,3:2:0:0:
499,237,7037,1,2,1:2:0:0:
497,221,7124,1,0,1:0:0:0:
495,205,7211,1,2,1:2:0:0:
493,190,7299,1,0,1:0:0:0:
472,167,7386,6,0,P|411:152|386:42,1,180,6|0,3:2|3:0,0:0:0:0:
205,139,7909,2,0,L|320:119,1,90,2|0,2:3|3:0,0:0:0:0:
197,42,8258,1,2,2:3:0:0:
148,227,8432,2,0,B|189:243|189:243|234:236,1,90,2|2,3:2|2:3,0:0:0:0:
106,125,8781,5,6,3:2:0:0:
37,279,8955,1,2,2:0:0:0:
193,156,9130,1,2,1:2:0:0:
38,68,9304,2,0,B|64:161|104:126|129:220,1,180,6|0,3:2|3:0,0:0:0:0:
230,318,9827,1,2,1:3:0:0:
23,381,10002,5,2,1:2:0:0:
23,381,10089,1,0,1:0:0:0:
23,381,10176,2,0,P|78:310|140:328,1,135,6|0,3:2|0:0,0:0:0:0:
170,371,10525,1,2,1:3:0:0:
326,276,10699,2,0,B|362:283|362:283|377:278|377:278|413:284,2,90,2|2|2,3:2|1:3|3:2,0:0:0:0:
211,176,11223,1,2,1:3:0:0:
309,365,11397,1,2,3:2:0:0:
479,234,11572,5,6,1:2:0:0:
479,234,11659,1,0,3:0:0:0:
479,234,11746,2,0,L|467:153,1,45,0|0,3:0|3:0,0:0:0:0:
420,78,11920,2,0,L|413:122,1,45,0|0,3:0|3:0,0:0:0:0:
351,176,12095,6,0,B|285:193|286:152|218:170,1,135,4|0,3:2|3:0,0:0:0:0:
147,133,12444,1,2,3:2:0:0:
147,133,12531,1,0,3:0:0:0:
147,133,12618,2,0,L|136:48,1,45,2|0,3:0|3:0,0:0:0:0:
226,15,12792,2,0,L|220:59,1,45,2|0,3:2|3:0,0:0:0:0:
184,244,12967,5,6,3:2:0:0:
12,140,13141,1,0,3:0:0:0:
10,152,13490,1,0,3:0:0:0:
8,164,13839,1,0,1:0:0:0:
6,176,14188,6,0,P|58:188|130:112,1,135,4|0,3:2|0:0,0:0:0:0:
112,65,14537,1,0,3:0:0:0:
320,145,14711,1,4,1:2:0:0:
244,345,15409,6,0,L|236:295,3,45,2|2|2|2,2:0|2:0|2:0|2:0,0:0:0:0:
296,243,15758,6,0,B|373:258|362:223|442:240,1,148.5,6|0,3:1|3:0,0:0:0:0:
451,251,16106,1,2,1:3:0:0:
498,137,16281,2,0,P|449:145|400:153,1,99,2|2,3:2|2:3,0:0:0:0:
497,358,16630,2,0,P|448:349|399:341,1,99,2|2,3:2|1:3,0:0:0:0:
228,195,16979,6,0,P|161:194|111:308,1,198,2|2,3:2|3:2,0:0:0:0:
3,100,17502,2,0,L|121:123,1,99,2|2,1:3|3:2,0:0:0:0:
7,293,17851,1,2,3:0:0:0:
151,229,18025,1,2,3:2:0:0:
51,192,18199,1,2,1:3:0:0:
127,376,18374,5,2,1:2:0:0:
127,376,18461,1,0,1:0:0:0:
127,376,18548,2,0,B|235:354|235:354|263:309,1,148.5,6|0,3:2|0:0,0:0:0:0:
271,317,18897,1,2,1:3:0:0:
397,218,19072,2,0,B|451:235|432:248|482:266,1,99,2|2,3:2|1:3,0:0:0:0:
403,347,19420,1,2,3:2:0:0:
403,347,19508,1,2,2:0:0:0:
403,347,19595,1,2,1:3:0:0:
262,207,19769,6,0,P|269:255|277:304,1,99,2|2,3:2|1:3,0:0:0:0:
407,210,20118,1,2,3:2:0:0:
269,109,20292,1,2,1:3:0:0:
436,53,20467,1,2,3:2:0:0:
382,111,20641,2,0,P|332:104|283:100,1,99,2|2,1:3|3:2,0:0:0:0:
269,109,20903,1,2,3:2:0:0:
269,109,20990,1,2,1:3:0:0:
89,201,21165,2,0,L|82:152,1,49.5,2|0,1:2|1:0,0:0:0:0:
142,3,21339,6,0,B|160:50|160:50|143:95,1,99,6|2,3:2|3:2,0:0:0:0:
2,184,21688,1,2,1:3:0:0:
148,267,21862,2,0,P|75:260|28:324,1,148.5,2|0,3:2|0:0,0:0:0:0:
41,326,22211,1,2,3:2:0:0:
152,384,22386,1,2,1:3:0:0:
281,289,22560,6,0,B|269:208|269:208|246:182|246:182|234:101,1,198,2|2,3:2|3:2,0:0:0:0:
397,0,23083,2,0,L|391:115,1,99,2|2,1:3|3:2,0:0:0:0:
232,16,23432,1,2,3:0:0:0:
344,169,23606,1,2,3:2:0:0:
499,79,23781,1,2,1:3:0:0:
434,267,23955,5,2,3:2:0:0:
434,267,24042,1,0,1:0:0:0:
434,267,24130,2,0,B|350:247|369:291|288:271,1,148.5,6|0,3:2|0:0,0:0:0:0:
235,216,24479,1,2,1:3:0:0:
104,332,24653,2,0,P|93:283|102:235,1,99,2|2,3:2|1:3,0:0:0:0:
233,339,25002,1,2,3:2:0:0:
233,339,25089,1,2,2:0:0:0:
233,339,25176,1,2,1:3:0:0:
8,268,25351,6,0,B|57:256|41:236|94:223,2,99,2|2|2,3:2|1:3|3:2,0:0:0:0:
169,125,25874,1,2,1:3:0:0:
37,42,26048,1,2,3:2:0:0:
108,214,26223,2,0,P|156:220|205:230,1,99,2|0,1:3|3:0,0:0:0:0:
330,101,26572,5,2,1:3:0:0:
327,85,26659,1,0,1:0:0:0:
324,69,26746,1,0,1:0:0:0:
322,54,26833,1,0,1:0:0:0:
294,34,26920,6,0,L|276:193,1,135,6|2,3:2|1:3,0:0:0:0:
333,227,27444,2,0,P|365:219|399:214,1,67.5000000000002,2|2,2:0|3:0,0:0:0:0:
446,286,27792,1,2,2:0:0:0:
446,286,27967,2,0,P|413:293|379:298,1,67.5000000000002,2|2,1:3|2:0,0:0:0:0:
324,361,28316,5,2,3:0:0:0:
209,288,28490,2,0,B|203:255|203:255|219:225,1,67.5000000000002,2|2,2:0|1:3,0:0:0:0:
342,152,28839,2,0,P|351:94|303:36,1,135,2|2,2:0|2:0,0:0:0:0:
232,0,29362,1,2,1:3:0:0:
160,102,29537,1,2,2:0:0:0:
32,23,29711,6,0,B|81:32|81:32|67:116,1,135,6|2,3:2|1:3,0:0:0:0:
14,179,30234,2,0,P|76:160|128:199,1,135,2|2,2:0|2:0,0:0:0:0:
103,278,30758,2,0,P|70:280|36:284,1,67.5000000000002,2|2,1:3|2:0,0:0:0:0:
255,384,31106,6,0,P|256:350|260:316,1,67.5000000000002,6|2,3:2|1:2,0:0:0:0:
276,305,31368,1,0,1:0:0:0:
276,305,31455,1,2,1:2:0:0:
389,349,31630,2,0,P|459:348|506:276,1,135,6|0,3:2|1:0,0:0:0:0:
512,281,32066,1,0,1:0:0:0:
512,281,32153,2,0,L|494:188,1,67.5000000000002,2|2,1:3|3:2,0:0:0:0:
426,36,32502,6,0,L|400:168,1,135,6|2,3:2|1:3,0:0:0:0:
332,209,33025,2,0,P|298:208|273:187,1,67.5000000000002,2|2,2:0|3:0,0:0:0:0:
197,152,33374,1,2,2:0:0:0:
245,20,33548,2,0,P|249:53|253:86,1,67.5000000000002,2|2,1:3|2:0,0:0:0:0:
58,0,33897,6,0,P|52:50|45:100,1,101.25,2|2,3:0|2:0,0:0:0:0:
33,111,34246,1,2,1:3:0:0:
129,214,34420,2,0,L|39:234,1,67.5000000000002,2|2,2:0|3:0,0:0:0:0:
33,303,34769,1,2,2:0:0:0:
116,367,34944,1,2,1:3:0:0:
204,306,35118,1,2,2:0:0:0:
319,375,35292,6,0,P|357:363|381:253,1,135,6|2,3:2|1:3,0:0:0:0:
512,223,35816,2,0,P|469:224|432:205,1,67.5000000000002,2|2,2:0|3:0,0:0:0:0:
339,101,36165,1,2,2:0:0:0:
420,72,36339,2,0,L|411:161,1,67.5000000000002,2|2,1:3|2:0,0:0:0:0:
246,265,36688,6,0,L|239:197,1,67.5000000000002,6|2,3:2|1:2,0:0:0:0:
255,180,36949,1,0,1:0:0:0:
255,180,37037,1,2,1:2:0:0:
154,47,37211,2,0,B|125:37|125:37|-1:71,1,135,6|2,3:2|1:2,0:0:0:0:
19,86,37647,1,0,1:0:0:0:
19,86,37734,1,2,1:3:0:0:
67,147,37909,1,0,3:0:0:0:
0,278,38083,6,0,P|27:250|67:251,1,80.9999975280763,6|2,3:0|3:0,0:0:0:0:
81,261,38345,2,0,L|93:331,1,40.5,2|0,3:0|0:0,0:0:0:0:
216,337,38606,2,0,B|225:362|225:362|336:383|336:383|352:367,1,162,2|2,3:0|3:2,0:0:0:0:
377,359,39042,1,0,3:0:0:0:
377,359,39130,2,0,B|357:287|338:318|319:253,1,121.5,6|0,1:2|0:0,0:0:0:0:
330,243,39479,5,2,3:2:0:0:
490,152,39653,2,0,B|467:187|411:175|411:175|338:159,1,162,4|10,1:2|2:3,0:0:0:0:
332,146,40089,1,8,2:3:0:0:
332,146,40176,1,8,2:3:0:0:
267,87,40351,1,6,2:3:0:0:
88,154,40525,1,6,1:2:0:0:
186,0,40699,5,0,1:0:0:0:
186,0,40787,1,0,1:0:0:0:
186,0,40874,2,0,B|178:48|164:32|155:75,1,80.9999975280763,6|2,3:0|3:0,0:0:0:0:
141,81,41136,2,0,L|101:70,1,40.5,2|0,3:0|0:0,0:0:0:0:
2,256,41397,2,0,P|49:239|141:303,1,162,2|2,3:0|3:2,0:0:0:0:
138,316,41833,1,0,3:0:0:0:
138,316,41920,1,6,1:2:0:0:
253,380,42095,5,2,1:2:0:0:
253,380,42182,1,0,1:0:0:0:
253,380,42269,1,6,3:2:0:0:
398,316,42444,1,2,2:3:0:0:
402,305,42531,1,2,2:3:0:0:
396,292,42618,1,2,3:2:0:0:
263,249,42792,5,2,2:3:0:0:
254,268,42880,1,2,2:3:0:0:
260,285,42967,1,2,3:2:0:0:
456,231,43141,2,0,L|447:165,1,40.5,2|2,2:3|2:3,0:0:0:0:
394,136,43316,2,0,L|403:70,3,40.5,2|8|6|2,3:2|2:3|2:3|3:0,0:0:0:0:
456,38,43665,5,6,1:2:0:0:
302,96,43839,1,2,1:2:0:0:
302,96,43926,1,0,1:0:0:0:
302,96,44013,2,0,L|231:88,1,40.5,2|0,1:2|1:0,0:0:0:0:
202,39,44188,1,2,1:2:0:0:
202,39,44275,1,0,1:0:0:0:
202,39,44362,2,0,L|131:47,3,40.5,2|0|2|0,1:2|1:0|1:2|1:0,0:0:0:0:
104,102,44711,2,0,L|108:142,3,40.5,2|0|2|0,1:2|1:0|1:2|1:0,0:0:0:0:
18,182,45060,5,6,1:2:0:0:
56,161,45147,1,0,1:0:0:0:
100,163,45234,1,2,1:2:0:0:
136,188,45322,1,0,1:0:0:0:
153,229,45409,2,0,L|148:269,3,40.5,2|0|2|0,1:2|1:0|1:2|1:0,0:0:0:0:
205,335,45758,5,2,1:2:0:0:
243,356,45845,1,0,1:0:0:0:
287,354,45932,1,2,1:2:0:0:
323,329,46019,1,0,1:0:0:0:
340,288,46106,2,0,L|335:247,3,40.5,2|0|2|0,1:2|1:0|1:2|1:0,0:0:0:0:
385,182,46455,5,6,1:2:0:0:
266,36,46630,1,0,1:0:0:0:
425,76,46804,1,0,3:0:0:0:
251,221,46979,2,0,P|171:189|157:104,1,180,4|0,1:2|3:0,0:0:0:0:
20,229,47502,1,0,1:0:0:0:
157,104,47676,6,0,B|148:183|148:183|158:206|158:206|148:280,1,180,4|2,3:2|3:0,0:0:0:0:
210,331,48199,1,0,0:0:0:0:
40,362,48374,2,0,L|223:318,1,180,6|2,3:2|1:2,0:0:0:0:
283,212,48810,1,0,1:0:0:0:
286,226,48897,2,0,L|275:299,1,45,2|0,1:2|1:0,0:0:0:0:
350,330,49072,2,0,L|356:285,1,45,2|0,1:2|1:0,0:0:0:0:
512,194,49246,6,0,P|459:200|419:167,1,108,6|2,3:1|3:2,0:0:0:0:
425,149,49508,1,0,3:0:0:0:
425,149,49595,1,2,1:3:0:0:
280,0,49769,2,0,L|293:132,1,108,2|2,3:2|2:3,0:0:0:0:
133,231,50118,1,2,3:2:0:0:
39,77,50292,1,2,1:3:0:0:
218,144,50467,2,0,P|211:179|206:209,1,54,2|0,3:2|3:0,0:0:0:0:
133,231,50641,6,0,P|61:245|34:337,1,162,4|0,3:2|3:0,0:0:0:0:
83,379,50990,1,2,1:3:0:0:
252,274,51165,2,0,B|305:264|305:264|350:293,1,108,2|2,3:2|2:3,0:0:0:0:
282,376,51513,1,2,3:2:0:0:
146,317,51688,1,2,1:3:0:0:
246,193,51862,1,2,3:2:0:0:
365,277,52037,6,0,B|408:285|408:285|425:299|425:299|466:306,1,108,6|2,3:2|3:2,0:0:0:0:
484,300,52298,1,0,3:0:0:0:
484,300,52386,1,2,1:3:0:0:
351,169,52560,2,0,P|298:181|245:192,1,108,2|2,3:2|2:3,0:0:0:0:
501,49,52909,1,2,3:2:0:0:
454,214,53083,1,2,1:3:0:0:
503,34,53258,1,2,3:2:0:0:
340,162,53432,6,0,P|264:143|237:70,1,162,6|0,3:2|3:0,0:0:0:0:
294,18,53781,1,2,1:3:0:0:
106,88,53955,2,0,B|85:95|85:95|0:80,1,108,6|2,3:2|2:3,0:0:0:0:
149,208,54304,1,2,3:2:0:0:
5,345,54479,5,2,1:3:0:0:
19,304,54566,1,0,1:0:0:0:
52,278,54653,1,2,1:2:0:0:
95,274,54740,1,0,1:0:0:0:
133,294,54827,6,0,B|218:321|190:348|270:376,1,162,6|2,3:2|2:3,0:0:0:0:
290,371,55176,2,0,P|331:334|308:270,1,108,0|2,3:0|2:3,0:0:0:0:
274,225,55438,1,2,2:3:0:0:
262,222,55525,2,0,P|228:181|239:130,1,108,0|2,3:0|2:3,0:0:0:0:
279,111,55787,1,2,2:3:0:0:
279,111,55874,1,2,3:2:0:0:
391,168,56048,1,2,2:3:0:0:
512,42,56223,6,0,B|478:5|478:5|458:136,1,162,6|0,3:2|0:0,0:0:0:0:
470,130,56572,1,2,1:2:0:0:
358,249,56746,2,0,B|295:259|295:259|272:286|272:286|209:294,1,162,6|0,3:2|0:0,0:0:0:0:
198,288,57095,1,0,3:0:0:0:
58,366,57269,2,0,P|12:330|26:260,1,108,0|2,1:0|1:2,0:0:0:0:
166,384,57618,6,0,B|136:266|213:291|189:175,1,216,6|2,3:2|1:3,0:0:0:0:
0,43,58141,2,0,P|53:52|106:60,1,108,2|2,3:2|1:3,0:0:0:0:
44,170,58490,1,2,3:2:0:0:
202,70,58665,1,2,1:3:0:0:
32,180,58839,1,2,3:2:0:0:
198,288,59013,6,0,B|253:299|253:299|295:269,1,108,6|0,1:2|3:0,0:0:0:0:
303,253,59275,1,0,3:0:0:0:
303,253,59362,2,0,L|290:184,1,54,2|0,3:0|3:0,0:0:0:0:
414,57,59537,2,0,B|401:116|376:95|361:149,1,108,0|2,3:0|3:0,0:0:0:0:
368,167,59798,1,0,3:0:0:0:
368,167,59886,1,2,3:2:0:0:
202,70,60060,1,6,1:2:0:0:
85,189,60234,5,2,3:2:0:0:
85,189,60322,1,0,3:0:0:0:
85,189,60409,2,0,P|15:163|10:118,1,108,6|2,3:1|3:2,0:0:0:0:
20,120,60670,1,0,3:0:0:0:
19,120,60758,1,2,1:3:0:0:
165,0,60932,2,0,B|177:90|177:90|188:77,1,108,2|2,3:2|2:3,0:0:0:0:
368,167,61281,1,2,3:2:0:0:
319,17,61455,1,2,1:3:0:0:
371,179,61630,1,2,3:2:0:0:
512,50,61804,6,0,B|460:61|462:35|404:49,1,108,6|2,3:2|3:2,0:0:0:0:
395,68,62066,1,0,3:0:0:0:
395,68,62153,1,2,1:3:0:0:
470,206,62327,2,0,P|391:208|349:278,1,162,2|0,3:2|0:0,0:0:0:0:
392,341,62676,1,2,3:2:0:0:
244,384,62851,1,2,1:3:0:0:
168,259,63025,1,2,3:2:0:0:
0,335,63199,6,0,P|53:327|106:316,1,108,6|2,3:2|3:2,0:0:0:0:
126,331,63461,1,0,3:0:0:0:
126,331,63548,1,2,1:3:0:0:
236,203,63723,2,0,B|217:111|183:148|162:61,1,162,2|0,3:2|0:0,0:0:0:0:
212,0,64072,1,2,3:2:0:0:
0,114,64246,2,0,B|41:118|41:118|62:133|62:133|102:136,1,108,2|2,1:3|3:2,0:0:0:0:
245,291,64595,6,0,P|272:233|385:223,1,162,6|0,3:2|3:0,0:0:0:0:
414,269,64944,1,2,1:3:0:0:
512,113,65118,2,0,B|505:151|505:151|384:125,1,162,6|0,3:2|0:0,0:0:0:0:
374,113,65467,2,0,L|361:27,1,54,2|0,3:2|3:0,0:0:0:0:
205,169,65641,5,2,1:3:0:0:
210,131,65729,1,0,1:0:0:0:
216,94,65816,1,2,1:2:0:0:
221,56,65903,1,0,1:0:0:0:
227,19,65990,6,0,P|172:3|102:82,1,162,6|2,3:2|2:3,0:0:0:0:
101,86,66339,2,0,P|59:109|-2:115,1,108,0|2,3:0|2:3,0:0:0:0:
14,211,66601,1,2,2:3:0:0:
25,216,66688,2,0,P|72:191|126:186,1,108,0|2,3:0|2:3,0:0:0:0:
144,197,66949,1,2,2:3:0:0:
144,197,67037,1,2,3:2:0:0:
68,318,67211,1,2,2:3:0:0:
160,286,67386,5,6,3:2:0:0:
294,360,67560,1,2,3:2:0:0:
415,275,67734,1,2,1:2:0:0:
295,373,67909,2,0,P|272:295|275:214,1,162,6|0,3:2|0:0,0:0:0:0:
289,206,68258,1,0,3:0:0:0:
414,57,68432,5,0,1:0:0:0:
432,60,68519,1,0,1:0:0:0:
451,63,68606,1,2,1:2:0:0:
469,67,68694,1,0,1:0:0:0:
488,70,68781,6,0,B|400:92|435:125|350:150,1,162,6|0,3:2|0:0,0:0:0:0:
289,206,69130,1,2,1:3:0:0:
145,99,69304,1,2,3:2:0:0:
309,17,69479,1,2,1:3:0:0:
264,100,69653,1,2,3:2:0:0:
96,25,69827,1,2,1:3:0:0:
27,164,70002,1,2,3:2:0:0:
167,92,70176,6,0,L|155:199,1,107.999996704102,6|0,1:2|3:0,0:0:0:0:
167,213,70438,1,0,3:0:0:0:
167,213,70525,2,0,L|161:266,1,53.9999983520508,2|0,3:0|3:0,0:0:0:0:
14,374,70699,2,0,P|31:316|101:305,1,108,0|2,3:0|3:0,0:0:0:0:
89,312,70961,1,0,3:0:0:0:
89,312,71048,1,2,3:2:0:0:
221,371,71223,1,6,1:2:0:0:
333,252,71397,2,0,L|280:264,1,54,2|0,3:2|3:0,0:0:0:0:
432,349,71572,6,0,B|400:341|400:341|378:348|378:348|345:338,1,90,6|2,3:2|2:3,0:0:0:0:
480,169,71920,2,0,P|453:203|409:207,1,90,2|2,1:2|2:3,0:0:0:0:
348,156,72182,1,2,2:3:0:0:
339,149,72269,2,0,B|331:101|316:118|306:65,1,90,2|2,3:2|2:3,0:0:0:0:
358,6,72618,1,2,1:2:0:0:
220,118,72792,6,0,P|161:107|150:7,1,135,2|0,2:3|0:0,0:0:0:0:
146,36,73141,1,2,2:3:0:0:
46,132,73316,1,2,1:2:0:0:
146,236,73490,2,0,L|137:146,1,90,2|0,2:3|3:0,0:0:0:0:
65,272,73839,1,2,2:3:0:0:
234,339,74013,1,2,1:2:0:0:
166,381,74188,1,2,2:3:0:0:
241,246,74362,6,0,B|255:261|255:261|244:329,1,90,2|2,3:2|2:3,0:0:0:0:
48,365,74711,2,0,B|37:296|37:296|51:281,1,90,2|2,1:2|2:3,0:0:0:0:
102,218,75060,1,2,3:2:0:0:
241,246,75234,1,2,2:3:0:0:
184,155,75409,1,2,1:2:0:0:
253,257,75583,6,0,P|318:273|384:286,1,135,2|0,2:3|0:0,0:0:0:0:
398,280,75932,1,2,2:3:0:0:
504,134,76106,2,0,L|432:145,1,45,6|0,1:2|0:0,0:0:0:0:
442,136,77153,6,0,P|407:100|408:34,1,90,6|2,3:2|2:3,0:0:0:0:
226,134,77502,2,0,P|274:121|331:155,1,90,2|2,1:2|2:3,0:0:0:0:
224,35,77851,1,2,3:2:0:0:
112,107,78025,1,2,2:3:0:0:
196,213,78199,1,2,1:2:0:0:
123,115,78374,6,0,L|108:249,1,135,2|0,2:3|0:0,0:0:0:0:
119,265,78723,1,2,2:3:0:0:
43,381,78897,1,2,1:2:0:0:
115,346,79072,2,0,B|151:352|151:352|165:363|165:363|200:369,1,90,2|0,2:3|3:0,0:0:0:0:
327,299,79420,1,2,2:3:0:0:
449,376,79595,1,2,1:2:0:0:
415,294,79769,1,2,2:3:0:0:
298,384,79944,6,0,P|290:337|324:297,1,90,2|2,3:2|2:3,0:0:0:0:
390,182,80292,2,0,P|383:138|377:93,1,90,2|2,1:2|2:3,0:0:0:0:
315,45,80554,1,2,2:3:0:0:
305,53,80641,2,0,P|260:57|222:35,1,90,2|2,3:2|2:3,0:0:0:0:
71,132,80990,1,2,1:2:0:0:
131,0,81165,6,0,L|147:115,1,90,2|0,2:3|3:0,0:0:0:0:
154,101,81688,2,0,L|148:172,1,45,6|0,1:2|0:0,0:0:0:0:
0,342,82734,6,0,P|39:296|104:306,1,107.999996704102,6|0,3:2|3:0,0:0:0:0:
142,356,83083,1,0,0:0:0:0:
142,356,83199,2,0,L|220:366,1,53.9999983520508,2|0,1:3|0:0,0:0:0:0:
269,278,83432,2,0,P|260:224|249:167,2,107.999996704102,2|2|2,3:2|3:2|1:3,0:0:0:0:
447,350,84130,6,0,P|383:348|351:302,1,107.999996704102,2|0,3:2|3:0,0:0:0:0:
395,249,84479,1,2,2:0:0:0:
395,249,84595,2,0,L|468:237,1,53.9999983520508,2|2,1:3|2:0,0:0:0:0:
512,131,84827,6,0,L|434:119,1,53.9999983520508,2|2,3:2|2:0,0:0:0:0:
383,103,85060,2,0,L|310:89,1,53.9999983520508,2|2,3:2|2:0,0:0:0:0:
254,75,85292,2,0,L|179:63,1,53.9999983520508,2|0,1:3|0:0,0:0:0:0:
141,125,85525,6,0,B|163:179|179:159|201:217,1,107.999996704102,2|0,3:2|3:0,0:0:0:0:
149,278,85874,1,0,0:0:0:0:
149,278,85990,2,0,P|122:277|98:263,1,53.9999983520508,2|0,1:3|1:0,0:0:0:0:
0,181,86223,2,0,B|21:67,2,107.999996704102,2|2|2,3:2|3:2|1:3,0:0:0:0:
171,2,86920,6,0,B|185:54|209:37|228:99,1,107.999996704102,2|0,3:2|3:0,0:0:0:0:
290,141,87269,1,2,2:0:0:0:
290,141,87386,2,0,L|363:125,1,53.9999983520508,2|2,1:3|2:0,0:0:0:0:
451,202,87618,6,0,L|411:192,3,35.9999989013672,2|0|0|2,1:2|1:0|1:0|1:2,0:0:0:0:
361,258,87967,6,0,L|369:294,2,35.9999989013672,0|0|0,1:0|1:0|1:0,0:0:0:0:
272,374,88316,6,0,P|219:379|177:343,1,107.999996704102,6|0,3:2|3:0,0:0:0:0:
102,379,88665,1,0,0:0:0:0:
102,379,88781,2,0,L|95:313,1,53.9999983520508,2|0,1:3|0:0,0:0:0:0:
190,261,89013,2,0,B|184:218|184:218|170:199|170:199|164:153,2,107.999996704102,2|2|2,3:2|3:2|1:3,0:0:0:0:
0,181,89711,6,0,P|38:216|96:214,1,107.999996704102,2|0,3:2|3:0,0:0:0:0:
151,156,90060,1,2,2:0:0:0:
151,156,90176,2,0,L|143:90,1,53.9999983520508,2|2,1:3|2:0,0:0:0:0:
274,0,90409,2,0,L|260:110,2,107.999996704102,2|0|2,3:2|3:0|1:3,0:0:0:0:
328,168,91106,6,0,P|406:190|482:112,1,180.000006866455,2|2,3:2|2:0,0:0:0:0:
476,131,91804,2,0,P|445:163|444:212,2,90.0000034332277,2|2|2,3:2|2:0|2:0,0:0:0:0:
397,280,92502,6,0,P|330:297|254:320,1,148.5,6|0,3:2|0:0,0:0:0:0:
182,253,92851,2,0,P|248:235|324:212,1,148.5,6|0,3:2|0:0,0:0:0:0:
368,145,93199,1,2,3:0:0:0:
201,51,93374,1,2,3:2:0:0:
316,4,93548,1,2,3:0:0:0:
184,146,93723,5,2,1:2:0:0:
184,146,93810,1,0,1:0:0:0:
184,146,93897,2,0,P|74:117|53:56,1,148.5,6|0,3:2|3:0,0:0:0:0:
68,80,94246,1,2,1:3:0:0:
0,262,94420,2,0,B|53:248|40:238|91:226,1,99,2|2,3:2|2:3,0:0:0:0:
206,376,94769,2,0,P|192:329|204:281,1,99,2|2,3:2|1:3,0:0:0:0:
335,188,95118,1,2,3:2:0:0:
444,349,95292,6,0,B|385:343|385:343|360:327|360:327|300:321,1,148.5,2|2,2:3|2:0,0:0:0:0:
288,329,95641,1,2,1:3:0:0:
177,195,95816,1,2,3:2:0:0:
327,96,95990,2,0,B|350:143|350:143|334:187,1,99,2|0,3:0|3:0,0:0:0:0:
320,203,96252,1,2,2:0:0:0:
320,203,96339,1,2,1:3:0:0:
180,104,96513,2,0,L|170:34,1,49.5,2|2,1:2|1:2,0:0:0:0:
91,213,96688,6,0,P|21:199|0:132,1,148.5,6|0,3:2|0:0,0:0:0:0:
14,121,97037,1,2,1:3:0:0:
172,230,97211,2,0,L|163:346,1,99,2|2,3:2|1:3,0:0:0:0:
304,384,97560,1,2,3:2:0:0:
304,384,97647,1,2,2:0:0:0:
304,384,97734,1,2,1:3:0:0:
443,284,97909,6,0,P|394:274|346:262,1,99,2|2,3:2|1:3,0:0:0:0:
248,123,98258,1,2,3:2:0:0:
424,59,98432,1,2,1:3:0:0:
358,170,98606,1,2,3:2:0:0:
240,14,98781,2,0,L|262:144,1,99,2|2,1:3|3:2,0:0:0:0:
72,205,99130,5,2,1:3:0:0:
34,193,99217,1,2,1:2:0:0:
12,161,99304,1,2,1:2:0:0:
14,122,99391,1,2,1:2:0:0:
39,93,99479,6,0,P|121:92|162:165,1,148.5,6|0,3:2|0:0,0:0:0:0:
155,156,99827,1,2,1:3:0:0:
71,330,100002,2,0,P|98:290|146:282,1,99,2|2,3:2|2:3,0:0:0:0:
293,226,100351,2,0,P|341:236|390:245,1,99,2|2,3:2|1:3,0:0:0:0:
505,354,100699,6,0,P|408:333|310:314,1,198,2|2,3:2|3:2,0:0:0:0:
461,203,101223,1,2,1:3:0:0:
466,164,101310,1,2,2:0:0:0:
452,127,101397,1,2,3:2:0:0:
422,102,101484,1,2,3:2:0:0:
383,95,101572,2,0,B|348:103|348:103|328:117|328:117|290:125,1,99,2|2,3:0|3:2,0:0:0:0:
144,205,101920,1,2,1:3:0:0:
61,64,102095,2,0,L|136:78,1,49.5,2|0,3:2|1:0,0:0:0:0:
237,201,102269,6,0,B|289:212|289:212|320:241|320:241|371:253,1,148.5,6|0,3:2|0:0,0:0:0:0:
387,243,102618,1,2,1:3:0:0:
265,384,102792,2,0,P|239:333|260:276,1,99,2|2,3:2|1:3,0:0:0:0:
436,173,103141,2,0,L|517:186,2,49.5,2|2|2,3:2|2:0|1:3,0:0:0:0:
323,44,103490,6,0,B|269:61|288:75|237:91,1,99,2|2,3:2|1:3,0:0:0:0:
123,182,103839,1,2,3:2:0:0:
66,70,104013,1,2,1:3:0:0:
229,186,104188,1,2,3:2:0:0:
48,336,104362,2,0,P|56:288|98:267,1,99,2|0,1:3|3:0,0:0:0:0:
121,281,104624,1,2,2:0:0:0:
121,281,104711,1,2,1:3:0:0:
271,384,104886,5,0,1:0:0:0:
271,384,104973,1,0,1:0:0:0:
271,384,105060,2,0,L|286:221,1,135,6|2,3:2|1:3,0:0:0:0:
352,209,105583,2,0,P|385:208|410:187,1,67.5000000000002,2|2,2:0|3:0,0:0:0:0:
379,108,105932,1,2,2:0:0:0:
379,108,106106,2,0,P|345:108|320:129,1,67.5000000000002,2|2,1:3|2:0,0:0:0:0:
236,97,106455,6,0,L|226:12,1,67.5000000000002,2|2,3:0|2:0,0:0:0:0:
154,0,106804,1,2,1:3:0:0:
54,89,106979,2,0,L|69:223,1,135,2|2,2:0|2:0,0:0:0:0:
172,316,107502,1,2,1:3:0:0:
69,371,107676,1,2,2:0:0:0:
154,238,107851,6,0,P|194:290|259:304,1,135,6|2,3:2|1:3,0:0:0:0:
332,264,108374,2,0,L|338:189,1,67.5000000000002,2|2,2:0|3:0,0:0:0:0:
456,340,108723,1,2,2:0:0:0:
456,340,108897,2,0,B|429:320|429:320|376:327,1,67.5000000000002,2|2,1:3|2:0,0:0:0:0:
512,168,109246,6,0,B|495:176|495:176|447:163,1,67.5000025749208,6|2,3:2|1:2,0:0:0:0:
438,154,109508,1,0,1:0:0:0:
438,154,109595,1,2,1:2:0:0:
373,14,109769,2,0,L|387:108,1,67.5000000000002,6|0,3:2|0:0,0:0:0:0:
283,204,110118,2,0,P|280:187|278:170,1,33.7500012874604,0|0,1:0|1:0,0:0:0:0:
267,156,110292,2,0,P|216:163|181:223,1,101.250003862381,2|0,1:3|0:0,0:0:0:0:
170,211,110641,6,0,P|104:214|59:166,1,135,6|2,3:2|1:3,0:0:0:0:
119,9,111165,2,0,L|132:94,1,67.5000000000002,2|2,2:0|3:0,0:0:0:0:
192,122,111513,1,2,2:0:0:0:
93,224,111688,1,2,1:3:0:0:
199,292,111862,1,2,2:0:0:0:
52,348,112037,6,0,P|85:341|118:334,1,67.5000000000002,2|2,3:0|2:0,0:0:0:0:
136,341,112298,1,0,0:0:0:0:
136,341,112386,1,2,1:3:0:0:
260,239,112560,2,0,P|325:254|392:266,1,135,2|2,2:0|2:0,0:0:0:0:
511,338,113083,1,2,1:3:0:0:
465,223,113258,1,2,2:0:0:0:
333,340,113432,6,0,P|270:315|259:234,1,135,6|2,3:2|1:3,0:0:0:0:
345,152,113955,2,0,L|410:166,1,67.5000000000002,2|2,2:0|3:0,0:0:0:0:
465,223,114304,1,2,2:0:0:0:
512,75,114479,2,0,L|446:89,1,67.5000000000002,2|2,1:3|2:0,0:0:0:0:
246,175,114827,5,6,3:2:0:0:
149,81,115002,1,2,1:2:0:0:
149,81,115089,1,0,1:0:0:0:
149,81,115176,1,2,1:2:0:0:
28,217,115351,2,0,P|90:214|141:286,1,135,6|2,3:2|1:2,0:0:0:0:
130,283,115787,1,0,1:0:0:0:
130,283,115874,1,2,1:3:0:0:
68,359,116048,1,0,3:0:0:0:
238,252,116223,6,0,L|252:344,1,80.9999975280763,6|2,3:0|3:0,0:0:0:0:
260,343,116484,2,0,P|280:345|300:348,1,40.5,2|0,3:0|0:0,0:0:0:0:
475,293,116746,2,0,P|416:309|357:215,1,162,2|2,3:0|3:2,0:0:0:0:
368,225,117182,1,0,3:0:0:0:
368,225,117269,1,6,1:2:0:0:
475,125,117444,1,2,2:0:0:0:
335,27,117618,5,2,3:2:0:0:
376,103,117792,2,0,B|315:111|315:111|286:136|286:136|224:146,1,162,4|10,1:2|2:3,0:0:0:0:
211,136,118229,1,8,2:3:0:0:
211,136,118316,1,8,2:3:0:0:
44,74,118490,1,6,2:3:0:0:
26,244,118665,1,6,1:2:0:0:
108,201,118839,5,0,1:0:0:0:
108,201,118926,1,0,1:0:0:0:
108,201,119013,2,0,L|126:301,1,80.9999975280763,6|2,3:0|3:0,0:0:0:0:
116,297,119275,2,0,P|98:305|81:316,1,40.5,2|0,3:0|0:0,0:0:0:0:
243,382,119537,2,0,B|267:360|267:360|396:373,1,162,2|2,3:0|3:2,0:0:0:0:
414,365,119973,1,0,3:0:0:0:
414,365,120060,1,6,1:2:0:0:
495,261,120234,5,2,1:2:0:0:
495,261,120322,1,0,1:0:0:0:
495,261,120409,1,6,3:2:0:0:
385,157,120583,1,2,2:3:0:0:
374,157,120670,1,2,2:3:0:0:
365,165,120758,1,2,3:2:0:0:
289,273,120932,5,2,2:3:0:0:
265,280,121019,1,2,2:3:0:0:
239,264,121106,1,2,3:2:0:0:
148,161,121281,2,0,L|154:106,1,40.5,2|2,2:3|2:3,0:0:0:0:
217,74,121455,2,0,L|211:19,3,40.5,2|8|6|2,3:2|2:3|2:3|3:0,0:0:0:0:
136,0,121804,5,6,1:2:0:0:
309,55,121979,1,2,1:2:0:0:
309,55,122066,1,0,1:0:0:0:
309,55,122153,2,0,L|373:44,1,40.5,2|0,1:2|1:0,0:0:0:0:
426,94,122327,1,2,1:2:0:0:
426,94,122415,1,0,1:0:0:0:
426,94,122502,2,0,L|490:83,3,40.5,2|0|2|0,1:2|1:0|1:2|1:0,0:0:0:0:
375,163,122851,2,0,L|386:227,3,40.5,2|0|2|0,1:2|1:0|1:2|1:0,0:0:0:0:
478,239,123199,5,6,1:2:0:0:
441,222,123287,1,0,1:0:0:0:
401,227,123374,1,2,1:2:0:0:
370,252,123461,1,0,1:0:0:0:
357,290,123548,2,0,L|368:354,3,40.5,2|0|2|0,1:2|1:0|1:2|1:0,0:0:0:0:
284,240,123897,5,2,1:2:0:0:
247,257,123984,1,0,1:0:0:0:
207,252,124072,1,2,1:2:0:0:
176,227,124159,1,0,1:0:0:0:
163,189,124246,2,0,L|174:125,3,40.5,2|0|2|0,1:2|1:0|1:2|1:0,0:0:0:0:
84,218,124595,5,6,1:2:0:0:
247,122,124769,1,0,1:0:0:0:
78,40,124944,1,0,3:0:0:0:
207,252,125118,2,0,B|345:228|345:228|297:205,1,180,4|0,1:2|3:0,0:0:0:0:
164,348,125641,1,0,1:0:0:0:
308,211,125816,6,0,B|333:307|370:271|393:367,1,180,4|2,3:2|3:0,0:0:0:0:
463,321,126339,1,0,0:0:0:0:
305,360,126513,2,0,P|334:293|448:246,1,180,6|2,3:2|1:2,0:0:0:0:
488,195,126949,1,0,1:0:0:0:
497,187,127037,2,0,L|501:122,1,45,2|0,1:2|1:0,0:0:0:0:
447,80,127211,2,0,L|451:15,2,45,2|0|2,1:2|1:0|3:2,0:0:0:0:
447,80,131572,5,6,3:2:0:0:
305,137,131746,1,2,3:2:0:0:
202,30,131920,1,2,1:2:0:0:
45,101,132095,2,0,P|103:98|158:202,1,180,6|2,3:2|3:2,0:0:0:0:
9,310,132618,1,6,1:2:0:0:
83,231,132792,5,2,1:2:0:0:
83,231,132880,1,0,1:0:0:0:
83,231,132967,2,0,L|231:259,1,135,6|2,3:2|2:3,0:0:0:0:
231,251,133316,1,0,1:0:0:0:
110,379,133490,2,0,P|136:343|178:332,1,90,2|2,2:3|3:2,0:0:0:0:
339,384,133839,1,2,2:3:0:0:
469,261,134013,2,0,L|457:371,1,90,0|2,1:0|2:3,0:0:0:0:
333,177,134362,5,6,3:2:0:0:
475,111,134537,1,2,3:2:0:0:
377,269,134711,1,2,1:2:0:0:
243,151,134886,2,0,P|179:154|149:261,1,180,6|0,3:2|3:0,0:0:0:0:
342,159,135409,1,0,1:0:0:0:
344,141,135496,1,0,1:0:0:0:
346,123,135583,1,2,1:2:0:0:
348,105,135670,1,0,1:0:0:0:
368,83,135758,5,6,3:2:0:0:
161,21,135932,2,0,P|205:11|248:0,1,90,2|2,2:0|1:3,0:0:0:0:
62,170,136281,2,0,P|105:157|149:148,1,90,2|2,3:2|1:3,0:0:0:0:
220,185,136630,1,2,3:2:0:0:
89,74,136804,1,2,1:3:0:0:
0,237,136979,1,2,3:2:0:0:
175,272,137153,6,0,P|131:275|100:307,1,90,6|0,1:2|3:0,0:0:0:0:
103,333,137415,1,0,3:0:0:0:
103,333,137502,1,2,3:0:0:0:
272,384,137676,2,0,L|280:282,1,90,0|2,3:0|3:0,0:0:0:0:
297,286,137938,1,0,3:0:0:0:
297,286,138025,2,0,L|356:276,1,45,2|0,3:2|3:0,0:0:0:0:
502,288,138199,5,6,3:2:0:0:
466,293,138287,1,0,3:0:0:0:
433,280,138374,1,2,3:2:0:0:
409,254,138461,1,0,3:0:0:0:
395,212,138548,6,0,B|413:130|441:147|458:64,1,162,6|0,3:1|3:0,0:0:0:0:
512,8,138897,1,2,1:3:0:0:
331,125,139072,2,0,P|231:99|209:0,1,216,2|2,3:2|3:2,0:0:0:0:
56,138,139595,1,2,1:3:0:0:
210,214,139769,1,2,3:2:0:0:
159,133,139944,5,6,3:2:0:0:
69,286,140118,2,0,L|77:340,2,54,2|0|2,3:2|3:0|1:3,0:0:0:0:
203,371,140467,2,0,P|282:369|316:269,1,162,2|0,3:2|0:0,0:0:0:0:
292,232,140816,1,2,3:2:0:0:
448,373,140990,2,0,P|452:328|460:263,1,108,2|2,1:3|3:2,0:0:0:0:
269,128,141339,6,0,P|313:123|378:112,1,108,6|2,3:2|3:2,0:0:0:0:
390,123,141601,1,0,3:0:0:0:
390,123,141688,1,2,1:3:0:0:
292,232,141862,2,0,B|202:266|246:296|168:331,1,162,2|0,3:2|0:0,0:0:0:0:
90,314,142211,1,2,3:2:0:0:
0,180,142386,1,2,1:3:0:0:
184,132,142560,1,2,3:2:0:0:
91,185,142734,6,0,P|101:126|109:48,1,108,6|2,3:2|3:2,0:0:0:0:
120,70,142996,1,0,3:0:0:0:
120,70,143083,1,2,1:3:0:0:
281,0,143258,2,0,P|295:107|314:213,1,216,6|2,3:2|3:2,0:0:0:0:
486,302,143781,5,2,1:3:0:0:
483,266,143868,1,0,1:0:0:0:
462,238,143955,1,2,1:2:0:0:
429,225,144042,1,0,1:0:0:0:
394,233,144130,6,0,B|294:262|294:262|270:291|276:326,1,162,6|2,3:2|2:3,0:0:0:0:
260,326,144479,2,0,B|208:343|208:343|161:303,1,108,0|2,3:0|2:3,0:0:0:0:
91,321,144740,1,2,2:3:0:0:
80,315,144827,2,0,L|65:185,1,108,0|2,3:0|2:3,0:0:0:0:
83,196,145089,1,2,2:3:0:0:
83,196,145176,1,2,3:2:0:0:
225,98,145351,1,2,2:3:0:0:
48,0,145525,6,0,P|63:74|150:119,1,162,6|0,3:2|0:0,0:0:0:0:
141,127,145874,1,2,1:2:0:0:
295,45,146048,2,0,B|366:54|366:54|379:63|379:63|452:73,1,162,6|0,3:2|0:0,0:0:0:0:
465,64,146397,1,0,3:0:0:0:
324,218,146572,5,0,1:0:0:0:
337,183,146659,1,0,1:0:0:0:
366,160,146746,1,2,1:2:0:0:
403,156,146833,1,0,1:0:0:0:
436,172,146920,5,6,3:2:0:0:
512,314,147095,2,0,B|465:304|465:304|452:309|452:309|406:299,1,108,2|2,2:0|1:3,0:0:0:0:
205,234,147444,1,2,3:2:0:0:
271,369,147618,1,2,1:3:0:0:
149,342,147792,5,2,3:2:0:0:
319,260,147967,1,2,1:3:0:0:
168,137,148141,1,2,3:2:0:0:
190,238,148316,6,0,B|127:231|142:260|83:252,1,107.999996704102,6|0,1:2|3:0,0:0:0:0:
68,264,148577,1,0,3:0:0:0:
68,264,148665,2,0,P|52:237|56:202,1,53.9999983520508,2|0,3:0|3:0,0:0:0:0:
79,53,148839,1,2,3:2:0:0:
79,53,148926,1,0,3:0:0:0:
79,53,149013,2,0,B|93:130,1,54,2|0,3:0|3:0,0:0:0:0:
253,178,149188,2,0,B|267:100,1,54,2|0,3:2|3:0,0:0:0:0:
378,48,149362,5,6,1:2:0:0:
418,34,149449,1,0,3:0:0:0:
459,46,149537,1,2,3:2:0:0:
485,80,149624,1,0,3:0:0:0:
487,122,149711,6,0,L|469:239,1,108,6|2,3:1|3:2,0:0:0:0:
408,275,149973,1,0,3:0:0:0:
408,275,150060,1,2,1:3:0:0:
231,384,150234,2,0,B|235:300|189:319|193:229,1,162,2|0,3:2|0:0,0:0:0:0:
253,178,150583,1,2,3:2:0:0:
64,91,150758,1,2,1:3:0:0:
196,48,150932,1,2,3:2:0:0:
95,257,151106,6,0,B|47:269|47:269|16:160,1,162,6|0,3:2|3:0,0:0:0:0:
64,91,151455,1,2,1:3:0:0:
269,185,151630,2,0,L|428:155,1,162,2|0,3:2|0:0,0:0:0:0:
474,92,151979,1,2,3:2:0:0:
435,277,152153,1,2,1:3:0:0:
257,192,152327,1,2,3:2:0:0:
428,155,152502,6,0,B|377:175|391:195|342:218,1,108,6|2,3:2|3:2,0:0:0:0:
306,288,152763,1,0,3:0:0:0:
306,288,152851,1,2,1:3:0:0:
138,119,153025,2,0,P|169:192|161:272,1,162,2|0,3:2|0:0,0:0:0:0:
97,321,153374,1,2,3:2:0:0:
0,135,153548,1,2,1:3:0:0:
201,65,153723,1,2,3:2:0:0:
83,209,153897,5,6,3:2:0:0:
235,307,154072,1,0,3:0:0:0:
71,200,154246,1,2,1:3:0:0:
183,384,154420,2,0,L|205:186,1,162,6|0,3:2|0:0,0:0:0:0:
265,174,154769,1,2,3:2:0:0:
436,324,154944,5,2,1:3:0:0:
395,335,155031,1,0,1:0:0:0:
354,322,155118,1,2,1:2:0:0:
327,289,155205,1,0,1:0:0:0:
323,247,155292,6,0,B|377:230|377:230|404:202|404:202|468:185,1,162,6|2,3:2|2:3,0:0:0:0:
512,119,155641,1,0,3:0:0:0:
350,6,155816,1,2,2:3:0:0:
350,6,155903,1,2,2:3:0:0:
350,6,155990,2,0,P|343:72|337:127,1,108,0|2,3:0|2:3,0:0:0:0:
276,163,156252,1,2,2:3:0:0:
276,163,156339,2,0,P|196:155|186:87,1,108,2|2,3:2|2:3,0:0:0:0:
0,182,156688,5,6,3:2:0:0:
157,61,156862,1,2,3:2:0:0:
185,252,157037,1,2,1:2:0:0:
64,29,157211,2,0,L|92:227,1,162,6|0,3:2|0:0,0:0:0:0:
44,257,157560,1,0,3:0:0:0:
216,384,157734,2,0,L|228:303,3,54,0|0|2|0,1:0|1:0|1:2|1:0,0:0:0:0:
185,252,158083,5,6,3:2:0:0:
56,348,158258,1,2,2:0:0:0:
164,166,158432,1,2,1:3:0:0:
332,256,158606,2,0,B|371:264|371:264|391:259|391:259|437:268,2,108,2|2|2,3:2|1:3|3:2,0:0:0:0:
507,194,159130,1,2,1:3:0:0:
436,369,159304,1,2,3:2:0:0:
273,193,159479,5,6,1:2:0:0:
271,175,159566,1,0,3:0:0:0:
269,158,159653,1,0,3:0:0:0:
267,141,159740,1,0,3:0:0:0:
265,124,159827,2,0,L|256:49,1,54,2|0,3:0|3:0,0:0:0:0:
324,12,160002,5,0,3:0:0:0:
365,3,160089,1,0,3:0:0:0:
405,18,160176,1,2,3:0:0:0:
430,52,160263,1,0,3:0:0:0:
432,95,160351,2,0,L|357:104,1,54,2|0,3:2|3:0,0:0:0:0:
190,23,160525,2,0,P|119:26|97:142,1,162,6|0,1:2|3:0,0:0:0:0:
30,168,160874,5,6,1:0:0:0:
163,282,161048,1,0,3:0:0:0:
17,158,161223,1,2,1:3:0:0:
27,384,161397,2,0,B|44:322|59:348|78:290,1,108,2|2,3:2|1:3,0:0:0:0:
228,199,161746,1,2,3:2:0:0:
346,375,161920,1,2,1:3:0:0:
163,282,162095,1,2,3:2:0:0:
313,103,162269,6,0,L|305:186,3,54,6|0|0|0,1:2|3:0|3:0|3:0,0:0:0:0:
367,269,162618,2,0,L|372:215,3,54,2|0|0|0,1:3|3:0|3:0|3:0,0:0:0:0:
444,182,162967,5,2,1:3:0:0:
447,144,163054,1,0,3:0:0:0:
451,106,163141,1,2,3:2:0:0:
454,69,163229,1,0,3:0:0:0:
458,31,163316,2,0,L|365:50,1,54,2|0,1:3|3:0,0:0:0:0:
327,63,163490,2,0,L|234:82,2,54,2|0|2,3:2|3:0|3:2,0:0:0:0:
43,313,164362,6,0,L|36:272,3,33.7500000000001,0|0|0|0,1:0|1:0|1:0|1:0,0:0:0:0:
115,266,164711,2,0,L|120:299,3,33.7500000000001,0|0|0|0,1:0|1:0|1:0|1:0,0:0:0:0:
187,342,165061,6,0,P|245:342|289:240,1,148.5,6|0,3:1|3:0,0:0:0:0:
290,259,165409,1,2,1:3:0:0:
455,231,165584,2,0,P|401:222|346:208,1,99,2|2,3:2|2:3,0:0:0:0:
163,152,165933,2,0,P|217:143|272:129,1,99,2|2,3:2|1:3,0:0:0:0:
404,1,166281,6,0,P|357:31|365:149,1,148.5,2|0,3:2|0:0,0:0:0:0:
356,128,166630,1,2,3:2:0:0:
494,160,166805,2,0,P|503:112|478:70,1,99,2|2,1:3|3:2,0:0:0:0:
302,21,167154,1,2,3:0:0:0:
246,212,167328,1,2,3:2:0:0:
356,128,167502,1,2,1:3:0:0:
166,26,167677,5,2,1:2:0:0:
166,26,167764,1,0,1:0:0:0:
166,26,167851,2,0,B|65:6|65:6|12:55,1,148.5,6|0,3:2|0:0,0:0:0:0:
24,51,168200,1,2,1:3:0:0:
148,137,168374,2,0,L|274:113,1,99,2|2,3:2|1:3,0:0:0:0:
92,265,168723,1,2,3:2:0:0:
92,265,168811,1,2,2:0:0:0:
92,265,168898,1,2,1:3:0:0:
225,338,169072,6,0,P|250:291|239:233,1,99,2|2,3:2|1:3,0:0:0:0:
94,348,169421,1,2,3:2:0:0:
9,196,169595,1,2,1:3:0:0:
171,277,169770,1,2,3:2:0:0:
305,185,169944,2,0,L|431:205,1,99,2|2,1:3|3:2,0:0:0:0:
282,0,170293,5,2,1:3:0:0:
285,39,170380,1,0,1:0:0:0:
309,70,170467,1,2,1:2:0:0:
346,84,170555,1,0,1:0:0:0:
384,76,170642,6,0,B|437:61|411:41|482:24,1,99,6|2,3:2|3:2,0:0:0:0:
322,171,170991,1,2,1:3:0:0:
447,267,171165,2,0,P|375:266|331:323,1,148.5,2|0,3:2|0:0,0:0:0:0:
341,339,171514,1,2,3:2:0:0:
208,384,171688,1,2,1:3:0:0:
79,294,171863,6,0,B|46:252|46:252|188:291,1,198,2|2,3:2|3:2,0:0:0:0:
44,100,172386,2,0,P|5:129|0:177,1,99,2|2,1:3|3:2,0:0:0:0:
239,107,172735,1,2,3:0:0:0:
105,0,172909,1,2,3:2:0:0:
128,128,173084,1,2,1:3:0:0:
283,25,173258,5,2,3:2:0:0:
283,25,173345,1,0,1:0:0:0:
283,25,173433,2,0,P|330:86|304:179,1,148.5,6|0,3:2|0:0,0:0:0:0:
310,165,173781,1,2,1:3:0:0:
456,249,173956,2,0,P|407:219|355:235,1,99,2|2,3:2|1:3,0:0:0:0:
246,311,174305,1,2,3:2:0:0:
246,311,174392,1,2,2:0:0:0:
246,311,174479,1,2,1:3:0:0:
141,157,174654,6,0,L|165:293,1,99,2|2,3:2|1:3,0:0:0:0:
0,345,175002,2,0,L|8:296,2,49.5,2|0|2,3:2|0:0|1:3,0:0:0:0:
174,376,175351,1,2,3:2:0:0:
67,231,175526,2,0,L|49:133,1,99,2|2,1:3|3:2,0:0:0:0:
62,127,175787,1,2,2:0:0:0:
62,127,175874,1,2,1:3:0:0:
207,3,176049,5,0,1:0:0:0:
207,3,176136,1,0,1:0:0:0:
207,3,176223,2,0,B|184:47|184:47|194:95,1,99,6|2,3:2|3:2,0:0:0:0:
288,199,176572,1,2,1:2:0:0:
420,198,176747,6,0,B|393:156|393:156|346:141,1,99,6|2,3:2|1:2,0:0:0:0:
209,170,177095,1,6,1:2:0:0:
144,284,177270,5,2,3:2:0:0:
274,116,177444,2,0,B|297:72|297:72|286:23,1,98.9999999999999,6|0,3:2|3:0,0:0:0:0:
286,23,177967,1,6,1:2:0:0:
144,284,179014,5,6,3:2:0:0:
