osu file format v14

[General]
AudioFilename: audio.mp3
AudioLeadIn: 0
PreviewTime: 48288
Countdown: 0
SampleSet: Soft
StackLeniency: 0.3
Mode: 0
LetterboxInBreaks: 0
WidescreenStoryboard: 1

[Editor]
Bookmarks: 15758,26920,38083,49246,71572,82734,93897,105060,116223,127386,131572,132095,138548,149711,165061
DistanceSpacing: 1
BeatDivisor: 6
GridSize: 32
TimelineZoom: 2.5

[Metadata]
Title:Gyakutengeki
TitleUnicode:逆転劇
Artist:Tsukuyomi
ArtistUnicode:月詠み
Creator:Vanya2
Version:Freezing's Normal
Source:異世界でチート能力を手にした俺は、現実世界をも無双する ~レベルアップは人生を変えた~
Tags:freezinganimenz my angel jeremy japanese rock jrock j-rock pop jpop j-pop anime opening op intro theme song isekai de cheat skill wo te ni shita ore wa genjitsu sekai mo musou suru: level up jinsei kaeta i got a in another world and became unrivaled the real too gyakuten geki
BeatmapID:4102246
BeatmapSetID:1975680

[Difficulty]
HPDrainRate:3
CircleSize:3
OverallDifficulty:4
ApproachRate:5
SliderMultiplier:1.1
SliderTickRate:1

[Events]
//Background and Video events
0,0,"sdad.jpg",0,0
//Break Periods
2,127587,130372
//Storyboard Layer 0 (Background)
//Storyboard Layer 1 (Fail)
//Storyboard Layer 2 (Pass)
//Storyboard Layer 3 (Foreground)
//Storyboard Layer 4 (Overlay)
//Storyboard Sound Samples

[TimingPoints]
1820,348.837209302326,4,2,1,70,1,0
1820,-111.111111111111,4,2,1,70,0,0
5991,348.837209302326,4,2,1,70,1,0
5991,-111.111111111111,4,2,1,70,0,0
7386,348.837209302326,4,2,1,70,1,0
7909,-100,4,2,2,70,0,0
8083,-100,4,2,2,70,0,0
8781,-100,4,2,1,70,0,0
10524,-100,4,2,2,70,0,0
10874,-100,4,2,1,70,0,0
11223,-100,4,2,2,70,0,0
11572,-100,4,2,1,70,0,0
12618,-100,4,2,2,70,0,0
12967,-100,4,2,1,70,0,0
15758,348.837209302326,4,2,1,80,1,0
15758,-100,4,2,1,80,0,0
16106,-100,4,2,2,80,0,0
16455,-100,4,2,1,80,0,0
16629,-100,4,2,1,80,0,0
17502,-100,4,2,2,80,0,0
18548,-100,4,2,1,80,0,0
19595,-100,4,2,2,80,0,0
19769,-100,4,2,2,80,0,0
19944,-100,4,2,1,80,0,0
20117,-100,4,2,1,80,0,0
20292,-100,4,2,2,80,0,0
21339,-100,4,2,1,80,0,0
21687,-100,4,2,2,80,0,0
22037,-100,4,2,1,80,0,0
22210,-100,4,2,1,80,0,0
22386,-100,4,2,2,80,0,0
22560,-100,4,2,2,80,0,0
22734,-100,4,2,1,80,0,0
22909,-100,4,2,1,80,0,0
23083,-100,4,2,2,80,0,0
24130,-100,4,2,1,80,0,0
25176,-100,4,2,2,80,0,0
25351,-100,4,2,2,80,0,0
25525,-100,4,2,1,80,0,0
25699,-100,4,2,1,80,0,0
25874,-100,4,2,2,80,0,0
26920,-111.111111111111,4,2,1,50,0,0
27268,-111.111111111111,4,2,3,50,0,0
27444,-111.111111111111,4,2,1,50,0,0
27618,-111.111111111111,4,2,4,50,0,0
27792,-111.111111111111,4,2,1,50,0,0
27966,-111.111111111111,4,2,3,50,0,0
28140,-111.111111111111,4,2,1,50,0,0
28316,-111.111111111111,4,2,3,50,0,0
28490,-111.111111111111,4,2,1,50,0,0
28665,-111.111111111111,4,2,3,50,0,0
28839,-111.111111111111,4,2,1,50,0,0
29013,-111.111111111111,4,2,4,50,0,0
29188,-111.111111111111,4,2,1,50,0,0
29362,-111.111111111111,4,2,3,50,0,0
29537,-111.111111111111,4,2,1,50,0,0
29711,-111.111111111111,4,2,1,50,0,0
30059,-111.111111111111,4,2,3,50,0,0
30234,-111.111111111111,4,2,1,50,0,0
30409,-111.111111111111,4,2,4,50,0,0
30583,-111.111111111111,4,2,1,50,0,0
30758,-111.111111111111,4,2,3,50,0,0
30932,-111.111111111111,4,2,1,50,0,0
31106,-111.111111111111,4,2,1,50,0,0
32502,-111.111111111111,4,2,1,60,0,0
32850,-111.111111111111,4,2,3,60,0,0
33025,-111.111111111111,4,2,1,60,0,0
33199,-111.111111111111,4,2,4,60,0,0
33374,-111.111111111111,4,2,1,60,0,0
33548,-111.111111111111,4,2,3,60,0,0
33723,-111.111111111111,4,2,1,60,0,0
33897,-111.111111111111,4,2,3,60,0,0
34072,-111.111111111111,4,2,1,60,0,0
34246,-111.111111111111,4,2,3,60,0,0
34420,-111.111111111111,4,2,1,60,0,0
34595,-111.111111111111,4,2,4,60,0,0
34769,-111.111111111111,4,2,1,60,0,0
34944,-111.111111111111,4,2,3,60,0,0
35118,-111.111111111111,4,2,1,60,0,0
35640,-111.111111111111,4,2,3,60,0,0
35816,-111.111111111111,4,2,1,60,0,0
35990,-111.111111111111,4,2,4,60,0,0
36165,-111.111111111111,4,2,1,60,0,0
36339,-111.111111111111,4,2,3,60,0,0
36513,-111.111111111111,4,2,1,60,0,0
36688,-111.111111111111,4,2,1,60,0,0
38083,-100,4,2,2,80,0,0
39130,-100,4,2,1,80,0,0
40002,-100,4,2,5,80,0,0
40525,-100,4,2,1,80,0,0
40874,-100,4,2,2,80,0,0
41920,-100,4,2,1,80,0,0
42531,-100,4,2,4,80,0,0
42618,-100,4,2,1,80,0,0
42880,-100,4,2,4,80,0,0
42967,-100,4,2,1,80,0,0
43229,-100,4,2,4,80,0,0
43316,-100,4,2,1,80,0,0
43577,-100,4,2,4,80,0,0
43665,-100,4,2,1,60,0,0
45060,-100,4,2,1,70,0,0
46455,-100,4,2,1,80,0,0
49246,-90.9090909090909,4,2,1,90,0,1
49594,-90.9090909090909,4,2,2,90,0,1
49944,-90.9090909090909,4,2,1,90,0,1
50117,-90.9090909090909,4,2,1,90,0,1
50292,-90.9090909090909,4,2,2,90,0,1
50641,-90.9090909090909,4,2,1,90,0,1
50990,-90.9090909090909,4,2,2,90,0,1
51339,-90.9090909090909,4,2,1,90,0,1
51513,-90.9090909090909,4,2,1,90,0,1
51688,-90.9090909090909,4,2,2,90,0,1
52037,-90.9090909090909,4,2,1,90,0,1
52385,-90.9090909090909,4,2,2,90,0,1
52734,-90.9090909090909,4,2,1,90,0,1
52908,-90.9090909090909,4,2,1,90,0,1
53083,-90.9090909090909,4,2,2,90,0,1
53432,-90.9090909090909,4,2,1,90,0,1
53781,-90.9090909090909,4,2,2,90,0,1
53955,-90.9090909090909,4,2,1,90,0,1
54479,-90.9090909090909,4,2,2,90,0,1
54827,-90.9090909090909,4,2,1,90,0,1
54915,-90.9090909090909,4,2,4,90,0,1
55002,-90.9090909090909,4,2,1,90,0,1
55089,-90.9090909090909,4,2,4,90,0,1
55175,-90.9090909090909,4,2,4,90,0,1
55351,-90.9090909090909,4,2,2,90,0,1
55438,-90.9090909090909,4,2,4,90,0,1
55699,-90.9090909090909,4,2,2,90,0,1
55787,-90.9090909090909,4,2,4,90,0,1
55874,-90.9090909090909,4,2,1,90,0,1
55961,-90.9090909090909,4,2,4,90,0,1
56048,-90.9090909090909,4,2,2,90,0,1
56136,-90.9090909090909,4,2,4,90,0,1
56223,-90.9090909090909,4,2,1,90,0,1
57966,-90.9090909090909,4,2,2,90,0,1
58316,-90.9090909090909,4,2,1,90,0,1
58665,-90.9090909090909,4,2,2,90,0,1
59013,-90.9090909090909,4,2,1,90,0,1
60757,-90.9090909090909,4,2,2,90,0,1
61106,-90.9090909090909,4,2,1,90,0,1
61281,-90.9090909090909,4,2,1,90,0,1
61455,-90.9090909090909,4,2,2,90,0,1
61804,-90.9090909090909,4,2,1,90,0,1
62153,-90.9090909090909,4,2,2,90,0,1
62502,-90.9090909090909,4,2,1,90,0,1
62675,-90.9090909090909,4,2,1,90,0,1
62851,-90.9090909090909,4,2,2,90,0,1
63199,-90.9090909090909,4,2,1,90,0,1
63548,-90.9090909090909,4,2,2,90,0,1
63897,-90.9090909090909,4,2,1,90,0,1
64071,-90.9090909090909,4,2,1,90,0,1
64246,-90.9090909090909,4,2,2,90,0,1
64595,-90.9090909090909,4,2,1,90,0,1
64944,-90.9090909090909,4,2,2,90,0,1
65118,-90.9090909090909,4,2,1,90,0,1
65641,-90.9090909090909,4,2,2,90,0,1
65990,-90.9090909090909,4,2,1,90,0,1
66077,-90.9090909090909,4,2,4,90,0,1
66165,-90.9090909090909,4,2,1,90,0,1
66252,-90.9090909090909,4,2,4,90,0,1
66338,-90.9090909090909,4,2,4,90,0,1
66513,-90.9090909090909,4,2,2,90,0,1
66601,-90.9090909090909,4,2,4,90,0,1
66862,-90.9090909090909,4,2,2,90,0,1
66949,-90.9090909090909,4,2,4,90,0,1
67037,-90.9090909090909,4,2,1,90,0,1
67124,-90.9090909090909,4,2,4,90,0,1
67211,-90.9090909090909,4,2,2,90,0,1
67298,-90.9090909090909,4,2,4,90,0,1
67386,-90.9090909090909,4,2,1,90,0,1
69129,-90.9090909090909,4,2,2,90,0,1
69479,-90.9090909090909,4,2,1,90,0,1
69653,-90.9090909090909,4,2,1,90,0,1
69827,-90.9090909090909,4,2,2,90,0,1
70176,-90.9090909090909,4,2,1,90,0,1
71571,-100,4,2,1,70,0,0
71746,-100,4,2,3,70,0,0
71833,-100,4,2,4,70,0,0
71920,-100,4,2,1,70,0,0
72095,-100,4,2,3,70,0,0
72182,-100,4,2,4,70,0,0
72269,-100,4,2,1,70,0,0
72444,-100,4,2,3,70,0,0
72531,-100,4,2,4,70,0,0
72618,-100,4,2,1,70,0,0
72792,-100,4,2,3,70,0,0
72880,-100,4,2,4,70,0,0
73141,-100,4,2,3,70,0,0
73229,-100,4,2,4,70,0,0
73315,-100,4,2,1,70,0,0
73489,-100,4,2,3,70,0,0
73577,-100,4,2,4,70,0,0
73839,-100,4,2,3,70,0,0
73926,-100,4,2,4,70,0,0
74013,-100,4,2,1,70,0,0
74187,-100,4,2,3,70,0,0
74275,-100,4,2,4,70,0,0
74362,-100,4,2,1,70,0,0
74537,-100,4,2,3,70,0,0
74624,-100,4,2,4,70,0,0
74711,-100,4,2,1,70,0,0
74886,-100,4,2,3,70,0,0
74973,-100,4,2,4,70,0,0
75060,-100,4,2,1,70,0,0
75234,-100,4,2,3,70,0,0
75322,-100,4,2,4,70,0,0
75409,-100,4,2,1,70,0,0
75583,-100,4,2,3,70,0,0
75670,-100,4,2,4,70,0,0
75931,-100,4,2,4,70,0,0
76106,-100,4,2,1,70,0,0
76455,-100,4,2,2,70,0,0
77153,-100,4,2,1,70,0,0
77327,-100,4,2,3,70,0,0
77415,-100,4,2,4,70,0,0
77502,-100,4,2,1,70,0,0
77676,-100,4,2,3,70,0,0
77763,-100,4,2,4,70,0,0
77851,-100,4,2,1,70,0,0
78025,-100,4,2,3,70,0,0
78112,-100,4,2,4,70,0,0
78199,-100,4,2,1,70,0,0
78374,-100,4,2,3,70,0,0
78461,-100,4,2,4,70,0,0
78723,-100,4,2,3,70,0,0
78810,-100,4,2,4,70,0,0
78897,-100,4,2,1,70,0,0
79072,-100,4,2,3,70,0,0
79159,-100,4,2,4,70,0,0
79246,-100,4,2,4,70,0,0
79420,-100,4,2,3,70,0,0
79508,-100,4,2,4,70,0,0
79595,-100,4,2,1,70,0,0
79769,-100,4,2,3,70,0,0
79856,-100,4,2,4,70,0,0
79944,-100,4,2,1,70,0,0
80118,-100,4,2,3,70,0,0
80205,-100,4,2,4,70,0,0
80292,-100,4,2,1,70,0,0
80467,-100,4,2,3,70,0,0
80554,-100,4,2,4,70,0,0
80641,-100,4,2,1,70,0,0
80815,-100,4,2,3,70,0,0
80903,-100,4,2,4,70,0,0
80989,-100,4,2,1,70,0,0
81165,-100,4,2,3,70,0,0
81252,-100,4,2,4,70,0,0
81339,-100,4,2,4,70,0,0
81687,-100,4,2,1,70,0,0
82734,-100,4,2,2,60,0,0
88316,-100,4,2,1,60,0,0
88781,-100,4,2,2,60,0,0
88795,-100,4,2,2,60,0,0
92502,-100,4,2,1,70,0,0
93199,-100,4,2,2,70,0,0
93897,-100,4,2,1,80,0,0
94245,-100,4,2,2,80,0,0
94595,-100,4,2,1,80,0,0
94769,-100,4,2,1,80,0,0
95292,-100,4,2,2,80,0,0
95641,-100,4,2,1,80,0,0
95815,-100,4,2,1,80,0,0
95990,-100,4,2,2,80,0,0
96339,-100,4,2,1,80,0,0
96513,-100,4,2,1,80,0,0
97734,-100,4,2,2,80,0,0
97909,-100,4,2,2,80,0,0
98083,-100,4,2,1,80,0,0
98257,-100,4,2,1,80,0,0
98432,-100,4,2,2,80,0,0
99479,-100,4,2,1,80,0,0
99827,-100,4,2,2,80,0,0
100176,-100,4,2,1,80,0,0
100351,-100,4,2,1,80,0,0
101223,-100,4,2,2,80,0,0
102269,-100,4,2,1,80,0,0
103316,-100,4,2,2,80,0,0
103490,-100,4,2,2,80,0,0
103665,-100,4,2,1,80,0,0
103838,-100,4,2,1,80,0,0
104013,-100,4,2,2,80,0,0
105060,-100,4,2,1,50,0,0
105408,-100,4,2,3,50,0,0
105583,-100,4,2,1,50,0,0
105758,-100,4,2,4,50,0,0
105932,-100,4,2,1,50,0,0
106106,-100,4,2,3,50,0,0
106280,-100,4,2,1,50,0,0
106455,-100,4,2,3,50,0,0
106630,-100,4,2,1,50,0,0
106804,-100,4,2,3,50,0,0
106979,-100,4,2,1,50,0,0
107153,-100,4,2,4,50,0,0
107327,-100,4,2,1,50,0,0
107502,-100,4,2,3,50,0,0
107676,-100,4,2,1,50,0,0
107851,-100,4,2,1,50,0,0
108199,-100,4,2,3,50,0,0
108374,-100,4,2,1,50,0,0
108548,-100,4,2,4,50,0,0
108723,-100,4,2,1,50,0,0
108897,-100,4,2,3,50,0,0
109072,-100,4,2,1,50,0,0
109246,-100,4,2,1,50,0,0
110641,-100,4,2,1,60,0,0
110989,-100,4,2,3,60,0,0
111165,-100,4,2,1,60,0,0
111339,-100,4,2,4,60,0,0
111513,-100,4,2,1,60,0,0
111688,-100,4,2,3,60,0,0
111862,-100,4,2,1,60,0,0
112037,-100,4,2,3,60,0,0
112211,-100,4,2,1,60,0,0
112386,-100,4,2,3,60,0,0
112560,-100,4,2,1,60,0,0
112734,-100,4,2,4,60,0,0
112909,-100,4,2,1,60,0,0
113083,-100,4,2,3,60,0,0
113258,-100,4,2,1,60,0,0
113432,-100,4,2,1,60,0,0
113780,-100,4,2,3,60,0,0
113955,-100,4,2,1,60,0,0
114130,-100,4,2,4,60,0,0
114304,-100,4,2,1,60,0,0
114479,-100,4,2,3,60,0,0
114653,-100,4,2,1,60,0,0
114827,-100,4,2,1,60,0,0
116223,-100,4,2,2,80,0,0
117269,-100,4,2,1,80,0,0
118141,-100,4,2,5,80,0,0
118665,-100,4,2,1,80,0,0
119013,-100,4,2,2,80,0,0
120060,-100,4,2,1,80,0,0
120670,-100,4,2,4,80,0,0
120758,-100,4,2,1,80,0,0
121019,-100,4,2,4,80,0,0
121106,-100,4,2,1,80,0,0
121368,-100,4,2,4,80,0,0
121455,-100,4,2,1,80,0,0
121717,-100,4,2,4,80,0,0
121804,-100,4,2,1,60,0,0
123199,-100,4,2,1,70,0,0
124595,-100,4,2,1,80,0,0
127386,-100,4,2,1,40,0,0
131572,-100,4,2,1,60,0,0
133054,-100,4,2,4,60,0,0
133141,-100,4,2,1,60,0,0
133229,-100,4,2,4,60,0,0
133316,-100,4,2,1,60,0,0
133403,-100,4,2,4,60,0,0
133490,-100,4,2,2,60,0,0
133577,-100,4,2,4,60,0,0
133665,-100,4,2,1,60,0,0
133752,-100,4,2,4,60,0,0
133839,-100,4,2,2,60,0,0
133926,-100,4,2,4,60,0,0
134013,-100,4,2,1,60,0,0
134101,-100,4,2,4,60,0,0
134188,-100,4,2,2,60,0,0
134275,-100,4,2,4,60,0,0
134362,-100,4,2,1,60,0,0
135758,-100,4,2,1,70,0,0
136106,-100,4,2,2,70,0,0
136455,-100,4,2,1,70,0,0
136804,-100,4,2,2,70,0,0
137153,-100,4,2,1,80,0,0
138548,-90.9090909090909,4,2,1,90,0,1
138896,-90.9090909090909,4,2,2,90,0,1
139246,-90.9090909090909,4,2,1,90,0,1
139420,-90.9090909090909,4,2,1,90,0,1
139595,-90.9090909090909,4,2,2,90,0,1
139944,-90.9090909090909,4,2,1,90,0,1
140292,-90.9090909090909,4,2,2,90,0,1
140641,-90.9090909090909,4,2,1,90,0,1
140815,-90.9090909090909,4,2,1,90,0,1
140990,-90.9090909090909,4,2,2,90,0,1
141339,-90.9090909090909,4,2,1,90,0,1
141687,-90.9090909090909,4,2,2,90,0,1
142037,-90.9090909090909,4,2,1,90,0,1
142210,-90.9090909090909,4,2,1,90,0,1
142386,-90.9090909090909,4,2,2,90,0,1
142734,-90.9090909090909,4,2,1,90,0,1
143083,-90.9090909090909,4,2,2,90,0,1
143258,-90.9090909090909,4,2,1,90,0,1
143781,-90.9090909090909,4,2,2,90,0,1
144130,-90.9090909090909,4,2,1,90,0,1
144217,-90.9090909090909,4,2,4,90,0,1
144304,-90.9090909090909,4,2,1,90,0,1
144391,-90.9090909090909,4,2,4,90,0,1
144478,-90.9090909090909,4,2,4,90,0,1
144653,-90.9090909090909,4,2,2,90,0,1
144740,-90.9090909090909,4,2,4,90,0,1
145002,-90.9090909090909,4,2,2,90,0,1
145089,-90.9090909090909,4,2,4,90,0,1
145176,-90.9090909090909,4,2,1,90,0,1
145263,-90.9090909090909,4,2,4,90,0,1
145351,-90.9090909090909,4,2,2,90,0,1
145438,-90.9090909090909,4,2,4,90,0,1
145525,-90.9090909090909,4,2,1,90,0,1
147967,-90.9090909090909,4,2,2,90,0,1
148316,-90.9090909090909,4,2,1,90,0,1
149013,-90.9090909090909,4,2,2,90,0,1
149361,-90.9090909090909,4,2,1,90,0,1
149711,-90.9090909090909,4,2,1,100,0,1
150059,-90.9090909090909,4,2,2,100,0,1
150409,-90.9090909090909,4,2,1,100,0,1
150582,-90.9090909090909,4,2,1,100,0,1
150758,-90.9090909090909,4,2,2,100,0,1
151106,-90.9090909090909,4,2,1,100,0,1
151454,-90.9090909090909,4,2,2,100,0,1
151804,-90.9090909090909,4,2,1,100,0,1
151978,-90.9090909090909,4,2,1,100,0,1
152850,-90.9090909090909,4,2,2,100,0,1
153199,-90.9090909090909,4,2,1,100,0,1
153374,-90.9090909090909,4,2,1,100,0,1
153548,-90.9090909090909,4,2,2,100,0,1
153897,-90.9090909090909,4,2,1,100,0,1
154245,-90.9090909090909,4,2,2,100,0,1
154420,-90.9090909090909,4,2,1,100,0,1
154944,-90.9090909090909,4,2,2,100,0,1
155292,-90.9090909090909,4,2,1,100,0,1
155380,-90.9090909090909,4,2,4,100,0,1
155467,-90.9090909090909,4,2,1,100,0,1
155554,-90.9090909090909,4,2,4,100,0,1
155640,-90.9090909090909,4,2,4,100,0,1
155816,-90.9090909090909,4,2,2,100,0,1
155903,-90.9090909090909,4,2,4,100,0,1
156165,-90.9090909090909,4,2,2,100,0,1
156252,-90.9090909090909,4,2,4,100,0,1
156339,-90.9090909090909,4,2,1,100,0,1
156426,-90.9090909090909,4,2,4,100,0,1
156513,-90.9090909090909,4,2,2,100,0,1
156601,-90.9090909090909,4,2,4,100,0,1
156688,-90.9090909090909,4,2,1,100,0,1
158431,-90.9090909090909,4,2,2,100,0,1
158781,-90.9090909090909,4,2,1,100,0,1
158954,-90.9090909090909,4,2,1,100,0,1
159130,-90.9090909090909,4,2,2,100,0,1
159479,-90.9090909090909,4,2,1,100,0,1
161222,-90.9090909090909,4,2,2,100,0,1
161572,-90.9090909090909,4,2,1,100,0,1
161745,-90.9090909090909,4,2,1,100,0,1
161920,-90.9090909090909,4,2,2,100,0,1
162269,-90.9090909090909,4,2,1,100,0,1
163315,-90.9090909090909,4,2,2,100,0,1
163664,-90.9090909090909,4,2,2,80,0,0
164362,-100,4,2,2,80,0,0
165061,348.837209302326,4,2,1,80,1,0
165409,-100,4,2,2,80,0,0
165758,-100,4,2,1,80,0,0
165932,-100,4,2,1,80,0,0
166805,-100,4,2,2,80,0,0
166979,-100,4,2,2,80,0,0
167851,-100,4,2,1,80,0,0
168898,-100,4,2,2,80,0,0
169072,-100,4,2,2,80,0,0
169247,-100,4,2,1,80,0,0
169420,-100,4,2,1,80,0,0
169595,-100,4,2,2,80,0,0
170642,-100,4,2,1,80,0,0
170990,-100,4,2,2,80,0,0
171340,-100,4,2,1,80,0,0
171513,-100,4,2,1,80,0,0
172386,-100,4,2,2,80,0,0
173433,-100,4,2,1,80,0,0
174479,-100,4,2,2,80,0,0
174653,-100,4,2,2,80,0,0
174828,-100,4,2,1,80,0,0
175002,-100,4,2,1,80,0,0
175177,-100,4,2,2,80,0,0
176223,-100,4,2,1,90,0,0

[Colours]
Combo1 : 37,226,170
Combo2 : 152,250,165
Combo3 : 252,153,148
Combo4 : 168,228,239

[HitObjects]
8,54,1820,6,0,P|120:25|154:138,1,247.5,6|2,3:2|2:0,0:0:0:0:
165,276,3216,6,0,B|273:315|265:145|381:207,1,247.5,6|2,3:2|2:0,0:0:0:0:
486,306,4611,6,0,B|490:238|490:238|457:147|457:147|476:48,1,247.5,6|2,3:2|2:0,0:0:0:0:
329,82,5991,6,0,P|260:101|212:48,1,148.5,6|6,3:2|3:2,0:0:0:0:
130,103,6863,1,2,3:2:0:0:
130,103,7037,2,0,L|137:157,1,49.5000000000001,2|2,1:2|1:2,0:0:0:0:
152,204,7386,6,0,P|207:222|252:190,1,110,6|0,3:2|3:0,0:0:0:0:
296,294,8083,2,0,L|350:290,1,55,0|2,3:0|2:3,0:0:0:0:
403,307,8432,2,0,L|457:310,1,55,2|2,3:2|2:3,0:0:0:0:
493,267,8781,2,0,P|512:198|474:156,1,110,6|2,3:2|1:2,0:0:0:0:
464,122,9304,1,6,3:2:0:0:
380,59,9653,1,0,3:0:0:0:
380,59,9827,2,0,L|321:67,1,55,2|2,1:3|1:2,0:0:0:0:
270,60,10176,6,0,P|221:30|156:57,1,110,6|2,3:2|1:3,0:0:0:0:
121,62,10699,2,0,L|134:195,1,110,2|2,3:2|3:2,0:0:0:0:
109,222,11223,1,2,1:3:0:0:
139,327,11572,2,0,L|206:317,1,55,6|0,1:2|3:0,0:0:0:0:
251,314,11920,1,0,3:0:0:0:
251,314,12095,2,0,P|318:279|277:200,1,165,4|2,3:2|3:0,0:0:0:0:
242,116,12967,5,6,3:2:0:0:
242,116,13141,1,0,3:0:0:0:
323,41,13490,1,0,3:0:0:0:
416,99,13839,1,0,1:0:0:0:
380,203,14188,2,0,L|260:193,1,110,4|0,3:2|3:0,0:0:0:0:
215,196,14711,1,4,1:2:0:0:
500,362,15758,6,0,L|507:300,1,55,6|0,3:1|0:0,0:0:0:0:
482,263,16106,1,2,1:3:0:0:
482,263,16281,2,0,P|415:293|370:272,1,110,2|2,3:2|3:2,0:0:0:0:
295,216,16979,2,0,L|283:97,1,110,2|2,3:2|3:2,0:0:0:0:
263,55,17502,2,0,L|199:49,1,55,2|2,1:3|3:2,0:0:0:0:
167,86,17851,2,0,L|101:93,2,55,2|2|2,3:0|3:2|1:3,0:0:0:0:
255,151,18548,6,0,P|297:133|367:160,1,110,6|2,3:2|1:3,0:0:0:0:
411,141,19072,1,2,3:2:0:0:
497,208,19420,2,0,L|487:262,1,55,2|2,3:2|1:3,0:0:0:0:
449,302,19769,2,0,L|322:290,1,110,2|2,3:2|3:2,0:0:0:0:
296,256,20292,1,2,1:3:0:0:
186,249,20641,2,0,L|191:309,1,55,2|2,1:3|3:2,0:0:0:0:
151,343,20990,1,2,1:3:0:0:
254,379,21339,6,0,P|304:351|367:370,1,110,6|2,3:2|1:3,0:0:0:0:
407,352,21862,2,0,L|417:225,1,110,2|2,3:2|3:2,0:0:0:0:
321,184,22560,1,2,3:2:0:0:
275,90,22909,1,2,3:2:0:0:
275,90,23083,2,0,L|334:82,1,55,2|2,1:3|3:2,0:0:0:0:
372,47,23432,2,0,L|431:44,1,55,2|2,3:0|3:2,0:0:0:0:
480,29,23781,1,2,1:3:0:0:
439,131,24130,6,0,L|456:242,1,110,6|2,3:2|1:3,0:0:0:0:
463,294,24653,1,2,3:2:0:0:
363,340,25002,2,0,L|296:347,1,55,2|2,3:2|1:3,0:0:0:0:
259,319,25351,2,0,L|140:310,1,110,2|2,3:2|3:2,0:0:0:0:
105,277,25874,1,2,1:3:0:0:
45,182,26223,1,2,1:3:0:0:
82,78,26572,2,0,L|136:70,1,55,2|0,1:3|1:0,0:0:0:0:
180,47,26920,6,0,P|229:63|277:43,1,99.0000000000001,6|2,3:2|1:3,0:0:0:0:
319,33,27444,1,2,2:0:0:0:
404,81,27792,2,0,L|468:75,2,49.5000000000001,2|2|2,2:0|1:3|2:0,0:0:0:0:
375,123,28316,2,0,L|370:237,1,99.0000000000001,2|2,3:0|1:3,0:0:0:0:
334,256,28839,1,2,2:0:0:0:
240,276,29188,1,2,2:0:0:0:
240,276,29362,1,2,1:3:0:0:
149,236,29711,6,0,L|138:126,1,99.0000000000001,6|2,3:2|1:3,0:0:0:0:
130,88,30234,2,0,P|176:60|223:75,1,99.0000000000001,2|2,2:0|2:0,0:0:0:0:
264,54,30758,1,2,1:3:0:0:
362,64,31106,2,0,L|431:53,2,49.4999984893799,6|2|2,3:2|1:2|1:2,0:0:0:0:
350,112,31630,2,0,P|314:168|331:207,1,99.0000000000001,6|0,3:2|1:0,0:0:0:0:
300,294,32327,5,2,3:2:0:0:
300,294,32502,2,0,L|181:287,1,99.0000000000001,6|2,3:2|1:3,0:0:0:0:
174,246,33025,2,0,P|119:230|75:252,1,99.0000000000001,2|2,2:0|2:0,0:0:0:0:
58,288,33548,1,2,1:3:0:0:
124,361,33897,2,0,L|225:363,1,98.9999969787599,2|2,3:0|1:3,0:0:0:0:
272,362,34420,1,2,2:0:0:0:
366,333,34769,1,2,2:0:0:0:
417,249,35118,5,2,2:0:0:0:
417,249,35292,2,0,L|411:132,1,99.0000000000001,6|2,3:2|1:3,0:0:0:0:
385,107,35816,2,0,P|343:75|288:85,1,99.0000000000001,2|2,2:0|2:0,0:0:0:0:
249,81,36339,1,2,1:3:0:0:
159,122,36688,2,0,L|91:115,2,49.5000000000001,6|2|2,3:2|1:2|1:2,0:0:0:0:
168,173,37211,1,6,3:2:0:0:
158,271,37560,1,2,1:2:0:0:
301,353,38083,6,0,P|339:327|393:334,2,82.5,6|2|2,3:0|3:0|3:0,0:0:0:0:
255,260,38955,1,2,3:2:0:0:
255,260,39130,2,0,L|239:186,1,55,6|2,1:2|2:0,0:0:0:0:
254,152,39479,2,0,P|312:137|364:155,1,110,2|2,3:2|2:0,0:0:0:0:
411,134,40002,2,0,P|414:80|382:37,1,110,10|6,2:3|2:3,0:0:0:0:
329,20,40525,1,6,1:2:0:0:
221,44,40874,6,0,L|139:31,2,82.5,6|2|2,3:0|3:0|3:0,0:0:0:0:
298,138,41746,1,2,3:2:0:0:
298,138,41920,2,0,L|290:213,1,55,6|2,1:2|1:2,0:0:0:0:
272,244,42269,2,0,P|224:272|169:248,1,110,6|2,3:2|3:2,0:0:0:0:
93,182,42967,1,2,3:2:0:0:
7,249,43316,1,2,3:2:0:0:
50,349,43665,6,0,L|168:345,1,110,6|2,1:2|1:2,0:0:0:0:
218,340,44188,1,2,1:2:0:0:
218,340,44362,2,0,L|284:346,1,55,2|2,1:2|1:2,0:0:0:0:
325,360,44711,1,2,1:2:0:0:
415,318,45060,2,0,P|432:259|409:207,1,110,6|2,1:2|1:2,0:0:0:0:
368,187,45583,1,2,1:2:0:0:
368,187,45758,2,0,L|306:177,1,55,2|2,1:2|1:2,0:0:0:0:
259,189,46106,2,0,L|204:197,1,55,2|2,1:2|1:2,0:0:0:0:
149,196,46455,6,0,P|110:148|127:102,1,110,6|0,1:2|3:0,0:0:0:0:
124,51,46979,1,4,1:2:0:0:
231,28,47327,2,0,L|306:38,1,55,0|0,3:0|1:0,0:0:0:0:
331,66,47676,2,0,P|392:80|435:53,1,110,4|2,3:2|3:0,0:0:0:0:
486,153,48374,1,6,3:2:0:0:
403,223,48723,2,0,L|332:210,1,55,2|2,1:2|1:2,0:0:0:0:
308,184,49072,1,2,1:2:0:0:
308,184,49246,6,0,P|241:159|192:186,1,121,6|2,3:1|1:3,0:0:0:0:
140,193,49769,2,0,L|153:322,1,121,2|2,3:2|3:2,0:0:0:0:
148,370,50292,1,2,1:3:0:0:
148,370,50467,1,2,0:0:0:0:
265,384,50816,2,0,L|334:373,1,60.5,2|2,3:2|1:2,0:0:0:0:
384,362,51165,2,0,P|408:302|381:247,1,121,2|2,3:2|3:2,0:0:0:0:
346,207,51688,1,2,1:3:0:0:
241,146,52037,6,0,L|169:159,2,60.5,6|2|2,3:2|3:2|1:3,0:0:0:0:
277,97,52560,2,0,P|333:68|391:93,1,121,2|2,3:2|3:2,0:0:0:0:
433,121,53083,1,2,1:3:0:0:
401,237,53432,2,0,L|337:224,1,60.5,6|2,3:2|3:2,0:0:0:0:
290,253,53781,1,2,1:3:0:0:
290,253,53955,2,0,P|229:286|168:262,1,121,6|2,3:2|3:2,0:0:0:0:
123,255,54479,1,2,1:3:0:0:
120,134,54827,6,0,L|103:13,2,121,6|0|0,3:2|3:0|3:0,0:0:0:0:
230,184,55874,1,2,3:2:0:0:
332,120,56223,2,0,L|398:126,1,60.5,6|2,3:2|3:2,0:0:0:0:
454,148,56572,1,2,1:2:0:0:
454,148,56746,2,0,P|482:208|448:247,1,121,6|0,3:2|3:0,0:0:0:0:
411,291,57269,1,0,1:0:0:0:
302,345,57618,6,0,L|182:326,1,121,6|2,3:2|1:3,0:0:0:0:
70,278,58316,2,0,L|66:217,1,60.5,2|2,1:3|3:2,0:0:0:0:
112,178,58665,2,0,L|116:117,1,60.5,2|2,1:3|3:2,0:0:0:0:
104,58,59013,2,0,P|155:22|224:42,1,121,6|2,1:2|3:0,0:0:0:0:
262,61,59537,1,0,3:0:0:0:
357,135,59886,1,2,3:2:0:0:
357,135,60060,2,0,L|424:129,1,60.5,6|2,1:2|3:2,0:0:0:0:
471,157,60409,6,0,P|505:219|466:268,1,121,6|2,3:1|1:3,0:0:0:0:
437,296,60932,1,2,3:2:0:0:
324,251,61281,2,0,L|238:267,2,60.5,2|2|2,3:2|1:3|3:2,0:0:0:0:
343,193,61804,2,0,L|345:117,1,60.5,6|2,3:2|3:2,0:0:0:0:
349,75,62153,1,2,1:3:0:0:
349,75,62327,2,0,P|291:40|229:68,1,121,2|2,3:2|3:2,0:0:0:0:
189,82,62851,1,2,1:3:0:0:
154,198,63199,6,0,L|162:279,1,60.5,6|2,3:2|3:2,0:0:0:0:
161,322,63548,1,2,1:3:0:0:
161,322,63723,2,0,P|117:352|57:331,1,121,2|2,3:2|3:2,0:0:0:0:
17,284,64246,1,2,1:3:0:0:
65,173,64595,2,0,L|71:100,1,60.5,6|2,3:2|3:2,0:0:0:0:
85,57,64944,1,2,1:3:0:0:
85,57,65118,2,0,P|139:25|208:46,1,121,6|2,3:2|3:2,0:0:0:0:
244,68,65641,1,2,1:3:0:0:
352,121,65990,6,0,L|483:108,2,121,6|0|0,3:2|3:0|3:0,0:0:0:0:
251,189,67037,1,2,3:2:0:0:
150,256,67386,2,0,L|82:242,1,60.5,6|2,3:2|3:2,0:0:0:0:
44,280,67734,1,2,1:2:0:0:
44,280,67909,2,0,P|35:337|97:368,1,121,6|0,3:2|3:0,0:0:0:0:
142,370,68432,1,0,1:0:0:0:
258,336,68781,6,0,L|383:342,1,121,6|2,3:2|1:3,0:0:0:0:
434,318,69304,1,2,3:2:0:0:
467,201,69653,1,2,3:2:0:0:
467,201,69827,2,0,L|382:184,1,60.5,2|2,1:3|3:2,0:0:0:0:
347,191,70176,2,0,P|288:222|226:194,1,121,6|2,1:2|3:0,0:0:0:0:
188,173,70699,1,0,3:0:0:0:
148,64,71048,2,0,L|82:66,2,60.5,2|6|2,3:2|1:2|3:2,0:0:0:0:
201,51,71572,6,0,P|256:61|304:28,1,110,6|2,3:2|1:2,0:0:0:0:
358,47,72095,1,2,2:3:0:0:
358,47,72269,2,0,L|357:156,1,110,2|2,3:2|1:2,0:0:0:0:
352,212,72792,1,2,2:3:0:0:
247,244,73141,2,0,L|171:240,2,55,2|2|2,2:3|1:2|2:3,0:0:0:0:
302,339,73839,2,0,L|369:348,2,55,2|2|2,2:3|1:2|2:3,0:0:0:0:
247,349,74362,6,0,P|200:368|128:343,1,110,2|2,3:2|1:2,0:0:0:0:
64,278,75060,2,0,L|60:211,1,55,2|2,3:2|2:3,0:0:0:0:
63,167,75409,1,2,1:2:0:0:
63,167,75583,2,0,P|108:132|174:152,1,110,2|2,2:3|2:3,0:0:0:0:
205,166,76106,1,6,1:2:0:0:
507,34,77153,6,0,L|511:164,1,110,6|2,3:2|1:2,0:0:0:0:
471,247,77851,2,0,L|405:237,1,55,2|2,3:2|2:3,0:0:0:0:
366,232,78199,1,2,1:2:0:0:
366,232,78374,2,0,P|309:210|260:227,1,110,2|2,2:3|2:3,0:0:0:0:
222,259,78897,1,2,1:2:0:0:
222,259,79072,2,0,L|110:248,1,110,2|2,2:3|2:3,0:0:0:0:
66,217,79595,1,2,1:2:0:0:
83,108,79944,6,0,P|138:125|190:104,1,110,2|2,3:2|1:2,0:0:0:0:
295,99,80641,2,0,L|362:100,2,55,2|2|2,3:2|2:3|1:2,0:0:0:0:
276,153,81165,1,2,2:3:0:0:
276,153,81339,2,0,L|289:265,1,110,0|6,3:0|1:2,0:0:0:0:
310,370,82037,1,2,2:0:0:0:
114,269,82734,6,0,L|25:277,2,73.3333333333333,6|0|2,3:2|3:0|1:3,0:0:0:0:
166,217,83432,2,0,L|250:222,2,73.3333333333333,2|2|2,3:2|3:2|1:3,0:0:0:0:
132,153,84130,2,0,P|116:84|200:56,1,146.666666666667,2|2,3:2|1:3,0:0:0:0:
245,52,84827,2,0,L|343:40,2,73.3333333333333,2|2|2,3:2|3:2|1:3,0:0:0:0:
232,124,85525,5,2,3:2:0:0:
148,244,85990,1,2,1:3:0:0:
219,226,86223,2,0,L|369:213,1,146.666666666667,2|2,3:2|1:3,0:0:0:0:
438,219,86920,2,0,P|477:276|444:354,1,146.666666666667,2|2,3:2|1:3,0:0:0:0:
383,362,87618,2,0,L|276:380,2,73.3333333333333,2|2|2,1:2|1:2|1:3,0:0:0:0:
386,288,88316,5,6,3:2:0:0:
250,232,88781,1,2,1:3:0:0:
282,166,89013,2,0,L|200:156,2,73.3333333333333,2|2|2,3:2|3:2|1:3,0:0:0:0:
354,150,89711,2,0,P|363:74|289:36,1,146.666666666667,2|2,3:2|1:3,0:0:0:0:
239,28,90409,1,2,3:2:0:0:
125,120,90874,5,2,1:3:0:0:
58,151,91106,1,2,3:2:0:0:
171,339,91804,1,2,3:2:0:0:
376,261,92502,6,0,L|378:146,1,110,6|6,3:2|3:2,0:0:0:0:
330,51,93199,2,0,L|264:59,1,55,2|2,3:0|3:2,0:0:0:0:
220,61,93548,2,0,L|165:54,1,55,2|2,3:0|1:2,0:0:0:0:
113,71,93897,6,0,L|128:199,1,110,6|2,3:2|1:3,0:0:0:0:
103,230,94420,1,2,3:2:0:0:
126,337,94769,1,2,3:2:0:0:
239,354,95118,1,2,3:2:0:0:
239,354,95292,2,0,L|325:340,2,82.5,2|2|2,2:3|2:0|3:2,0:0:0:0:
220,302,95990,2,0,L|120:301,2,82.5,2|2|2,3:0|2:0|1:2,0:0:0:0:
251,254,96688,6,0,P|272:207|239:140,1,110,6|2,3:2|1:3,0:0:0:0:
203,133,97211,1,2,3:2:0:0:
126,54,97560,1,2,3:2:0:0:
234,39,97909,2,0,L|350:27,1,110,2|2,3:2|3:2,0:0:0:0:
398,28,98432,1,2,1:3:0:0:
485,99,98781,2,0,L|479:162,1,55,2|2,1:3|3:2,0:0:0:0:
479,208,99130,1,2,1:3:0:0:
452,317,99479,6,0,P|413:275|347:287,1,110,6|2,3:2|1:3,0:0:0:0:
310,291,100002,1,2,3:2:0:0:
213,238,100351,1,2,3:2:0:0:
307,182,100699,2,0,L|420:172,1,110,2|2,3:2|3:2,0:0:0:0:
458,135,101223,1,2,1:3:0:0:
389,48,101572,2,0,L|314:43,1,55,2|2,3:0|3:2,0:0:0:0:
279,44,101920,1,2,1:3:0:0:
168,46,102269,6,0,P|144:101|168:163,1,110,6|2,3:2|1:3,0:0:0:0:
188,192,102792,1,2,3:2:0:0:
261,273,103141,1,2,3:2:0:0:
187,354,103490,2,0,L|64:345,1,110,2|2,3:2|3:2,0:0:0:0:
28,320,104013,1,2,1:3:0:0:
95,233,104362,2,0,L|103:164,1,55,2|0,1:3|3:0,0:0:0:0:
88,124,104711,1,2,1:3:0:0:
176,58,105060,6,0,P|222:35|287:57,1,110,6|2,3:2|1:3,0:0:0:0:
325,74,105583,1,2,2:0:0:0:
398,156,105932,2,0,L|453:162,2,55,2|2|2,2:0|1:3|2:0,0:0:0:0:
355,191,106455,2,0,L|236:203,1,110,2|2,3:0|1:3,0:0:0:0:
190,199,106979,2,0,P|131:180|75:208,1,110,2|2,2:0|2:0,0:0:0:0:
43,228,107502,1,2,1:3:0:0:
83,330,107851,6,0,L|199:317,1,110,6|2,3:2|1:3,0:0:0:0:
244,298,108374,2,0,L|359:307,1,110,2|2,2:0|2:0,0:0:0:0:
407,320,108897,1,2,1:3:0:0:
465,226,109246,2,0,L|474:153,1,55,6|2,3:2|1:2,0:0:0:0:
462,121,109595,1,2,1:2:0:0:
462,121,109769,2,0,P|397:85|353:108,1,110,6|0,3:2|1:0,0:0:0:0:
263,120,110467,5,2,3:2:0:0:
263,120,110641,2,0,L|141:106,1,110,6|2,3:2|1:3,0:0:0:0:
98,109,111165,2,0,P|81:164|109:223,1,110,2|2,2:0|2:0,0:0:0:0:
76,262,111688,1,2,1:3:0:0:
167,323,112037,2,0,L|231:313,1,55,2|2,3:0|2:0,0:0:0:0:
273,291,112386,1,2,1:3:0:0:
273,291,112560,2,0,P|294:227|264:185,1,110,2|2,2:0|2:0,0:0:0:0:
236,153,113083,1,2,1:3:0:0:
284,48,113432,6,0,L|409:36,1,110,6|2,3:2|1:3,0:0:0:0:
448,37,113955,2,0,P|485:82|466:138,1,110,2|2,2:0|2:0,0:0:0:0:
442,173,114479,1,2,1:3:0:0:
343,222,114827,2,0,L|278:214,2,55,6|2|2,3:2|1:2|1:2,0:0:0:0:
380,262,115351,2,0,P|410:314|385:365,1,110,6|2,3:2|1:2,0:0:0:0:
345,383,115874,1,2,1:3:0:0:
244,337,116223,6,0,L|155:351,2,82.5,6|2|2,3:0|3:0|3:0,0:0:0:0:
341,282,117095,1,2,3:2:0:0:
341,282,117269,2,0,L|348:209,1,55,6|2,1:2|2:0,0:0:0:0:
352,172,117618,2,0,P|387:146|434:144,2,82.5,2|0|10,3:2|0:0|2:3,0:0:0:0:
248,151,118490,1,6,2:3:0:0:
248,151,118665,2,0,L|175:136,1,55,6|0,1:2|1:0,0:0:0:0:
162,94,119013,6,0,L|64:98,2,82.5,6|2|2,3:0|3:0|3:0,0:0:0:0:
275,104,119886,1,2,3:2:0:0:
275,104,120060,2,0,L|352:87,1,55,6|2,1:2|1:2,0:0:0:0:
375,63,120409,2,0,P|430:84|431:149,1,110,6|2,3:2|3:2,0:0:0:0:
397,231,121106,1,2,3:2:0:0:
299,183,121455,1,2,3:2:0:0:
212,114,121804,6,0,P|156:88|98:110,1,110,6|2,1:2|1:2,0:0:0:0:
67,131,122327,1,2,1:2:0:0:
67,131,122502,2,0,L|72:187,1,55,2|2,1:2|1:2,0:0:0:0:
63,240,122851,1,2,1:2:0:0:
90,346,123199,2,0,P|147:366|202:336,1,110,6|2,1:2|1:2,0:0:0:0:
235,315,123723,1,2,1:2:0:0:
235,315,123897,2,0,L|296:322,1,55,2|2,1:2|1:2,0:0:0:0:
343,307,124246,1,2,1:2:0:0:
426,234,124595,5,6,1:2:0:0:
396,133,124944,1,0,3:0:0:0:
396,133,125118,1,4,1:2:0:0:
285,126,125467,2,0,L|224:135,1,55,0|0,3:0|1:0,0:0:0:0:
177,122,125816,1,4,3:2:0:0:
88,187,126165,1,2,3:0:0:0:
102,295,126513,1,6,3:2:0:0:
193,356,126862,2,0,L|252:356,1,55,2|2,1:2|1:2,0:0:0:0:
305,346,127211,1,2,1:2:0:0:
305,346,127386,1,2,3:2:0:0:
463,68,131572,6,0,L|343:56,1,110,6|2,3:2|1:2,0:0:0:0:
300,71,132095,2,0,L|190:81,1,110,6|2,3:2|3:2,0:0:0:0:
137,68,132618,1,6,1:2:0:0:
108,174,132967,6,0,L|-12:192,2,110,6|0|2,3:2|1:0|3:2,0:0:0:0:
203,229,134013,1,0,1:0:0:0:
308,199,134362,2,0,L|381:210,1,55,6|2,3:2|3:2,0:0:0:0:
413,240,134711,1,2,1:2:0:0:
413,240,134886,2,0,P|436:290|415:341,1,110,6|0,3:2|3:0,0:0:0:0:
374,373,135409,1,0,1:0:0:0:
272,330,135758,6,0,L|149:338,1,110,6|2,3:2|1:3,0:0:0:0:
61,293,136455,2,0,L|53:235,1,55,2|2,1:3|3:2,0:0:0:0:
88,196,136804,2,0,L|96:138,1,55,2|2,1:3|3:2,0:0:0:0:
93,86,137153,2,0,P|148:58|210:77,1,110,6|2,1:2|3:0,0:0:0:0:
243,90,137676,1,0,3:0:0:0:
351,73,138025,1,2,3:2:0:0:
351,73,138199,2,0,L|427:83,1,55,6|2,3:2|3:2,0:0:0:0:
453,116,138548,6,0,P|474:185|430:228,1,121,6|2,3:1|1:3,0:0:0:0:
393,247,139072,1,2,3:2:0:0:
276,215,139420,1,2,3:2:0:0:
276,215,139595,2,0,L|204:226,1,60.5,2|2,1:3|3:2,0:0:0:0:
166,259,139944,2,0,L|91:255,1,60.5,6|2,3:2|3:2,0:0:0:0:
54,222,140292,1,2,1:3:0:0:
54,222,140467,2,0,P|37:165|65:107,1,121,2|2,3:2|3:2,0:0:0:0:
89,57,140990,1,2,1:3:0:0:
210,54,141339,6,0,L|272:48,2,60.5,6|2|2,3:2|3:2|1:3,0:0:0:0:
177,105,141862,2,0,P|151:162|183:225,1,121,2|2,3:2|3:2,0:0:0:0:
208,261,142386,1,2,1:3:0:0:
328,273,142734,2,0,L|391:282,1,60.5,6|2,3:2|3:2,0:0:0:0:
449,266,143083,1,2,1:3:0:0:
449,266,143258,2,0,P|471:212|426:153,1,121,6|2,3:2|3:2,0:0:0:0:
403,113,143781,1,2,1:3:0:0:
297,54,144130,6,0,L|169:68,1,121,6|0,3:2|3:0,0:0:0:0:
56,49,144827,1,0,3:0:0:0:
6,159,145176,1,2,3:2:0:0:
95,240,145525,2,0,L|171:227,1,60.5,6|2,3:2|3:2,0:0:0:0:
211,204,145874,1,2,1:2:0:0:
211,204,146048,2,0,P|252:244|242:305,1,121,6|0,3:2|3:0,0:0:0:0:
226,361,146572,1,0,1:0:0:0:
346,365,146920,6,0,L|476:350,1,121,6|2,3:2|1:3,0:0:0:0:
507,236,147618,2,0,L|515:163,1,60.5,2|2,1:3|3:2,0:0:0:0:
472,131,147967,2,0,L|464:58,1,60.5,2|2,1:3|3:2,0:0:0:0:
427,23,148316,1,6,1:2:0:0:
253,63,148839,1,2,3:2:0:0:
253,63,149013,2,0,L|116:53,1,121,2|6,3:0|1:2,0:0:0:0:
36,128,149711,6,0,P|16:172|54:245,1,121,6|2,3:1|1:3,0:0:0:0:
74,287,150234,2,0,L|195:269,1,121,2|2,3:2|3:2,0:0:0:0:
254,278,150758,1,2,1:3:0:0:
353,208,151106,2,0,L|427:213,2,60.5,6|2|2,3:2|3:2|1:3,0:0:0:0:
304,171,151630,2,0,P|286:124|320:65,1,121,2|2,3:2|3:2,0:0:0:0:
369,32,152153,1,2,1:3:0:0:
472,95,152502,6,0,L|466:229,1,121,6|2,3:2|1:3,0:0:0:0:
463,276,153025,1,2,3:2:0:0:
364,346,153374,1,2,3:2:0:0:
364,346,153548,2,0,L|283:340,1,60.5,2|2,1:3|3:2,0:0:0:0:
245,357,153897,2,0,L|111:368,1,121,6|2,3:2|1:3,0:0:0:0:
66,349,154420,1,6,3:2:0:0:
130,246,154769,1,2,3:2:0:0:
130,246,154944,2,0,L|122:172,1,60.5,2|2,1:3|1:2,0:0:0:0:
111,126,155292,6,0,P|117:62|171:40,1,121,6|0,3:2|3:0,0:0:0:0:
223,31,155816,2,0,L|352:43,1,121,2|2,2:3|2:3,0:0:0:0:
403,49,156339,1,2,3:2:0:0:
485,137,156688,2,0,L|492:206,1,60.5,6|2,3:2|3:2,0:0:0:0:
461,251,157037,1,2,1:2:0:0:
461,251,157211,2,0,P|407:276|358:248,1,121,6|0,3:2|3:0,0:0:0:0:
304,218,157734,1,0,1:0:0:0:
200,155,158083,6,0,P|143:127|82:159,1,121,6|2,3:2|1:3,0:0:0:0:
48,188,158606,2,0,L|58:322,1,121,2|2,3:2|3:2,0:0:0:0:
85,362,159130,1,2,1:3:0:0:
205,354,159479,2,0,L|273:347,1,60.5,6|0,1:2|3:0,0:0:0:0:
324,337,159827,1,2,3:0:0:0:
324,337,160002,2,0,P|345:283|305:227,1,121,0|2,3:0|3:2,0:0:0:0:
263,200,160525,1,6,1:2:0:0:
277,79,160874,6,0,L|408:64,1,121,6|2,1:0|1:3,0:0:0:0:
456,79,161397,2,0,P|477:139|440:180,1,121,2|2,3:2|3:2,0:0:0:0:
419,234,161920,1,2,1:3:0:0:
311,179,162269,2,0,P|261:139|195:158,1,121,6|2,1:2|1:3,0:0:0:0:
149,164,162792,1,0,3:0:0:0:
59,245,163141,2,0,L|-11:252,2,60.5,2|2|2,3:2|1:3|3:2,0:0:0:0:
112,258,163665,1,2,3:2:0:0:
289,151,165061,6,0,P|222:130|175:164,1,110,6|2,3:1|1:3,0:0:0:0:
139,169,165584,2,0,L|19:163,2,110,2|2|2,3:2|3:2|3:2,0:0:0:0:
188,273,166630,1,2,3:2:0:0:
188,273,166804,2,0,L|264:269,1,55,2|2,1:3|3:2,0:0:0:0:
298,259,167153,2,0,L|355:267,1,55,2|2,3:0|3:2,0:0:0:0:
408,263,167502,1,2,1:3:0:0:
508,219,167851,6,0,P|523:173|470:129,1,110,6|2,3:2|1:3,0:0:0:0:
435,106,168374,1,2,3:2:0:0:
336,154,168723,1,2,3:2:0:0:
238,102,169072,2,0,L|121:88,1,110,2|2,3:2|3:2,0:0:0:0:
74,78,169595,1,2,1:3:0:0:
12,169,169944,2,0,L|18:232,1,55,2|2,1:3|3:2,0:0:0:0:
11,280,170293,1,2,1:3:0:0:
87,358,170642,6,0,P|129:329|191:340,1,110,6|2,3:2|1:3,0:0:0:0:
234,360,171165,2,0,L|346:355,1,110,2|2,3:2|3:2,0:0:0:0:
419,275,171863,1,2,3:2:0:0:
353,186,172212,1,2,3:2:0:0:
353,186,172386,2,0,L|277:182,1,55,2|2,1:3|3:2,0:0:0:0:
243,172,172735,2,0,L|186:180,1,55,2|2,3:0|3:2,0:0:0:0:
133,176,173084,1,2,1:3:0:0:
84,77,173433,6,0,P|124:32|179:40,1,110,6|2,3:2|1:3,0:0:0:0:
222,50,173956,2,0,L|345:40,2,110,2|2|2,3:2|3:2|3:2,0:0:0:0:
176,150,175002,1,2,3:2:0:0:
176,150,175177,2,0,L|187:218,1,55,2|2,1:3|3:2,0:0:0:0:
234,227,175526,2,0,L|223:295,1,55,2|2,1:3|3:2,0:0:0:0:
209,333,175874,1,2,1:3:0:0:
308,380,176223,6,0,L|361:366,1,55,6|2,3:2|3:2,0:0:0:0:
402,330,176572,1,2,1:2:0:0:
402,330,176747,1,6,3:2:0:0:
345,235,177095,2,0,L|359:176,1,55,6|2,1:2|3:2,0:0:0:0:
361,126,177444,2,0,P|313:79|263:95,1,110,6|0,3:2|3:0,0:0:0:0:
228,113,177967,1,6,1:2:0:0:
489,314,179014,5,6,3:2:0:0:
