osu file format v14

[General]
AudioFilename: audio.mp3
AudioLeadIn: 0
PreviewTime: 68081
Countdown: 0
SampleSet: Soft
StackLeniency: 0.3
Mode: 0
LetterboxInBreaks: 0
EpilepsyWarning: 1
WidescreenStoryboard: 1

[Editor]
Bookmarks: 1473,14899,28326,41753,55179,68606,82452,95459,108885,122312,137417,151263,164270,178116,191123,203711,206507,227486
DistanceSpacing: 3.2
BeatDivisor: 8
GridSize: 32
TimelineZoom: 3.099999

[Metadata]
Title:Dareka no Shinzou ni Nareta nara
TitleUnicode:だれかの心臓になれたなら
Artist:Tsukuyomi
ArtistUnicode:月詠み
Creator:Mononymous
Version:Please, give me love.
Source:
Tags:BF [Paw]OchiKouri BinFhone too Ducky- Airiesu Mujina ユリイカノン ユリイ・カノン yurry cannon yurrycanon yurii kanon yuriikanon vocaloid gumi cover mikoto エポック epoch とうかさ toukasa 人間劇場 Human Theater Ningen Gekijou I want to be your heart japanese rock j-rock jrock novelty
BeatmapID:3157178
BeatmapSetID:1544600

[Difficulty]
HPDrainRate:6
CircleSize:4.2
OverallDifficulty:9.2
ApproachRate:9.6
SliderMultiplier:3.59999990463257
SliderTickRate:1

[Events]
//Background and Video events
0,0,"bg.jpg",0,0
//Break Periods
//Storyboard Layer 0 (Background)
//Storyboard Layer 1 (Fail)
//Storyboard Layer 2 (Pass)
//Storyboard Layer 3 (Foreground)
Sprite,Foreground,Centre,"sb\ring.png",281,280 C,0,41333,,72,60,162 F,1,41333,41648,1,0 S,1,41333,41648,0.3309091,1.285091
Sprite,Foreground,Centre,"sb\glow.png",0,0 C,0,1473,,167,73,177 M,0,1473,1525,269,139,286.7922,159.247 F,2,1473,2302,1,0 S,2,1473,2302,0.8,0.16 P,0,1473,2302,A M,0,1525,1577,286.7922,159.247,299.7853,182.8477 M,0,1577,1630,299.7853,182.8477,307.0867,208.7832 M,0,1630,1682,307.0867,208.7832,308.8739,235.6832 M,0,1682,1735,308.8739,235.6832,306.3256,262.5135 M,0,1735,1787,306.3256,262.5135,293.6777,286.0306 M,0,1787,1840,293.6777,286.0306,270.1769,298.1369 M,0,1840,1892,270.1769,298.1369,245.2683,289.9565 M,0,1892,1945,245.2683,289.9565,233.6388,266.2952 M,0,1945,1997,233.6388,266.2952,240.3316,240.6453 M,0,1997,2049,240.3316,240.6453,259.9094,222.4007 M,0,2049,2102,259.9094,222.4007,284.8504,212.2975
Sprite,Foreground,Centre,"sb\glow.png",0,0 C,0,2312,,72,60,162 M,0,2312,2364,516,304,490.0507,296.7169 F,2,2312,3141,1,0 S,2,2312,3141,0.8,0.16 P,0,2312,3141,A M,0,2364,2416,490.0507,296.7169,463.1693,294.6859 M,0,2416,2469,463.1693,294.6859,436.3956,297.8264 M,0,2469,2521,436.3956,297.8264,410.7891,306.2321 M,0,2521,2574,410.7891,306.2321,387.5013,319.7995 M,0,2574,2626,387.5013,319.7995,366.8514,337.1682 M,0,2626,2679,366.8514,337.1682,346.7226,355.1545 M,0,2679,2731,346.7226,355.1545,324.1828,369.9256 M,0,2731,2784,324.1828,369.9256,298.9307,379.3241 M,0,2784,2836,298.9307,379.3241,272.2813,383.4034 M,0,2836,2888,272.2813,383.4034,245.3246,382.6971 M,0,2888,2941,245.3246,382.6971,218.9125,377.2809
Sprite,Foreground,Centre,"sb\glow.png",0,0 C,0,3151,,167,73,177 M,0,3151,3203,88,303,106.9251,283.8366 F,2,3151,3980,1,0 S,2,3151,3980,0.8,0.16 P,0,3151,3980,A M,0,3203,3255,106.9251,283.8366,121.4165,261.0985 M,0,3255,3308,121.4165,261.0985,132.2655,236.3946 M,0,3308,3360,132.2655,236.3946,140.3194,210.6344 M,0,3360,3413,140.3194,210.6344,159.2693,214.3829 M,0,3413,3465,159.2693,214.3829,180.8004,230.6419 M,0,3465,3518,180.8004,230.6419,199.7107,249.8712 M,0,3518,3570,199.7107,249.8712,214.8283,272.1876 M,0,3570,3623,214.8283,272.1876,224.7953,297.216 M,0,3623,3675,224.7953,297.216,228.6339,323.8773 M,0,3675,3727,228.6339,323.8773,226.3566,350.7289 M,0,3727,3780,226.3566,350.7289,218.8905,376.6393
Sprite,Foreground,Centre,"sb\glow.png",137,405 C,0,3990,,72,60,162 F,2,3990,4190,1,0 S,2,3990,4190,0.8,0.16 P,0,3990,4190,A
Sprite,Foreground,Centre,"sb\glow.png",364,301 C,0,4410,,72,60,162 F,2,4410,4610,1,0 S,2,4410,4610,0.8,0.16 P,0,4410,4610,A
Sprite,Foreground,Centre,"sb\glow.png",0,0 C,0,4829,,167,73,177 M,0,4829,4881,212,116,196.8696,138.2498 F,2,4829,5658,1,0 S,2,4829,5658,0.8,0.16 P,0,4829,5658,A M,0,4881,4933,196.8696,138.2498,188.4296,163.8161 M,0,4933,4986,188.4296,163.8161,171.7042,164.153 M,0,4986,5038,171.7042,164.153,153.8609,144.1641 M,0,5038,5091,153.8609,144.1641,145.7598,118.5858 M,0,5091,5143,145.7598,118.5858,146.0226,91.65578 M,0,5143,5196,146.0226,91.65578,163.5303,96.7046 M,0,5196,5248,163.5303,96.7046,187.8596,108.313 M,0,5248,5301,187.8596,108.313,213.9451,115.137 M,0,5301,5353,213.9451,115.137,240.8124,117.531 M,0,5353,5405,240.8124,117.531,267.7626,116.2071 M,0,5405,5458,267.7626,116.2071,294,112
Sprite,Foreground,Centre,"sb\glow.png",0,0 C,0,5669,,72,60,162 M,0,5669,5721,543,84,516.7682,89.64841 F,2,5669,6498,1,0 S,2,5669,6498,0.8,0.16 P,0,5669,6498,A M,0,5721,5773,516.7682,89.64841,494.3054,104.4009 M,0,5773,5826,494.3054,104.4009,476.7117,124.8074 M,0,5826,5878,476.7117,124.8074,481.4702,135.5971 M,0,5878,5931,481.4702,135.5971,507.9324,140.124 M,0,5931,5983,507.9324,140.124,530.9674,153.9023 M,0,5983,6036,530.9674,153.9023,547.3125,175.1939 M,0,6036,6088,547.3125,175.1939,555.0774,200.9104 M,0,6088,6141,555.0774,200.9104,553.8436,227.7549 M,0,6141,6193,553.8436,227.7549,543.621,252.5875 M,0,6193,6245,543.621,252.5875,524.9827,271.8812 M,0,6245,6298,524.9827,271.8812,500.4604,282.8171
Sprite,Foreground,Centre,"sb\glow.png",0,0 C,0,6508,,167,73,177 M,0,6508,6560,324,404,308.8594,381.8683 F,2,6508,7337,1,0 S,2,6508,7337,0.8,0.16 P,0,6508,7337,A M,0,6560,6612,308.8594,381.8683,303.7224,355.5478 M,0,6612,6665,303.7224,355.5478,309.0276,329.2392 M,0,6665,6717,309.0276,329.2392,323.369,306.5236 M,0,6717,6770,323.369,306.5236,344.2526,289.5726 M,0,6770,6822,344.2526,289.5726,359.6423,308.088 M,0,6822,6875,359.6423,308.088,380.1442,325.4963 M,0,6875,6927,380.1442,325.4963,404.9287,335.9304 M,0,6927,6980,404.9287,335.9304,431.7249,338.0625 M,0,6980,7032,431.7249,338.0625,457.8335,331.6258 M,0,7032,7084,457.8335,331.6258,481.0097,317.9346 M,0,7084,7137,481.0097,317.9346,500.186,299.0066
Sprite,Foreground,Centre,"sb\glow.png",428,194 C,0,7347,,72,60,162 F,2,7347,7547,1,0 S,2,7347,7547,0.8,0.16 P,0,7347,7547,A
Sprite,Foreground,Centre,"sb\glow.png",408,184 C,0,7452,,72,60,162 F,2,7452,7652,1,0 S,2,7452,7652,0.8,0.16 P,0,7452,7652,A
Sprite,Foreground,Centre,"sb\glow.png",387,174 C,0,7557,,72,60,162 F,2,7557,7757,1,0 S,2,7557,7757,0.8,0.16 P,0,7557,7757,A
Sprite,Foreground,Centre,"sb\glow.png",250,118 C,0,7767,,167,73,177 F,2,7767,7967,1,0 S,2,7767,7967,0.8,0.16 P,0,7767,7967,A
Sprite,Foreground,Centre,"sb\glow.png",280,113 C,0,7871,,167,73,177 F,2,7871,8071,1,0 S,2,7871,8071,0.8,0.16 P,0,7871,8071,A
Sprite,Foreground,Centre,"sb\glow.png",309,109 C,0,7977,,167,73,177 F,2,7977,8177,1,0 S,2,7977,8177,0.8,0.16 P,0,7977,8177,A
Sprite,Foreground,Centre,"sb\glow.png",113,226 C,0,8186,,72,60,162 F,2,8186,8386,1,0 S,2,8186,8386,0.8,0.16 P,0,8186,8386,A
Sprite,Foreground,Centre,"sb\glow.png",0,0 C,0,8396,,72,60,162 M,0,8396,8448,113,226,137.9203,248.2882 F,2,8396,8700,1,0 S,2,8396,8700,0.8,0.16 P,0,8396,8700,A M,0,8448,8500,137.9203,248.2882,152.7738,278.2361
Sprite,Foreground,Centre,"sb\glow.png",227,392 C,0,8606,,167,73,177 F,2,8606,8806,1,0 S,2,8606,8806,0.8,0.16 P,0,8606,8806,A
Sprite,Foreground,Centre,"sb\glow.png",0,0 C,0,8815,,167,73,177 M,0,8815,8867,227,392,241.0492,361.6909 F,2,8815,9119,1,0 S,2,8815,9119,0.8,0.16 P,0,8815,9119,A M,0,8867,8919,241.0492,361.6909,265.725,339.1742
Sprite,Foreground,Centre,"sb\glow.png",468,373 C,0,9025,,72,60,162 F,2,9025,9225,1,0 S,2,9025,9225,0.8,0.16 P,0,9025,9225,A
Sprite,Foreground,Centre,"sb\glow.png",0,0 C,0,9235,,72,60,162 M,0,9235,9287,468,373,437.1407,359.3337 F,2,9235,9539,1,0 S,2,9235,9539,0.8,0.16 P,0,9235,9539,A M,0,9287,9339,437.1407,359.3337,406.2814,345.6675
Sprite,Foreground,Centre,"sb\glow.png",280,254 C,0,9445,,167,73,177 F,2,9445,9645,1,0 S,2,9445,9645,0.8,0.16 P,0,9445,9645,A
Sprite,Foreground,Centre,"sb\glow.png",0,0 C,0,9655,,167,73,177 M,0,9655,9707,280,254,310.8593,240.3337 F,2,9655,9959,1,0 S,2,9655,9959,0.8,0.16 P,0,9655,9959,A M,0,9707,9759,310.8593,240.3337,341.7186,226.6675
Sprite,Foreground,Centre,"sb\glow.png",490,90 C,0,9864,,72,60,162 F,2,9864,10064,1,0 S,2,9864,10064,0.8,0.16 P,0,9864,10064,A
Sprite,Foreground,Centre,"sb\glow.png",0,0 C,0,10074,,72,60,162 M,0,10074,10126,490,90,481.4648,121.9243 F,2,10074,10378,1,0 S,2,10074,10378,0.8,0.16 P,0,10074,10378,A M,0,10126,10178,481.4648,121.9243,456.768,143.5819
Sprite,Foreground,Centre,"sb\glow.png",282,140 C,0,10284,,167,73,177 F,2,10284,10484,1,0 S,2,10284,10484,0.8,0.16 P,0,10284,10484,A
Sprite,Foreground,Centre,"sb\glow.png",0,0 C,0,10494,,167,73,177 M,0,10494,10546,282,140,290.5352,108.0757 F,2,10494,10798,1,0 S,2,10494,10798,0.8,0.16 P,0,10494,10798,A M,0,10546,10598,290.5352,108.0757,315.2319,86.41811
Sprite,Foreground,Centre,"sb\glow.png",419,212 C,0,10704,,72,60,162 F,2,10704,10904,1,0 S,2,10704,10904,0.8,0.16 P,0,10704,10904,A
Sprite,Foreground,Centre,"sb\glow.png",0,0 C,0,10913,,72,60,162 M,0,10913,10965,419,212,411.7743,244.9674 F,2,10913,11217,1,0 S,2,10913,11217,0.8,0.16 P,0,10913,11217,A M,0,10965,11017,411.7743,244.9674,404.5485,277.9348
Sprite,Foreground,Centre,"sb\glow.png",0,0 C,0,11123,,167,73,177 M,0,11123,11175,258,393,265.0323,360.3218 F,2,11123,11637,1,0 S,2,11123,11637,0.8,0.16 P,0,11123,11637,A M,0,11175,11227,265.0323,360.3218,257.2819,327.8638 M,0,11227,11280,257.2819,327.8638,236.3039,301.9651 M,0,11280,11332,236.3039,301.9651,206.2243,287.6743 M,0,11332,11385,206.2243,287.6743,172.8453,287.3729 M,0,11385,11437,172.8453,287.3729,142.7511,301.9726
Sprite,Foreground,Centre,"sb\glow.png",0,0 C,0,11543,,167,73,177 M,0,11543,11595,86,361,98.36136,322.4326 F,2,11543,11952,1,0 S,2,11543,11952,0.8,0.16 P,0,11543,11952,A M,0,11595,11647,98.36136,322.4326,110.7227,283.8651 M,0,11647,11700,110.7227,283.8651,92.31769,248.0936 M,0,11700,11752,92.31769,248.0936,73.20668,212.3862
Sprite,Foreground,Centre,"sb\glow.png",0,0 C,0,11857,,72,60,162 M,0,11857,11909,237,84,214.9846,117.3128 F,2,11857,12266,1,0 S,2,11857,12266,0.8,0.16 P,0,11857,12266,A M,0,11909,11961,214.9846,117.3128,179.5387,135.4533 M,0,11961,12014,179.5387,135.4533,139.7723,133.4221 M,0,12014,12066,139.7723,133.4221,106.0462,112.0462
Sprite,Foreground,Centre,"sb\glow.png",254,70 C,0,12172,,72,60,162 F,2,12172,12372,1,0 S,2,12172,12372,0.8,0.16 P,0,12172,12372,A
Sprite,Foreground,Centre,"sb\glow.png",0,0 C,0,12382,,167,73,177 M,0,12382,12434,417,299,423.496,259.0244 F,2,12382,12686,1,0 S,2,12382,12686,0.8,0.16 P,0,12382,12686,A M,0,12434,12486,423.496,259.0244,429.9921,219.0487
Sprite,Foreground,Centre,"sb\glow.png",339,93 C,0,12592,,167,73,177 F,2,12592,12792,1,0 S,2,12592,12792,0.8,0.16 P,0,12592,12792,A
Sprite,Foreground,Centre,"sb\glow.png",326,103 C,0,12697,,167,73,177 F,2,12697,12897,1,0 S,2,12697,12897,0.8,0.16 P,0,12697,12897,A
Sprite,Foreground,Centre,"sb\glow.png",0,0 C,0,12801,,167,73,177 M,0,12801,12853,313,116,342.7403,142.8624 F,2,12801,13105,1,0 S,2,12801,13105,0.8,0.16 P,0,12801,13105,A M,0,12853,12905,342.7403,142.8624,381.6692,152.3631
Sprite,Foreground,Centre,"sb\glow.png",0,0 C,0,13011,,167,73,177 M,0,13011,13063,540,77,500.024,76.18159 F,2,13011,13315,1,0 S,2,13011,13315,0.8,0.16 P,0,13011,13315,A M,0,13063,13115,500.024,76.18159,464.1661,93.86853
Sprite,Foreground,Centre,"sb\glow.png",0,0 C,0,13221,,72,60,162 M,0,13221,13273,334,250,313.334,273.1747 F,2,13221,13735,1,0 S,2,13221,13735,0.8,0.16 P,0,13221,13735,A M,0,13273,13325,313.334,273.1747,284.4506,284.2529 M,0,13325,13378,284.4506,284.2529,253.7275,280.3381 M,0,13378,13430,253.7275,280.3381,228.4722,262.3159 M,0,13430,13483,228.4722,262.3159,214.7258,234.4199 M,0,13483,13535,214.7258,234.4199,216.412,203.4333
Sprite,Foreground,Centre,"sb\glow.png",265,134 C,0,13641,,167,73,177 F,2,13641,13841,1,0 S,2,13641,13841,0.8,0.16 P,0,13641,13841,A
Sprite,Foreground,Centre,"sb\glow.png",248,118 C,0,13746,,167,73,177 F,2,13746,13946,1,0 S,2,13746,13946,0.8,0.16 P,0,13746,13946,A
Sprite,Foreground,Centre,"sb\glow.png",194,87 C,0,13850,,167,73,177 F,2,13850,14050,1,0 S,2,13850,14050,0.8,0.16 P,0,13850,14050,A
Sprite,Foreground,Centre,"sb\glow.png",117,111 C,0,13955,,167,73,177 F,2,13955,14155,1,0 S,2,13955,14155,0.8,0.16 P,0,13955,14155,A
Sprite,Foreground,Centre,"sb\glow.png",0,0 C,0,14060,,167,73,177 M,0,14060,14112,77,204,120.7123,200.5202 F,2,14060,14469,1,0 S,2,14060,14469,0.8,0.16 P,0,14060,14469,A M,0,14112,14164,120.7123,200.5202,155.6242,226.7831 M,0,14164,14217,155.6242,226.7831,164.4246,269.5521 M,0,14217,14269,164.4246,269.5521,142.4925,307.5582
Sprite,Foreground,Centre,"sb\glow.png",0,0 C,0,14375,,72,60,162 M,0,14375,14427,91,372,73.27364,330.6385 F,2,14375,14679,1,0 S,2,14375,14679,0.8,0.16 P,0,14375,14679,A M,0,14427,14479,73.27364,330.6385,91,372
Sprite,Foreground,Centre,"sb\glow.png",156,411 C,0,14585,,72,60,162 F,2,14585,14785,1,0 S,2,14585,14785,0.8,0.16 P,0,14585,14785,A
Sprite,Foreground,Centre,"sb\glow.png",231,399 C,0,14690,,72,60,162 F,2,14690,14890,1,0 S,2,14690,14890,0.8,0.16 P,0,14690,14890,A
Sprite,Foreground,Centre,"sb\glow.png",275,336 C,0,14795,,72,60,162 F,2,14795,14995,1,0 S,2,14795,14995,0.8,0.16 P,0,14795,14995,A
Sprite,Foreground,Centre,"sb\glow.png",0,0 C,0,55179,,167,73,177 M,0,55179,55231,236,141,200.8609,169.1113 F,2,55179,55588,1,0 S,2,55179,55588,0.8,0.16 P,0,55179,55588,A M,0,55231,55283,200.8609,169.1113,160.5189,175.9909 M,0,55283,55336,160.5189,175.9909,116.364,167.3109 M,0,55336,55388,116.364,167.3109,72.20908,158.6308
Sprite,Foreground,Centre,"sb\glow.png",0,0 C,0,55494,,167,73,177 M,0,55494,55546,232,124,271.8332,143.2773 F,2,55494,55903,1,0 S,2,55494,55903,0.8,0.16 P,0,55494,55903,A M,0,55546,55598,271.8332,143.2773,294.4181,181.2091 M,0,55598,55651,294.4181,181.2091,292.4413,225.2962 M,0,55651,55703,292.4413,225.2962,266.1405,260.7591
Sprite,Foreground,Centre,"sb\glow.png",132,390 C,0,55808,,72,60,162 F,2,55808,56008,1,0 S,2,55808,56008,0.8,0.16 P,0,55808,56008,A
Sprite,Foreground,Centre,"sb\glow.png",68,341 C,0,55913,,72,60,162 F,2,55913,56113,1,0 S,2,55913,56113,0.8,0.16 P,0,55913,56113,A
Sprite,Foreground,Centre,"sb\glow.png",0,0 C,0,56018,,72,60,162 M,0,56018,56070,141,308,178.5808,332.6967 F,2,56018,56322,1,0 S,2,56018,56322,0.8,0.16 P,0,56018,56322,A M,0,56070,56122,178.5808,332.6967,218.8283,352.7464
Sprite,Foreground,Centre,"sb\glow.png",0,0 C,0,58536,,167,73,177 M,0,58536,58588,126,191,132.7991,234.6061 F,2,58536,58945,1,0 S,2,58536,58945,0.8,0.16 P,0,58536,58945,A M,0,58588,58640,132.7991,234.6061,163.5774,266.2412 M,0,58640,58693,163.5774,266.2412,207.1691,273.0033 M,0,58693,58745,207.1691,273.0033,246,254
Sprite,Foreground,Centre,"sb\glow.png",0,0 C,0,58850,,167,73,177 M,0,58850,58902,109,172,102.2039,216.4838 F,2,58850,59259,1,0 S,2,58850,59259,0.8,0.16 P,0,58850,59259,A M,0,58902,58954,102.2039,216.4838,102.7155,260.5042 M,0,58954,59007,102.7155,260.5042,101.9999,304.8011 M,0,59007,59059,101.9999,304.8011,96.55241,349.4702
Sprite,Foreground,Centre,"sb\glow.png",211,420 C,0,59165,,72,60,162 F,2,59165,59365,1,0 S,2,59165,59365,0.8,0.16 P,0,59165,59365,A
Sprite,Foreground,Centre,"sb\glow.png",286,391 C,0,59270,,72,60,162 F,2,59270,59470,1,0 S,2,59270,59470,0.8,0.16 P,0,59270,59470,A
Sprite,Foreground,Centre,"sb\glow.png",0,0 C,0,59375,,72,60,162 M,0,59375,59427,224,341,231.8786,296.7258 F,2,59375,59679,1,0 S,2,59375,59679,0.8,0.16 P,0,59375,59679,A M,0,59427,59479,231.8786,296.7258,244.9495,253.702
Sprite,Foreground,Centre,"sb\glow.png",0,0 C,0,61892,,167,73,177 M,0,61892,61944,433,276,470.1802,301.3502 F,2,61892,62301,1,0 S,2,61892,62301,0.8,0.16 P,0,61892,62301,A M,0,61944,61996,470.1802,301.3502,469.9174,269.9431 M,0,61996,62049,469.9174,269.9431,470.3244,226.5996 M,0,62049,62101,470.3244,226.5996,460.3873,182.7105
Sprite,Foreground,Centre,"sb\glow.png",0,0 C,0,62207,,167,73,177 M,0,62207,62259,575,299,571.8173,343.3327 F,2,62207,62616,1,0 S,2,62207,62616,0.8,0.16 P,0,62207,62616,A M,0,62259,62311,571.8173,343.3327,547.6342,380.5279 M,0,62311,62364,547.6342,380.5279,508.5642,401.5888 M,0,62364,62416,508.5642,401.5888,464.1047,400.8305
Sprite,Foreground,Centre,"sb\glow.png",250,356 C,0,62522,,72,60,162 F,2,62522,62722,1,0 S,2,62522,62722,0.8,0.16 P,0,62522,62722,A
Sprite,Foreground,Centre,"sb\glow.png",311,409 C,0,62627,,72,60,162 F,2,62627,62827,1,0 S,2,62627,62827,0.8,0.16 P,0,62627,62827,A
Sprite,Foreground,Centre,"sb\glow.png",0,0 C,0,62732,,72,60,162 M,0,62732,62784,334,332,316.7344,290.6398 F,2,62732,63036,1,0 S,2,62732,63036,0.8,0.16 P,0,62732,63036,A M,0,62784,62836,316.7344,290.6398,288.2893,256.0363
Sprite,Foreground,Centre,"sb\glow.png",0,0 C,0,63571,,72,60,162 M,0,63571,63623,95,405,79.54073,370.0132 F,2,63571,63823,1,0 S,2,63571,63823,0.8,0.16 P,0,63571,63823,A
Sprite,Foreground,Centre,"sb\glow.png",0,0 C,0,63990,,167,73,177 M,0,63990,64042,95,405,79.54073,370.0132 F,2,63990,64242,1,0 S,2,63990,64242,0.8,0.16 P,0,63990,64242,A
Sprite,Foreground,Centre,"sb\glow.png",0,0 C,0,64410,,72,60,162 M,0,64410,64462,95,405,79.54073,370.0132 F,2,64410,64662,1,0 S,2,64410,64662,0.8,0.16 P,0,64410,64662,A
Sprite,Foreground,Centre,"sb\glow.png",0,0 C,0,67767,,72,60,162 M,0,67767,67819,190,227,161.0399,244.2518 F,2,67767,68701,1,0 S,2,67767,68701,0.8,0.16 P,0,67767,68701,A M,0,67819,67871,161.0399,244.2518,129.4574,256.0074 M,0,67871,67924,129.4574,256.0074,96.21529,261.5374 M,0,67924,67976,96.21529,261.5374,103.5144,261.9783 M,0,67976,68029,103.5144,261.9783,136.8287,267.0204 M,0,68029,68081,136.8287,267.0204,168.3467,278.9035 M,0,68081,68134,168.3467,278.9035,196.4465,297.443 M,0,68134,68186,196.4465,297.443,217.8891,323.3127 M,0,68186,68239,217.8891,323.3127,229.09,354.9273 M,0,68239,68291,229.09,354.9273,225.1183,388.0067 M,0,68291,68343,225.1183,388.0067,201.7218,411.1947 M,0,68343,68396,201.7218,411.1947,168.6105,413.393 M,0,68396,68448,168.6105,413.393,139.3521,397.3526 M,0,68448,68501,139.3521,397.3526,121.668,369.019
Sprite,Foreground,Centre,"sb\glow.png",465,354 C,0,81403,,72,60,162 F,2,81403,81603,1,0 S,2,81403,81603,0.8,0.16 P,0,81403,81603,A
Sprite,Foreground,Centre,"sb\glow.png",425,290 C,0,81508,,72,60,162 F,2,81508,81708,1,0 S,2,81508,81708,0.8,0.16 P,0,81508,81708,A
Sprite,Foreground,Centre,"sb\glow.png",457,226 C,0,81613,,72,60,162 F,2,81613,81813,1,0 S,2,81613,81813,0.8,0.16 P,0,81613,81813,A
Sprite,Foreground,Centre,"sb\glow.png",544,209 C,0,81718,,72,60,162 F,2,81718,81918,1,0 S,2,81718,81918,0.8,0.16 P,0,81718,81918,A
Sprite,Foreground,Centre,"sb\glow.png",576,126 C,0,81823,,72,60,162 F,2,81823,82023,1,0 S,2,81823,82023,0.8,0.16 P,0,81823,82023,A
Sprite,Foreground,Centre,"sb\glow.png",514,64 C,0,81928,,72,60,162 F,2,81928,82128,1,0 S,2,81928,82128,0.8,0.16 P,0,81928,82128,A
Sprite,Foreground,Centre,"sb\glow.png",433,83 C,0,82032,,167,73,177 F,2,82032,82232,1,0 S,2,82032,82232,0.8,0.16 P,0,82032,82232,A
Sprite,Foreground,Centre,"sb\glow.png",415,79 C,0,82137,,167,73,177 F,2,82137,82337,1,0 S,2,82137,82337,0.8,0.16 P,0,82137,82337,A
Sprite,Foreground,Centre,"sb\glow.png",393,74 C,0,82242,,167,73,177 F,2,82242,82442,1,0 S,2,82242,82442,0.8,0.16 P,0,82242,82442,A
Sprite,Foreground,Centre,"sb\glow.png",375,70 C,0,82347,,167,73,177 F,2,82347,82547,1,0 S,2,82347,82547,0.8,0.16 P,0,82347,82547,A
Sprite,Foreground,Centre,"sb\glow.png",424,173 C,0,94829,,72,60,162 F,2,94829,95029,1,0 S,2,94829,95029,0.8,0.16 P,0,94829,95029,A
Sprite,Foreground,Centre,"sb\glow.png",364,230 C,0,94933,,72,60,162 F,2,94933,95133,1,0 S,2,94933,95133,0.8,0.16 P,0,94933,95133,A
Sprite,Foreground,Centre,"sb\glow.png",281,238 C,0,95039,,72,60,162 F,2,95039,95239,1,0 S,2,95039,95239,0.8,0.16 P,0,95039,95239,A
Sprite,Foreground,Centre,"sb\glow.png",212,192 C,0,95143,,72,60,162 F,2,95143,95343,1,0 S,2,95143,95343,0.8,0.16 P,0,95143,95343,A
Sprite,Foreground,Centre,"sb\glow.png",132,215 C,0,95248,,72,60,162 F,2,95248,95448,1,0 S,2,95248,95448,0.8,0.16 P,0,95248,95448,A
Sprite,Foreground,Centre,"sb\glow.png",98,290 C,0,95353,,72,60,162 F,2,95353,95553,1,0 S,2,95353,95553,0.8,0.16 P,0,95353,95553,A
Sprite,Foreground,Centre,"sb\glow.png",0,0 C,0,108885,,72,60,162 M,0,108885,108937,89,413,87.40474,380.7469 F,2,108885,109189,1,0 S,2,108885,109189,0.8,0.16 P,0,108885,109189,A M,0,108937,108989,87.40474,380.7469,105.3009,407.1851
Sprite,Foreground,Centre,"sb\glow.png",0,0 C,0,110354,,167,73,177 M,0,110354,110406,89,413,87.40474,380.7469 F,2,110354,110658,1,0 S,2,110354,110658,0.8,0.16 P,0,110354,110658,A M,0,110406,110458,87.40474,380.7469,105.3009,407.1851
Sprite,Foreground,Centre,"sb\glow.png",0,0 C,0,110564,,167,73,177 M,0,110564,110616,284,219,285.5953,186.7469 F,2,110564,110868,1,0 S,2,110564,110868,0.8,0.16 P,0,110564,110868,A M,0,110616,110668,285.5953,186.7469,267.699,213.185
Sprite,Foreground,Centre,"sb\glow.png",0,0 C,0,112242,,72,60,162 M,0,112242,112294,79,75,77.4047,107.2531 F,2,112242,112546,1,0 S,2,112242,112546,0.8,0.16 P,0,112242,112546,A M,0,112294,112346,77.4047,107.2531,95.30095,80.815
Sprite,Foreground,Centre,"sb\glow.png",0,0 C,0,113711,,167,73,177 M,0,113711,113763,79,75,77.4047,107.2531 F,2,113711,114015,1,0 S,2,113711,114015,0.8,0.16 P,0,113711,114015,A M,0,113763,113815,77.4047,107.2531,95.30095,80.815
Sprite,Foreground,Centre,"sb\glow.png",0,0 C,0,113920,,167,73,177 M,0,113920,113972,112,298,113.5953,265.7469 F,2,113920,114224,1,0 S,2,113920,114224,0.8,0.16 P,0,113920,114224,A M,0,113972,114024,113.5953,265.7469,95.69904,292.185
Sprite,Foreground,Centre,"sb\glow.png",334,165 C,0,114550,,72,60,162 F,2,114550,114750,1,0 S,2,114550,114750,0.8,0.16 P,0,114550,114750,A
Sprite,Foreground,Centre,"sb\glow.png",356,150 C,0,114655,,72,60,162 F,2,114655,114855,1,0 S,2,114655,114855,0.8,0.16 P,0,114655,114855,A
Sprite,Foreground,Centre,"sb\glow.png",0,0 C,0,114760,,72,60,162 M,0,114760,114812,391,150,394.8969,185.3856 F,2,114760,115169,1,0 S,2,114760,115169,0.8,0.16 P,0,114760,115169,A M,0,114812,114864,394.8969,185.3856,414.5196,214.9992 M,0,114864,114917,414.5196,214.9992,445.4803,232.317 M,0,114917,114969,445.4803,232.317,481,234
Sprite,Foreground,Centre,"sb\glow.png",568,179 C,0,115074,,72,60,162 F,2,115074,115274,1,0 S,2,115074,115274,0.8,0.16 P,0,115074,115274,A
Sprite,Foreground,Centre,"sb\glow.png",0,0 C,0,115179,,72,60,162 M,0,115179,115231,554,170,559.2758,205.6113 F,2,115179,115483,1,0 S,2,115179,115483,0.8,0.16 P,0,115179,115483,A M,0,115231,115283,559.2758,205.6113,564.5515,241.2227
Sprite,Foreground,Centre,"sb\glow.png",495,357 C,0,115389,,167,73,177 F,2,115389,115589,1,0 S,2,115389,115589,0.8,0.16 P,0,115389,115589,A
Sprite,Foreground,Centre,"sb\glow.png",486,353 C,0,115494,,167,73,177 F,2,115494,115694,1,0 S,2,115494,115694,0.8,0.16 P,0,115494,115694,A
Sprite,Foreground,Centre,"sb\glow.png",0,0 C,0,134060,,72,60,162 M,0,134060,134112,297,91,296.4219,117.8359 F,2,134060,135938,1,0 S,2,134060,135938,0.8,0.16 P,0,134060,135938,A M,0,134112,134164,296.4219,117.8359,286.9279,143.0013 M,0,134164,134217,286.9279,143.0013,270.9846,164.7067 M,0,134217,134269,270.9846,164.7067,250.5138,182.2321 M,0,134269,134322,250.5138,182.2321,226.8651,195.1651 M,0,134322,134374,226.8651,195.1651,201.1177,203.1438 M,0,134374,134427,201.1177,203.1438,174.2997,205.8551 M,0,134427,134479,174.2997,205.8551,147.4838,203.1326 M,0,134479,134532,147.4838,203.1326,125.6742,197.7504 M,0,134532,134584,125.6742,197.7504,146.0152,215.4522 M,0,134584,134636,146.0152,215.4522,169.3836,228.8768 M,0,134636,134689,169.3836,228.8768,195.0966,236.9305 M,0,134689,134741,195.0966,236.9305,221.9472,239.2313 M,0,134741,134794,221.9472,239.2313,248.7055,235.9827 M,0,134794,134846,248.7055,235.9827,274.2986,227.5206 M,0,134846,134899,274.2986,227.5206,297.6379,214.0469 M,0,134899,134951,297.6379,214.0469,317.3661,195.7084 M,0,134951,135004,317.3661,195.7084,331.8193,172.9988 M,0,135004,135056,331.8193,172.9988,332.7419,170.2806 M,0,135056,135108,332.7419,170.2806,325.4576,196.2589 M,0,135108,135161,325.4576,196.2589,322.3164,223.0366 M,0,135161,135213,322.3164,223.0366,325.2834,249.7859 M,0,135213,135266,325.2834,249.7859,337.0874,273.8464 M,0,135266,135318,337.0874,273.8464,358.7359,289.4048 M,0,135318,135371,358.7359,289.4048,385.3301,290.9635 M,0,135371,135423,385.3301,290.9635,408.6454,278.0764 M,0,135423,135476,408.6454,278.0764,421.062,254.5453 M,0,135476,135528,421.062,254.5453,418.341,228.0589 M,0,135528,135580,418.341,228.0589,401.6085,207.3757 M,0,135580,135633,401.6085,207.3757,375.908,202.3628 M,0,135633,135685,375.908,202.3628,360.0629,222.0277 M,0,135685,135738,360.0629,222.0277,371.0795,245.652
Sprite,Foreground,Centre,"sb\glow.png",228,198 C,0,163850,,167,73,177 F,2,163850,164050,1,0 S,2,163850,164050,0.8,0.16 P,0,163850,164050,A
Sprite,Foreground,Centre,"sb\glow.png",132,209 C,0,163954,,167,73,177 F,2,163954,164154,1,0 S,2,163954,164154,0.8,0.16 P,0,163954,164154,A
Sprite,Foreground,Centre,"sb\glow.png",102,301 C,0,164059,,167,73,177 F,2,164059,164259,1,0 S,2,164059,164259,0.8,0.16 P,0,164059,164259,A
Sprite,Foreground,Centre,"sb\glow.png",180,358 C,0,164164,,167,73,177 F,2,164164,164364,1,0 S,2,164164,164364,0.8,0.16 P,0,164164,164364,A
Sprite,Foreground,Centre,"sb\glow.png",271,298 C,0,176857,,217,145,188 F,2,176857,177057,1,0 S,2,176857,177057,0.8,0.16 P,0,176857,177057,A
Sprite,Foreground,Centre,"sb\glow.png",178,340 C,0,176961,,217,145,188 F,2,176961,177161,1,0 S,2,176961,177161,0.8,0.16 P,0,176961,177161,A
Sprite,Foreground,Centre,"sb\glow.png",87,295 C,0,177066,,217,145,188 F,2,177066,177266,1,0 S,2,177066,177266,0.8,0.16 P,0,177066,177266,A
Sprite,Foreground,Centre,"sb\glow.png",64,193 C,0,177171,,217,145,188 F,2,177171,177371,1,0 S,2,177171,177371,0.8,0.16 P,0,177171,177371,A
Sprite,Foreground,Centre,"sb\glow.png",113,112 C,0,177276,,249,211,166 F,2,177276,177476,1,0 S,2,177276,177476,0.8,0.16 P,0,177276,177476,A
Sprite,Foreground,Centre,"sb\glow.png",206,203 C,0,177382,,249,211,166 F,2,177382,177582,1,0 S,2,177382,177582,0.8,0.16 P,0,177382,177582,A
Sprite,Foreground,Centre,"sb\glow.png",321,143 C,0,177487,,249,211,166 F,2,177487,177687,1,0 S,2,177487,177687,0.8,0.16 P,0,177487,177687,A
Sprite,Foreground,Centre,"sb\glow.png",405,241 C,0,177592,,249,211,166 F,2,177592,177792,1,0 S,2,177592,177792,0.8,0.16 P,0,177592,177792,A
Sprite,Foreground,Centre,"sb\glow.png",495,176 C,0,177697,,217,145,188 F,2,177697,177897,1,0 S,2,177697,177897,0.8,0.16 P,0,177697,177897,A
Sprite,Foreground,Centre,"sb\glow.png",521,183 C,0,177801,,217,145,188 F,2,177801,178001,1,0 S,2,177801,178001,0.8,0.16 P,0,177801,178001,A
Sprite,Foreground,Centre,"sb\glow.png",547,192 C,0,177906,,217,145,188 F,2,177906,178106,1,0 S,2,177906,178106,0.8,0.16 P,0,177906,178106,A
Sprite,Foreground,Centre,"sb\glow.png",573,200 C,0,178011,,217,145,188 F,2,178011,178211,1,0 S,2,178011,178211,0.8,0.16 P,0,178011,178211,A
Sprite,Foreground,Centre,"sb\glow.png",362,187 C,0,197836,,217,145,188 F,2,197836,198036,1,0 S,2,197836,198036,0.8,0.16 P,0,197836,198036,A
Sprite,Foreground,Centre,"sb\glow.png",333,174 C,0,197941,,217,145,188 F,2,197941,198141,1,0 S,2,197941,198141,0.8,0.16 P,0,197941,198141,A
Sprite,Foreground,Centre,"sb\glow.png",260,273 C,0,198046,,249,211,166 F,2,198046,198246,1,0 S,2,198046,198246,0.8,0.16 P,0,198046,198246,A
Sprite,Foreground,Centre,"sb\glow.png",289,260 C,0,198151,,249,211,166 F,2,198151,198351,1,0 S,2,198151,198351,0.8,0.16 P,0,198151,198351,A
Sprite,Foreground,Centre,"sb\glow.png",241,140 C,0,198256,,217,145,188 F,2,198256,198456,1,0 S,2,198256,198456,0.8,0.16 P,0,198256,198456,A
Sprite,Foreground,Centre,"sb\glow.png",247,148 C,0,198361,,217,145,188 F,2,198361,198561,1,0 S,2,198361,198561,0.8,0.16 P,0,198361,198561,A
Sprite,Foreground,Centre,"sb\glow.png",177,241 C,0,198466,,249,211,166 F,2,198466,198666,1,0 S,2,198466,198666,0.8,0.16 P,0,198466,198666,A
Sprite,Foreground,Centre,"sb\glow.png",182,234 C,0,198571,,249,211,166 F,2,198571,198771,1,0 S,2,198571,198771,0.8,0.16 P,0,198571,198771,A
Sprite,Foreground,Centre,"sb\glow.png",72,141 C,0,198676,,217,145,188 F,2,198676,198876,1,0 S,2,198676,198876,0.8,0.16 P,0,198676,198876,A
Sprite,Foreground,Centre,"sb\glow.png",95,213 C,0,198781,,217,145,188 F,2,198781,198981,1,0 S,2,198781,198981,0.8,0.16 P,0,198781,198981,A
Sprite,Foreground,Centre,"sb\glow.png",121,283 C,0,198885,,217,145,188 F,2,198885,199085,1,0 S,2,198885,199085,0.8,0.16 P,0,198885,199085,A
Sprite,Foreground,Centre,"sb\glow.png",149,352 C,0,198990,,217,145,188 F,2,198990,199190,1,0 S,2,198990,199190,0.8,0.16 P,0,198990,199190,A
Sprite,Foreground,Centre,"sb\glow.png",189,414 C,0,199095,,249,211,166 F,2,199095,199295,1,0 S,2,199095,199295,0.8,0.16 P,0,199095,199295,A
Sprite,Foreground,Centre,"sb\glow.png",201,404 C,0,199200,,249,211,166 F,2,199200,199400,1,0 S,2,199200,199400,0.8,0.16 P,0,199200,199400,A
Sprite,Foreground,Centre,"sb\glow.png",215,417 C,0,199305,,249,211,166 F,2,199305,199505,1,0 S,2,199305,199505,0.8,0.16 P,0,199305,199505,A
Sprite,Foreground,Centre,"sb\glow.png",200,430 C,0,199410,,249,211,166 F,2,199410,199610,1,0 S,2,199410,199610,0.8,0.16 P,0,199410,199610,A
Sprite,Foreground,Centre,"sb\glow.png",297,349 C,0,199515,,217,145,188 F,2,199515,199715,1,0 S,2,199515,199715,0.8,0.16 P,0,199515,199715,A
Sprite,Foreground,Centre,"sb\glow.png",313,381 C,0,199620,,217,145,188 F,2,199620,199820,1,0 S,2,199620,199820,0.8,0.16 P,0,199620,199820,A
Sprite,Foreground,Centre,"sb\glow.png",401,419 C,0,199725,,249,211,166 F,2,199725,199925,1,0 S,2,199725,199925,0.8,0.16 P,0,199725,199925,A
Sprite,Foreground,Centre,"sb\glow.png",427,387 C,0,199830,,249,211,166 F,2,199830,200030,1,0 S,2,199830,200030,0.8,0.16 P,0,199830,200030,A
Sprite,Foreground,Centre,"sb\glow.png",0,0 C,0,199934,,217,145,188 M,0,199934,199986,494,312,480.9743,259.8212 F,2,199934,200238,1,0 S,2,199934,200238,0.8,0.16 P,0,199934,200238,A M,0,199986,200038,480.9743,259.8212,453.4747,213.601
Sprite,Foreground,Centre,"sb\glow.png",299,176 C,0,200144,,217,145,188 F,2,200144,200344,1,0 S,2,200144,200344,0.8,0.16 P,0,200144,200344,A
Sprite,Foreground,Centre,"sb\glow.png",275,195 C,0,200249,,217,145,188 F,2,200249,200449,1,0 S,2,200249,200449,0.8,0.16 P,0,200249,200449,A
Sprite,Foreground,Centre,"sb\glow.png",337,104 C,0,200354,,249,211,166 F,2,200354,200554,1,0 S,2,200354,200554,0.8,0.16 P,0,200354,200554,A
Sprite,Foreground,Centre,"sb\glow.png",282,104 C,0,200459,,249,211,166 F,2,200459,200659,1,0 S,2,200459,200659,0.8,0.16 P,0,200459,200659,A
Sprite,Foreground,Centre,"sb\glow.png",444,83 C,0,200564,,217,145,188 F,2,200564,200764,1,0 S,2,200564,200764,0.8,0.16 P,0,200564,200764,A
Sprite,Foreground,Centre,"sb\glow.png",399,63 C,0,200669,,217,145,188 F,2,200669,200869,1,0 S,2,200669,200869,0.8,0.16 P,0,200669,200869,A
Sprite,Foreground,Centre,"sb\glow.png",512,131 C,0,200774,,249,211,166 F,2,200774,200974,1,0 S,2,200774,200974,0.8,0.16 P,0,200774,200974,A
Sprite,Foreground,Centre,"sb\glow.png",521,140 C,0,200878,,249,211,166 F,2,200878,201078,1,0 S,2,200878,201078,0.8,0.16 P,0,200878,201078,A
Sprite,Foreground,Centre,"sb\glow.png",428,188 C,0,200983,,217,145,188 F,2,200983,201183,1,0 S,2,200983,201183,0.8,0.16 P,0,200983,201183,A
Sprite,Foreground,Centre,"sb\glow.png",422,195 C,0,201087,,217,145,188 F,2,201087,201287,1,0 S,2,201087,201287,0.8,0.16 P,0,201087,201287,A
Sprite,Foreground,Centre,"sb\glow.png",0,0 C,0,201193,,249,211,166 M,0,201193,201245,504,271,453.3126,289.5905 F,2,201193,201497,1,0 S,2,201193,201497,0.8,0.16 P,0,201193,201497,A M,0,201245,201297,453.3126,289.5905,401.5132,304.8057
Sprite,Foreground,Centre,"sb\glow.png",199,229 C,0,201403,,249,211,166 F,2,201403,201603,1,0 S,2,201403,201603,0.8,0.16 P,0,201403,201603,A
Sprite,Foreground,Centre,"sb\glow.png",272,198 C,0,201508,,249,211,166 F,2,201508,201708,1,0 S,2,201508,201708,0.8,0.16 P,0,201508,201708,A
Sprite,Foreground,Centre,"sb\glow.png",0,0 C,0,201613,,249,211,166 M,0,201613,201665,337,240,312.3184,287.9589 F,2,201613,201917,1,0 S,2,201613,201917,0.8,0.16 P,0,201613,201917,A M,0,201665,201717,312.3184,287.9589,281,331
Sprite,Foreground,Centre,"sb\glow.png",0,0 C,0,201822,,217,145,188 M,0,201822,201874,152,57,184.5874,100.0047 F,2,201822,202126,1,0 S,2,201822,202126,0.8,0.16 P,0,201822,202126,A M,0,201874,201926,184.5874,100.0047,211,146
Sprite,Foreground,Centre,"sb\glow.png",0,0 C,0,202032,,217,145,188 M,0,202032,202084,145,326,112.1865,283.1687 F,2,202032,202336,1,0 S,2,202032,202336,0.8,0.16 P,0,202032,202336,A M,0,202084,202136,112.1865,283.1687,85.21832,236.435
Sprite,Foreground,Centre,"sb\glow.png",251,351 C,0,202242,,249,211,166 F,2,202242,202442,1,0 S,2,202242,202442,0.8,0.16 P,0,202242,202442,A
Sprite,Foreground,Centre,"sb\glow.png",268,330 C,0,202347,,249,211,166 F,2,202347,202547,1,0 S,2,202347,202547,0.8,0.16 P,0,202347,202547,A
Sprite,Foreground,Centre,"sb\glow.png",329,268 C,0,202452,,217,145,188 F,2,202452,202652,1,0 S,2,202452,202652,0.8,0.16 P,0,202452,202652,A
Sprite,Foreground,Centre,"sb\glow.png",314,226 C,0,202557,,217,145,188 F,2,202557,202757,1,0 S,2,202557,202757,0.8,0.16 P,0,202557,202757,A
Sprite,Foreground,Centre,"sb\glow.png",367,149 C,0,202662,,249,211,166 F,2,202662,202862,1,0 S,2,202662,202862,0.8,0.16 P,0,202662,202862,A
Sprite,Foreground,Centre,"sb\glow.png",408,171 C,0,202767,,249,211,166 F,2,202767,202967,1,0 S,2,202767,202967,0.8,0.16 P,0,202767,202967,A
Sprite,Foreground,Centre,"sb\glow.png",476,131 C,0,202871,,217,145,188 F,2,202871,203071,1,0 S,2,202871,203071,0.8,0.16 P,0,202871,203071,A
Sprite,Foreground,Centre,"sb\glow.png",554,168 C,0,202976,,217,145,188 F,2,202976,203176,1,0 S,2,202976,203176,0.8,0.16 P,0,202976,203176,A
Sprite,Foreground,Centre,"sb\glow.png",569,252 C,0,203081,,217,145,188 F,2,203081,203281,1,0 S,2,203081,203281,0.8,0.16 P,0,203081,203281,A
Sprite,Foreground,Centre,"sb\glow.png",501,307 C,0,203186,,217,145,188 F,2,203186,203386,1,0 S,2,203186,203386,0.8,0.16 P,0,203186,203386,A
Sprite,Foreground,Centre,"sb\glow.png",412,244 C,0,203291,,249,211,166 F,2,203291,203491,1,0 S,2,203291,203491,0.8,0.16 P,0,203291,203491,A
Sprite,Foreground,Centre,"sb\glow.png",318,286 C,0,203395,,249,211,166 F,2,203395,203595,1,0 S,2,203395,203595,0.8,0.16 P,0,203395,203595,A
Sprite,Foreground,Centre,"sb\glow.png",236,223 C,0,203500,,249,211,166 F,2,203500,203700,1,0 S,2,203500,203700,0.8,0.16 P,0,203500,203700,A
Sprite,Foreground,Centre,"sb\glow.png",141,265 C,0,203605,,249,211,166 F,2,203605,203805,1,0 S,2,203605,203805,0.8,0.16 P,0,203605,203805,A
Sprite,Foreground,Centre,"sb\glow.png",68,200 C,0,203711,,217,145,188 F,2,203711,203911,1,0 S,2,203711,203911,0.8,0.16 P,0,203711,203911,A
Sprite,Foreground,Centre,"sb\glow.png",0,0 C,0,137417,,72,60,162 M,0,137417,137469,208,309,196.135,280.2233 F,2,137417,138246,1,0 S,2,137417,138246,0.8,0.16 P,0,137417,138246,A M,0,137469,137521,196.135,280.2233,199.0224,249.0651 M,0,137521,137574,199.0224,249.0651,211.0556,220.021 M,0,137574,137626,211.0556,220.021,231.5836,196.7926 M,0,137626,137679,231.5836,196.7926,253.0486,173.8015 M,0,137679,137731,253.0486,173.8015,268.929,146.6964 M,0,137731,137784,268.929,146.6964,276.6921,116.2881 M,0,137784,137836,276.6921,116.2881,268.1392,88.24728 M,0,137836,137889,268.1392,88.24728,241.5913,71.73049 M,0,137889,137941,241.5913,71.73049,210.5526,68.32993 M,0,137941,137993,210.5526,68.32993,180.9828,78.50295 M,0,137993,138046,180.9828,78.50295,157.6225,99.35175
Sprite,Foreground,Centre,"sb\glow.png",0,0 C,0,138256,,167,73,177 M,0,138256,138308,295,276,323.1549,262.1498 F,2,138256,139085,1,0 S,2,138256,139085,0.8,0.16 P,0,138256,139085,A M,0,138308,138360,323.1549,262.1498,354.3027,259.7905 M,0,138360,138413,354.3027,259.7905,383.5357,270.947 M,0,138413,138465,383.5357,270.947,402.87,295.0157 M,0,138465,138518,402.87,295.0157,427.2822,314.5688 M,0,138518,138570,427.2822,314.5688,457.5813,322.1512 M,0,138570,138623,457.5813,322.1512,487.9746,315.1749 M,0,138623,138675,487.9746,315.1749,511.2743,294.4772 M,0,138675,138728,511.2743,294.4772,521.7981,265.1282 M,0,138728,138780,521.7981,265.1282,517.0566,234.3237 M,0,138780,138832,517.0566,234.3237,497.9546,209.6959 M,0,138832,138885,497.9546,209.6959,469.7642,196.1483
Sprite,Foreground,Centre,"sb\glow.png",0,0 C,0,139095,,72,60,162 M,0,139095,139147,372,76,356.2593,103.232 F,2,139095,139924,1,0 S,2,139095,139924,0.8,0.16 P,0,139095,139924,A M,0,139147,139199,356.2593,103.232,335.4102,126.766 M,0,139199,139252,335.4102,126.766,310.0405,145.3381 M,0,139252,139304,310.0405,145.3381,281.4697,158.4942 M,0,139304,139357,281.4697,158.4942,254.341,152.6906 M,0,139357,139409,254.341,152.6906,235.5759,127.5859 M,0,139409,139462,235.5759,127.5859,226.4347,97.59068 M,0,139462,139514,226.4347,97.59068,226.1138,66.16725 M,0,139514,139567,226.1138,66.16725,213.1913,78.92054 M,0,139567,139619,213.1913,78.92054,189.4844,99.47903 M,0,139619,139671,189.4844,99.47903,160.7203,112.0442 M,0,139671,139724,160.7203,112.0442,129.6526,116.8284
Sprite,Foreground,Centre,"sb\glow.png",64,218 C,0,139934,,167,73,177 F,2,139934,140134,1,0 S,2,139934,140134,0.8,0.16 P,0,139934,140134,A
Sprite,Foreground,Centre,"sb\glow.png",89,293 C,0,140354,,167,73,177 F,2,140354,140554,1,0 S,2,140354,140554,0.8,0.16 P,0,140354,140554,A
Sprite,Foreground,Centre,"sb\glow.png",0,0 C,0,140774,,72,60,162 M,0,140774,140826,121,364,139.8634,338.8445 F,2,140774,141603,1,0 S,2,140774,141603,0.8,0.16 P,0,140774,141603,A M,0,140826,140878,139.8634,338.8445,164.2785,319.1104 M,0,140878,140931,164.2785,319.1104,193.4892,307.6798 M,0,140931,140983,193.4892,307.6798,224.8054,305.3237 M,0,140983,141036,224.8054,305.3237,238.5173,328.5689 M,0,141036,141088,238.5173,328.5689,254.2182,355.679 M,0,141088,141141,254.2182,355.679,278.5233,375.4705 M,0,141141,141193,278.5233,375.4705,307.6133,387.3488 M,0,141193,141246,307.6133,387.3488,329.7582,366.7766 M,0,141246,141298,329.7582,366.7766,355.2733,348.4407 M,0,141298,141350,355.2733,348.4407,384.9147,338.2138 M,0,141350,141403,384.9147,338.2138,416.266,338.4904
Sprite,Foreground,Centre,"sb\glow.png",0,0 C,0,141613,,167,73,177 M,0,141613,141665,576,280,568.8505,310.4141 F,2,141613,142442,1,0 S,2,141613,142442,0.8,0.16 P,0,141613,142442,A M,0,141665,141717,568.8505,310.4141,551.3448,336.4801 M,0,141717,141770,551.3448,336.4801,534.5732,312.9344 M,0,141770,141822,534.5732,312.9344,513.2698,289.8128 M,0,141822,141875,513.2698,289.8128,487.1226,272.4122 M,0,141875,141927,487.1226,272.4122,457.161,263.0785 M,0,141927,141980,457.161,263.0785,443.0735,266.5527 M,0,141980,142032,443.0735,266.5527,466.3416,287.5909 M,0,142032,142085,466.3416,287.5909,481.6105,314.9594 M,0,142085,142137,481.6105,314.9594,485.6557,345.9821 M,0,142137,142189,485.6557,345.9821,477.1971,376.1166 M,0,142189,142242,477.1971,376.1166,458.6461,401.4026
Sprite,Foreground,Centre,"sb\glow.png",0,0 C,0,142452,,72,60,162 M,0,142452,142504,315,211,284.9556,219.5784 F,2,142452,143281,1,0 S,2,142452,143281,0.8,0.16 P,0,142452,143281,A M,0,142504,142556,284.9556,219.5784,260.2573,238.9151 M,0,142556,142609,260.2573,238.9151,250.2743,235.3796 M,0,142609,142661,250.2743,235.3796,259.0659,205.3183 M,0,142661,142714,259.0659,205.3183,278.4406,180.7374 M,0,142714,142766,278.4406,180.7374,305.6816,165.2972 M,0,142766,142819,305.6816,165.2972,336.6323,160.2428 M,0,142819,142871,336.6323,160.2428,367.7829,164.2958 M,0,142871,142924,367.7829,164.2958,357.3456,157.4019 M,0,142924,142976,357.3456,157.4019,332.572,138.1049 M,0,142976,143028,332.572,138.1049,314.48,112.4699 M,0,143028,143081,314.48,112.4699,304.5051,82.68979
Sprite,Foreground,Centre,"sb\glow.png",396,82 C,0,143291,,167,73,177 F,2,143291,143491,1,0 S,2,143291,143491,0.8,0.16 P,0,143291,143491,A
Sprite,Foreground,Centre,"sb\glow.png",486,135 C,0,143501,,167,73,177 F,2,143501,143701,1,0 S,2,143501,143701,0.8,0.16 P,0,143501,143701,A
Sprite,Foreground,Centre,"sb\glow.png",493,131 C,0,143606,,167,73,177 F,2,143606,143806,1,0 S,2,143606,143806,0.8,0.16 P,0,143606,143806,A
Sprite,Foreground,Centre,"sb\glow.png",484,127 C,0,143711,,167,73,177 F,2,143711,143911,1,0 S,2,143711,143911,0.8,0.16 P,0,143711,143911,A
Sprite,Foreground,Centre,"sb\glow.png",576,176 C,0,143920,,167,73,177 F,2,143920,144120,1,0 S,2,143920,144120,0.8,0.16 P,0,143920,144120,A
Sprite,Foreground,Centre,"sb\glow.png",0,0 C,0,144130,,72,60,162 M,0,144130,144182,377,167,394.759,198.1763 F,2,144130,144539,1,0 S,2,144130,144539,0.8,0.16 P,0,144130,144539,A M,0,144182,144234,394.759,198.1763,403.9113,232.8451 M,0,144234,144287,403.9113,232.8451,403.854,268.687 M,0,144287,144339,403.854,268.687,395,303
Sprite,Foreground,Centre,"sb\glow.png",180,410 C,0,144550,,72,60,162 F,2,144550,144750,1,0 S,2,144550,144750,0.8,0.16 P,0,144550,144750,A
Sprite,Foreground,Centre,"sb\glow.png",299,322 C,0,144760,,72,60,162 F,2,144760,144960,1,0 S,2,144760,144960,0.8,0.16 P,0,144760,144960,A
Sprite,Foreground,Centre,"sb\glow.png",0,0 C,0,144969,,72,60,162 M,0,144969,145021,165,413,172.0809,377.7033 F,2,144969,145378,1,0 S,2,144969,145378,0.8,0.16 P,0,144969,145378,A M,0,145021,145073,172.0809,377.7033,178.9253,342.36 M,0,145073,145126,178.9253,342.36,185.5336,306.9719 M,0,145126,145178,185.5336,306.9719,191.9045,271.5402
Sprite,Foreground,Centre,"sb\glow.png",82,81 C,0,145389,,167,73,177 F,2,145389,145589,1,0 S,2,145389,145589,0.8,0.16 P,0,145389,145589,A
Sprite,Foreground,Centre,"sb\glow.png",226,128 C,0,145599,,167,73,177 F,2,145599,145799,1,0 S,2,145599,145799,0.8,0.16 P,0,145599,145799,A
Sprite,Foreground,Centre,"sb\glow.png",0,0 C,0,145808,,167,73,177 M,0,145808,145860,87,244,96.70929,209.6227 F,2,145808,146217,1,0 S,2,145808,146217,0.8,0.16 P,0,145808,146217,A M,0,145860,145912,96.70929,209.6227,118.8577,181.6629 M,0,145912,145965,118.8577,181.6629,150.0253,164.3869 M,0,145965,146017,150.0253,164.3869,185,160
Sprite,Foreground,Centre,"sb\glow.png",277,207 C,0,146123,,167,73,177 F,2,146123,146323,1,0 S,2,146123,146323,0.8,0.16 P,0,146123,146323,A
Sprite,Foreground,Centre,"sb\glow.png",0,0 C,0,146228,,167,73,177 M,0,146228,146280,294,217,329.4063,212.1883 F,2,146228,146637,1,0 S,2,146228,146637,0.8,0.16 P,0,146228,146637,A M,0,146280,146332,329.4063,212.1883,360.3068,194.3471 M,0,146332,146385,360.3068,194.3471,382.1232,166.1545 M,0,146385,146437,382.1232,166.1545,392,132
Sprite,Foreground,Centre,"sb\glow.png",297,76 C,0,146648,,72,60,162 F,2,146648,146848,1,0 S,2,146648,146848,0.8,0.16 P,0,146648,146848,A
Sprite,Foreground,Centre,"sb\glow.png",297,76 C,0,147067,,72,60,162 F,2,147067,147267,1,0 S,2,147067,147267,0.8,0.16 P,0,147067,147267,A
Sprite,Foreground,Centre,"sb\glow.png",344,285 C,0,147277,,72,60,162 F,2,147277,147477,1,0 S,2,147277,147477,0.8,0.16 P,0,147277,147477,A
Sprite,Foreground,Centre,"sb\glow.png",0,0 C,0,147487,,167,73,177 M,0,147487,147539,259,238,251.3003,272.8868 F,2,147487,148001,1,0 S,2,147487,148001,0.8,0.16 P,0,147487,148001,A M,0,147539,147591,251.3003,272.8868,231.2875,302.4191 M,0,147591,147644,231.2875,302.4191,201.8068,322.4873 M,0,147644,147696,201.8068,322.4873,166.9099,329.9032 M,0,147696,147749,166.9099,329.9032,131.7443,323.9523 M,0,147749,147801,131.7443,323.9523,101.4486,305.1087
Sprite,Foreground,Centre,"sb\glow.png",72,230 C,0,147906,,167,73,177 F,2,147906,148106,1,0 S,2,147906,148106,0.8,0.16 P,0,147906,148106,A
Sprite,Foreground,Centre,"sb\glow.png",111,402 C,0,148116,,167,73,177 F,2,148116,148316,1,0 S,2,148116,148316,0.8,0.16 P,0,148116,148316,A
Sprite,Foreground,Centre,"sb\glow.png",0,0 C,0,148326,,167,73,177 M,0,148326,148378,64,213,98.85741,220.0434 F,2,148326,148735,1,0 S,2,148326,148735,0.8,0.16 P,0,148326,148735,A M,0,148378,148430,98.85741,220.0434,132.7886,209.6797 M,0,148430,148483,132.7886,209.6797,157.6631,184.4565 M,0,148483,148535,157.6631,184.4565,168,151
Sprite,Foreground,Centre,"sb\glow.png",338,70 C,0,148746,,72,60,162 F,2,148746,148946,1,0 S,2,148746,148946,0.8,0.16 P,0,148746,148946,A
Sprite,Foreground,Centre,"sb\glow.png",0,0 C,0,148955,,72,60,162 M,0,148955,149007,259,178,271.2314,211.7613 F,2,148955,149259,1,0 S,2,148955,149259,0.8,0.16 P,0,148955,149259,A M,0,149007,149059,271.2314,211.7613,290.4787,242.0768
Sprite,Foreground,Centre,"sb\glow.png",446,354 C,0,149165,,167,73,177 F,2,149165,149365,1,0 S,2,149165,149365,0.8,0.16 P,0,149165,149365,A
Sprite,Foreground,Centre,"sb\glow.png",440,304 C,0,149270,,167,73,177 F,2,149270,149470,1,0 S,2,149270,149470,0.8,0.16 P,0,149270,149470,A
Sprite,Foreground,Centre,"sb\glow.png",397,277 C,0,149375,,167,73,177 F,2,149375,149575,1,0 S,2,149375,149575,0.8,0.16 P,0,149375,149575,A
Sprite,Foreground,Centre,"sb\glow.png",354,302 C,0,149480,,167,73,177 F,2,149480,149680,1,0 S,2,149480,149680,0.8,0.16 P,0,149480,149680,A
Sprite,Foreground,Centre,"sb\glow.png",291,368 C,0,149585,,72,60,162 F,2,149585,149785,1,0 S,2,149585,149785,0.8,0.16 P,0,149585,149785,A
Sprite,Foreground,Centre,"sb\glow.png",212,375 C,0,149690,,72,60,162 F,2,149690,149890,1,0 S,2,149690,149890,0.8,0.16 P,0,149690,149890,A
Sprite,Foreground,Centre,"sb\glow.png",158,316 C,0,149795,,72,60,162 F,2,149795,149995,1,0 S,2,149795,149995,0.8,0.16 P,0,149795,149995,A
Sprite,Foreground,Centre,"sb\glow.png",195,246 C,0,149899,,72,60,162 F,2,149899,150099,1,0 S,2,149899,150099,0.8,0.16 P,0,149899,150099,A
Sprite,Foreground,Centre,"sb\glow.png",0,0 C,0,150004,,167,73,177 M,0,150004,150056,286,188,333.6998,201.2158 F,2,150004,150308,1,0 S,2,150004,150308,0.8,0.16 P,0,150004,150308,A M,0,150056,150108,333.6998,201.2158,380.8595,216.2457
Sprite,Foreground,Centre,"sb\glow.png",520,165 C,0,150214,,72,60,162 F,2,150214,150414,1,0 S,2,150214,150414,0.8,0.16 P,0,150214,150414,A
Sprite,Foreground,Centre,"sb\glow.png",501,130 C,0,150319,,72,60,162 F,2,150319,150519,1,0 S,2,150319,150519,0.8,0.16 P,0,150319,150519,A
Sprite,Foreground,Centre,"sb\glow.png",449,101 C,0,150424,,72,60,162 F,2,150424,150624,1,0 S,2,150424,150624,0.8,0.16 P,0,150424,150624,A
Sprite,Foreground,Centre,"sb\glow.png",373,125 C,0,150529,,72,60,162 F,2,150529,150729,1,0 S,2,150529,150729,0.8,0.16 P,0,150529,150729,A
Sprite,Foreground,Centre,"sb\glow.png",300,177 C,0,150634,,72,60,162 F,2,150634,150834,1,0 S,2,150634,150834,0.8,0.16 P,0,150634,150834,A
Sprite,Foreground,Centre,"sb\glow.png",204,144 C,0,150739,,72,60,162 F,2,150739,150939,1,0 S,2,150739,150939,0.8,0.16 P,0,150739,150939,A
Sprite,Foreground,Centre,"sb\glow.png",139,65 C,0,150843,,167,73,177 F,2,150843,151043,1,0 S,2,150843,151043,0.8,0.16 P,0,150843,151043,A
Sprite,Foreground,Centre,"sb\glow.png",117,71 C,0,150948,,167,73,177 F,2,150948,151148,1,0 S,2,150948,151148,0.8,0.16 P,0,150948,151148,A
Sprite,Foreground,Centre,"sb\glow.png",95,76 C,0,151053,,167,73,177 F,2,151053,151253,1,0 S,2,151053,151253,0.8,0.16 P,0,151053,151253,A
Sprite,Foreground,Centre,"sb\glow.png",73,82 C,0,151158,,167,73,177 F,2,151158,151358,1,0 S,2,151158,151358,0.8,0.16 P,0,151158,151358,A
//Storyboard Layer 4 (Overlay)
//Storyboard Sound Samples

[TimingPoints]
-205,419.58041958042,4,2,1,70,1,0
1473,-166.666666666667,4,2,1,70,0,0
8186,-133.333333333333,4,2,1,65,0,0
11543,-111.111111111111,4,2,1,75,0,0
13221,-142.857142857143,4,2,1,65,0,0
14060,-99.9999999999999,4,2,10,70,0,0
14270,-99.9999999999999,4,2,11,70,0,0
14375,-99.9999999999999,4,2,10,70,0,0
14427,-99.9999999999999,4,2,1,70,0,0
14480,-99.9999999999999,4,2,12,70,0,0
14585,-99.9999999999999,4,2,11,70,0,0
14690,-99.9999999999999,4,2,13,70,0,0
14795,-99.9999999999999,4,2,14,70,0,0
14899,-90.9090909090909,4,2,16,80,0,0
15004,-90.9090909090909,4,2,15,80,0,0
15109,-90.9090909090909,4,2,1,80,0,0
15214,-90.9090909090909,4,2,15,80,0,0
15319,-90.9090909090909,4,2,17,80,0,0
15424,-90.9090909090909,4,2,1,80,0,0
15529,-90.9090909090909,4,2,15,80,0,0
15634,-90.9090909090909,4,2,1,80,0,0
15739,-90.9090909090909,4,2,16,80,0,0
15844,-90.9090909090909,4,2,15,80,0,0
16158,-90.9090909090909,4,2,18,80,0,0
16263,-90.9090909090909,4,2,1,80,0,0
16368,-90.9090909090909,4,2,15,80,0,0
16473,-90.9090909090909,4,2,1,80,0,0
16578,-90.9090909090909,4,2,17,80,0,0
16683,-90.9090909090909,4,2,1,80,0,0
16788,-90.9090909090909,4,2,15,80,0,0
16892,-90.9090909090909,4,2,17,80,0,0
16997,-90.9090909090909,4,2,19,80,0,0
17102,-90.9090909090909,4,2,1,80,0,0
17207,-90.9090909090909,4,2,17,80,0,0
17311,-90.9090909090909,4,2,19,80,0,0
17417,-90.9090909090909,4,2,20,80,0,0
17522,-90.9090909090909,4,2,1,80,0,0
17627,-90.9090909090909,4,2,19,80,0,0
17732,-90.9090909090909,4,2,20,80,0,0
17836,-90.9090909090909,4,2,16,80,0,0
17941,-90.9090909090909,4,2,1,80,0,0
18046,-90.9090909090909,4,2,21,80,0,0
18151,-90.9090909090909,4,2,1,80,0,0
18256,-90.9090909090909,4,2,16,80,0,0
18361,-90.9090909090909,4,2,15,80,0,0
18466,-90.9090909090909,4,2,1,80,0,0
18571,-90.9090909090909,4,2,15,80,0,0
18676,-90.9090909090909,4,2,17,80,0,0
18781,-90.9090909090909,4,2,1,80,0,0
18886,-90.9090909090909,4,2,15,80,0,0
18990,-90.9090909090909,4,2,1,80,0,0
19096,-90.9090909090909,4,2,16,80,0,0
19201,-90.9090909090909,4,2,15,80,0,0
19515,-90.9090909090909,4,2,18,80,0,0
19620,-90.9090909090909,4,2,1,80,0,0
19725,-90.9090909090909,4,2,15,80,0,0
19829,-90.9090909090909,4,2,1,80,0,0
19935,-90.9090909090909,4,2,17,80,0,0
20039,-90.9090909090909,4,2,1,80,0,0
20145,-90.9090909090909,4,2,15,80,0,0
20249,-90.9090909090909,4,2,17,80,0,0
20354,-90.9090909090909,4,2,19,80,0,0
20459,-90.9090909090909,4,2,1,80,0,0
20564,-90.9090909090909,4,2,17,80,0,0
20668,-90.9090909090909,4,2,19,80,0,0
20774,-90.9090909090909,4,2,20,80,0,0
20878,-90.9090909090909,4,2,1,80,0,0
20983,-90.9090909090909,4,2,22,80,0,0
21088,-90.9090909090909,4,2,23,80,0,0
21193,-90.9090909090909,4,2,15,80,0,0
21298,-90.9090909090909,4,2,1,80,0,0
21403,-90.9090909090909,4,2,23,80,0,0
21508,-90.9090909090909,4,2,1,80,0,0
21613,-90.9090909090909,4,2,16,80,0,0
21718,-90.9090909090909,4,2,15,80,0,0
21822,-90.9090909090909,4,2,1,80,0,0
21928,-90.9090909090909,4,2,15,80,0,0
22033,-90.9090909090909,4,2,17,80,0,0
22137,-90.9090909090909,4,2,1,80,0,0
22243,-90.9090909090909,4,2,15,80,0,0
22347,-90.9090909090909,4,2,1,80,0,0
22453,-90.9090909090909,4,2,16,80,0,0
22558,-90.9090909090909,4,2,15,80,0,0
22662,-90.9090909090909,4,2,1,80,0,0
22767,-90.9090909090909,4,2,15,80,0,0
22872,-90.9090909090909,4,2,18,80,0,0
22976,-90.9090909090909,4,2,1,80,0,0
23082,-90.9090909090909,4,2,15,80,0,0
23186,-90.9090909090909,4,2,1,80,0,0
23292,-90.9090909090909,4,2,17,80,0,0
23396,-90.9090909090909,4,2,1,80,0,0
23502,-90.9090909090909,4,2,15,80,0,0
23606,-90.9090909090909,4,2,17,80,0,0
23711,-90.9090909090909,4,2,19,80,0,0
23815,-90.9090909090909,4,2,1,80,0,0
23921,-90.9090909090909,4,2,17,80,0,0
24025,-90.9090909090909,4,2,19,80,0,0
24131,-90.9090909090909,4,2,20,80,0,0
24235,-90.9090909090909,4,2,1,80,0,0
24341,-90.9090909090909,4,2,19,80,0,0
24446,-90.9090909090909,4,2,20,80,0,0
24550,-90.9090909090909,4,2,16,80,0,0
24655,-90.9090909090909,4,2,1,80,0,0
24760,-90.9090909090909,4,2,21,80,0,0
24864,-90.9090909090909,4,2,1,80,0,0
24969,-90.9090909090909,4,2,16,80,0,0
25074,-90.9090909090909,4,2,15,80,0,0
25179,-90.9090909090909,4,2,1,80,0,0
25284,-90.9090909090909,4,2,15,80,0,0
25389,-90.9090909090909,4,2,17,80,0,0
25494,-90.9090909090909,4,2,1,80,0,0
25599,-90.9090909090909,4,2,15,80,0,0
25704,-90.9090909090909,4,2,1,80,0,0
25809,-90.9090909090909,4,2,16,80,0,0
25914,-90.9090909090909,4,2,15,80,0,0
26228,-90.9090909090909,4,2,18,80,0,0
26333,-90.9090909090909,4,2,1,80,0,0
26438,-90.9090909090909,4,2,15,80,0,0
26543,-90.9090909090909,4,2,1,80,0,0
26648,-90.9090909090909,4,2,17,80,0,0
26753,-90.9090909090909,4,2,1,80,0,0
26858,-90.9090909090909,4,2,15,80,0,0
26962,-90.9090909090909,4,2,17,80,0,0
27067,-90.9090909090909,4,2,19,80,0,0
27172,-90.9090909090909,4,2,1,80,0,0
27277,-90.9090909090909,4,2,17,80,0,0
27381,-90.9090909090909,4,2,19,80,0,0
27487,-90.9090909090909,4,2,20,80,0,0
27592,-90.9090909090909,4,2,1,80,0,0
27696,-90.9090909090909,4,2,22,80,0,0
27801,-90.9090909090909,4,2,23,80,0,0
27906,-90.9090909090909,4,2,15,80,0,0
28011,-90.9090909090909,4,2,1,80,0,0
28116,-90.9090909090909,4,2,23,80,0,0
28221,-90.9090909090909,4,2,1,80,0,0
28326,-200,4,2,1,60,0,0
35039,-166.666666666667,4,2,1,65,0,0
36193,-166.666666666667,4,2,1,5,0,0
36298,-166.666666666667,4,2,1,65,0,0
40074,-142.857142857143,4,2,1,65,0,0
41333,-142.857142857143,4,2,2,65,0,0
41385,-142.857142857143,4,2,2,5,0,0
41753,-142.857142857143,4,2,1,70,0,0
53501,-117.647058823529,4,2,1,70,0,0
53920,-125,4,2,1,70,0,0
54340,-133.333333333333,4,2,1,70,0,0
54760,-142.857142857143,4,2,1,70,0,0
55179,-100,4,2,1,70,0,0
56228,-117.647058823529,4,2,1,70,0,0
58536,-100,4,2,1,70,0,0
59585,-117.647058823529,4,2,1,70,0,0
61892,-100,4,2,1,70,0,0
62941,-117.647058823529,4,2,1,70,0,0
63571,-117.647058823529,4,2,1,70,0,0
63623,-117.647058823529,4,2,1,5,0,0
63990,-117.647058823529,4,2,1,70,0,0
64042,-117.647058823529,4,2,1,5,0,0
64410,-117.647058823529,4,2,1,70,0,0
64462,-117.647058823529,4,2,1,5,0,0
64620,-117.647058823529,4,2,2,70,0,0
65249,-111.111111111111,4,2,1,70,0,0
67767,-133.333333333333,4,2,1,70,0,0
68501,-133.333333333333,4,2,1,5,0,0
68606,-76.9230769230769,4,2,1,85,0,1
80354,-71.4285714285714,4,2,1,85,0,1
81193,-71.4285714285714,4,2,2,85,0,1
82032,-71.4285714285714,4,2,2,75,0,0
82452,-76.9230769230769,4,2,1,85,0,1
94829,-76.9230769230769,4,2,2,85,0,1
95459,-90.9090909090909,4,2,16,70,0,0
95564,-90.9090909090909,4,2,15,80,0,0
95669,-90.9090909090909,4,2,1,80,0,0
95774,-90.9090909090909,4,2,15,80,0,0
95879,-90.9090909090909,4,2,17,80,0,0
95984,-90.9090909090909,4,2,1,80,0,0
96089,-90.9090909090909,4,2,15,80,0,0
96194,-90.9090909090909,4,2,1,80,0,0
96299,-90.9090909090909,4,2,16,80,0,0
96404,-90.9090909090909,4,2,15,80,0,0
96718,-90.9090909090909,4,2,18,80,0,0
96823,-90.9090909090909,4,2,1,80,0,0
96928,-90.9090909090909,4,2,15,80,0,0
97033,-90.9090909090909,4,2,1,80,0,0
97138,-90.9090909090909,4,2,17,80,0,0
97243,-90.9090909090909,4,2,1,80,0,0
97348,-90.9090909090909,4,2,15,80,0,0
97452,-90.9090909090909,4,2,17,80,0,0
97557,-90.9090909090909,4,2,19,80,0,0
97662,-90.9090909090909,4,2,1,80,0,0
97767,-90.9090909090909,4,2,17,80,0,0
97871,-90.9090909090909,4,2,19,80,0,0
97977,-90.9090909090909,4,2,20,80,0,0
98082,-90.9090909090909,4,2,1,80,0,0
98187,-90.9090909090909,4,2,19,80,0,0
98292,-90.9090909090909,4,2,20,80,0,0
98396,-90.9090909090909,4,2,16,80,0,0
98501,-90.9090909090909,4,2,1,80,0,0
98606,-90.9090909090909,4,2,21,80,0,0
98711,-90.9090909090909,4,2,1,80,0,0
98816,-90.9090909090909,4,2,16,80,0,0
98921,-90.9090909090909,4,2,15,80,0,0
99026,-90.9090909090909,4,2,1,80,0,0
99131,-90.9090909090909,4,2,15,80,0,0
99236,-90.9090909090909,4,2,17,80,0,0
99341,-90.9090909090909,4,2,1,80,0,0
99446,-90.9090909090909,4,2,15,80,0,0
99550,-90.9090909090909,4,2,1,80,0,0
99656,-90.9090909090909,4,2,16,80,0,0
99761,-90.9090909090909,4,2,15,80,0,0
100075,-90.9090909090909,4,2,18,80,0,0
100180,-90.9090909090909,4,2,1,80,0,0
100285,-90.9090909090909,4,2,15,80,0,0
100389,-90.9090909090909,4,2,1,80,0,0
100495,-90.9090909090909,4,2,17,80,0,0
100599,-90.9090909090909,4,2,1,80,0,0
100705,-90.9090909090909,4,2,15,80,0,0
100809,-90.9090909090909,4,2,17,80,0,0
100914,-90.9090909090909,4,2,19,80,0,0
101019,-90.9090909090909,4,2,1,80,0,0
101124,-90.9090909090909,4,2,17,80,0,0
101228,-90.9090909090909,4,2,19,80,0,0
101334,-90.9090909090909,4,2,20,80,0,0
101438,-90.9090909090909,4,2,1,80,0,0
101543,-90.9090909090909,4,2,22,80,0,0
101648,-90.9090909090909,4,2,23,80,0,0
101753,-90.9090909090909,4,2,15,80,0,0
101858,-90.9090909090909,4,2,1,80,0,0
101963,-90.9090909090909,4,2,23,80,0,0
102068,-90.9090909090909,4,2,1,80,0,0
102173,-90.9090909090909,4,2,16,80,0,0
102278,-90.9090909090909,4,2,15,80,0,0
102382,-90.9090909090909,4,2,1,80,0,0
102488,-90.9090909090909,4,2,15,80,0,0
102593,-90.9090909090909,4,2,17,80,0,0
102697,-90.9090909090909,4,2,1,80,0,0
102803,-90.9090909090909,4,2,15,80,0,0
102907,-90.9090909090909,4,2,1,80,0,0
103013,-90.9090909090909,4,2,16,80,0,0
103118,-90.9090909090909,4,2,15,80,0,0
103432,-90.9090909090909,4,2,18,80,0,0
103536,-90.9090909090909,4,2,1,80,0,0
103642,-90.9090909090909,4,2,15,80,0,0
103746,-90.9090909090909,4,2,1,80,0,0
103852,-90.9090909090909,4,2,17,80,0,0
103956,-90.9090909090909,4,2,1,80,0,0
104062,-90.9090909090909,4,2,15,80,0,0
104166,-90.9090909090909,4,2,17,80,0,0
104271,-90.9090909090909,4,2,19,80,0,0
104375,-90.9090909090909,4,2,1,80,0,0
104481,-90.9090909090909,4,2,17,80,0,0
104585,-90.9090909090909,4,2,19,80,0,0
104691,-90.9090909090909,4,2,20,80,0,0
104795,-90.9090909090909,4,2,1,80,0,0
104901,-90.9090909090909,4,2,19,80,0,0
105006,-90.9090909090909,4,2,20,80,0,0
105110,-90.9090909090909,4,2,16,80,0,0
105215,-90.9090909090909,4,2,1,80,0,0
105320,-90.9090909090909,4,2,21,80,0,0
105424,-90.9090909090909,4,2,1,80,0,0
105529,-90.9090909090909,4,2,16,80,0,0
105634,-90.9090909090909,4,2,15,80,0,0
105739,-90.9090909090909,4,2,1,80,0,0
105844,-90.9090909090909,4,2,15,80,0,0
105949,-90.9090909090909,4,2,17,80,0,0
106054,-90.9090909090909,4,2,1,80,0,0
106159,-90.9090909090909,4,2,15,80,0,0
106264,-90.9090909090909,4,2,1,80,0,0
106369,-90.9090909090909,4,2,16,80,0,0
106474,-90.9090909090909,4,2,15,80,0,0
106788,-90.9090909090909,4,2,18,80,0,0
106893,-90.9090909090909,4,2,1,80,0,0
106998,-90.9090909090909,4,2,15,80,0,0
107103,-90.9090909090909,4,2,1,80,0,0
107208,-90.9090909090909,4,2,17,80,0,0
107313,-90.9090909090909,4,2,1,80,0,0
107418,-90.9090909090909,4,2,15,80,0,0
107522,-90.9090909090909,4,2,17,80,0,0
107627,-90.9090909090909,4,2,19,80,0,0
107732,-90.9090909090909,4,2,1,80,0,0
107837,-90.9090909090909,4,2,17,80,0,0
107941,-90.9090909090909,4,2,19,80,0,0
108047,-90.9090909090909,4,2,20,80,0,0
108152,-90.9090909090909,4,2,1,80,0,0
108256,-90.9090909090909,4,2,22,80,0,0
108361,-90.9090909090909,4,2,23,80,0,0
108466,-90.9090909090909,4,2,15,80,0,0
108571,-90.9090909090909,4,2,1,80,0,0
108676,-90.9090909090909,4,2,23,80,0,0
108781,-90.9090909090909,4,2,2,80,0,0
108885,-100,4,2,1,75,0,0
108990,-100,4,2,1,5,0,0
110354,-100,4,2,1,75,0,0
110459,-100,4,2,1,5,0,0
110564,-100,4,2,1,75,0,0
110669,-100,4,2,1,5,0,0
112242,-100,4,2,1,75,0,0
112347,-100,4,2,1,5,0,0
113711,-100,4,2,1,75,0,0
113816,-100,4,2,1,5,0,0
113920,-100,4,2,1,75,0,0
114025,-100,4,2,1,5,0,0
114550,-100,4,2,1,75,0,0
114760,-125,4,2,1,70,0,0
115599,-142.857142857143,4,2,1,65,0,0
118955,-117.647058823529,4,2,1,70,0,0
120634,-117.647058823529,4,2,1,75,0,0
121892,-111.111111111111,4,2,1,75,0,0
122312,-83.3333333333333,4,2,1,80,0,0
132382,-125,4,2,1,80,0,0
134060,-166.666666666667,4,2,1,65,0,0
135739,-166.666666666667,4,2,1,45,0,0
135948,-333.333333333334,4,2,1,45,0,0
137417,-142.857142857143,4,2,1,70,0,0
144130,-125,4,2,1,70,0,0
149165,-90.9090909090909,4,2,1,80,0,1
150004,-90.9090909090909,4,2,2,80,0,1
150843,-90.9090909090909,4,2,2,75,0,0
151263,-76.9230769230769,4,2,1,85,0,1
163431,-76.9230769230769,4,2,2,85,0,1
163850,-74.0740740740741,4,2,2,85,0,0
164270,-71.4285714285714,4,2,1,85,0,1
176018,-62.5,4,2,1,85,0,1
176857,-62.5,4,2,2,85,0,1
177697,-66.6666666666667,4,2,2,85,0,0
178116,-71.4285714285714,4,2,1,85,0,1
180634,-71.4285714285714,4,2,28,85,0,1
180739,-71.4285714285714,4,2,1,85,0,1
180843,-71.4285714285714,4,2,10,85,0,1
180948,-71.4285714285714,4,2,1,85,0,1
181053,-71.4285714285714,4,2,27,85,0,1
181263,-71.4285714285714,4,2,1,85,0,1
181473,-71.4285714285714,4,2,25,85,0,1
181578,-71.4285714285714,4,2,1,85,0,1
181683,-71.4285714285714,4,2,19,85,0,1
181788,-71.4285714285714,4,2,1,85,0,1
181892,-71.4285714285714,4,2,26,85,0,1
182102,-71.4285714285714,4,2,1,85,0,1
182312,-71.4285714285714,4,2,21,85,0,1
182417,-71.4285714285714,4,2,1,85,0,1
182522,-71.4285714285714,4,2,29,85,0,1
182627,-71.4285714285714,4,2,1,85,0,1
182732,-71.4285714285714,4,2,29,85,0,1
182836,-71.4285714285714,4,2,1,85,0,1
182941,-71.4285714285714,4,2,21,85,0,1
183046,-71.4285714285714,4,2,29,85,0,1
183151,-71.4285714285714,4,2,30,85,0,1
183256,-71.4285714285714,4,2,1,85,0,1
183361,-71.4285714285714,4,2,21,85,0,1
183466,-71.4285714285714,4,2,1,85,0,1
183571,-71.4285714285714,4,2,26,85,0,1
183781,-71.4285714285714,4,2,1,85,0,1
183990,-71.4285714285714,4,2,10,85,0,1
184095,-71.4285714285714,4,2,1,85,0,1
184200,-71.4285714285714,4,2,29,70,0,1
184305,-71.4285714285714,4,2,1,85,0,1
184410,-71.4285714285714,4,2,28,85,0,1
184620,-71.4285714285714,4,2,1,85,0,1
187347,-71.4285714285714,4,2,28,85,0,1
187452,-71.4285714285714,4,2,1,85,0,1
187556,-71.4285714285714,4,2,10,85,0,1
187662,-71.4285714285714,4,2,1,85,0,1
187766,-71.4285714285714,4,2,27,85,0,1
187976,-71.4285714285714,4,2,1,85,0,1
188186,-71.4285714285714,4,2,25,85,0,1
188291,-71.4285714285714,4,2,1,85,0,1
188396,-71.4285714285714,4,2,19,85,0,1
188501,-71.4285714285714,4,2,1,85,0,1
188605,-71.4285714285714,4,2,26,85,0,1
188815,-71.4285714285714,4,2,1,85,0,1
189025,-71.4285714285714,4,2,21,85,0,1
189130,-71.4285714285714,4,2,1,85,0,1
189235,-71.4285714285714,4,2,29,85,0,1
189340,-71.4285714285714,4,2,1,85,0,1
189445,-71.4285714285714,4,2,29,85,0,1
189655,-71.4285714285714,4,2,1,85,0,1
189864,-71.4285714285714,4,2,19,85,0,1
190074,-71.4285714285714,4,2,1,85,0,1
190284,-71.4285714285714,4,2,26,85,0,1
190494,-71.4285714285714,4,2,1,85,0,1
190704,-71.4285714285714,4,2,21,65,0,1
190808,-71.4285714285714,4,2,1,85,0,1
190913,-71.4285714285714,4,2,28,85,0,1
191018,-71.4285714285714,4,2,10,85,0,1
191123,-111.111111111111,4,2,27,80,0,0
191543,-111.111111111111,4,2,32,80,0,0
191648,-111.111111111111,4,2,28,80,0,0
191753,-111.111111111111,4,2,27,80,0,0
191857,-111.111111111111,4,2,29,80,0,0
191962,-111.111111111111,4,2,33,80,0,0
192067,-111.111111111111,4,2,1,85,0,0
192172,-111.111111111111,4,2,29,80,0,0
192277,-111.111111111111,4,2,1,80,0,0
192382,-111.111111111111,4,2,30,80,0,0
192487,-111.111111111111,4,2,1,80,0,0
192592,-111.111111111111,4,2,27,80,0,0
192697,-111.111111111111,4,2,1,80,0,0
192801,-111.111111111111,4,2,10,80,0,0
193011,-111.111111111111,4,2,1,80,0,0
193221,-111.111111111111,4,2,28,80,0,0
193431,-111.111111111111,4,2,10,80,0,0
193536,-111.111111111111,4,2,28,80,0,0
193641,-111.111111111111,4,2,35,80,0,0
194060,-111.111111111111,4,2,1,80,0,0
194270,-111.111111111111,4,2,28,80,0,0
194375,-111.111111111111,4,2,10,80,0,0
194480,-111.111111111111,4,2,27,80,0,0
194690,-111.111111111111,4,2,1,80,0,0
194899,-111.111111111111,4,2,32,80,0,0
195004,-111.111111111111,4,2,28,80,0,0
195109,-111.111111111111,4,2,27,80,0,0
195213,-111.111111111111,4,2,29,80,0,0
195318,-111.111111111111,4,2,33,80,0,0
195529,-111.111111111111,4,2,25,80,0,0
195634,-111.111111111111,4,2,33,60,0,0
195739,-111.111111111111,4,2,19,80,0,0
195843,-111.111111111111,4,2,33,60,0,0
195948,-111.111111111111,4,2,26,80,0,0
196053,-111.111111111111,4,2,33,60,0,0
196158,-111.111111111111,4,2,19,80,0,0
196368,-111.111111111111,4,2,25,80,0,0
196473,-111.111111111111,4,2,19,80,0,0
196578,-111.111111111111,4,2,21,80,0,0
196683,-111.111111111111,4,2,19,80,0,0
196788,-111.111111111111,4,2,29,80,0,0
196892,-111.111111111111,4,2,19,80,0,0
196997,-111.111111111111,4,2,26,80,0,0
197207,-111.111111111111,4,2,1,80,0,0
197627,-111.111111111111,4,2,32,80,0,0
197732,-111.111111111111,4,2,35,80,0,0
197836,-83.3333333333333,4,2,28,85,0,1
197941,-83.3333333333333,4,2,24,60,0,1
198046,-83.3333333333333,4,2,32,70,0,1
198151,-83.3333333333333,4,2,28,85,0,1
198256,-83.3333333333333,4,2,29,85,0,1
198361,-83.3333333333333,4,2,28,70,0,1
198466,-83.3333333333333,4,2,27,70,0,1
198571,-83.3333333333333,4,2,29,70,0,1
198676,-83.3333333333333,4,2,26,70,0,1
198781,-83.3333333333333,4,2,25,70,0,1
198885,-83.3333333333333,4,2,33,70,0,1
198990,-83.3333333333333,4,2,27,70,0,1
199095,-83.3333333333333,4,2,28,85,0,1
199200,-83.3333333333333,4,2,32,70,0,1
199305,-83.3333333333333,4,2,28,85,0,1
199410,-83.3333333333333,4,2,27,85,0,1
199515,-83.3333333333333,4,2,30,85,0,1
199620,-83.3333333333333,4,2,35,85,0,1
199725,-83.3333333333333,4,2,10,85,0,1
199829,-83.3333333333333,4,2,30,85,0,1
199934,-83.3333333333333,4,2,21,85,0,1
200039,-83.3333333333333,4,2,10,85,0,1
200144,-83.3333333333333,4,2,30,85,0,1
200249,-83.3333333333333,4,2,21,85,0,1
200354,-83.3333333333333,4,2,18,85,0,1
200459,-83.3333333333333,4,2,26,85,0,1
200564,-83.3333333333333,4,2,21,85,0,1
200669,-83.3333333333333,4,2,29,85,0,1
200774,-83.3333333333333,4,2,10,85,0,1
200878,-83.3333333333333,4,2,35,85,0,1
200983,-83.3333333333333,4,2,34,85,0,1
201088,-83.3333333333333,4,2,36,60,0,1
201193,-83.3333333333333,4,2,27,85,0,1
201298,-83.3333333333333,4,2,1,85,0,1
201403,-83.3333333333333,4,2,28,85,0,1
201508,-83.3333333333333,4,2,27,85,0,1
201613,-83.3333333333333,4,2,25,85,0,1
201718,-83.3333333333333,4,2,1,85,0,1
201822,-83.3333333333333,4,2,19,85,0,1
201927,-83.3333333333333,4,2,1,85,0,1
202032,-83.3333333333333,4,2,26,85,0,1
202137,-83.3333333333333,4,2,1,85,0,1
202242,-83.3333333333333,4,2,19,85,0,1
202347,-83.3333333333333,4,2,26,85,0,1
202452,-83.3333333333333,4,2,21,85,0,1
202557,-83.3333333333333,4,2,25,85,0,1
202662,-83.3333333333333,4,2,29,85,0,1
202767,-83.3333333333333,4,2,21,85,0,1
202871,-83.3333333333333,4,2,29,85,0,1
202976,-83.3333333333333,4,2,1,85,0,1
203081,-83.3333333333333,4,2,21,85,0,1
203186,-83.3333333333333,4,2,29,85,0,1
203291,-83.3333333333333,4,2,25,85,0,1
203396,-83.3333333333333,4,2,1,85,0,1
203501,-83.3333333333333,4,2,19,85,0,1
203606,-83.3333333333333,4,2,1,80,0,1
203711,-100,4,2,26,70,0,0
205808,699.300699300699,4,2,28,40,1,0
206157,-100,4,2,10,40,0,0
206507,699.300699300699,4,2,27,40,1,0
206507,-142.857142857143,4,2,27,40,0,0
206856,-142.857142857143,4,2,1,5,0,0
207206,-142.857142857143,4,2,25,40,0,0
207555,-142.857142857143,4,2,19,40,0,0
207905,-142.857142857143,4,2,26,40,0,0
208255,-142.857142857143,4,2,1,5,0,0
208604,-142.857142857143,4,2,21,40,0,0
208954,-142.857142857143,4,2,29,40,0,0
209653,-142.857142857143,4,2,21,40,0,0
209828,-142.857142857143,4,2,29,40,0,0
210003,-142.857142857143,4,2,30,40,0,0
210353,-142.857142857143,4,2,10,40,0,0
210702,-142.857142857143,4,2,27,40,0,0
211052,-142.857142857143,4,2,1,5,0,0
211402,-142.857142857143,4,2,28,40,0,0
211751,-142.857142857143,4,2,10,40,0,0
212101,-142.857142857143,4,2,27,40,0,0
212451,-142.857142857143,4,2,1,5,0,0
212800,-142.857142857143,4,2,25,40,0,0
213149,-142.857142857143,4,2,19,40,0,0
213499,-142.857142857143,4,2,26,40,0,0
213849,-142.857142857143,4,2,1,5,0,0
214198,-142.857142857143,4,2,21,40,0,0
214548,-142.857142857143,4,2,29,40,0,0
215247,-142.857142857143,4,2,21,40,0,0
215422,-142.857142857143,4,2,29,40,0,0
215597,-142.857142857143,4,2,30,40,0,0
215947,-142.857142857143,4,2,21,40,0,0
216297,-142.857142857143,4,2,27,40,0,0
216646,-142.857142857143,4,2,1,5,0,0
216996,-142.857142857143,4,2,28,40,0,0
217346,-142.857142857143,4,2,10,40,0,0
217695,-142.857142857143,4,2,27,40,0,0
218045,-142.857142857143,4,2,1,5,0,0
218395,-142.857142857143,4,2,25,40,0,0
218744,-142.857142857143,4,2,19,40,0,0
219094,-142.857142857143,4,2,26,40,0,0
219444,-142.857142857143,4,2,1,5,0,0
219793,-142.857142857143,4,2,21,40,0,0
220143,-142.857142857143,4,2,29,40,0,0
220842,-142.857142857143,4,2,21,40,0,0
221017,-142.857142857143,4,2,29,40,0,0
221192,-142.857142857143,4,2,30,40,0,0
221542,-142.857142857143,4,2,10,40,0,0
221891,-142.857142857143,4,2,27,40,0,0
222241,-142.857142857143,4,2,1,5,0,0
222590,-142.857142857143,4,2,28,40,0,0
222939,-142.857142857143,4,2,10,40,0,0
223289,-142.857142857143,4,2,27,40,0,0
223639,-142.857142857143,4,2,1,5,0,0
223988,-142.857142857143,4,2,25,40,0,0
224337,-142.857142857143,4,2,19,40,0,0
224687,-142.857142857143,4,2,26,40,0,0
225038,-142.857142857143,4,2,1,5,0,0
225386,-142.857142857143,4,2,21,40,0,0
225736,-142.857142857143,4,2,29,40,0,0
226435,-142.857142857143,4,2,21,40,0,0
226610,-142.857142857143,4,2,29,40,0,0
226785,-142.857142857143,4,2,30,40,0,0
227135,-142.857142857143,4,2,21,40,0,0
227485,-142.857142857143,4,2,27,40,0,0
227660,-142.857142857143,4,2,1,5,0,0

[Colours]
Combo1 : 217,145,188
Combo2 : 167,73,177
Combo3 : 72,60,162
Combo4 : 249,211,166

[HitObjects]
205,83,1473,6,0,B|251:126|244:193|244:193|244:241|191:283|139:222|158:172|222:156,1,323.999981529237,6|2,1:2|0:0,0:0:0:0:
452,248,2312,6,0,B|364:213|271:273|325:301|237:347|154:321,1,323.999981529237,6|2,1:2|0:0,0:0:0:0:
24,247,3151,38,0,B|61:218|78:148|78:148|151:188|186:252|151:330,1,323.999981529237,6|2,1:2|0:0,0:0:0:0:
73,349,3990,5,8,0:3:0:0:
300,245,4410,1,8,0:3:0:0:
148,60,4829,38,0,B|127:83|123:117|123:117|72:94|83:29|83:29|139:75|230:56,1,323.999981529237,6|2,1:2|0:0,0:0:0:0:
479,28,5669,6,0,B|435:29|405:81|405:81|442:73|495:93|512:145|500:221|424:229,1,323.999981529237,6|2,1:2|0:0,0:0:0:0:
260,348,6508,38,0,B|227:316|234:259|283:232|283:232|298:268|347:302|401:287|437:242,1,323.999981529237,6|2,1:2|0:0,0:0:0:0:
364,138,7347,5,2,1:2:0:0:
344,128,7452,1,0,0:0:0:0:
323,118,7557,1,8,0:3:0:0:
186,62,7767,37,2,1:2:0:0:
216,57,7871,1,0,0:0:0:0:
245,53,7977,1,10,0:0:0:0:
49,170,8186,5,4,1:2:0:0:
49,170,8396,2,0,P|75:193|89:223,1,67.5000007867814,0|0,3:0|0:0,0:0:0:0:
163,336,8606,37,2,1:2:0:0:
163,336,8815,2,0,P|177:305|202:283,1,67.5000007867814,2|0,3:2|0:0,0:0:0:0:
404,317,9025,5,2,1:2:0:0:
404,317,9235,2,0,L|334:286,1,67.5000007867814,2|0,3:2|0:0,0:0:0:0:
216,198,9445,37,2,1:2:0:0:
216,198,9655,2,0,L|286:167,1,67.5000007867814,2|0,3:2|0:0,0:0:0:0:
426,34,9864,5,2,1:2:0:0:
426,34,10074,2,0,P|414:72|385:91,1,67.5000007867814,2|2,3:2|0:0,0:0:0:0:
218,84,10284,37,2,1:2:0:0:
218,84,10494,2,0,P|230:46|259:27,1,67.5000007867814,2|0,3:2|0:0,0:0:0:0:
355,156,10704,5,2,1:2:0:0:
355,156,10913,2,0,L|339:229,1,67.5000007867814,0|0,3:0|0:0,0:0:0:0:
194,337,11123,38,0,P|191:267|74:250,1,202.500002360344,2|0,1:2|0:0,0:0:0:0:
22,305,11543,2,0,B|47:227|47:227|9:156,1,161.999990764618,4|8,1:2|0:0,0:0:0:0:
173,28,11857,6,0,P|115:80|42:56,1,161.999990764618,4|8,0:1|0:0,0:0:0:0:
190,14,12172,1,4,0:1:0:0:
353,243,12382,38,0,L|366:163,1,80.9999953823091,6|0,0:0|0:0,0:0:0:0:
275,37,12592,1,10,0:0:0:0:
262,47,12697,1,0,1:0:0:0:
249,60,12801,2,0,P|283:89|325:96,1,80.9999953823091,10|0,0:0|1:0,0:0:0:0:
476,21,13011,2,0,P|435:20|400:38,1,80.9999953823091,8|0,0:3|0:0,0:0:0:0:
270,194,13221,6,0,P|177:218|155:139,1,188.999989225388,2|2,1:2|0:0,0:0:0:0:
201,78,13641,37,2,3:2:0:0:
184,62,13746,1,0,3:0:0:0:
130,31,13850,1,2,3:2:0:0:
53,55,13955,1,0,3:0:0:0:
13,148,14060,2,0,P|97:180|78:252,1,179.999995231629,6|2,1:2|1:2,0:0:0:0:
27,316,14375,6,0,L|9:274,2,44.9999988079071,2|0|10,1:2|1:0|1:2,0:0:0:0:
92,355,14585,1,2,0:0:0:0:
167,343,14690,1,2,0:0:0:0:
211,280,14795,1,2,0:0:0:0:
283,256,14899,37,6,1:2:0:0:
299,238,15004,2,0,P|338:261|377:304,1,99.0000003986359,2|0,0:0|3:0,0:0:0:0:
453,167,15214,5,10,0:0:0:0:
442,174,15319,2,0,B|391:187|391:187|354:148,1,99.0000003986359,2|0,1:2|0:0,0:0:0:0:
271,44,15529,2,0,B|322:31|322:31|353:64,1,99.0000003986359,10|0,3:2|0:0,0:0:0:0:
160,228,15739,37,2,1:2:0:0:
166,218,15843,2,0,P|145:116|105:28,1,198.000000797272,2|10,0:0|0:0,0:0:0:0:
62,173,16158,2,0,B|16:151|16:151|69:119,1,99.0000003986359,2|0,1:2|0:0,0:0:0:0:
206,33,16368,2,0,B|251:54|251:54|198:86,1,99.0000003986359,10|0,3:2|0:0,0:0:0:0:
165,218,16578,6,0,P|213:215|255:242,1,99.0000003986359,2|0,1:2|0:0,0:0:0:0:
397,361,16788,1,2,3:2:0:0:
465,321,16892,1,10,0:0:0:0:
397,279,16997,2,0,P|375:240|380:183,1,99.0000003986359,2|0,1:2|0:0,0:0:0:0:
486,50,17207,37,10,3:2:0:0:
418,32,17312,1,2,0:0:0:0:
364,76,17417,2,0,P|324:105|276:107,1,99.0000003986359,2|0,1:2|0:0,0:0:0:0:
113,27,17627,5,2,3:2:0:0:
140,68,17732,1,10,0:0:0:0:
115,110,17836,2,0,P|163:126|220:147,1,99.0000003986359,2|0,1:2|0:0,0:0:0:0:
397,279,18046,38,0,P|349:295|292:316,1,99.0000003986359,10|0,3:2|0:0,0:0:0:0:
117,371,18256,1,6,1:2:0:0:
109,364,18361,2,0,P|100:312|126:253,1,99.0000003986359,2|0,0:0|3:2,0:0:0:0:
195,168,18571,1,10,0:0:0:0:
201,159,18676,2,0,P|213:136|206:167,1,99.0000003986359,2|0,1:2|0:0,0:0:0:0:
68,209,18885,2,0,P|43:186|74:202,1,99.0000003986359,10|0,3:2|0:0,0:0:0:0:
192,326,19095,5,2,1:2:0:0:
201,329,19200,2,0,P|287:280|383:256,1,198.000000797272,2|10,0:0|0:0,0:0:0:0:
498,342,19515,2,0,B|455:370|455:370|406:348,1,99.0000003986359,2|0,1:2|0:0,0:0:0:0:
316,178,19725,2,0,B|359:150|359:150|407:171,1,99.0000003986359,10|0,3:2|0:0,0:0:0:0:
201,329,19934,38,0,P|209:280|199:229,1,99.0000003986359,2|0,1:2|0:0,0:0:0:0:
70,74,20144,1,2,3:2:0:0:
29,142,20249,1,10,0:0:0:0:
99,177,20354,2,0,P|133:144|187:136,1,99.0000003986359,2|0,1:2|0:0,0:0:0:0:
350,201,20564,5,10,3:2:0:0:
385,153,20669,1,2,0:0:0:0:
353,102,20774,2,0,P|303:118|256:135,1,99.0000003986359,6|0,1:2|0:0,0:0:0:0:
34,242,20983,2,0,P|84:258|131:275,1,99.0000003986359,10|2,3:2|0:0,0:0:0:0:
241,360,21193,37,10,0:0:0:0:
286,289,21298,1,8,0:0:0:0:
364,259,21403,1,10,0:0:0:0:
443,286,21508,1,8,0:0:0:0:
494,349,21613,1,6,1:2:0:0:
483,353,21718,2,0,P|486:307|496:246,1,99.0000003986359,2|0,0:0|3:2,0:0:0:0:
342,86,21927,5,10,0:0:0:0:
349,95,22032,2,0,P|342:144|311:181,1,99.0000003986359,2|0,1:2|0:0,0:0:0:0:
152,245,22242,2,0,P|120:207|114:159,1,99.0000003986359,10|0,3:2|0:0,0:0:0:0:
252,28,22452,37,2,1:2:0:0:
242,34,22557,2,0,P|192:28|144:37,1,99.0000003986359,2|0,0:0|0:0,0:0:0:0:
7,212,22767,1,10,0:0:0:0:
4,220,22871,2,0,P|32:245|23:209,1,99.0000003986359,2|0,1:2|0:0,0:0:0:0:
73,91,23081,2,0,P|81:54|54:79,1,99.0000003986359,10|0,3:2|0:0,0:0:0:0:
205,180,23291,6,0,P|253:175|299:194,1,99.0000003986359,2|0,1:2|0:0,0:0:0:0:
441,308,23501,1,2,3:2:0:0:
483,241,23606,1,10,0:0:0:0:
431,180,23711,2,0,P|397:213|346:248,1,99.0000003986359,2|0,1:2|0:0,0:0:0:0:
148,246,23920,37,10,3:2:0:0:
111,199,24025,1,2,0:0:0:0:
145,150,24130,2,0,P|193:144|238:164,1,99.0000003986359,2|0,1:2|0:0,0:0:0:0:
385,235,24340,5,2,3:2:0:0:
404,200,24445,1,10,0:0:0:0:
400,160,24550,2,0,B|353:173|353:173|310:147,1,99.0000003986359,2|0,1:2|0:0,0:0:0:0:
120,40,24760,2,0,B|166:53|166:53|209:27,1,99.0000003986359,10|0,3:2|0:0,0:0:0:0:
302,138,24969,37,6,1:2:0:0:
310,147,25074,2,0,P|318:194|273:234,1,99.0000003986359,2|0,0:0|3:2,0:0:0:0:
140,355,25284,1,10,0:0:0:0:
154,347,25389,2,0,P|165:291|177:244,1,99.0000003986359,2|0,1:2|0:0,0:0:0:0:
334,81,25599,6,0,P|285:97|240:74,1,99.0000003986359,10|0,3:2|0:0,0:0:0:0:
73,26,25808,1,2,1:2:0:0:
84,18,25913,2,0,P|133:32|150:160,1,198.000000797272,2|10,0:0|0:0,0:0:0:0:
4,215,26228,2,0,P|24:166|53:109,1,99.0000003986359,2|0,1:2|0:0,0:0:0:0:
243,78,26438,2,0,P|263:127|292:184,1,99.0000003986359,10|0,3:2|0:0,0:0:0:0:
144,308,26648,38,0,P|197:282|247:303,1,99.0000003986359,2|0,1:2|0:0,0:0:0:0:
437,367,26857,1,2,3:2:0:0:
492,310,26962,1,10,0:0:0:0:
450,242,27067,2,0,P|462:188|460:132,1,99.0000003986359,2|0,1:2|0:0,0:0:0:0:
376,25,27277,5,10,3:2:0:0:
417,67,27382,1,2,0:0:0:0:
391,120,27487,2,0,P|349:138|288:122,1,99.0000003986359,6|0,1:2|0:0,0:0:0:0:
67,24,27697,37,10,3:2:0:0:
58,42,27802,1,10,0:0:0:0:
63,60,27906,1,10,0:0:0:0:
146,50,28011,1,8,0:0:0:0:
205,109,28116,1,10,0:0:0:0:
181,190,28221,1,8,0:0:0:0:
106,229,28326,6,0,P|86:132|59:49,6,179.999995231629,4|2|2|0|2|2|2,1:0|1:2|1:2|1:0|1:2|1:2|1:2,0:0:0:0:
212,343,31053,38,0,L|226:292,1,44.9999988079071
289,246,31263,1,0,1:0:0:0:
289,246,31473,2,0,L|279:193,1,44.9999988079071
194,14,31683,6,0,P|217:70|331:90,6,179.999995231629,0|2|2|0|2|2|2,1:0|1:2|1:2|1:0|1:2|1:2|1:2,0:0:0:0:
101,57,34410,1,8,0:3:0:0:
101,57,34620,2,0,P|87:84|86:109,1,44.9999988079071,8|8,0:3|0:3,0:0:0:0:
150,194,34829,37,8,0:3:0:0:
131,227,34934,1,2,0:0:0:0:
106,265,35039,2,0,P|176:254|179:371,1,215.999987686158,4|2,1:0|1:2,0:0:0:0:
19,363,35669,5,2,3:2:0:0:
19,363,35878,2,0,P|20:293|53:189,1,161.999990764618,2|0,1:2|0:0,0:0:0:0:
63,191,36298,1,2,1:2:0:0:
232,99,36508,37,0,3:0:0:0:
232,99,36718,2,0,P|264:140|316:143,2,107.999993843079,2|2|2,1:2|3:2|1:2,0:0:0:0:
128,34,37347,1,2,3:2:0:0:
101,51,37452,1,0,3:0:0:0:
77,69,37557,2,0,P|149:110|154:249,1,215.999987686158,2|0,1:2|1:0,0:0:0:0:
323,359,38186,5,2,3:2:0:0:
354,340,38291,1,2,0:0:0:0:
384,319,38396,2,0,L|501:351,1,107.999993843079,2|2,1:2|3:2,0:0:0:0:
344,212,38815,2,0,L|227:244,1,107.999993843079,2|2,1:2|3:2,0:0:0:0:
415,110,39235,1,2,1:2:0:0:
408,118,39340,2,0,L|525:150,1,107.999993843079,2|2,0:0|0:0,0:0:0:0:
493,70,39655,1,0,1:0:0:0:
349,195,39864,1,2,3:2:0:0:
234,78,40074,38,0,L|168:96,1,62.9999964084627,2|0,1:2|0:0,0:0:0:0:
59,47,40284,2,0,P|25:59|8:83,1,62.9999964084627,0|0,3:0|0:0,0:0:0:0:
122,199,40494,2,0,P|121:166|108:138,1,62.9999964084627,0|0,1:0|0:0,0:0:0:0:
0,281,40704,2,0,P|28:296|58:299,1,62.9999964084627,0|0,3:0|0:0,0:0:0:0:
217,224,40913,5,8,0:3:0:0:
217,224,41333,2,0,L|256:233,1,31.4999982042313,2|0,0:0|0:0,0:0:0:0:
431,294,41753,38,0,P|428:353|484:368,2,125.999992816925,4|2|10,1:2|3:2|0:0,0:0:0:0:
480,208,42382,1,2,3:2:0:0:
480,208,42592,2,0,P|468:141|444:67,1,125.999992816925,2|2,1:2|3:2,0:0:0:0:
391,49,42906,1,2,0:0:0:0:
391,49,43011,2,0,L|327:69,1,62.9999964084627,8|0,0:0|0:0,0:0:0:0:
251,110,43221,2,0,L|187:90,1,62.9999964084627,2|0,3:2|0:0,0:0:0:0:
112,47,43431,6,0,P|55:96|3:99,2,125.999992816925,2|2|10,1:2|3:2|0:0,0:0:0:0:
195,118,44060,1,2,3:2:0:0:
195,118,44270,2,0,L|170:194,1,62.9999964084627,2|0,1:2|0:0,0:0:0:0:
65,296,44480,1,0,3:0:0:0:
86,280,44585,1,0,0:0:0:0:
109,282,44690,2,0,P|151:326|212:324,1,125.999992816925,8|0,0:0|3:0,0:0:0:0:
368,216,45109,38,0,P|406:150|450:165,2,125.999992816925,2|2|10,1:2|3:2|0:0,0:0:0:0:
243,143,45739,1,2,3:2:0:0:
243,143,45948,2,0,P|272:216|280:277,1,125.999992816925,2|2,1:2|3:2,0:0:0:0:
212,324,46263,1,2,0:0:0:0:
212,324,46368,1,8,0:0:0:0:
10,184,46578,5,2,1:2:0:0:
10,184,46683,1,0,1:0:0:0:
66,124,46788,2,0,P|124:146|168:95,1,125.999992816925,2|2,1:2|3:2,0:0:0:0:
371,63,47207,37,10,0:0:0:0:
238,9,47417,1,2,3:2:0:0:
390,65,47627,2,0,P|339:125|384:224,1,188.999989225388,2|0,1:2|0:0,0:0:0:0:
450,272,48046,6,0,L|468:209,1,62.9999964084627,0|8,1:0|0:3,0:0:0:0:
498,114,48256,1,10,0:0:0:0:
490,98,48361,1,2,0:0:0:0:
476,82,48466,2,0,P|412:112|359:85,2,125.999992816925,2|0|10,1:2|3:0|1:2,0:0:0:0:
303,39,49095,37,2,3:2:0:0:
199,126,49305,2,0,P|245:187|255:242,1,125.999992816925,2|0,1:2|3:0,0:0:0:0:
177,308,49620,1,0,0:0:0:0:
161,317,49725,2,0,B|132:295|93:311|107:323|73:337|35:317,1,125.999992816925,10|0,0:0|3:0,0:0:0:0:
54,153,50144,6,0,P|35:84|22:28,2,125.999992816925,2|2|8,1:2|3:2|0:0,0:0:0:0:
123,205,50774,1,2,3:2:0:0:
123,205,50983,2,0,P|155:192|196:189,1,62.9999964084627,2|0,1:2|0:0,0:0:0:0:
324,267,51193,37,8,3:2:0:0:
352,231,51298,1,8,0:3:0:0:
331,188,51403,2,0,P|326:115|395:92,1,125.999992816925,4|2,1:0|3:2,0:0:0:0:
470,28,51718,1,0,0:0:0:0:
475,35,51822,2,0,P|464:64|453:94,1,62.9999964084627,2|0,1:2|0:0,0:0:0:0:
256,64,52032,6,0,P|245:34|234:4,1,62.9999964084627,2|0,3:2|0:0,0:0:0:0:
364,136,52242,2,0,P|355:161|318:194,1,62.9999964084627,10|0,0:0|0:0,0:0:0:0:
154,184,52452,2,0,P|165:154|187:132,1,62.9999964084627,2|0,0:0|0:0,0:0:0:0:
297,281,52662,1,2,1:2:0:0:
280,275,52767,2,0,P|205:303|154:312,1,125.999992816925,2|2,0:0|0:0,0:0:0:0:
121,302,53081,1,8,0:0:0:0:
11,159,53291,37,2,3:2:0:0:
32,137,53396,1,2,0:0:0:0:
67,118,53501,2,0,P|114:174|198:148,1,152.999998865128,4|0,1:0|0:0,0:0:0:0:
329,53,53815,5,0,0:0:0:0:
310,38,53920,2,0,B|275:77|275:77|292:168,1,143.999996185303,4|0,1:0|0:0,0:0:0:0:
447,249,54235,37,0,0:0:0:0:
447,249,54340,2,0,B|482:210|482:210|462:124,1,135.000001573563,10|8,0:0|0:3,0:0:0:0:
319,240,54655,5,8,0:3:0:0:
301,264,54760,2,0,P|235:278|207:178,1,188.999989225388,4|0,1:0|0:0,0:0:0:0:
172,85,55179,38,0,B|122:125|122:125|5:102,1,179.999995231629,4|0,1:0|0:0,0:0:0:0:
168,68,55494,2,0,P|233:139|195:210,1,179.999995231629,2|0,1:2|0:0,0:0:0:0:
68,334,55808,5,2,1:2:0:0:
4,285,55913,1,2,0:0:0:0:
77,252,56018,2,0,P|115:277|165:301,1,89.9999976158143,10|0,0:0|0:0,0:0:0:0:
386,290,56228,38,0,P|348:315|228:365,1,152.999998865128,2|0,0:0|3:0,0:0:0:0:
238,349,56648,2,0,P|285:352|322:374,1,76.4999994325638,2|0,1:2|0:0,0:0:0:0:
487,298,56857,2,0,B|444:235|444:235|475:165,2,152.999998865128,2|2|2,1:2|0:0|3:2,0:0:0:0:
493,147,57487,5,8,0:3:0:0:
324,36,57697,2,0,P|265:78|268:151,1,152.999998865128,10|2,0:0|1:2,0:0:0:0:
329,216,58011,1,2,0:0:0:0:
344,227,58116,2,0,P|346:300|287:342,1,152.999998865128,8|2,0:0|0:0,0:0:0:0:
62,135,58536,38,0,P|99:210|182:198,1,179.999995231629,4|0,1:0|0:0,0:0:0:0:
45,116,58850,2,0,B|34:188|34:188|42:216|42:216|32:298,1,179.999995231629,2|0,1:2|0:0,0:0:0:0:
147,364,59165,5,2,1:2:0:0:
222,335,59270,1,2,0:0:0:0:
160,285,59375,2,0,P|168:240|185:187,1,89.9999976158143,10|0,0:0|0:0,0:0:0:0:
342,53,59585,38,0,P|358:127|389:197,1,152.999998865128,2|0,1:2|3:0,0:0:0:0:
410,208,60004,2,0,P|395:175|366:146,1,76.4999994325638,2|8,1:2|0:0,0:0:0:0:
168,50,60214,2,0,P|96:74|22:91,2,152.999998865128,2|2|2,1:2|0:0|0:0,0:0:0:0:
247,82,60843,5,2,1:2:0:0:
87,211,61053,1,10,0:0:0:0:
98,203,61158,2,0,P|141:217|170:241,1,76.4999994325638,0|8,0:0|0:3,0:0:0:0:
335,316,61368,1,2,0:0:0:0:
350,296,61473,2,0,P|278:288|247:353,1,152.999998865128,8|2,0:0|1:2,0:0:0:0:
382,209,61788,37,0,0:0:0:0:
369,220,61892,2,0,B|413:250|413:250|402:194|402:194|408:178|408:178|396:125,1,179.999995231629,4|0,1:0|0:0,0:0:0:0:
511,243,62207,2,0,P|472:334|397:344,1,179.999995231629,2|0,1:2|0:0,0:0:0:0:
186,300,62522,5,2,1:2:0:0:
247,353,62627,1,2,0:0:0:0:
270,276,62732,2,0,P|257:242|215:192,1,89.9999976158143,10|0,0:0|0:0,0:0:0:0:
34,93,62941,38,0,P|75:152|147:142,1,152.999998865128,2|0,0:0|0:0,0:0:0:0:
155,131,63361,2,0,P|121:153|92:182,1,76.4999994325638,2|0,1:2|0:0,0:0:0:0:
31,349,63571,6,0,L|12:306,1,38.2499997162819,4|0,1:0|0:0,0:0:0:0:
31,349,63990,38,0,L|12:306,1,38.2499997162819,4|0,1:0|0:0,0:0:0:0:
31,349,64410,6,0,L|12:306,1,38.2499997162819,4|0,1:0|0:0,0:0:0:0:
48,240,64620,1,2,0:0:0:0:
114,201,64725,1,2,0:0:0:0:
170,222,64829,1,2,1:2:0:0:
203,253,64934,1,2,0:0:0:0:
231,261,65039,2,0,L|307:236,1,76.4999994325638,2|0,0:0|0:0,0:0:0:0:
500,156,65249,38,0,L|423:128,1,80.9999953823091,6|0,1:2|0:0,0:0:0:0:
261,40,65459,1,2,3:2:0:0:
306,23,65564,1,8,0:0:0:0:
353,32,65669,2,0,P|321:115|241:142,1,161.999990764618,2|8,1:2|0:0,0:0:0:0:
59,70,65983,1,0,0:0:0:0:
80,64,66088,2,0,P|153:108|169:184,1,161.999990764618,2|2,1:2|3:2,0:0:0:0:
126,292,66403,5,8,0:0:0:0:
126,292,66508,2,0,L|31:326,1,80.9999953823091,2|0,1:2|0:0,0:0:0:0:
1,148,66718,2,0,L|77:175,1,80.9999953823091,10|0,0:0|0:0,0:0:0:0:
248,294,66927,38,0,B|227:258|227:258|246:224,1,80.9999953823091,2|8,1:2|0:3,0:0:0:0:
358,115,67137,1,0,1:0:0:0:
400,92,67242,1,0,1:0:0:0:
446,107,67347,2,0,B|466:142|466:142|445:185,1,80.9999953823091,10|0,0:0|1:0,0:0:0:0:
246,223,67557,5,0,1:0:0:0:
199,164,67662,1,0,1:0:0:0:
126,171,67767,2,0,B|77:206|19:206|19:206|76:203|120:232|120:232|181:272|185:343|159:383|72:376|56:307,1,472.50000550747,2|0,1:2|0:0,0:0:0:0:
246,223,68606,38,0,P|301:315|400:273,1,233.999983089448,6|0,1:2|3:0,0:0:0:0:
508,34,68920,1,8,0:0:0:0:
436,34,69025,2,0,P|402:74|373:139,1,116.999991544724,2|0,1:2|0:0,0:0:0:0:
246,223,69235,2,0,P|222:169|184:124,1,116.999991544724,10|0,3:2|0:0,0:0:0:0:
421,271,69445,6,0,B|368:248|310:291|328:302|266:344|195:309,1,233.999983089448,2|0,1:2|3:0,0:0:0:0:
47,200,69760,1,8,0:0:0:0:
86,131,69864,2,0,P|126:173|129:230,1,116.999991544724,2|0,1:2|0:0,0:0:0:0:
202,312,70074,2,0,P|159:349|101:350,1,116.999991544724,10|0,3:2|0:0,0:0:0:0:
472,361,70284,38,0,P|472:296|454:232,1,116.999991544724,2|8,1:2|0:0,0:0:0:0:
391,66,70494,1,2,3:2:0:0:
391,66,70599,1,8,0:0:0:0:
391,66,70704,2,0,P|344:56|287:99,1,116.999991544724,2|0,1:2|0:0,0:0:0:0:
129,222,70913,6,0,P|84:176|62:123,1,116.999991544724,10|0,3:2|0:0,0:0:0:0:
148,32,71123,2,0,P|193:78|215:131,1,116.999991544724,2|0,1:2|0:0,0:0:0:0:
259,253,71333,2,0,P|233:287|240:245,1,116.999991544724,0|8,3:0|0:0,0:0:0:0:
365,153,71543,38,0,B|397:202|397:202|372:260,1,116.999991544724,2|0,1:2|0:0,0:0:0:0:
135,350,71753,2,0,B|103:301|103:301|128:243,1,116.999991544724,10|0,3:2|0:0,0:0:0:0:
328,64,71962,2,0,B|269:103|269:103|100:69,1,233.999983089448,4|0,1:0|3:0,0:0:0:0:
7,181,72277,5,8,0:0:0:0:
27,166,72382,2,0,P|29:223|64:269,1,116.999991544724,2|0,1:2|0:0,0:0:0:0:
240,369,72592,2,0,P|274:322|277:265,1,116.999991544724,10|0,3:2|0:0,0:0:0:0:
13,367,72801,2,0,P|69:272|179:282,1,233.999983089448,2|2,1:2|3:2,0:0:0:0:
373,358,73116,37,8,0:0:0:0:
429,308,73221,2,0,P|404:256|394:198,1,116.999991544724,2|0,1:2|0:0,0:0:0:0:
301,55,73431,2,0,P|290:112|265:165,1,116.999991544724,10|0,3:2|0:0,0:0:0:0:
125,208,73641,5,2,1:2:0:0:
100,164,73746,1,8,0:0:0:0:
45,149,73850,1,2,3:2:0:0:
0,169,73955,1,8,0:0:0:0:
64,45,74060,2,0,P|86:99|104:154,1,116.999991544724,2|0,1:2|0:0,0:0:0:0:
194,300,74270,2,0,P|212:244|234:190,1,116.999991544724,10|0,3:2|0:0,0:0:0:0:
8,294,74480,38,0,P|66:292|111:327,1,116.999991544724,4|0,1:0|0:0,0:0:0:0:
283,302,74690,2,0,P|325:293|291:320,1,116.999991544724,8|8,3:2|0:0,0:0:0:0:
150,219,74899,5,10,0:0:0:0:
201,147,75004,1,8,0:0:0:0:
286,126,75109,1,10,3:2:0:0:
367,158,75214,1,8,0:0:0:0:
416,230,75319,2,0,B|439:177|396:119|385:137|343:75|378:4,1,233.999983089448,6|0,1:2|3:0,0:0:0:0:
512,109,75634,37,8,0:0:0:0:
493,124,75739,2,0,P|471:83|457:11,1,116.999991544724,2|0,1:2|0:0,0:0:0:0:
264,223,75948,2,0,P|286:182|300:110,1,116.999991544724,10|0,3:2|0:0,0:0:0:0:
491,302,76158,6,0,B|391:309|391:309|366:325|366:325|254:334,1,233.999983089448,2|0,1:2|3:0,0:0:0:0:
61,258,76473,1,8,0:0:0:0:
57,240,76578,2,0,P|105:251|151:306,1,116.999991544724,2|0,1:2|0:0,0:0:0:0:
349,129,76788,2,0,P|300:140|254:195,1,116.999991544724,10|0,3:2|0:0,0:0:0:0:
491,302,76997,2,0,P|488:222|494:170,1,116.999991544724,2|8,1:2|0:0,0:0:0:0:
313,6,77207,37,0,3:0:0:0:
313,6,77312,1,10,0:0:0:0:
313,6,77417,2,0,P|255:12|214:52,1,116.999991544724,2|0,1:2|0:0,0:0:0:0:
27,233,77627,6,0,P|84:226|126:187,1,116.999991544724,10|0,3:2|0:0,0:0:0:0:
287,77,77836,2,0,P|267:129|368:260,1,233.999983089448,2|0,1:2|3:0,0:0:0:0:
175,375,78151,37,8,0:0:0:0:
188,380,78256,2,0,P|205:343|229:262,1,116.999991544724,2|0,1:2|0:0,0:0:0:0:
423,168,78466,2,0,P|406:131|382:50,1,116.999991544724,10|0,3:2|0:0,0:0:0:0:
149,203,78676,6,0,P|253:165|337:239,1,233.999983089448,4|0,1:0|3:0,0:0:0:0:
488,339,78990,1,8,0:0:0:0:
472,318,79095,2,0,P|411:334|360:371,1,116.999991544724,2|0,1:2|0:0,0:0:0:0:
192,272,79305,2,0,P|248:285|297:318,1,116.999991544724,10|0,3:2|0:0,0:0:0:0:
36,371,79515,38,0,P|66:251|31:146,1,233.999983089448,2|0,1:2|3:0,0:0:0:0:
130,43,79829,1,8,0:0:0:0:
155,33,79934,2,0,P|181:84|178:158,1,116.999991544724,2|0,1:2|0:0,0:0:0:0:
259,199,80144,2,0,P|240:255|200:296,1,116.999991544724,10|0,3:2|0:0,0:0:0:0:
3,355,80354,5,4,1:0:0:0:
25,319,80459,1,0,1:0:0:0:
63,306,80564,1,0,1:0:0:0:
103,313,80669,1,0,1:0:0:0:
180,352,80774,37,2,1:2:0:0:
229,360,80878,1,0,1:0:0:0:
257,318,80983,1,8,1:2:0:0:
240,270,81088,1,0,1:0:0:0:
191,254,81193,2,0,P|181:212|248:184,1,125.999992816925,2|0,1:2|0:0,0:0:0:0:
401,298,81403,5,10,3:2:0:0:
361,234,81508,1,10,0:0:0:0:
393,170,81613,1,10,0:0:0:0:
480,153,81718,1,10,0:0:0:0:
512,70,81823,1,10,3:2:0:0:
450,8,81928,1,10,0:0:0:0:
369,27,82032,37,2,1:2:0:0:
351,23,82137,1,0,1:0:0:0:
329,18,82242,1,0,1:0:0:0:
311,14,82347,1,0,1:0:0:0:
224,9,82452,6,0,P|189:55|189:113,1,116.999991544724,6|0,1:2|0:0,0:0:0:0:
358,277,82662,2,0,P|392:231|392:173,1,116.999991544724,10|0,3:2|0:0,0:0:0:0:
193,379,82871,2,0,B|300:354|300:354|321:357|321:357|430:334,1,233.999983089448,2|2,1:2|3:2,0:0:0:0:
237,211,83186,37,8,0:0:0:0:
224,227,83291,2,0,P|174:253|111:261,1,116.999991544724,2|0,1:2|0:0,0:0:0:0:
4,117,83501,2,0,P|61:123|113:151,1,116.999991544724,10|0,3:2|0:0,0:0:0:0:
306,197,83711,5,2,1:2:0:0:
342,166,83815,1,10,1:2:0:0:
388,167,83920,1,2,3:2:0:0:
429,188,84025,1,8,0:0:0:0:
284,76,84130,2,0,P|299:133|292:193,1,116.999991544724,2|0,1:2|0:0,0:0:0:0:
488,279,84340,38,0,P|481:221|496:164,1,116.999991544724,10|0,3:2|0:0,0:0:0:0:
334,350,84550,2,0,P|327:293|281:261,1,116.999991544724,2|0,1:2|0:0,0:0:0:0:
74,346,84760,2,0,P|36:324|79:325,1,116.999991544724,0|8,3:0|0:0,0:0:0:0:
181,260,84969,6,0,B|206:203|206:203|175:137,1,116.999991544724,2|0,1:2|0:0,0:0:0:0:
36,42,85179,2,0,B|11:99|11:99|34:148,1,116.999991544724,10|0,3:2|0:0,0:0:0:0:
355,77,85389,2,0,B|295:104|237:70|252:61|190:27|130:59,1,233.999983089448,4|0,1:0|3:0,0:0:0:0:
0,296,85704,37,8,0:0:0:0:
9,289,85808,2,0,P|67:305|118:340,1,116.999991544724,2|0,1:2|0:0,0:0:0:0:
196,146,86018,2,0,P|138:162|87:197,1,116.999991544724,10|0,3:2|0:0,0:0:0:0:
328,378,86228,2,0,P|341:262|374:150,1,233.999983089448,2|0,1:2|3:0,0:0:0:0:
501,254,86543,5,8,0:0:0:0:
512,274,86648,2,0,B|464:310|464:310|415:280,1,116.999991544724,2|0,1:2|0:0,0:0:0:0:
277,157,86857,2,0,B|325:121|325:121|373:150,1,116.999991544724,10|0,3:2|0:0,0:0:0:0:
131,317,87067,2,0,P|130:260|99:210,1,116.999991544724,2|8,1:2|0:0,0:0:0:0:
12,91,87277,37,2,3:2:0:0:
12,91,87382,1,10,0:0:0:0:
12,91,87487,2,0,P|60:121|115:101,1,116.999991544724,2|0,1:2|0:0,0:0:0:0:
278,13,87697,6,0,P|335:11|373:56,1,116.999991544724,10|0,3:2|0:0,0:0:0:0:
512,218,87906,2,0,P|505:159|492:89,1,116.999991544724,4|0,1:0|0:0,0:0:0:0:
314,256,88116,2,0,P|276:234|319:235,1,116.999991544724,8|8,3:2|0:0,0:0:0:0:
498,352,88326,37,10,0:0:0:0:
464,277,88430,1,8,0:0:0:0:
393,234,88535,1,10,0:0:0:0:
314,256,88640,1,8,0:0:0:0:
251,310,88746,2,0,P|144:337|80:248,1,233.999983089448,4|0,1:2|3:0,0:0:0:0:
289,108,89060,5,8,0:0:0:0:
277,96,89165,2,0,P|253:149|234:204,1,116.999991544724,2|0,1:2|0:0,0:0:0:0:
51,327,89375,2,0,P|31:271|8:218,1,116.999991544724,10|0,3:2|0:0,0:0:0:0:
200,42,89585,2,0,P|306:14|370:103,1,233.999983089448,2|2,1:2|3:2,0:0:0:0:
234,204,89899,37,8,0:0:0:0:
176,161,90004,2,0,P|117:155|67:186,1,116.999991544724,2|0,1:2|0:0,0:0:0:0:
241,338,90214,2,0,P|302:345|350:313,1,116.999991544724,10|0,3:2|0:0,0:0:0:0:
458,189,90424,5,2,1:2:0:0:
465,147,90529,1,8,0:0:0:0:
440,117,90634,1,2,3:2:0:0:
407,118,90739,1,8,0:0:0:0:
347,192,90843,2,0,B|290:179|290:179|240:211,1,116.999991544724,2|0,1:2|0:0,0:0:0:0:
109,76,91053,2,0,B|165:63|165:63|215:95,1,116.999991544724,10|0,3:2|0:0,0:0:0:0:
82,260,91263,38,0,P|69:203|31:140,1,116.999991544724,2|0,1:2|0:0,0:0:0:0:
223,254,91473,2,0,P|261:232|218:233,1,116.999991544724,0|8,3:0|0:0,0:0:0:0:
226,354,91683,5,2,1:2:0:0:
301,380,91787,1,2,0:0:0:0:
377,353,91892,1,10,3:2:0:0:
419,284,91997,1,2,0:0:0:0:
410,205,92102,2,0,B|387:223|364:221|364:221|303:194,1,116.999991544724,4|0,1:0|0:0,0:0:0:0:
260,57,92312,2,0,P|261:13|281:52,1,116.999991544724,0|8,3:0|0:0,0:0:0:0:
109,76,92522,38,0,P|132:123|161:190,1,116.999991544724,2|0,1:2|0:0,0:0:0:0:
233,369,92732,2,0,P|256:315|281:262,1,116.999991544724,10|0,3:2|0:0,0:0:0:0:
108,342,92941,2,0,P|-4:291|18:203,1,233.999983089448,2|2,1:2|3:2,0:0:0:0:
223,125,93256,5,8,0:0:0:0:
290,156,93361,2,0,P|306:210|281:261,1,116.999991544724,2|0,1:2|0:0,0:0:0:0:
109,76,93571,2,0,P|83:127|100:181,1,116.999991544724,10|0,3:2|0:0,0:0:0:0:
353,313,93781,37,2,1:2:0:0:
389,303,93885,1,8,0:0:0:0:
412,268,93990,1,2,3:2:0:0:
401,228,94095,1,10,0:0:0:0:
290,156,94200,2,0,P|234:173|182:199,1,116.999991544724,2|0,1:2|0:0,0:0:0:0:
106,280,94410,2,0,P|161:297|213:323,1,116.999991544724,10|0,3:2|0:0,0:0:0:0:
486,375,94620,6,0,B|514:324|514:324|486:272,1,116.999991544724,4|0,1:0|0:0,0:0:0:0:
360,117,94829,1,10,3:2:0:0:
300,174,94933,1,8,0:0:0:0:
217,182,95039,1,10,0:0:0:0:
148,136,95143,1,8,0:0:0:0:
68,159,95248,1,10,3:2:0:0:
34,234,95353,1,8,0:0:0:0:
73,312,95459,37,6,1:2:0:0:
86,301,95564,2,0,P|136:311|189:336,1,99.0000003986359,2|0,0:0|3:0,0:0:0:0:
372,175,95774,5,10,0:0:0:0:
381,182,95878,2,0,B|408:221|408:221|378:270,1,99.0000003986359,2|0,1:2|0:0,0:0:0:0:
238,367,96088,2,0,B|211:328|211:328|241:279,1,99.0000003986359,10|0,3:2|0:0,0:0:0:0:
361,71,96298,37,2,1:2:0:0:
353,86,96403,2,0,P|271:140|176:168,1,198.000000797272,2|10,0:0|0:0,0:0:0:0:
75,62,96718,2,0,B|100:48|111:25|111:25|117:48|137:64,1,99.0000003986359,2|0,1:2|0:0,0:0:0:0:
74,170,96927,2,0,B|49:184|38:207|38:207|32:184|12:168,1,99.0000003986359,10|0,3:2|0:0,0:0:0:0:
236,27,97137,2,0,P|239:75|217:119,1,99.0000003986359,2|0,1:2|0:0,0:0:0:0:
43,271,97347,5,2,3:2:0:0:
10,198,97452,1,10,0:0:0:0:
73,150,97557,2,0,P|122:178|165:178,1,99.0000003986359,2|0,1:2|0:0,0:0:0:0:
381,94,97767,37,10,3:2:0:0:
429,127,97871,1,2,0:0:0:0:
431,186,97976,2,0,P|396:224|349:239,1,99.0000003986359,2|0,1:2|0:0,0:0:0:0:
196,143,98186,5,2,3:2:0:0:
177,177,98291,1,10,0:0:0:0:
187,215,98396,2,0,P|201:263|220:309,1,99.0000003986359,2|0,1:2|0:0,0:0:0:0:
416,362,98606,38,0,P|435:316|448:268,1,99.0000003986359,10|0,3:2|0:0,0:0:0:0:
218,322,98815,1,6,1:2:0:0:
226,330,98920,2,0,B|276:341|276:341|318:308,1,99.0000003986359,2|0,0:0|3:2,0:0:0:0:
316,147,99130,1,10,0:0:0:0:
305,140,99235,2,0,P|256:134|215:159,1,99.0000003986359,2|0,1:2|0:0,0:0:0:0:
35,355,99445,2,0,P|33:304|13:249,1,99.0000003986359,10|0,3:2|0:0,0:0:0:0:
96,88,99655,5,2,1:2:0:0:
86,95,99760,2,0,P|104:205|163:279,1,198.000000797272,2|10,0:0|0:0,0:0:0:0:
437,224,100074,2,0,B|479:249|479:249|428:276,1,99.0000003986359,2|0,1:2|0:0,0:0:0:0:
292,366,100284,2,0,B|250:341|250:341|301:314,1,99.0000003986359,10|0,3:2|0:0,0:0:0:0:
437,224,100494,2,0,P|424:176|396:136,1,99.0000003986359,2|0,1:2|0:0,0:0:0:0:
203,33,100704,37,2,3:2:0:0:
152,92,100808,1,10,0:0:0:0:
205,150,100913,2,0,P|263:157|311:173,1,99.0000003986359,2|0,1:2|0:0,0:0:0:0:
466,232,101123,5,10,3:2:0:0:
499,183,101227,1,2,0:0:0:0:
468,131,101333,2,0,P|418:136|371:150,1,99.0000003986359,6|0,1:2|0:0,0:0:0:0:
132,288,101543,38,0,P|156:233|136:185,1,99.0000003986359,10|2,3:2|0:0,0:0:0:0:
36,93,101753,1,10,0:0:0:0:
99,53,101857,1,8,0:0:0:0:
164,91,101962,1,10,0:0:0:0:
160,166,102067,1,8,0:0:0:0:
91,202,102172,1,6,1:2:0:0:
99,214,102277,2,0,P|57:200|4:186,1,99.0000003986359,2|0,0:0|3:2,0:0:0:0:
226,284,102487,5,10,0:0:0:0:
232,293,102592,2,0,P|279:305|320:280,1,99.0000003986359,2|0,1:2|0:0,0:0:0:0:
474,149,102801,2,0,P|427:137|386:162,1,99.0000003986359,10|0,3:2|0:0,0:0:0:0:
209,36,103011,37,2,1:2:0:0:
217,44,103116,2,0,P|255:135|272:250,1,198.000000797272,2|10,0:0|0:0,0:0:0:0:
102,363,103431,2,0,B|58:339|58:339|98:311,1,99.0000003986359,2|0,1:2|0:0,0:0:0:0:
271,232,103641,2,0,B|315:256|315:256|275:284,1,99.0000003986359,10|0,3:2|0:0,0:0:0:0:
63,73,103850,2,0,P|74:121|96:165,1,99.0000003986359,2|0,1:2|0:0,0:0:0:0:
271,232,104060,5,2,3:2:0:0:
320,169,104165,1,10,0:0:0:0:
277,102,104270,2,0,P|229:115|183:132,1,99.0000003986359,2|0,1:2|0:0,0:0:0:0:
19,237,104480,37,10,3:2:0:0:
3,179,104585,1,2,0:0:0:0:
48,140,104690,2,0,P|103:143|141:171,1,99.0000003986359,2|0,1:2|0:0,0:0:0:0:
282,299,104899,5,2,3:2:0:0:
255,269,105004,1,10,0:0:0:0:
271,232,105109,2,0,P|280:184|260:139,1,99.0000003986359,2|0,1:2|0:0,0:0:0:0:
132,5,105319,2,0,P|111:49|121:97,1,99.0000003986359,10|0,3:2|0:0,0:0:0:0:
415,66,105529,37,6,1:2:0:0:
405,75,105634,2,0,P|357:89|309:99,1,99.0000003986359,2|0,0:0|3:2,0:0:0:0:
128,179,105843,1,10,0:0:0:0:
137,167,105948,2,0,B|180:145|180:145|227:173,1,99.0000003986359,2|0,1:2|0:0,0:0:0:0:
423,336,106158,2,0,B|379:361|379:361|336:339,1,99.0000003986359,10|0,3:2|0:0,0:0:0:0:
201,280,106368,5,2,1:2:0:0:
192,272,106473,2,0,P|96:304|17:374,1,198.000000797272,2|10,0:0|0:0,0:0:0:0:
25,217,106788,2,0,P|45:246|14:228,1,99.0000003986359,2|0,1:2|0:0,0:0:0:0:
84,103,106997,2,0,P|52:85|73:114,1,99.0000003986359,10|0,3:2|0:0,0:0:0:0:
228,186,107207,38,0,P|253:144|298:123,1,99.0000003986359,2|0,1:2|0:0,0:0:0:0:
470,157,107417,1,2,3:2:0:0:
508,87,107522,1,10,0:0:0:0:
458,25,107627,2,0,P|412:28|354:35,1,99.0000003986359,2|0,1:2|0:0,0:0:0:0:
148,59,107836,5,10,3:2:0:0:
197,26,107941,1,2,0:0:0:0:
254,41,108046,2,0,P|292:71|313:115,1,99.0000003986359,6|0,1:2|0:0,0:0:0:0:
312,357,108256,37,10,3:2:0:0:
317,326,108361,1,10,0:0:0:0:
295,299,108466,1,10,0:0:0:0:
217,282,108571,1,8,0:0:0:0:
157,334,108675,1,10,0:0:0:0:
84,303,108780,1,8,0:0:0:0:
25,357,108885,6,0,P|13:333|39:354,1,89.9999976158143,4|0,1:0|0:0,0:0:0:0:
25,357,110354,38,0,P|13:333|39:354,1,89.9999976158143,4|0,1:0|0:0,0:0:0:0:
220,163,110564,2,0,P|232:139|206:160,1,89.9999976158143,4|0,1:0|0:0,0:0:0:0:
15,19,112242,6,0,P|3:43|29:22,1,89.9999976158143,4|0,1:0|0:0,0:0:0:0:
15,19,113711,38,0,P|3:43|29:22,1,89.9999976158143,4|0,1:0|0:0,0:0:0:0:
48,242,113920,2,0,P|60:218|34:239,1,89.9999976158143,4|0,1:0|0:0,0:0:0:0:
270,109,114550,5,2,0:0:0:0:
292,94,114655,1,2,0:0:0:0:
327,94,114760,2,0,P|350:159|417:178,1,143.999996185303,2|2,1:2|3:2,0:0:0:0:
504,123,115074,1,2,0:0:0:0:
490,114,115179,2,0,L|502:195,1,71.9999980926514,2|0,0:0|0:0,0:0:0:0:
431,301,115389,37,2,0:0:0:0:
422,297,115494,1,2,0:0:0:0:
411,290,115599,2,0,P|352:273|302:308,1,125.999992816925,4|2,1:0|0:0,0:0:0:0:
148,351,116018,5,2,0:0:0:0:
27,277,116228,1,2,1:2:0:0:
165,353,116438,2,0,P|144:262|164:171,1,188.999989225388,10|0,0:0|0:0,0:0:0:0:
186,156,116857,1,2,0:0:0:0:
112,34,117067,37,2,1:2:0:0:
136,40,117172,1,0,0:0:0:0:
146,50,117277,2,0,L|220:27,1,62.9999964084627,2|0,1:2|0:0,0:0:0:0:
324,101,117487,1,2,0:0:0:0:
316,106,117592,1,8,0:0:0:0:
306,113,117697,2,0,L|235:95,1,62.9999964084627,2|8,1:2|0:0,0:0:0:0:
395,62,117906,1,2,0:0:0:0:
278,213,118116,6,0,P|340:249|366:311,1,125.999992816925,10|0,0:0|0:0,0:0:0:0:
263,299,118431,1,2,0:0:0:0:
253,288,118536,2,0,P|184:308|114:308,1,125.999992816925,0|2,1:0|0:0,0:0:0:0:
29,232,118850,37,2,0:0:0:0:
49,244,118955,1,10,0:0:0:0:
49,244,119165,6,0,P|87:238|117:215,1,76.4999994325638,10|0,0:0|0:0,0:0:0:0:
196,188,119375,2,0,P|217:156|222:119,1,76.4999994325638,10|0,0:0|0:0,0:0:0:0:
148,47,119585,38,0,P|125:77|120:115,1,76.4999994325638,10|0,1:2|0:0,0:0:0:0:
49,244,119795,2,0,P|55:281|77:311,1,76.4999994325638,8|2,0:0|0:0,0:0:0:0:
223,349,120004,1,8,0:0:0:0:
252,339,120109,1,2,0:0:0:0:
280,328,120214,2,0,P|277:284|267:242,1,76.4999994325638,8|0,0:0|0:0,0:0:0:0:
283,49,120424,5,10,0:0:0:0:
361,92,120529,1,2,0:0:0:0:
241,169,120634,2,0,P|162:174|118:109,1,152.999998865128,4|8,1:0|0:0,0:0:0:0:
47,21,120948,1,0,1:0:0:0:
25,40,121053,1,10,0:0:0:0:
12,85,121158,1,8,0:0:0:0:
42,137,121263,1,10,1:2:0:0:
79,195,121368,1,8,0:0:0:0:
61,269,121473,1,4,1:0:0:0:
206,71,121892,38,0,L|291:94,1,80.9999953823091,4|0,1:0|0:0,0:0:0:0:
427,215,122102,1,8,0:0:0:0:
449,260,122207,1,8,0:0:0:0:
414,296,122312,5,14,1:2:0:0:
355,250,122416,1,2,0:0:0:0:
282,265,122521,1,10,3:2:0:0:
246,330,122626,1,2,0:0:0:0:
191,256,122732,38,0,P|151:275|137:339,1,107.999993843079,2|0,1:2|0:0,0:0:0:0:
274,186,122941,2,0,P|242:154|167:147,1,107.999993843079,10|0,3:2|0:0,0:0:0:0:
0,99,123151,5,2,1:2:0:0:
41,156,123256,1,2,0:0:0:0:
41,87,123361,1,10,3:2:0:0:
0,141,123466,1,2,0:0:0:0:
66,120,123571,38,0,P|79:75|84:-4,1,107.999993843079,2|0,1:2|1:0,0:0:0:0:
251,255,123781,2,0,P|240:216|231:144,1,107.999993843079,10|0,3:2|0:0,0:0:0:0:
270,31,123990,5,2,1:2:0:0:
341,58,124095,1,2,0:0:0:0:
412,85,124200,1,10,3:2:0:0:
483,113,124305,1,2,0:0:0:0:
453,41,124410,38,0,P|417:68|407:136,1,107.999993843079,2|0,1:2|0:0,0:0:0:0:
512,303,124620,2,0,P|495:261|446:224,1,107.999993843079,10|0,3:2|0:0,0:0:0:0:
282,290,124829,2,0,L|69:230,1,215.999987686158,2|8,1:2|3:2,0:0:0:0:
304,280,125249,5,2,1:2:0:0:
374,250,125354,1,0,1:0:0:0:
430,277,125459,1,10,3:2:0:0:
463,307,125564,1,2,0:0:0:0:
489,304,125669,37,4,1:0:0:0:
508,225,125774,1,2,0:0:0:0:
451,167,125878,1,10,3:2:0:0:
371,184,125983,1,2,0:0:0:0:
304,280,126088,6,0,P|284:239|234:200,1,107.999993843079,2|0,1:2|0:0,0:0:0:0:
20,367,126298,2,0,P|39:326|95:285,1,107.999993843079,10|0,3:2|0:0,0:0:0:0:
177,81,126508,37,2,1:2:0:0:
159,68,126613,2,0,P|115:79|36:105,1,107.999993843079,2|8,0:0|3:2,0:0:0:0:
158,227,126822,5,2,0:0:0:0:
219,182,126927,1,2,1:2:0:0:
282,195,127032,1,2,1:2:0:0:
317,220,127137,1,10,3:2:0:0:
337,227,127242,1,2,0:0:0:0:
358,224,127347,38,0,P|354:277|321:319,1,107.999993843079,2|0,1:2|0:0,0:0:0:0:
193,355,127557,2,0,P|196:301|229:259,1,107.999993843079,10|0,3:2|0:0,0:0:0:0:
453,69,127767,6,0,P|400:57|347:46,1,107.999993843079,2|0,1:2|0:0,0:0:0:0:
358,224,127976,2,0,P|410:212|463:201,1,107.999993843079,8|0,3:2|0:0,0:0:0:0:
216,23,128186,2,0,P|195:72|175:123,1,107.999993843079,2|0,1:2|1:0,0:0:0:0:
240,19,128396,2,0,P|219:68|199:119,1,107.999993843079,10|0,3:2|0:0,0:0:0:0:
36,257,128606,37,2,1:2:0:0:
105,228,128711,1,0,1:0:0:0:
174,256,128815,1,10,3:2:0:0:
182,331,128920,1,8,0:0:0:0:
254,273,129025,6,0,P|260:225|295:175,1,107.999993843079,2|0,1:2|0:0,0:0:0:0:
434,83,129235,1,10,3:2:0:0:
371,40,129340,1,2,0:0:0:0:
300,66,129445,2,0,P|251:59|184:48,1,107.999993843079,2|0,1:2|0:0,0:0:0:0:
112,230,129655,38,0,P|165:222|218:213,1,107.999993843079,10|0,3:2|0:0,0:0:0:0:
0,73,129864,1,2,1:2:0:0:
18,146,129969,1,2,0:0:0:0:
39,218,130074,1,10,3:2:0:0:
64,289,130179,1,2,0:0:0:0:
112,230,130284,6,0,P|63:209|12:225,1,107.999993843079,2|0,1:2|1:0,0:0:0:0:
206,362,130494,2,0,P|258:364|300:332,1,107.999993843079,10|0,0:0|0:0,0:0:0:0:
479,158,130704,38,0,P|463:209|452:262,1,107.999993843079,2|0,1:2|0:0,0:0:0:0:
251,267,130913,2,0,P|266:215|277:162,1,107.999993843079,10|0,3:2|0:0,0:0:0:0:
490,150,131123,6,0,P|474:201|463:254,1,107.999993843079,2|0,1:2|0:0,0:0:0:0:
240,275,131333,2,0,P|255:223|266:170,1,107.999993843079,10|0,3:2|0:0,0:0:0:0:
110,67,131543,2,0,P|19:55|11:169,1,215.999987686158,2|8,1:2|3:2,0:0:0:0:
134,62,131962,37,2,1:2:0:0:
172,41,132067,1,0,1:0:0:0:
225,48,132172,1,8,0:0:0:0:
271,92,132277,1,0,0:0:0:0:
336,117,132382,2,0,P|368:56|437:49,1,143.999996185303,4|2,1:0|0:0,0:0:0:0:
505,116,132697,5,2,1:2:0:0:
505,116,132801,2,0,P|471:179|446:246,1,143.999996185303,2|2,0:0|1:2,0:0:0:0:
283,343,133221,38,0,P|244:286|175:280,1,143.999996185303,10|2,0:0|0:0,0:0:0:0:
76,348,133536,1,0,0:0:0:0:
65,366,133641,2,0,P|134:360|173:302,1,143.999996185303,2|10,1:2|0:0,0:0:0:0:
233,35,134060,6,0,B|243:93|184:154|114:162|60:140|60:140|110:193|171:200|253:173|273:103|273:103|241:182|243:260|313:284|402:243|404:187|362:104|284:106|266:179|322:198,1,863.999950744631,4|0,1:2|3:0,0:0:0:0:
306,189,135948,2,0,L|320:258,1,53.9999969215394,0|0,3:0|3:0,0:0:0:0:
432,299,136578,37,8,0:0:0:0:
362,362,136788,1,0,1:0:0:0:
362,362,136997,1,10,0:0:0:0:
144,253,137417,6,0,B|115:215|154:152|154:152|217:104|213:42|213:42|176:-5|116:7|89:50,1,377.999978450776,6|2,1:2|0:0,0:0:0:0:
231,220,138256,38,0,B|281:186|327:220|327:220|357:286|441:292|485:237|479:150|395:138,1,377.999978450776,6|2,1:2|0:0,0:0:0:0:
308,20,139095,6,0,B|277:87|203:107|203:107|153:72|163:3|163:3|131:60|60:61,1,377.999978450776,6|2,1:2|0:0,0:0:0:0:
0,162,139934,37,8,0:3:0:0:
25,237,140354,1,8,0:3:0:0:
57,308,140774,6,0,B|97:242|169:250|169:250|178:314|246:332|246:332|295:271|355:283,1,377.999978450776,6|2,1:2|0:0,0:0:0:0:
512,224,141613,38,0,B|512:253|486:282|486:282|468:246|430:203|371:206|371:206|394:217|437:254|433:309|393:347,1,377.999978450776,6|2,1:2|0:0,0:0:0:0:
251,155,142452,6,0,B|215:157|186:195|186:195|182:134|237:86|313:111|313:111|251:86|240:24,1,377.999978450776,6|2,1:2|0:0,0:0:0:0:
332,26,143291,37,8,0:3:0:0:
422,79,143501,1,0,1:0:0:0:
429,75,143606,1,0,1:0:0:0:
420,71,143711,1,8,0:3:0:0:
512,120,143920,1,8,0:0:0:0:
313,111,144130,6,0,P|340:176|331:247,1,143.999996185303,4|0,1:0|0:0,0:0:0:0:
116,354,144550,1,2,1:2:0:0:
235,266,144760,1,2,0:0:0:0:
101,357,144969,2,0,P|115:286|128:215,1,143.999996185303,2|0,1:2|0:0,0:0:0:0:
18,25,145389,37,2,1:2:0:0:
162,72,145599,1,2,0:0:0:0:
23,188,145808,2,0,P|54:126|121:104,1,143.999996185303,4|2,1:0|0:0,0:0:0:0:
213,151,146123,1,0,0:0:0:0:
230,161,146228,2,0,P|296:139|328:76,1,143.999996185303,2|2,1:2|0:0,0:0:0:0:
233,20,146648,5,2,1:2:0:0:
233,20,147067,1,2,1:2:0:0:
280,229,147277,1,2,0:0:0:0:
195,182,147487,38,0,P|158:255|26:237,1,215.999994277954,4|0,1:0|0:0,0:0:0:0:
8,174,147906,1,2,1:2:0:0:
47,346,148116,1,2,0:0:0:0:
0,157,148326,2,0,P|69:154|104:95,1,143.999996185303,2|0,1:2|0:0,0:0:0:0:
274,14,148746,5,2,1:2:0:0:
195,122,148955,2,0,P|212:165|228:188,1,71.9999980926514,2|0,0:0|0:0,0:0:0:0:
382,298,149165,37,4,1:0:0:0:
376,248,149270,1,0,1:0:0:0:
333,221,149375,1,0,1:0:0:0:
290,246,149480,1,0,1:0:0:0:
227,312,149585,5,8,1:2:0:0:
148,319,149690,1,0,1:0:0:0:
94,260,149795,1,0,1:0:0:0:
131,190,149899,1,0,1:0:0:0:
222,132,150004,38,0,P|269:145|322:162,1,99.0000003986359,10|8,1:2|0:0,0:0:0:0:
456,109,150214,5,10,0:0:0:0:
437,74,150319,1,10,0:0:0:0:
385,45,150424,1,10,1:2:0:0:
309,69,150529,1,10,3:2:0:0:
236,121,150634,1,10,3:2:0:0:
140,88,150739,1,10,3:2:0:0:
75,9,150843,37,2,1:2:0:0:
53,15,150948,1,0,1:0:0:0:
31,20,151053,1,0,1:0:0:0:
9,26,151158,1,0,1:0:0:0:
8,106,151263,6,0,B|47:149|47:149|8:199,1,116.999991544724,6|0,1:2|0:0,0:0:0:0:
233,338,151473,2,0,B|194:295|194:295|233:245,1,116.999991544724,10|0,3:2|0:0,0:0:0:0:
47,383,151683,2,0,P|104:282|122:167,1,233.999983089448,2|0,1:2|3:0,0:0:0:0:
306,51,151997,37,8,0:0:0:0:
284,61,152102,2,0,P|277:124|313:176,1,116.999991544724,2|0,1:2|0:0,0:0:0:0:
439,231,152312,2,0,P|448:288|420:339,1,116.999991544724,10|0,3:2|0:0,0:0:0:0:
207,179,152522,5,2,1:2:0:0:
202,227,152627,1,8,0:0:0:0:
233,268,152732,1,2,3:2:0:0:
278,269,152836,1,10,0:0:0:0:
371,189,152941,2,0,P|347:137|295:113,1,116.999991544724,2|0,1:2|0:0,0:0:0:0:
256,13,153151,38,0,P|198:10|153:45,1,116.999991544724,10|0,3:2|0:0,0:0:0:0:
452,199,153361,2,0,P|449:141|456:83,1,116.999991544724,2|0,1:2|0:0,0:0:0:0:
218,191,153571,2,0,P|183:164|226:171,1,116.999991544724,0|8,3:0|0:0,0:0:0:0:
328,252,153781,6,0,P|349:200|312:158,1,116.999991544724,2|0,1:2|0:0,0:0:0:0:
484,368,153990,2,0,P|470:314|512:278,1,116.999991544724,10|0,3:2|0:0,0:0:0:0:
284,375,154200,38,0,B|242:330|168:347|187:364|119:381|66:332,1,233.999983089448,4|0,1:0|3:0,0:0:0:0:
47,105,154515,1,8,0:0:0:0:
33,110,154620,2,0,P|40:167|79:209,1,116.999991544724,2|0,1:2|0:0,0:0:0:0:
218,222,154829,2,0,P|210:164|171:122,1,116.999991544724,10|0,3:2|0:0,0:0:0:0:
0,335,155039,6,0,B|46:330|84:291|84:291|126:365|212:365,1,233.999983089448,2|2,1:2|3:2,0:0:0:0:
416,272,155354,1,8,0:0:0:0:
432,258,155459,2,0,P|404:207|398:149,1,116.999991544724,2|0,1:2|0:0,0:0:0:0:
193,364,155669,2,0,P|220:313|226:255,1,116.999991544724,10|0,3:2|0:0,0:0:0:0:
85,21,155878,2,0,P|109:83|128:144,1,116.999991544724,2|8,1:2|0:0,0:0:0:0:
74,298,156088,37,2,3:2:0:0:
74,298,156193,1,10,0:0:0:0:
74,298,156298,2,0,P|131:298|179:267,1,116.999991544724,2|0,1:2|0:0,0:0:0:0:
466,347,156508,6,0,P|408:347|360:316,1,116.999991544724,10|0,3:2|0:0,0:0:0:0:
496,122,156718,2,0,P|508:178|512:246,1,116.999991544724,4|0,1:0|0:0,0:0:0:0:
347,116,156927,2,0,P|312:142|355:135,1,116.999991544724,8|8,3:2|0:0,0:0:0:0:
414,32,157137,37,10,0:0:0:0:
334,11,157242,1,8,0:0:0:0:
263,52,157347,1,10,3:2:0:0:
198,103,157452,1,8,0:0:0:0:
116,98,157557,2,0,B|156:155|156:155|124:325,1,233.999983089448,6|0,1:2|3:0,0:0:0:0:
320,376,157871,5,8,0:0:0:0:
340,366,157976,2,0,P|364:315|332:270,1,116.999991544724,2|0,1:2|0:0,0:0:0:0:
155,156,158186,2,0,P|164:211|216:230,1,116.999991544724,10|0,3:2|0:0,0:0:0:0:
463,73,158396,2,0,P|350:100|242:144,1,233.999983089448,2|0,1:2|3:0,0:0:0:0:
87,30,158711,37,8,0:0:0:0:
115,40,158815,2,0,P|171:26|228:11,1,116.999991544724,2|0,1:2|0:0,0:0:0:0:
267,254,159025,2,0,P|210:239|153:225,1,116.999991544724,10|0,3:2|0:0,0:0:0:0:
46,118,159235,5,2,1:2:0:0:
75,164,159340,1,8,0:0:0:0:
60,216,159445,1,2,3:2:0:0:
13,229,159550,1,10,0:0:0:0:
152,188,159655,2,0,P|210:185|265:202,1,116.999991544724,2|0,1:2|0:0,0:0:0:0:
452,321,159864,38,0,P|393:317|338:334,1,116.999991544724,10|0,3:2|0:0,0:0:0:0:
144,383,160074,2,0,P|167:332|140:283,1,116.999991544724,2|0,1:2|0:0,0:0:0:0:
33,167,160284,2,0,P|-2:194|41:187,1,116.999991544724,0|8,3:0|0:0,0:0:0:0:
238,113,160494,2,0,P|235:171|206:222,1,116.999991544724,2|0,1:2|0:0,0:0:0:0:
83,46,160704,5,10,3:2:0:0:
83,46,160808,1,0,0:0:0:0:
83,46,160913,2,0,B|156:-2|238:30|238:30|194:32|164:69,1,233.999983089448,4|0,1:0|3:0,0:0:0:0:
448,148,161228,37,8,0:0:0:0:
467,157,161333,2,0,B|493:102|493:102|473:49,1,116.999991544724,2|0,1:2|0:0,0:0:0:0:
321,254,161543,2,0,B|295:199|295:199|314:146,1,116.999991544724,10|0,3:2|0:0,0:0:0:0:
83,46,161753,2,0,P|185:36|176:138,1,233.999983089448,2|0,1:2|3:0,0:0:0:0:
27,215,162067,5,8,0:0:0:0:
91,171,162172,2,0,P|137:204|156:259,1,116.999991544724,2|0,1:2|0:0,0:0:0:0:
291,378,162382,2,0,P|310:323|356:289,1,116.999991544724,10|0,3:2|0:0,0:0:0:0:
158,360,162592,2,0,P|101:339|47:316,1,116.999991544724,2|8,1:2|0:0,0:0:0:0:
228,185,162801,37,2,3:2:0:0:
228,185,162906,1,10,0:0:0:0:
228,185,163011,2,0,P|285:164|339:141,1,116.999991544724,2|0,1:2|0:0,0:0:0:0:
481,62,163221,2,0,P|424:41|370:18,1,116.999991544724,10|0,3:2|0:0,0:0:0:0:
348,250,163431,6,0,P|403:234|435:187,1,116.999991544724,4|0,1:0|0:0,0:0:0:0:
357,363,163641,2,0,P|301:362|255:319,1,116.999991544724,10|0,3:2|0:0,0:0:0:0:
164,142,163850,37,10,0:0:0:0:
68,153,163954,1,8,0:0:0:0:
38,245,164059,1,10,0:0:0:0:
116,302,164164,1,8,0:0:0:0:
206,255,164270,22,0,P|290:166|402:209,1,251.999985633851,6|0,1:2|3:0,0:0:0:0:
490,30,164585,1,8,0:0:0:0:
453,13,164690,2,0,P|467:64|457:135,1,125.999992816925,2|0,1:2|0:0,0:0:0:0:
323,364,164899,2,0,P|309:313|319:242,1,125.999992816925,10|0,3:2|0:0,0:0:0:0:
208,83,165109,2,0,P|95:75|92:188,1,251.999985633851,2|0,1:2|3:0,0:0:0:0:
305,95,165424,5,8,0:0:0:0:
338,91,165529,2,0,P|313:154|262:187,1,125.999992816925,2|0,1:2|0:0,0:0:0:0:
297,281,165739,2,0,P|234:307|175:295,1,125.999992816925,10|0,3:2|0:0,0:0:0:0:
28,196,165948,37,2,1:2:0:0:
51,157,166053,1,8,0:0:0:0:
35,111,166158,1,2,3:2:0:0:
2,88,166263,1,10,0:0:0:0:
110,12,166368,2,0,P|151:56|212:73,1,125.999992816925,2|0,1:2|0:0,0:0:0:0:
384,18,166578,2,0,P|426:62|416:122,1,125.999992816925,10|0,3:2|0:0,0:0:0:0:
248,212,166788,6,0,P|246:311|380:335,1,251.999985633851,2|0,1:2|3:0,0:0:0:0:
485,228,167102,1,8,0:0:0:0:
494,215,167207,2,0,P|497:151|470:94,1,125.999992816925,2|0,1:2|0:0,0:0:0:0:
376,53,167417,37,10,3:2:0:0:
307,112,167522,1,2,0:0:0:0:
183,75,167627,2,0,P|78:81|145:11,1,251.999985633851,4|0,1:0|3:0,0:0:0:0:
344,134,167941,5,8,0:0:0:0:
327,119,168046,2,0,P|316:180|279:230,1,125.999992816925,2|0,1:2|0:0,0:0:0:0:
72,332,168256,2,0,P|82:270|119:220,1,125.999992816925,10|0,3:2|0:0,0:0:0:0:
382,269,168466,38,0,P|282:338|168:296,1,251.999985633851,2|0,1:2|3:0,0:0:0:0:
32,115,168781,1,8,0:0:0:0:
93,49,168885,2,0,P|124:103|113:164,1,125.999992816925,2|0,1:2|0:0,0:0:0:0:
5,376,169095,2,0,P|-6:315|24:261,1,125.999992816925,10|0,3:2|0:0,0:0:0:0:
197,158,169305,6,0,P|253:188|312:211,1,125.999992816925,2|8,1:2|0:0,0:0:0:0:
421,90,169515,1,2,3:2:0:0:
421,90,169620,1,10,0:0:0:0:
421,90,169725,2,0,P|349:77|332:31,1,125.999992816925,2|0,1:2|0:0,0:0:0:0:
502,129,169934,38,0,P|460:177|435:234,1,125.999992816925,10|0,3:2|0:0,0:0:0:0:
317,361,170144,2,0,P|291:303|250:256,1,125.999992816925,4|0,1:0|0:0,0:0:0:0:
61,364,170354,2,0,P|17:343|64:334,1,125.999992816925,10|8,3:2|0:0,0:0:0:0:
149,288,170564,5,10,0:0:0:0:
185,207,170669,1,8,0:0:0:0:
152,124,170774,1,10,3:2:0:0:
68,99,170878,1,8,0:0:0:0:
0,155,170983,2,0,B|57:207|133:176|115:159|186:125|240:163,1,251.999985633851,4|0,1:2|3:0,0:0:0:0:
435,233,171298,37,8,0:0:0:0:
496,168,171403,2,0,P|439:144|381:166,1,125.999992816925,2|0,1:2|0:0,0:0:0:0:
162,286,171613,2,0,P|205:330|267:333,1,125.999992816925,10|0,3:2|0:0,0:0:0:0:
345,73,171822,2,0,P|257:160|137:196,1,251.999985633851,2|2,1:2|3:2,0:0:0:0:
7,89,172137,5,8,0:0:0:0:
68,42,172242,2,0,P|129:29|191:17,1,125.999992816925,2|0,1:2|0:0,0:0:0:0:
260,220,172452,2,0,P|198:207|136:195,1,125.999992816925,10|0,3:2|0:0,0:0:0:0:
365,98,172662,37,2,1:2:0:0:
406,80,172767,1,8,0:0:0:0:
440,96,172871,1,2,3:2:0:0:
457,122,172976,1,10,0:0:0:0:
348,205,173081,2,0,P|357:267|370:328,1,125.999992816925,2|0,1:2|0:0,0:0:0:0:
191,17,173291,6,0,P|181:79|168:140,1,125.999992816925,10|0,3:2|0:0,0:0:0:0:
15,238,173501,2,0,P|75:225|127:258,1,125.999992816925,2|0,1:2|0:0,0:0:0:0:
286,367,173711,2,0,P|309:325|265:344,1,125.999992816925,0|8,3:0|0:0,0:0:0:0:
414,368,173920,2,0,P|415:292|383:243,1,125.999992816925,2|0,1:2|0:0,0:0:0:0:
318,49,174130,37,10,3:2:0:0:
413,73,174235,1,2,0:0:0:0:
489,8,174340,2,0,P|420:27|366:189,1,251.999985633851,4|0,1:0|3:0,0:0:0:0:
502,235,174655,5,8,0:0:0:0:
510,223,174760,2,0,P|510:160|475:109,1,125.999992816925,2|0,1:2|0:0,0:0:0:0:
297,287,174969,2,0,P|341:330|402:341,1,125.999992816925,10|0,3:2|0:0,0:0:0:0:
243,131,175179,2,0,B|175:116|128:175|152:188|101:234|21:233,1,251.999985633851,2|2,1:2|3:2,0:0:0:0:
195,364,175494,37,8,0:0:0:0:
177,349,175599,2,0,P|201:290|237:239,1,125.999992816925,2|0,1:2|0:0,0:0:0:0:
39,105,175808,2,0,P|89:61|152:82,1,125.999992816925,10|0,3:2|0:0,0:0:0:0:
267,162,176018,5,4,1:0:0:0:
325,211,176123,1,0,1:0:0:0:
395,181,176228,1,0,1:0:0:0:
407,106,176333,1,0,1:0:0:0:
344,27,176438,37,10,1:2:0:0:
253,14,176543,1,0,1:0:0:0:
180,67,176648,1,0,1:0:0:0:
170,155,176753,1,0,1:0:0:0:
207,242,176857,5,10,1:2:0:0:
114,284,176961,1,8,0:0:0:0:
23,239,177066,1,10,0:0:0:0:
0,137,177171,1,10,0:0:0:0:
49,56,177276,37,10,1:2:0:0:
142,147,177382,1,10,0:0:0:0:
257,87,177487,1,10,0:0:0:0:
341,185,177592,1,10,0:0:0:0:
431,120,177697,5,2,1:2:0:0:
457,127,177801,1,0,1:0:0:0:
483,136,177906,1,0,1:0:0:0:
509,144,178011,1,0,1:0:0:0:
474,308,178116,38,0,P|413:313|378:364,1,125.999992816925,6|0,1:2|0:0,0:0:0:0:
245,130,178326,2,0,P|306:135|341:186,1,125.999992816925,10|0,3:2|0:0,0:0:0:0:
120,342,178536,2,0,P|96:213|42:95,1,251.999985633851,2|0,1:2|3:0,0:0:0:0:
184,14,178850,5,8,0:0:0:0:
164,24,178955,2,0,P|157:85|198:131,1,125.999992816925,2|0,1:2|0:0,0:0:0:0:
397,256,179165,2,0,P|437:210|431:149,1,125.999992816925,10|0,3:2|0:0,0:0:0:0:
170,211,179375,2,0,P|227:235|278:272,1,125.999992816925,2|8,1:2|0:0,0:0:0:0:
424,380,179585,37,2,3:2:0:0:
424,380,179690,1,10,0:0:0:0:
424,380,179795,2,0,P|395:318|394:258,1,125.999992816925,2|0,1:2|0:0,0:0:0:0:
189,370,180004,2,0,P|218:308|219:248,1,125.999992816925,10|0,3:2|0:0,0:0:0:0:
68,48,180214,6,0,P|11:141|116:175,1,251.999985633851,2|0,1:2|3:0,0:0:0:0:
277,82,180529,1,8,0:0:0:0:
293,72,180634,2,0,P|233:56|170:44,1,125.999992816925,2|0,1:2|0:0,0:0:0:0:
219,251,180843,2,0,P|280:239|341:223,1,125.999992816925,10|0,3:2|0:0,0:0:0:0:
470,19,181053,38,0,B|416:69|416:69|445:252,1,251.999985633851,6|0,1:2|3:0,0:0:0:0:
260,312,181368,1,8,0:0:0:0:
244,322,181473,2,0,P|304:338|367:350,1,125.999992816925,2|0,1:2|0:0,0:0:0:0:
318,143,181683,2,0,P|257:155|196:171,1,125.999992816925,10|0,3:2|0:0,0:0:0:0:
98,366,181892,6,0,B|-2:294|-2:294|84:197,1,251.999985633851,2|0,1:2|3:0,0:0:0:0:
256,45,182207,1,8,0:0:0:0:
278,31,182312,2,0,B|222:-2|222:-2|174:36,1,125.999992816925,2|0,1:2|0:0,0:0:0:0:
328,160,182522,2,0,B|384:193|384:193|431:154,1,125.999992816925,10|0,3:2|0:0,0:0:0:0:
176,114,182732,2,0,P|190:175|212:234,1,125.999992816925,2|0,1:2|0:0,0:0:0:0:
349,376,182941,37,2,3:2:0:0:
440,333,183046,1,10,0:0:0:0:
339,232,183151,2,0,P|323:293|343:368,1,125.999992816925,2|0,1:2|0:0,0:0:0:0:
126,250,183361,6,0,P|157:304|224:343,1,125.999992816925,10|0,3:2|0:0,0:0:0:0:
416,138,183571,2,0,B|301:73|301:73|192:124,1,251.999985633851,6|8,0:0|3:2,0:0:0:0:
28,208,183885,1,8,0:0:0:0:
52,215,183990,37,10,0:0:0:0:
3,142,184094,1,8,0:0:0:0:
37,60,184199,1,10,3:2:0:0:
124,51,184304,1,8,0:0:0:0:
180,119,184410,2,0,P|133:258|128:374,1,251.999985633851,6|0,1:2|3:2,0:0:0:0:
376,246,184725,5,8,0:0:0:0:
391,232,184829,2,0,P|348:191|299:223,1,125.999992816925,2|0,1:2|0:0,0:0:0:0:
208,348,185039,2,0,P|257:379|299:339,1,125.999992816925,10|0,3:2|0:0,0:0:0:0:
108,170,185249,2,0,B|25:271|25:271|112:355,1,251.999985633851,2|2,1:2|3:2,0:0:0:0:
301,109,185564,37,8,0:0:0:0:
320,93,185669,2,0,B|270:50|270:50|213:72,1,125.999992816925,2|0,1:2|0:0,0:0:0:0:
240,261,185878,2,0,B|297:283|297:283|346:240,1,125.999992816925,10|0,3:2|0:0,0:0:0:0:
123,132,186088,5,2,1:2:0:0:
108,170,186193,1,8,0:0:0:0:
128,205,186298,1,2,3:2:0:0:
163,208,186403,1,10,0:0:0:0:
210,331,186508,2,0,P|148:323|99:360,1,125.999992816925,2|0,1:2|0:0,0:0:0:0:
311,213,186718,38,0,P|372:220|421:183,1,125.999992816925,10|0,3:2|0:0,0:0:0:0:
206,14,186927,2,0,B|214:123|214:123|231:152|231:152|239:260,1,251.999985633851,2|0,1:2|3:0,0:0:0:0:
393,378,187242,5,8,0:0:0:0:
370,362,187347,2,0,P|389:314|459:287,1,125.999992816925,2|0,1:2|0:0,0:0:0:0:
296,149,187557,2,0,P|346:137|408:178,1,125.999992816925,10|0,3:2|0:0,0:0:0:0:
202,347,187767,2,0,P|89:345|63:228,1,251.999985633851,6|0,1:2|3:0,0:0:0:0:
175,42,188081,37,8,0:0:0:0:
198,58,188186,2,0,P|179:106|109:133,1,125.999992816925,2|0,1:2|0:0,0:0:0:0:
277,260,188396,2,0,P|226:271|164:230,1,125.999992816925,10|0,3:2|0:0,0:0:0:0:
426,62,188606,2,0,B|485:120|485:120|454:286,1,251.999985633851,2|0,1:2|3:0,0:0:0:0:
288,133,188920,5,8,0:0:0:0:
305,122,189025,2,0,P|361:144|369:204,1,125.999992816925,2|0,1:2|0:0,0:0:0:0:
225,327,189235,2,0,P|169:304|161:244,1,125.999992816925,10|0,3:2|0:0,0:0:0:0:
427,382,189445,38,0,P|450:258|491:139,1,251.999985633851,2|0,1:2|3:0,0:0:0:0:
341,31,189760,1,8,0:0:0:0:
368,50,189864,2,0,P|256:149|161:109,1,251.999985633851,2|8,1:2|3:2,0:0:0:0:
59,37,190179,1,0,0:0:0:0:
82,18,190284,2,0,P|182:105|167:225,1,251.999985633851,6|8,1:2|3:2,0:0:0:0:
40,351,190599,5,8,0:0:0:0:
30,334,190704,1,10,0:0:0:0:
118,262,190808,1,8,0:0:0:0:
203,313,190913,1,10,3:2:0:0:
249,256,191018,1,10,0:0:0:0:
300,277,191123,1,6,1:2:0:0:
300,277,191543,2,0,L|390:256,1,80.9999953823091,10|2,0:0|0:0,0:0:0:0:
484,101,191753,37,2,0:0:0:0:
458,80,191857,1,2,0:0:0:0:
413,76,191962,2,0,P|381:55|373:15,1,80.9999953823091,2|0,1:2|0:0,0:0:0:0:
270,49,192172,2,0,P|275:91|278:137,1,80.9999953823091,2|0,0:0|0:0,0:0:0:0:
390,242,192382,6,0,P|429:231|476:224,1,80.9999953823091,10|0,0:0|0:0,0:0:0:0:
316,335,192592,2,0,B|281:309|281:309|303:270,1,80.9999953823091,2|0,0:0|0:0,0:0:0:0:
76,363,192801,38,0,P|110:290|120:210,1,161.999990764618,2|0,1:2|0:0,0:0:0:0:
27,78,193221,1,10,0:0:0:0:
207,15,193431,1,2,0:0:0:0:
242,25,193536,1,2,0:0:0:0:
258,58,193641,2,0,P|367:46|364:224,1,323.999981529237,2|8,1:2|0:0,0:0:0:0:
199,354,194270,5,2,0:0:0:0:
175,341,194375,1,2,0:0:0:0:
154,324,194480,2,0,P|157:245|213:190,1,161.999990764618,6|0,0:0|0:0,0:0:0:0:
369,293,194899,37,10,0:0:0:0:
339,280,195004,1,2,0:0:0:0:
430,226,195109,5,2,0:0:0:0:
462,221,195214,1,2,0:0:0:0:
381,147,195319,37,2,1:2:0:0:
381,147,195529,2,0,P|360:124|374:150,1,80.9999953823091,2|2,0:0|0:0,0:0:0:0:
292,49,195739,2,0,P|303:21|307:51,1,80.9999953823091,10|2,0:0|0:0,0:0:0:0:
200,158,195948,2,0,P|211:185|215:155,1,80.9999953823091,2|2,0:0|0:0,0:0:0:0:
195,48,196158,6,0,P|110:67|75:129,1,161.999990764618,2|2,1:2|0:0,0:0:0:0:
60,221,196473,1,2,0:0:0:0:
73,240,196578,1,10,0:0:0:0:
110,305,196683,37,2,0:0:0:0:
132,309,196788,1,2,0:0:0:0:
201,352,196892,5,2,0:0:0:0:
230,339,196997,2,0,P|263:258|336:258,1,161.999990764618,2|0,1:2|0:0,0:0:0:0:
505,149,197417,37,8,0:0:0:0:
474,161,197522,1,8,0:0:0:0:
419,164,197627,1,10,0:0:0:0:
372,128,197732,1,10,0:0:0:0:
298,131,197836,5,6,1:2:0:0:
269,118,197941,1,2,0:0:0:0:
196,217,198046,37,2,3:2:0:0:
225,204,198151,1,10,0:0:0:0:
177,84,198256,5,2,1:2:0:0:
183,92,198361,1,2,0:0:0:0:
113,185,198466,37,10,3:2:0:0:
118,178,198571,1,2,0:0:0:0:
8,85,198676,5,2,1:2:0:0:
31,157,198781,1,2,0:0:0:0:
57,227,198885,1,2,3:2:0:0:
85,296,198990,1,10,0:0:0:0:
125,358,199095,37,2,0:0:0:0:
137,348,199200,1,2,0:0:0:0:
151,361,199305,1,10,3:2:0:0:
136,374,199410,1,2,0:0:0:0:
233,293,199515,5,2,1:2:0:0:
249,325,199620,1,2,0:0:0:0:
337,363,199725,37,2,3:2:0:0:
363,331,199830,1,10,0:0:0:0:
430,256,199934,6,0,P|418:206|389:157,1,107.999993843079,2|2,1:2|0:0,0:0:0:0:
235,120,200144,1,10,3:2:0:0:
211,139,200249,1,2,0:0:0:0:
273,48,200354,37,2,1:2:0:0:
218,48,200459,1,2,0:0:0:0:
380,27,200564,5,2,3:2:0:0:
335,7,200669,1,10,0:0:0:0:
448,75,200774,37,2,1:2:0:0:
457,84,200878,1,2,0:0:0:0:
364,132,200983,5,10,3:2:0:0:
358,139,201087,1,2,0:0:0:0:
440,215,201193,38,0,P|382:236|329:251,1,107.999993843079,6|0,1:2|0:0,0:0:0:0:
135,173,201403,1,2,3:2:0:0:
208,142,201508,1,10,0:0:0:0:
273,184,201613,2,0,P|249:231|217:275,1,107.999993843079,2|0,1:2|0:0,0:0:0:0:
88,1,201822,6,0,P|120:43|147:90,1,107.999993843079,10|0,3:2|0:0,0:0:0:0:
81,270,202032,2,0,P|48:227|21:180,1,107.999993843079,2|0,1:2|0:0,0:0:0:0:
187,295,202242,37,2,3:2:0:0:
204,274,202347,1,10,0:0:0:0:
265,212,202452,5,2,1:2:0:0:
250,170,202557,1,2,0:0:0:0:
303,93,202662,37,10,3:2:0:0:
344,115,202767,1,2,0:0:0:0:
412,75,202871,5,6,1:2:0:0:
490,112,202976,1,0,1:0:0:0:
505,196,203081,1,2,1:2:0:0:
437,251,203186,1,2,1:2:0:0:
348,188,203291,37,6,1:2:0:0:
254,230,203395,1,0,1:2:0:0:
172,167,203500,1,2,1:2:0:0:
77,209,203605,1,0,1:2:0:0:
4,144,203711,5,6,1:2:0:0:
17,28,205808,5,2,0:0:0:0:
82,71,206157,1,2,0:0:0:0:
153,40,206507,2,0,P|223:42|262:91,1,125.999992816925,2|0,0:0|0:0,0:0:0:0:
445,138,207206,5,2,0:0:0:0:
372,184,207555,1,2,0:0:0:0:
292,152,207905,2,0,P|222:154|183:203,1,125.999992816925,2|0,0:0|0:0,0:0:0:0:
68,264,208604,37,2,0:0:0:0:
123,332,208954,1,2,0:0:0:0:
210,317,209304,1,2,0:0:0:0:
258,243,209653,5,2,0:0:0:0:
258,243,209828,1,2,0:0:0:0:
258,243,210003,1,2,0:0:0:0:
217,175,210353,1,2,0:0:0:0:
273,113,210702,2,0,P|343:146|404:154,1,125.999992816925,2|0,0:0|0:0,0:0:0:0:
273,113,211402,37,2,0:0:0:0:
217,175,211751,1,2,0:0:0:0:
119,125,212101,2,0,P|59:130|38:186,1,125.999992816925,2|0,0:0|0:0,0:0:0:0:
176,324,212800,5,2,0:0:0:0:
243,257,213149,1,2,0:0:0:0:
343,304,213499,2,0,P|402:298|423:242,1,125.999992816925,2|0,0:0|0:0,0:0:0:0:
474,169,214199,37,2,0:0:0:0:
417,118,214548,1,2,0:0:0:0:
341,122,214898,1,2,0:0:0:0:
304,188,215248,5,2,0:0:0:0:
304,188,215423,1,2,0:0:0:0:
304,188,215597,1,2,0:0:0:0:
350,247,215947,1,2,0:0:0:0:
304,307,216297,2,0,P|241:265|184:243,1,125.999992816925,2|0,0:0|0:0,0:0:0:0:
38,303,216996,37,2,0:0:0:0:
13,231,217346,1,2,0:0:0:0:
58,170,217695,2,0,P|104:211|165:201,1,125.999992816925,2|0,0:0|0:0,0:0:0:0:
358,41,218395,5,2,0:0:0:0:
390,122,218745,1,2,0:0:0:0:
324,180,219094,2,0,P|278:140|217:150,1,125.999992816925,2|0,0:0|0:0,0:0:0:0:
124,134,219793,37,2,0:0:0:0:
74,76,220143,1,2,0:0:0:0:
119,15,220493,1,2,0:0:0:0:
192,33,220842,5,2,0:0:0:0:
192,33,221017,1,2,0:0:0:0:
192,33,221192,1,2,0:0:0:0:
261,63,221541,1,2,0:0:0:0:
330,33,221891,2,0,P|397:50|457:83,1,125.999992816925,2|0,0:0|0:0,0:0:0:0:
474,220,222590,37,2,0:0:0:0:
446,151,222940,1,2,0:0:0:0:
371,139,223290,2,0,P|313:177|264:213,1,125.999992816925,2|0,0:0|0:0,0:0:0:0:
54,341,223989,5,2,0:0:0:0:
86,261,224339,1,2,0:0:0:0:
175,252,224689,2,0,P|227:287|278:324,1,125.999992816925,2|0,0:0|0:0,0:0:0:0:
466,361,225388,37,2,0:0:0:0:
493,290,225737,1,2,0:0:0:0:
437,238,226087,1,2,0:0:0:0:
367,267,226437,5,2,0:0:0:0:
367,267,226611,1,2,0:0:0:0:
367,267,226786,1,2,0:0:0:0:
297,297,227136,1,2,0:0:0:0:
217,266,227486,38,0,B|187:210|228:145|228:145|288:48|198:-25|103:-18|42:63|68:140|136:172,1,503.999971267701,2|0,0:0|0:0,0:0:0:0:
