osu file format v14

[General]
AudioFilename: audio.mp3
AudioLeadIn: 0
PreviewTime: 146869
Countdown: 0
SampleSet: Soft
StackLeniency: 0.3
Mode: 2
LetterboxInBreaks: 0
WidescreenStoryboard: 1

[Editor]
Bookmarks: 31787,126213
DistanceSpacing: 0.9
BeatDivisor: 4
GridSize: 16
TimelineZoom: 1

[Metadata]
Title:Astrogirl
TitleUnicode:Astrogirl
Artist:Tsukumo Sana
ArtistUnicode:Tsukumo Sana
Creator:Secre
Version:Sananara
Source:
Tags:chickenbible stardust prism Ixcors hololive holoen english council virtual vtuber ujico* snail's house electronic 九十九佐命
BeatmapID:3730584
BeatmapSetID:1818360

[Difficulty]
HPDrainRate:5
CircleSize:4
OverallDifficulty:9.2
ApproachRate:9.2
SliderMultiplier:1.8
SliderTickRate:2

[Events]
//Background and Video events
0,0,"sananara.png",0,0
Video,0,"sanararnanraa.m4v"
//Break Periods
//Storyboard Layer 0 (Background)
//Storyboard Layer 1 (Fail)
//Storyboard Layer 2 (Pass)
//Storyboard Layer 3 (Foreground)
//Storyboard Layer 4 (Overlay)
//Storyboard Sound Samples

[TimingPoints]
312,327.868852459016,4,2,1,50,1,0
10803,-100,4,2,1,70,0,0
21295,-100,4,2,1,75,0,0
31787,-100,4,2,1,50,0,0
42279,-100,4,2,1,60,0,0
51951,-100,4,2,1,50,0,0
52771,-100,4,2,1,70,0,0
63262,-100,4,2,1,50,0,0
68508,-100,4,2,1,60,0,0
71131,-100,4,2,1,70,0,0
72934,-100,4,2,1,60,0,0
73754,-100,4,2,1,85,0,1
94738,-100,4,2,1,75,0,0
105230,-100,4,2,1,50,0,0
126213,-100,4,2,1,70,0,0
136705,-100,4,2,1,50,0,0
141951,-100,4,2,1,60,0,0
144574,-100,4,2,1,70,0,0
146377,-100,4,2,1,50,0,0
147197,-100,4,2,1,85,0,1
168180,-100,4,2,1,55,0,0
173426,-100,4,2,1,65,0,0
177852,-100,4,2,1,55,0,0
178672,-100,4,2,1,50,0,0
178836,-100,4,2,1,35,0,0

[Colours]
Combo1 : 255,0,134
Combo2 : 140,0,255
Combo3 : 253,244,208

[HitObjects]
282,193,312,6,0,P|342:216|362:290,1,135,2|0,0:0|0:0,0:0:0:0:
179,248,639,2,0,L|75:248,1,90,2|0,0:0|0:0,0:0:0:0:
239,142,967,2,0,L|245:270,1,90,2|2,0:0|0:0,0:0:0:0:
90,268,1295,2,0,L|163:267,1,45,2|2,0:0|0:0,0:0:0:0:
344,275,1459,6,0,P|387:252|332:147,1,180,2|2,0:0|0:0,0:0:0:0:
178,130,2115,2,0,L|238:125,1,45,2|2,0:0|0:0,0:0:0:0:
378,111,2279,1,2,0:0:0:0:
142,184,2607,1,2,0:0:0:0:
436,177,2934,6,0,P|452:135|364:108,1,135,2|0,0:0|0:0,0:0:0:0:
213,169,3262,2,0,L|81:172,1,90,2|0,0:0|0:0,0:0:0:0:
283,99,3590,2,0,L|181:101,2,90,2|2|0,0:0|0:0|0:0,0:0:0:0:
30,207,4082,6,0,L|25:-8,1,180,2|2,0:0|0:0,0:0:0:0:
298,95,4738,2,0,L|219:94,2,45,2|2|2,0:0|0:0|0:0,0:0:0:0:
155,218,5066,2,0,P|101:199|166:125,1,180,2|0,0:0|0:0,0:0:0:0:
446,89,5557,6,0,L|460:300,1,180,2|0,0:0|0:0,0:0:0:0:
307,274,6049,1,0,0:0:0:0:
457,268,6213,2,0,L|338:266,1,90
196,181,6541,2,0,L|265:177,1,45,2|2,0:0|0:0,0:0:0:0:
434,150,6705,6,0,P|481:168|412:249,1,180,2|2,0:0|0:0,0:0:0:0:
171,122,7361,2,0,L|236:113,1,45,2|2,0:0|0:0,0:0:0:0:
367,78,7525,1,2,0:0:0:0:
150,61,7852,1,2,0:0:0:0:
443,174,8180,6,0,P|498:142|428:79,1,180,2|0,0:0|0:0,0:0:0:0:
287,92,8672,1,2,0:0:0:0:
441,65,8836,2,0,L|333:64,2,90,2|2|0,0:0|0:0|0:0,0:0:0:0:
219,155,9328,6,0,L|35:157,1,180,2|2,0:0|0:0,0:0:0:0:
339,81,9984,2,0,L|269:80,1,45,2|2,0:0|0:0,0:0:0:0:
143,76,10148,2,0,L|72:77,1,45,2|0,0:0|0:0,0:0:0:0:
306,130,10311,2,0,P|382:136|402:215,1,135,2|0,0:0|0:0,0:0:0:0:
259,196,10639,2,0,L|196:195,1,45
422,240,10803,6,0,P|463:219|403:119,1,180,6|8,3:2|2:1,0:0:0:0:
258,107,11295,1,2,2:1:0:0:
481,110,11459,1,8,0:0:0:0:
345,46,11623,2,0,L|474:48,1,90,0|0,3:2|0:0,0:0:0:0:
202,73,11951,6,0,L|12:74,1,180,0|2,3:2|2:1,0:0:0:0:
158,148,12443,2,0,L|47:148,1,90,2|0,2:1|3:2,0:0:0:0:
295,201,12771,2,0,L|168:197,1,90,8|0,0:0|3:2,0:0:0:0:
352,123,13098,1,0,2:1:0:0:
205,198,13262,1,2,0:0:0:0:
475,232,13426,6,0,L|473:48,1,180,2|8,3:2|2:1,0:0:0:0:
334,50,13918,1,2,2:1:0:0:
108,63,14082,1,8,0:0:0:0:
235,68,14246,1,0,3:2:0:0:
108,63,14410,1,0,0:0:0:0:
352,155,14574,6,0,L|147:160,1,180,0|2,3:2|2:1,0:0:0:0:
317,83,15066,2,0,L|413:82,1,90,2|0,2:1|3:2,0:0:0:0:
166,170,15393,2,0,L|298:172,1,90,8|2,0:0|3:2,0:0:0:0:
112,93,15721,1,2,2:1:0:0:
255,171,15885,1,0,0:0:0:0:
34,232,16049,6,0,L|33:28,1,180,2|10,3:2|2:1,0:0:0:0:
173,47,16541,1,2,2:1:0:0:
444,90,16705,1,8,0:0:0:0:
306,92,16869,1,0,3:2:0:0:
444,90,17033,1,0,0:0:0:0:
217,212,17197,6,0,P|213:154|327:111,1,180,0|2,3:2|2:1,0:0:0:0:
172,86,17689,2,0,L|293:89,1,90,2|0,2:1|3:2,0:0:0:0:
36,165,18016,1,8,0:0:0:0:
171,122,18180,2,0,L|51:120,2,90,0|2|0,3:2|2:1|0:0,0:0:0:0:
450,122,18672,6,0,L|451:323,1,180,0|8,3:2|2:1,0:0:0:0:
320,307,19164,1,2,2:1:0:0:
97,205,19328,1,8,0:0:0:0:
228,288,19492,2,0,L|232:170,1,90,0|0,3:2|0:0,0:0:0:0:
6,136,19820,6,0,L|204:143,1,180,0|2,3:2|2:1,0:0:0:0:
40,213,20311,2,0,L|153:217,1,90,2|0,2:1|3:2,0:0:0:0:
359,198,20639,1,8,0:0:0:0:
216,145,20803,2,0,P|216:93|346:55,1,180,0|0,3:2|0:0,0:0:0:0:
50,135,21295,6,0,L|54:257,1,90,6|0,3:2|0:0,0:0:0:0:
206,227,21623,2,0,L|90:226,1,90,10|0,0:0|0:0,0:0:0:0:
265,154,21951,1,2,2:1:0:0:
116,226,22115,2,0,L|114:116,1,90,0|8,3:2|0:0,0:0:0:0:
350,162,22443,6,0,L|127:162,1,180,2|2,2:1|0:0,0:0:0:0:
423,80,22934,2,0,L|423:204,1,90,10|0,0:0|0:0,0:0:0:0:
268,230,23262,2,0,L|369:226,1,90,2|0,2:1|3:2,0:0:0:0:
114,174,23590,2,0,L|109:81,1,90,8|0,0:0|0:0,0:0:0:0:
374,87,23918,6,0,P|420:106|362:195,1,180,2|8,3:2|0:0,0:0:0:0:
225,178,24410,1,0,0:0:0:0:
468,174,24574,1,2,2:1:0:0:
332,104,24738,2,0,L|441:104,1,90,0|8,3:2|0:0,0:0:0:0:
197,51,25066,6,0,P|125:50|85:150,1,180,2|2,2:1|0:0,0:0:0:0:
336,179,25557,2,0,L|221:179,1,90,10|0,0:0|0:0,0:0:0:0:
386,107,25885,1,2,2:1:0:0:
246,108,26049,1,0,3:2:0:0:
497,91,26213,2,0,L|496:217,1,90,10|0,0:0|0:0,0:0:0:0:
199,245,26541,5,2,3:2:0:0:
329,248,26705,1,0,0:0:0:0:
108,180,26869,2,0,L|107:65,1,90,8|0,0:0|0:0,0:0:0:0:
253,77,27197,2,0,L|150:80,2,90,2|0|8,2:1|3:2|0:0,0:0:0:0:
25,223,27689,6,0,L|19:28,1,180,2|2,2:1|0:0,0:0:0:0:
164,28,28180,1,10,0:0:0:0:
428,52,28344,2,0,L|308:53,2,90,0|2|0,0:0|2:1|3:2,0:0:0:0:
205,167,28836,2,0,L|89:169,1,90,10|0,0:0|0:0,0:0:0:0:
370,133,29164,6,0,L|372:246,1,90,2|0,3:2|0:0,0:0:0:0:
221,268,29492,2,0,L|338:267,1,90,10|0,0:0|0:0,0:0:0:0:
55,154,29820,2,0,L|171:162,2,90,2|0|8,2:1|3:2|0:0,0:0:0:0:
281,181,30311,6,0,L|78:182,1,180,2|2,2:1|0:0,0:0:0:0:
243,117,30803,1,10,0:0:0:0:
14,119,30967,1,0,0:0:0:0:
291,50,31131,1,2,2:1:0:0:
379,47,31294,1,0,3:2:0:0:
288,68,31458,1,10,0:0:0:0:
429,203,31622,1,0,0:0:0:0:
75,168,31787,6,0,P|66:220|313:349,1,360,2|0,3:2|0:0,0:0:0:0:
138,175,32771,1,2,0:0:0:0:
301,53,32934,6,0,L|301:332,1,270,2|0,0:0|0:0,0:0:0:0:
210,321,33590,1,2,0:0:0:0:
351,250,33754,1,2,0:0:0:0:
350,162,33917,1,2,0:0:0:0:
266,100,34081,1,2,0:0:0:0:
181,126,34245,1,2,0:0:0:0:
463,206,34410,6,0,P|467:112|248:-12,1,360,2|0,3:2|0:0,0:0:0:0:
391,143,35393,1,0,0:0:0:0:
227,150,35721,1,0,0:0:0:0:
491,99,36049,6,0,L|326:177,2,180,2|2|2,0:0|0:0|0:0,0:0:0:0:
100,278,37033,6,0,P|25:268|111:177,1,270,2|2,3:2|0:0,0:0:0:0:
262,204,37689,2,0,L|71:216,1,180,2|0,0:0|0:0,0:0:0:0:
82,215,38180,1,2,0:0:0:0:
346,246,38344,5,0,3:2:0:0:
94,127,38672,2,0,L|280:124,2,180,2|2|2,0:0|0:0|0:0,0:0:0:0:
494,243,39656,6,0,L|495:-37,1,270,0|0,3:2|3:2,0:0:0:0:
110,113,40639,1,0,3:2:0:0:
260,77,40967,6,0,L|265:209,1,90
182,196,41295,1,0,0:0:0:0:
326,201,41459,1,2,0:0:0:0:
182,196,41623,2,0,L|295:197,1,90,2|2,0:0|0:0,0:0:0:0:
111,122,41951,2,0,L|111:12,1,90,2|0,0:0|0:0,0:0:0:0:
448,69,42279,6,0,L|336:67,1,90,0|2,3:2|2:1,0:0:0:0:
92,223,42607,2,0,L|210:219,1,90,10|0,0:0|0:0,0:0:0:0:
51,162,42934,1,2,2:1:0:0:
177,170,43098,1,0,3:2:0:0:
51,162,43262,1,10,0:0:0:0:
278,208,43426,6,0,L|280:88,1,90,2|0,3:2|0:0,0:0:0:0:
126,211,43754,1,2,2:1:0:0:
278,208,43918,1,8,0:0:0:0:
51,162,44082,2,0,L|46:46,1,90,2|0,3:2|0:0,0:0:0:0:
199,190,44410,2,0,L|86:188,1,90,2|8,2:1|0:0,0:0:0:0:
338,167,44738,1,2,2:1:0:0:
201,157,44902,6,0,L|195:52,1,90,0|2,3:2|2:1,0:0:0:0:
327,39,45230,1,8,0:0:0:0:
80,85,45393,1,2,0:0:0:0:
215,82,45557,2,0,L|216:189,1,90,2|2,2:1|3:2,0:0:0:0:
364,158,45885,1,10,0:0:0:0:
125,100,46049,6,0,L|123:-5,1,90,2|0,3:2|0:0,0:0:0:0:
352,42,46377,2,0,L|456:43,1,90,2|8,2:1|0:0,0:0:0:0:
194,211,46705,2,0,L|393:214,1,180,2|2,3:2|2:1,0:0:0:0:
122,108,47197,2,0,L|29:108,1,90,8|2,0:0|2:1,0:0:0:0:
288,133,47525,5,0,3:2:0:0:
156,139,47689,1,2,2:1:0:0:
435,130,47852,2,0,L|440:236,1,90,10|2,0:0|0:0,0:0:0:0:
217,263,48180,1,2,2:1:0:0:
354,268,48344,1,2,3:2:0:0:
217,263,48508,1,10,0:0:0:0:
463,232,48672,6,0,L|467:117,1,90,2|0,3:2|0:0,0:0:0:0:
325,117,49000,2,0,L|417:112,2,90,2|10|2,2:1|0:0|3:2,0:0:0:0:
179,128,49492,1,2,0:0:0:0:
323,116,49656,1,2,2:1:0:0:
87,156,49820,1,10,0:0:0:0:
323,116,49984,1,2,2:1:0:0:
87,156,50148,6,0,L|86:42,1,90,0|2,3:2|2:1,0:0:0:0:
231,50,50475,1,8,0:0:0:0:
170,48,50556,1,0,0:0:0:0:
110,48,50638,1,8,2:1:0:0:
337,93,50803,2,0,L|397:144,2,45,2|8|8,2:1|2:1|2:1,0:0:0:0:
195,134,51131,1,8,0:0:0:0:
482,83,51295,6,0,L|476:374,1,270,0|0,3:2|0:0,0:0:0:0:
341,340,51951,1,2,0:0:0:0:
481,260,52115,2,0,L|357:254,1,90,2|2,0:0|0:0,0:0:0:0:
164,118,52443,2,0,P|125:153|170:211,1,135,2|0,0:0|0:0,0:0:0:0:
338,174,52771,6,0,L|441:174,1,90,6|0,3:2|0:0,0:0:0:0:
191,248,53098,2,0,L|192:122,1,90,8|2,2:1|2:1,0:0:0:0:
468,110,53426,2,0,L|360:111,2,90,8|0|0,0:0|3:2|0:0,0:0:0:0:
206,176,53918,6,0,L|415:172,1,180,0|2,3:2|2:1,0:0:0:0:
247,92,54410,2,0,L|366:90,1,90,2|0,2:1|3:2,0:0:0:0:
87,93,54738,2,0,L|217:91,1,90,8|0,0:0|3:2,0:0:0:0:
451,76,55066,2,0,L|456:191,1,90,0|2,2:1|0:0,0:0:0:0:
192,259,55393,6,0,L|373:249,1,180,2|8,3:2|2:1,0:0:0:0:
236,177,55885,1,2,2:1:0:0:
473,151,56049,2,0,L|348:152,2,90,8|0|0,0:0|3:2|0:0,0:0:0:0:
205,79,56541,6,0,P|154:78|84:212,1,180,0|2,3:2|2:1,0:0:0:0:
214,152,57033,1,2,2:1:0:0:
73,143,57197,1,2,3:2:0:0:
308,127,57361,2,0,L|417:127,1,90,10|2,0:0|3:2,0:0:0:0:
95,73,57689,2,0,L|93:175,1,90,2|0,2:1|0:0,0:0:0:0:
371,219,58016,6,0,L|167:218,1,180,2|10,3:2|3:1,0:0:0:0:
334,153,58508,1,2,2:1:0:0:
108,155,58672,1,8,3:2:0:0:
252,135,58836,2,0,L|253:250,1,90,10|0,2:1|3:2,0:0:0:0:
29,250,59164,6,0,L|246:251,1,180,2|0,2:1|0:0,0:0:0:0:
68,176,59656,2,0,L|193:179,1,90,10|2,3:1|2:1,0:0:0:0:
412,151,59984,2,0,L|420:270,1,90,8|10,3:2|2:1,0:0:0:0:
190,241,60311,2,0,L|81:242,1,90,0|2,3:2|2:1,0:0:0:0:
362,292,60639,6,0,P|423:259|344:198,1,180,0|8,3:2|3:1,0:0:0:0:
225,172,61131,1,2,3:1:0:0:
493,142,61295,2,0,L|377:146,2,90,8|2|0,3:2|3:1|3:2,0:0:0:0:
232,244,61787,1,8,3:1:0:0:
221,189,61868,1,0,0:0:0:0:
237,136,61950,5,0,3:2:0:0:
275,96,62032,1,0,3:2:0:0:
328,78,62114,1,0,3:2:0:0:
383,87,62196,1,0,3:2:0:0:
225,58,62279,2,0,L|149:60,1,45,0|0,3:2|0:0,0:0:0:0:
366,22,62443,2,0,L|401:20,2,22.5,8|0|0,2:1|0:0|0:0,0:0:0:0:
120,110,62607,6,0,L|117:258,1,135,8|8,2:1|2:1,0:0:0:0:
306,149,62934,2,0,L|401:142,1,90,8|8,3:1|2:1,0:0:0:0:
341,86,63180,1,8,2:1:0:0:
146,122,63262,5,4,3:2:0:0:
240,103,63426,1,2,0:0:0:0:
97,226,63590,2,0,L|92:115,1,90,2|0,0:0|0:0,0:0:0:0:
224,134,63918,2,0,L|30:136,1,180,2|2,0:0|0:0,0:0:0:0:
189,148,64410,6,0,L|384:149,1,180,2|2,0:0|0:0,0:0:0:0:
120,243,65066,2,0,L|114:62,1,180,2|2,0:0|0:0,0:0:0:0:
389,72,65721,6,0,P|449:76|376:199,1,270,2|0,0:0|0:0,0:0:0:0:
243,191,66377,1,2,0:0:0:0:
403,136,66541,2,0,L|305:141,2,90,2|2|2,0:0|0:0|0:0,0:0:0:0:
253,73,67033,6,0,L|47:76,1,180,2|2,0:0|0:0,0:0:0:0:
384,79,67689,2,0,P|459:88|499:200,1,180,2|2,0:0|0:0,0:0:0:0:
373,201,68180,2,0,L|495:203,1,90,2|2,0:0|0:0,0:0:0:0:
218,163,68508,5,0,3:2:0:0:
347,105,68672,2,0,L|252:105,2,90,2|2|2,0:0|3:2|0:0,0:0:0:0:
206,240,69164,1,2,3:2:0:0:
338,225,69328,1,2,0:0:0:0:
470,218,69492,1,2,3:2:0:0:
206,240,69656,6,0,L|199:114,1,90,2|0,0:0|3:2,0:0:0:0:
343,110,69984,1,2,0:0:0:0:
201,118,70148,2,0,L|89:121,1,90,2|2,3:2|0:0,0:0:0:0:
248,166,70475,1,2,3:2:0:0:
112,116,70639,1,2,0:0:0:0:
248,166,70803,1,2,3:2:0:0:
15,128,70967,1,2,0:0:0:0:
248,166,71131,6,0,L|363:164,1,90,0|0,3:2|3:2,0:0:0:0:
195,100,71459,2,0,L|94:103,1,90,0|0,3:2|3:2,0:0:0:0:
335,118,71787,1,0,3:2:0:0:
195,100,71951,1,0,3:2:0:0:
335,118,72115,1,0,3:2:0:0:
195,100,72279,2,0,L|283:101,1,45,0|0,3:2|0:0,0:0:0:0:
459,100,72443,6,0,L|335:102,2,90,0|0|0,3:2|3:2|3:2,0:0:0:0:
206,168,72934,2,0,L|163:172,2,22.5,8|0|0,2:1|0:0|0:0,0:0:0:0:
396,168,73098,6,0,L|498:169,1,90,8|0,2:1|0:0,0:0:0:0:
435,232,73344,1,8,2:1:0:0:
244,215,73426,2,0,L|142:217,1,90,8|10,2:1|2:1,0:0:0:0:
210,158,73672,1,8,2:1:0:0:
450,115,73754,6,0,L|453:212,1,90,6|0,3:2|0:0,0:0:0:0:
199,97,74082,1,8,0:0:0:0:
347,93,74246,1,2,3:2:0:0:
101,205,74410,1,2,2:1:0:0:
237,206,74574,1,0,3:2:0:0:
101,205,74738,1,8,0:0:0:0:
372,208,74902,1,10,2:1:0:0:
101,205,75066,5,2,3:2:0:0:
237,206,75230,1,0,0:0:0:0:
372,208,75393,1,8,0:0:0:0:
101,205,75557,1,2,3:2:0:0:
372,208,75721,1,2,2:1:0:0:
237,206,75885,1,0,3:2:0:0:
101,205,76049,1,8,0:0:0:0:
372,208,76213,1,10,2:1:0:0:
101,205,76377,6,0,P|41:176|123:124,1,180,2|8,3:2|0:0,0:0:0:0:
332,104,76869,1,2,3:2:0:0:
63,278,77033,2,0,L|267:269,1,180,2|8,2:1|0:0,0:0:0:0:
13,204,77525,1,10,2:1:0:0:
256,150,77689,6,0,P|331:157|383:270,1,180,2|8,3:2|0:0,0:0:0:0:
157,254,78180,1,2,3:2:0:0:
417,202,78344,1,2,2:1:0:0:
281,196,78508,1,0,3:2:0:0:
417,202,78672,1,8,0:0:0:0:
157,254,78836,1,10,2:1:0:0:
417,202,79000,6,0,P|468:178|395:101,1,180,2|8,3:2|0:0,0:0:0:0:
158,106,79492,1,2,3:2:0:0:
452,214,79656,2,0,L|234:212,1,180,2|8,2:1|0:0,0:0:0:0:
504,126,80148,1,10,2:1:0:0:
171,207,80311,6,0,P|172:152|296:99,1,180,2|8,3:2|0:0,0:0:0:0:
40,105,80803,1,2,3:2:0:0:
296,96,80967,2,0,L|303:200,1,90,2|0,2:1|3:2,0:0:0:0:
164,227,81295,1,10,0:0:0:0:
302,185,81459,1,10,2:1:0:0:
27,170,81623,6,0,L|242:173,1,180,2|10,3:2|0:0,0:0:0:0:
474,168,82115,2,0,L|382:168,1,90,2|2,3:2|2:1,0:0:0:0:
76,107,82443,2,0,L|179:106,1,90,2|8,3:2|0:0,0:0:0:0:
423,116,82771,6,0,L|215:113,1,180,8|0,2:1|0:0,0:0:0:0:
488,63,83262,2,0,L|492:182,1,90,8|2,0:0|3:2,0:0:0:0:
230,209,83590,2,0,L|333:207,1,90,2|0,2:1|3:2,0:0:0:0:
90,152,83918,1,8,0:0:0:0:
363,155,84082,1,10,2:1:0:0:
88,96,84246,6,0,L|304:92,1,180,6|8,3:2|0:0,0:0:0:0:
20,186,84738,1,2,3:2:0:0:
285,190,84902,2,0,L|295:75,1,90,2|0,2:1|3:2,0:0:0:0:
146,89,85230,1,8,0:0:0:0:
383,94,85393,1,10,2:1:0:0:
91,224,85557,6,0,P|44:205|110:122,1,180,2|8,3:2|0:0,0:0:0:0:
344,125,86049,1,2,3:2:0:0:
42,134,86213,2,0,L|152:136,1,90,2|0,2:1|3:2,0:0:0:0:
366,160,86541,1,10,0:0:0:0:
225,160,86705,1,10,2:1:0:0:
470,227,86869,6,0,L|369:227,1,90,2|2,3:2|0:0,0:0:0:0:
151,233,87197,1,10,0:0:0:0:
293,238,87361,1,2,3:2:0:0:
51,167,87525,2,0,L|242:167,1,180,2|10,2:1|0:0,0:0:0:0:
93,98,88016,1,10,2:1:0:0:
325,137,88180,5,2,3:2:0:0:
188,137,88344,1,2,0:0:0:0:
325,137,88508,1,10,0:0:0:0:
188,137,88672,1,2,3:2:0:0:
430,122,88836,2,0,L|436:232,1,90,2|0,2:1|3:2,0:0:0:0:
303,232,89164,1,10,0:0:0:0:
434,211,89328,1,10,2:1:0:0:
181,129,89492,6,0,P|106:138|67:243,1,180,2|8,3:2|0:0,0:0:0:0:
321,237,89984,1,2,3:2:0:0:
31,181,90148,2,0,L|241:179,1,180,2|8,2:1|0:0,0:0:0:0:
452,171,90639,1,10,2:1:0:0:
221,87,90803,6,0,P|161:89|102:184,1,180,2|8,3:2|0:0,0:0:0:0:
352,177,91295,1,2,3:2:0:0:
101,116,91459,1,2,2:1:0:0:
235,121,91623,1,2,3:2:0:0:
101,116,91787,1,10,0:0:0:0:
362,126,91951,1,10,2:1:0:0:
101,116,92115,6,0,L|99:236,1,90,0|0,3:2|0:0,0:0:0:0:
362,248,92443,2,0,L|140:243,1,180,10|2,0:0|2:1,0:0:0:0:
411,173,92934,1,0,3:2:0:0:
160,176,93098,2,0,L|154:68,1,90,8|10,0:0|2:1,0:0:0:0:
428,113,93426,6,0,L|231:115,1,180,2|8,3:2|0:0,0:0:0:0:
492,131,93918,1,2,3:2:0:0:
232,201,94082,2,0,L|433:193,1,180,2|8,2:1|0:0,0:0:0:0:
148,136,94574,1,10,2:1:0:0:
410,265,94738,6,0,P|470:240|401:172,1,180,6|10,3:2|0:0,0:0:0:0:
169,215,95230,2,0,L|364:215,1,180,0|0,0:0|3:2,0:0:0:0:
214,142,95721,1,8,0:0:0:0:
450,231,95885,6,0,L|453:28,1,180,2|2,2:1|0:0,0:0:0:0:
210,77,96377,2,0,L|308:77,1,90,10|0,0:0|0:0,0:0:0:0:
153,171,96705,2,0,L|276:172,1,90,2|0,2:1|3:2,0:0:0:0:
12,77,97033,2,0,L|138:75,1,90,8|0,0:0|0:0,0:0:0:0:
340,162,97361,6,0,L|147:157,1,180,2|8,3:2|0:0,0:0:0:0:
291,92,97852,1,0,0:0:0:0:
55,167,98016,2,0,L|157:171,2,90,2|0|8,2:1|3:2|0:0,0:0:0:0:
303,179,98508,6,0,P|369:209|299:257,1,180,2|2,2:1|0:0,0:0:0:0:
71,243,99000,1,10,0:0:0:0:
301,148,99164,2,0,L|212:152,2,90,2|2|2,0:0|2:1|3:2,0:0:0:0:
73,147,99656,2,0,L|65:36,1,90,10|0,0:0|0:0,0:0:0:0:
323,150,99984,6,0,L|133:174,1,180,2|10,3:2|3:1,0:0:0:0:
49,134,100475,1,2,2:1:0:0:
189,170,100639,2,0,L|286:166,2,90,8|10|0,3:2|2:1|3:2,0:0:0:0:
335,107,101131,6,0,P|396:111|444:222,1,180,2|0,2:1|0:0,0:0:0:0:
314,232,101623,2,0,L|412:230,1,90,10|2,3:1|2:1,0:0:0:0:
260,176,101951,2,0,L|256:66,1,90,8|10,3:2|2:1,0:0:0:0:
398,80,102279,2,0,L|405:-16,1,90,0|2,3:2|2:1,0:0:0:0:
174,52,102607,6,0,P|117:53|59:160,1,180,0|8,3:2|3:1,0:0:0:0:
195,166,103098,1,2,3:1:0:0:
59,124,103262,2,0,L|170:120,2,90,8|2|0,3:2|3:1|3:2,0:0:0:0:
321,122,103754,1,8,3:1:0:0:
192,230,103918,5,0,3:2:0:0:
147,216,103999,1,0,3:2:0:0:
147,173,104081,1,0,3:2:0:0:
192,157,104163,1,0,3:2:0:0:
343,144,104246,2,0,L|407:146,1,45,0|0,3:2|0:0,0:0:0:0:
177,100,104410,2,0,L|141:97,2,22.5,8|0|0,2:1|0:0|0:0,0:0:0:0:
400,94,104574,2,0,L|402:198,1,90,8|0,2:1|0:0,0:0:0:0:
338,219,104820,1,8,2:1:0:0:
142,135,104902,2,0,L|139:244,1,90,8|8,2:1|2:1,0:0:0:0:
437,168,105230,6,0,P|446:220|199:349,1,360,4|0,2:2|0:0,0:0:0:0:
374,175,106214,1,2,0:0:0:0:
211,53,106377,6,0,L|211:332,1,270,2|0,0:0|0:0,0:0:0:0:
302,321,107033,1,2,0:0:0:0:
161,250,107197,1,2,0:0:0:0:
162,162,107360,1,2,0:0:0:0:
246,100,107524,1,2,0:0:0:0:
331,126,107688,1,2,0:0:0:0:
49,206,107853,6,0,P|45:112|264:-12,1,360,2|0,0:0|0:0,0:0:0:0:
121,143,108836,1,0,0:0:0:0:
285,150,109164,1,0,0:0:0:0:
21,99,109492,6,0,L|186:177,2,180,2|2|2,0:0|0:0|0:0,0:0:0:0:
412,278,110476,6,0,P|487:268|401:177,1,270,2|2,0:0|0:0,0:0:0:0:
250,204,111132,2,0,L|441:216,1,180,2|0,0:0|0:0,0:0:0:0:
430,215,111623,1,2,0:0:0:0:
166,246,111787,5,2,0:0:0:0:
418,127,112115,2,0,L|232:124,2,180,2|2|2,0:0|0:0|0:0,0:0:0:0:
18,243,113099,6,0,L|17:-37,1,270,2|0,0:0|0:0,0:0:0:0:
402,113,114082,1,0,0:0:0:0:
252,77,114410,6,0,L|247:209,1,90
330,196,114738,1,0,0:0:0:0:
186,201,114902,1,2,0:0:0:0:
330,196,115066,2,0,L|217:197,1,90,2|2,0:0|0:0,0:0:0:0:
401,122,115394,2,0,L|401:12,1,90,2|0,0:0|0:0,0:0:0:0:
55,70,115722,6,0,L|153:54,1,90,4|0,0:0|0:0,0:0:0:0:
372,223,116050,2,0,L|254:219,1,90,2|0,0:0|0:0,0:0:0:0:
400,152,116377,2,0,L|500:152,2,90
141,199,116869,6,0,L|139:79,1,90,2|0,0:0|0:0,0:0:0:0:
272,194,117197,2,0,L|275:89,1,90,2|0,0:0|0:0,0:0:0:0:
407,177,117525,2,0,L|412:61,1,90,2|0,0:0|0:0,0:0:0:0:
272,194,117853,2,0,L|271:94,1,90,2|0,0:0|0:0,0:0:0:0:
410,87,118181,1,2,0:0:0:0:
180,147,118344,6,0,L|85:150,2,90
322,144,118836,1,2,0:0:0:0:
182,143,119000,2,0,L|177:237,1,90,2|2,0:0|0:0,0:0:0:0:
322,144,119328,1,2,0:0:0:0:
94,207,119492,6,0,L|88:108,1,90,2|0,0:0|0:0,0:0:0:0:
246,75,119820,2,0,L|338:79,1,90,2|0,0:0|0:0,0:0:0:0:
179,282,120148,2,0,P|130:268|182:190,1,180,2|2,0:0|0:0,0:0:0:0:
343,163,120640,2,0,L|436:163,1,90,2|2,0:0|0:0,0:0:0:0:
204,142,120968,5,0,3:2:0:0:
336,148,121132,1,2,0:0:0:0:
57,139,121295,2,0,L|52:245,1,90,2|2,0:0|0:0,0:0:0:0:
275,272,121623,1,2,0:0:0:0:
138,277,121787,1,2,0:0:0:0:
275,272,121951,1,2,0:0:0:0:
16,240,122115,1,2,0:0:0:0:
257,175,122279,5,0,3:2:0:0:
119,99,122443,2,0,L|209:99,2,90,2|2|2,0:0|0:0|0:0,0:0:0:0:
254,114,122935,1,2,0:0:0:0:
119,99,123099,1,2,0:0:0:0:
361,197,123262,1,2,0:0:0:0:
221,107,123427,1,2,0:0:0:0:
361,197,123591,6,0,L|362:83,1,90,0|0,3:2|0:0,0:0:0:0:
221,107,123918,1,0,0:0:0:0:
450,107,124082,2,0,L|348:106,2,90,0|0|0,3:2|0:0|0:0,0:0:0:0:
191,216,124574,2,0,L|191:109,1,90,0|0,3:2|0:0,0:0:0:0:
325,109,124902,6,0,L|217:109,1,90
374,113,125230,1,0,0:0:0:0:
127,190,125393,2,0,L|84:193,2,22.5,8|0|0,2:1|0:0|0:0,0:0:0:0:
314,184,125557,2,0,L|406:182,1,90,8|0,2:1|0:0,0:0:0:0:
356,121,125803,1,8,2:1:0:0:
171,92,125885,2,0,L|76:96,1,90,8|8,2:1|2:1,0:0:0:0:
327,199,126213,6,0,L|425:198,1,90,6|0,3:2|0:0,0:0:0:0:
264,163,126541,2,0,L|259:56,1,90,8|2,2:1|2:1,0:0:0:0:
490,76,126869,2,0,L|362:81,2,90,8|0|0,0:0|3:2|0:0,0:0:0:0:
254,119,127361,6,0,P|183:125|130:234,1,180,0|2,3:2|2:1,0:0:0:0:
266,216,127852,2,0,L|164:222,1,90,2|0,2:1|3:2,0:0:0:0:
456,265,128180,2,0,L|455:62,1,180,8|0,0:0|2:1,0:0:0:0:
58,152,128836,6,0,L|181:148,3,90,2|0|8|2,3:2|0:0|2:1|2:1,0:0:0:0:
405,152,129492,2,0,L|275:151,2,90,8|0|0,0:0|3:2|0:0,0:0:0:0:
137,254,129984,6,0,P|78:222|150:162,1,180,0|2,3:2|2:1,0:0:0:0:
276,152,130475,1,2,2:1:0:0:
136,156,130639,1,2,3:2:0:0:
385,105,130803,2,0,L|286:103,1,90,10|2,0:0|3:2,0:0:0:0:
444,96,131131,2,0,L|443:205,1,90,2|0,2:1|0:0,0:0:0:0:
169,210,131459,6,0,L|277:210,1,90,2|0,3:2|0:0,0:0:0:0:
113,143,131787,2,0,L|240:140,1,90,10|2,3:1|2:1,0:0:0:0:
440,210,132115,2,0,L|332:210,1,90,8|10,3:2|2:1,0:0:0:0:
496,143,132443,2,0,L|369:140,1,90,0|2,3:2|2:1,0:0:0:0:
174,153,132771,5,2,3:2:0:0:
308,147,132934,1,0,0:0:0:0:
174,153,133098,1,10,3:1:0:0:
308,147,133262,1,2,2:1:0:0:
82,231,133426,2,0,L|79:111,1,90,8|10,3:2|2:1,0:0:0:0:
349,121,133754,2,0,L|356:27,1,90,0|2,3:2|2:1,0:0:0:0:
69,102,134082,5,0,3:2:0:0:
200,85,134246,1,2,3:1:0:0:
331,75,134410,1,8,3:1:0:0:
462,59,134574,1,2,3:1:0:0:
200,85,134738,1,8,3:2:0:0:
331,75,134902,1,2,3:1:0:0:
200,85,135066,1,0,3:2:0:0:
331,75,135230,1,8,3:1:0:0:
108,189,135393,5,0,3:2:0:0:
59,182,135474,1,0,3:2:0:0:
57,140,135556,1,0,3:2:0:0:
106,130,135638,1,0,3:2:0:0:
288,142,135721,2,0,L|355:143,1,45,8|8,2:1|2:1,0:0:0:0:
180,79,135885,2,0,L|115:78,1,45,8|8,2:1|2:1,0:0:0:0:
331,75,136049,2,0,P|394:120|327:172,1,180
271,177,136459,1,0,0:0:0:0:
209,173,136541,2,0,L|210:102,1,45
366,122,136705,5,4,3:2:0:0:
272,103,136869,1,2,0:0:0:0:
415,226,137033,2,0,L|420:115,1,90,2|0,0:0|0:0,0:0:0:0:
288,134,137361,2,0,L|482:136,1,180,2|2,0:0|0:0,0:0:0:0:
323,148,137853,6,0,L|128:149,1,180,2|2,0:0|0:0,0:0:0:0:
392,243,138509,2,0,L|398:62,1,180,2|2,0:0|0:0,0:0:0:0:
123,72,139164,6,0,P|63:76|136:199,1,270,2|0,0:0|0:0,0:0:0:0:
255,192,139820,1,2,0:0:0:0:
109,136,139984,2,0,L|207:141,2,90,2|2|2,0:0|0:0|0:0,0:0:0:0:
245,75,140476,6,0,L|451:78,1,180,2|2,0:0|0:0,0:0:0:0:
128,79,141132,2,0,P|53:88|13:200,1,180,2|2,0:0|0:0,0:0:0:0:
139,201,141623,2,0,L|17:203,1,90,2|2,0:0|0:0,0:0:0:0:
294,163,141951,5,0,3:2:0:0:
165,105,142115,2,0,L|260:105,2,90,2|2|2,0:0|3:2|0:0,0:0:0:0:
306,240,142607,1,2,3:2:0:0:
174,225,142771,1,2,0:0:0:0:
42,218,142935,1,2,3:2:0:0:
306,240,143099,6,0,L|313:114,1,90,2|0,0:0|3:2,0:0:0:0:
169,110,143427,1,2,0:0:0:0:
311,118,143591,2,0,L|423:121,1,90,2|2,3:2|0:0,0:0:0:0:
264,166,143918,1,2,3:2:0:0:
400,116,144082,1,2,0:0:0:0:
174,164,144246,1,2,3:2:0:0:
415,169,144410,1,2,0:0:0:0:
174,164,144574,6,0,L|59:162,1,90,0|0,3:2|3:2,0:0:0:0:
317,100,144902,2,0,L|418:103,1,90,0|0,3:2|3:2,0:0:0:0:
177,118,145230,1,0,3:2:0:0:
317,100,145394,1,0,3:2:0:0:
177,118,145558,1,0,3:2:0:0:
317,100,145722,2,0,L|229:101,1,45,0|0,3:2|0:0,0:0:0:0:
53,100,145886,6,0,L|177:102,2,90,0|0|0,3:2|3:2|3:2,0:0:0:0:
306,168,146377,2,0,L|349:172,2,22.5,8|0|0,2:1|0:0|0:0,0:0:0:0:
116,168,146541,6,0,L|14:169,1,90,8|0,2:1|0:0,0:0:0:0:
77,232,146787,1,8,2:1:0:0:
268,215,146869,2,0,L|370:217,1,90,8|10,2:1|2:1,0:0:0:0:
302,158,147115,1,8,2:1:0:0:
62,115,147197,6,0,L|59:212,1,90,6|0,3:2|0:0,0:0:0:0:
313,97,147525,1,8,3:2:0:0:
165,93,147689,1,2,2:1:0:0:
411,205,147853,1,2,3:1:0:0:
275,206,148017,1,2,2:1:0:0:
411,205,148181,1,8,3:2:0:0:
140,208,148345,1,10,2:1:0:0:
411,205,148509,5,2,3:2:0:0:
275,206,148673,1,0,0:0:0:0:
140,208,148836,1,8,3:2:0:0:
411,205,149000,1,2,2:1:0:0:
140,208,149164,1,2,3:1:0:0:
275,206,149328,1,2,2:1:0:0:
411,205,149492,1,8,3:2:0:0:
140,208,149656,1,10,2:1:0:0:
411,205,149820,6,0,P|471:176|389:124,1,180,2|8,3:2|3:2,0:0:0:0:
180,104,150312,1,2,2:1:0:0:
449,278,150476,2,0,L|245:269,1,180,2|8,3:1|3:2,0:0:0:0:
499,204,150968,1,10,2:1:0:0:
256,150,151132,6,0,P|181:157|129:270,1,180,2|8,3:2|3:2,0:0:0:0:
355,254,151623,1,2,2:1:0:0:
95,202,151787,1,2,3:1:0:0:
231,196,151951,1,2,2:1:0:0:
95,202,152115,1,8,3:2:0:0:
355,254,152279,1,10,2:1:0:0:
95,202,152443,6,0,P|44:178|117:101,1,180,2|8,3:2|3:2,0:0:0:0:
354,106,152935,1,2,2:1:0:0:
60,214,153099,2,0,L|278:212,1,180,2|8,3:1|3:2,0:0:0:0:
8,126,153591,1,10,2:1:0:0:
341,207,153754,6,0,P|340:152|216:99,1,180,2|8,3:2|3:2,0:0:0:0:
472,105,154246,1,2,2:1:0:0:
216,96,154410,2,0,L|209:200,1,90,2|2,3:1|2:1,0:0:0:0:
348,227,154738,1,10,3:2:0:0:
210,185,154902,1,10,2:1:0:0:
485,170,155066,6,0,L|484:278,1,90,2|2,3:2|2:1,0:0:0:0:
348,265,155393,1,10,3:2:0:0:
81,194,155558,2,0,L|173:194,1,90,2|2,2:1|3:1,0:0:0:0:
436,107,155886,2,0,L|333:106,1,90,2|8,2:1|3:2,0:0:0:0:
89,116,156214,6,0,L|297:113,1,180,10|0,2:1|0:0,0:0:0:0:
24,63,156705,2,0,L|20:182,1,90,8|10,3:2|2:1,0:0:0:0:
47,164,156910,1,0,0:0:0:0:
71,167,156951,1,0,0:0:0:0:
255,223,157033,6,0,L|358:221,1,90,10|2,3:1|2:1,0:0:0:0:
295,164,157279,1,8,2:1:0:0:
140,125,157361,2,0,L|79:123,1,45,8|0,3:2|0:0,0:0:0:0:
298,151,157525,2,0,L|359:152,1,45,10|0,2:1|0:0,0:0:0:0:
187,256,157689,6,0,P|138:236|196:160,1,180,6|8,3:2|3:2,0:0:0:0:
425,185,158181,1,2,2:1:0:0:
159,183,158344,2,0,L|149:68,1,90,2|2,3:1|2:1,0:0:0:0:
298,82,158673,1,8,3:2:0:0:
78,89,158836,1,10,2:1:0:0:
378,231,159000,6,0,P|425:212|359:129,1,180,2|8,3:2|3:2,0:0:0:0:
125,113,159492,1,2,2:1:0:0:
470,134,159656,2,0,L|360:136,1,90,2|2,3:1|2:1,0:0:0:0:
146,160,159984,1,8,3:2:0:0:
287,160,160148,1,10,2:1:0:0:
42,227,160312,6,0,L|143:227,1,90,2|0,3:2|0:0,0:0:0:0:
361,233,160640,1,8,3:2:0:0:
219,238,160804,1,2,2:1:0:0:
461,167,160968,2,0,L|270:167,1,180,2|8,3:1|3:2,0:0:0:0:
419,98,161459,1,10,2:1:0:0:
187,137,161623,5,2,3:2:0:0:
324,137,161787,1,0,0:0:0:0:
187,137,161951,1,8,3:2:0:0:
324,137,162115,1,2,2:1:0:0:
63,145,162279,1,2,3:1:0:0:
187,137,162443,1,2,2:1:0:0:
421,142,162607,1,10,3:2:0:0:
187,137,162771,1,10,2:1:0:0:
421,142,162935,6,0,P|487:186|431:243,1,180,2|8,3:2|3:2,0:0:0:0:
188,238,163427,1,2,2:1:0:0:
481,181,163591,2,0,L|271:179,1,180,2|8,3:1|3:2,0:0:0:0:
60,171,164082,1,10,2:1:0:0:
291,87,164246,6,0,P|351:89|410:184,1,180,2|8,3:2|3:2,0:0:0:0:
160,177,164738,1,2,2:1:0:0:
411,116,164902,1,2,3:1:0:0:
277,121,165066,1,2,2:1:0:0:
411,116,165230,1,10,3:2:0:0:
150,126,165394,1,10,2:1:0:0:
411,116,165558,6,0,L|413:236,1,90,0|0,3:2|0:0,0:0:0:0:
150,248,165886,2,0,L|372:243,1,180,10|2,3:2|3:1,0:0:0:0:
101,173,166377,1,2,2:1:0:0:
352,176,166541,2,0,L|358:68,1,90,8|10,3:2|2:1,0:0:0:0:
84,113,166869,6,0,L|281:115,1,180,2|8,3:2|3:2,0:0:0:0:
20,131,167361,1,2,2:1:0:0:
280,201,167525,2,0,L|79:193,1,180,2|8,3:1|3:2,0:0:0:0:
364,136,168017,1,10,2:1:0:0:
102,265,168181,6,0,P|42:240|111:172,1,180,4|10,0:0|2:1,0:0:0:0:
232,151,168672,2,0,L|43:199,1,180,0|2,0:0|0:0,0:0:0:0:
153,93,169164,1,10,2:1:0:0:
302,94,169328,6,0,P|372:98|423:214,1,180,2|2,0:0|0:0,0:0:0:0:
286,236,169820,2,0,L|396:241,1,90,10|2,2:1|2:1,0:0:0:0:
229,170,170148,2,0,L|226:59,1,90,2|0,0:0|0:0,0:0:0:0:
371,75,170475,2,0,L|379:-35,1,90,10|0,2:1|0:0,0:0:0:0:
125,235,170803,6,0,P|75:212|138:128,1,180,0|10,0:0|2:1,0:0:0:0:
394,137,171459,2,0,L|268:141,2,90,2|2|10,2:2|0:0|2:1,0:0:0:0:
246,73,171951,6,0,P|140:92|136:176,1,180,2|2,0:0|0:0,0:0:0:0:
273,186,172443,2,0,L|276:85,1,90,10|2,2:1|2:1,0:0:0:0:
199,70,172689,1,0,0:0:0:0:
123,57,172771,2,0,L|121:-52,1,90,2|2,0:0|0:0,0:0:0:0:
256,44,173098,2,0,L|162:46,1,90,10|0,2:1|0:0,0:0:0:0:
402,60,173426,6,0,P|456:68|391:140,1,180,2|10,3:2|3:2,0:0:0:0:
137,215,174082,2,0,L|260:214,2,90,0|10|8,3:2|2:1|3:2,0:0:0:0:
380,147,174574,6,0,L|192:147,1,180,2|0,2:1|0:0,0:0:0:0:
341,185,175066,2,0,L|344:310,1,90,10|2,3:2|2:1,0:0:0:0:
74,230,175393,2,0,L|181:229,2,90,0|10|8,3:2|2:1|3:2,0:0:0:0:
473,207,176049,6,0,L|479:98,1,90,0|2,3:2|3:1,0:0:0:0:
346,98,176377,2,0,L|455:101,1,90,8|2,3:2|3:1,0:0:0:0:
200,179,176705,2,0,L|85:179,2,90,0|2|8,3:2|3:1|3:2,0:0:0:0:
347,181,177197,1,8,3:1:0:0:
103,184,177361,5,0,3:2:0:0:
55,174,177442,1,0,3:2:0:0:
55,132,177524,1,0,3:2:0:0:
104,121,177606,1,0,3:2:0:0:
270,108,177689,2,0,L|335:109,1,45,0|0,3:2|0:0,0:0:0:0:
164,59,177852,2,0,L|129:57,2,22.5,8|0|0,2:1|0:0|0:0,0:0:0:0:
318,178,178016,6,0,L|417:178,1,90,8|0,2:1|0:0,0:0:0:0:
361,113,178262,1,8,2:1:0:0:
186,154,178344,2,0,L|90:154,1,90,8|8,3:1|2:1,0:0:0:0:
144,96,178590,1,8,2:1:0:0:
416,121,178672,5,2,0:0:0:0:
256,192,178836,12,0,189000,0:0:0:0:
