osu file format v14

[General]
AudioFilename: audio.mp3
AudioLeadIn: 0
PreviewTime: 146869
Countdown: 0
SampleSet: Soft
StackLeniency: 0.3
Mode: 2
LetterboxInBreaks: 0
WidescreenStoryboard: 1

[Editor]
Bookmarks: 31787,126213
DistanceSpacing: 0.9
BeatDivisor: 4
GridSize: 16
TimelineZoom: 1

[Metadata]
Title:Astrogirl
TitleUnicode:Astrogirl
Artist:Tsukumo Sana
ArtistUnicode:Tsukumo Sana
Creator:Secre
Version:Rain
Source:
Tags:chickenbible stardust prism Ixcors hololive holoen english council virtual vtuber ujico* snail's house electronic 九十九佐命
BeatmapID:3889415
BeatmapSetID:1818360

[Difficulty]
HPDrainRate:5
CircleSize:3.8
OverallDifficulty:9
ApproachRate:9
SliderMultiplier:1.74
SliderTickRate:2

[Events]
//Background and Video events
0,0,"sananara.png",0,0
Video,0,"sanararnanraa.m4v"
//Break Periods
2,32642,41679
2,63462,67908
2,136905,141351
//Storyboard Layer 0 (Background)
//Storyboard Layer 1 (Fail)
//Storyboard Layer 2 (Pass)
//Storyboard Layer 3 (Foreground)
//Storyboard Layer 4 (Overlay)
//Storyboard Sound Samples

[TimingPoints]
312,327.868852459016,4,2,1,50,1,0
10803,-100,4,2,1,70,0,0
21295,-100,4,2,1,75,0,0
31787,-100,4,2,1,50,0,0
42279,-100,4,2,1,60,0,0
51951,-100,4,2,1,50,0,0
52771,-100,4,2,1,70,0,0
63262,-100,4,2,1,50,0,0
68508,-100,4,2,1,60,0,0
71131,-100,4,2,1,70,0,0
72934,-100,4,2,1,60,0,0
73754,-100,4,2,1,85,0,1
94738,-100,4,2,1,75,0,0
105230,-100,4,2,1,50,0,0
126213,-100,4,2,1,70,0,0
136705,-100,4,2,1,50,0,0
141951,-100,4,2,1,60,0,0
144574,-100,4,2,1,70,0,0
146377,-100,4,2,1,50,0,0
147197,-100,4,2,1,85,0,1
168180,-100,4,2,1,55,0,0
173426,-100,4,2,1,65,0,0
177852,-100,4,2,1,55,0,0
178672,-100,4,2,1,50,0,0
178836,-100,4,2,1,35,0,0

[Colours]
Combo1 : 255,0,134
Combo2 : 140,0,255
Combo3 : 253,244,208

[HitObjects]
327,240,312,6,0,P|376:230|316:161,1,174,2|2,0:0|0:0,0:0:0:0:
246,159,803,1,0,0:0:0:0:
336,122,967,2,0,L|445:105,2,87,2|2|2,0:0|0:0|0:0,0:0:0:0:
178,195,1459,6,0,P|126:165|205:102,1,174,2|2,0:0|0:0,0:0:0:0:
346,78,2115,1,2,0:0:0:0:
348,121,2196,1,2,0:0:0:0:
350,164,2278,1,2,0:0:0:0:
182,210,2607,1,2,0:0:0:0:
427,125,2934,6,0,L|224:115,1,174,2|2,0:0|0:0,0:0:0:0:
342,175,3426,1,0,0:0:0:0:
246,167,3590,2,0,L|136:178,2,87,2|2|0,0:0|0:0|0:0,0:0:0:0:
409,142,4082,6,0,L|411:344,1,174,2|2,0:0|0:0,0:0:0:0:
245,176,4738,1,2,0:0:0:0:
287,169,4819,1,2,0:0:0:0:
330,162,4901,1,2,0:0:0:0:
245,176,5066,2,0,P|195:202|261:273,1,174,2|0,0:0|0:0,0:0:0:0:
411,267,5557,6,0,L|221:274,1,174,2|0,0:0|0:0,0:0:0:0:
325,217,6049,1,0,0:0:0:0:
407,179,6213,2,0,L|407:79,1,87
319,79,6541,1,2,0:0:0:0:
275,81,6622,1,2,0:0:0:0:
232,83,6704,1,2,0:0:0:0:
381,152,7033,5,2,0:0:0:0:
228,136,7361,1,2,0:0:0:0:
227,179,7442,1,2,0:0:0:0:
226,222,7524,1,2,0:0:0:0:
371,225,7852,1,2,0:0:0:0:
104,254,8180,6,0,P|52:229|124:160,1,174,2|0,0:0|0:0,0:0:0:0:
187,151,8672,1,2,0:0:0:0:
102,106,8836,2,0,L|7:125,2,87,2|2|0,0:0|0:0|0:0,0:0:0:0:
263,107,9328,6,0,P|333:117|360:224,1,174,2|2,0:0|0:0,0:0:0:0:
209,220,9984,1,2,0:0:0:0:
252,217,10065,1,2,0:0:0:0:
295,214,10147,1,2,0:0:0:0:
138,138,10311,2,0,P|94:158|151:237,1,174,2|0,0:0|0:0,0:0:0:0:
396,248,10803,6,0,L|207:252,1,174,6|8,3:2|2:1,0:0:0:0:
494,140,11459,2,0,L|396:141,2,87,8|0|0,0:0|3:2|0:0,0:0:0:0:
330,101,11951,6,0,P|257:103|230:204,1,174,0|2,3:2|2:1,0:0:0:0:
384,205,12607,1,0,3:2:0:0:
228,147,12771,2,0,L|223:45,1,87,8|0,0:0|3:2,0:0:0:0:
316,29,13098,2,0,L|411:23,1,87,0|2,2:1|0:0,0:0:0:0:
165,56,13426,6,0,P|99:57|50:164,1,174,2|8,3:2|2:1,0:0:0:0:
219,168,14082,2,0,L|120:165,2,87,8|0|0,0:0|3:2|0:0,0:0:0:0:
380,179,14574,6,0,P|429:191|367:265,1,174,0|2,3:2|2:1,0:0:0:0:
221,240,15230,1,0,3:2:0:0:
389,189,15393,2,0,L|394:76,1,87,8|2,0:0|3:2,0:0:0:0:
288,91,15721,2,0,L|173:104,1,87,2|0,2:1|0:0,0:0:0:0:
444,93,16049,6,0,P|498:111|438:179,1,174,2|10,3:2|2:1,0:0:0:0:
282,194,16705,1,8,0:0:0:0:
428,161,16869,2,0,L|434:46,1,87,0|0,3:2|0:0,0:0:0:0:
266,53,17197,6,0,P|174:52|139:149,1,174,0|2,3:2|2:1,0:0:0:0:
285,152,17852,1,0,3:2:0:0:
121,144,18016,2,0,L|116:39,1,87,8|0,0:0|3:2,0:0:0:0:
216,32,18344,2,0,L|340:30,1,87,2|0,2:1|0:0,0:0:0:0:
70,209,18672,6,0,P|10:193|82:151,1,174,0|8,3:2|2:1,0:0:0:0:
239,143,19328,1,8,0:0:0:0:
80,145,19492,2,0,L|74:36,1,87,0|0,3:2|0:0,0:0:0:0:
244,51,19820,6,0,P|311:57|339:162,1,174,0|2,3:2|2:1,0:0:0:0:
263,171,20311,2,0,L|259:77,1,87,2|0,2:1|3:2,0:0:0:0:
425,62,20639,1,8,0:0:0:0:
268,73,20803,2,0,L|471:51,1,174,0|0,3:2|0:0,0:0:0:0:
192,149,21295,6,0,P|130:152|106:252,1,174,6|10,3:2|0:0,0:0:0:0:
241,264,21787,1,0,0:0:0:0:
106,192,21951,2,0,L|11:207,2,87,2|0|8,2:1|3:2|0:0,0:0:0:0:
274,173,22443,6,0,P|343:185|361:285,1,174,2|2,2:1|0:0,0:0:0:0:
202,297,22934,2,0,L|198:197,1,87,10|0,0:0|0:0,0:0:0:0:
284,146,23262,2,0,L|393:136,1,87,2|0,2:1|3:2,0:0:0:0:
284,146,23590,2,0,L|181:148,1,87,8|0,0:0|0:0,0:0:0:0:
444,150,23918,6,0,P|496:166|426:231,1,174,2|8,3:2|0:0,0:0:0:0:
314,254,24410,1,0,0:0:0:0:
177,182,24574,1,2,2:1:0:0:
263,182,24738,2,0,L|270:309,1,87,0|8,3:2|0:0,0:0:0:0:
119,246,25066,6,0,P|73:224|128:140,1,174,2|2,2:1|0:0,0:0:0:0:
288,126,25557,2,0,L|391:125,1,87,10|0,0:0|0:0,0:0:0:0:
288,126,25885,2,0,L|283:17,1,87,2|0,2:1|3:2,0:0:0:0:
376,18,26213,2,0,L|487:10,1,87,10|0,0:0|0:0,0:0:0:0:
200,89,26541,6,0,P|130:95|115:187,1,174,2|8,3:2|0:0,0:0:0:0:
194,202,27033,1,0,0:0:0:0:
347,72,27197,2,0,L|254:74,2,87,2|0|8,2:1|3:2|0:0,0:0:0:0:
185,177,27689,6,0,P|108:179|81:283,1,174,2|2,2:1|0:0,0:0:0:0:
233,278,28180,2,0,L|350:280,1,87,10|0,0:0|0:0,0:0:0:0:
233,278,28508,2,0,L|231:174,1,87,2|0,2:1|3:2,0:0:0:0:
323,163,28836,2,0,L|411:158,1,87,10|0,0:0|0:0,0:0:0:0:
159,135,29164,6,0,P|95:141|65:242,1,174,2|10,3:2|0:0,0:0:0:0:
201,264,29656,1,0,0:0:0:0:
68,204,29820,2,0,L|154:204,2,87,2|0|8,2:1|3:2|0:0,0:0:0:0:
323,199,30311,6,0,P|401:201|430:291,1,174,2|2,2:1|0:0,0:0:0:0:
348,279,30803,2,0,L|443:279,1,87,10|0,0:0|0:0,0:0:0:0:
264,206,31131,1,2,2:1:0:0:
262,121,31294,1,0,3:2:0:0:
351,49,31458,1,10,0:0:0:0:
438,52,31622,1,0,0:0:0:0:
175,48,31787,6,0,P|105:43|164:234,1,348,2|0,3:2|0:0,0:0:0:0:
197,200,42279,6,0,L|197:87,1,87,0|2,3:2|2:1,0:0:0:0:
345,80,42607,2,0,L|448:77,1,87,10|0,0:0|0:0,0:0:0:0:
278,68,42934,2,0,P|212:70|191:170,1,174,2|10,2:1|0:0,0:0:0:0:
343,180,43426,6,0,L|347:80,1,87,2|0,3:2|0:0,0:0:0:0:
259,87,43754,2,0,L|161:101,1,87,2|8,2:1|0:0,0:0:0:0:
331,83,44082,2,0,L|345:203,1,87,2|0,3:2|0:0,0:0:0:0:
259,87,44410,2,0,L|171:98,1,87,2|8,2:1|0:0,0:0:0:0:
332,105,44738,6,0,P|402:110|434:223,1,174,2|2,2:1|2:1,0:0:0:0:
357,220,45230,1,8,0:0:0:0:
186,157,45393,2,0,L|80:168,2,87,2|2|2,0:0|2:1|3:2,0:0:0:0:
273,142,45885,1,10,0:0:0:0:
97,209,46049,6,0,P|50:185|124:114,1,174,2|2,3:2|2:1,0:0:0:0:
189,101,46541,1,8,0:0:0:0:
356,104,46705,2,0,P|417:107|456:222,1,174,2|2,3:2|2:1,0:0:0:0:
291,230,47197,2,0,L|195:228,1,87,8|2,0:0|2:1,0:0:0:0:
443,222,47525,6,0,L|446:115,1,87,0|2,3:2|2:1,0:0:0:0:
291,123,47852,2,0,L|196:129,1,87,10|2,0:0|0:0,0:0:0:0:
355,66,48180,2,0,L|453:59,2,87,2|2|10,2:1|3:2|0:0,0:0:0:0:
192,85,48672,6,0,P|136:88|94:191,1,174,2|2,3:2|2:1,0:0:0:0:
249,187,49164,2,0,L|344:187,1,87,10|2,0:0|3:2,0:0:0:0:
182,135,49492,2,0,L|181:31,1,87,2|2,0:0|2:1,0:0:0:0:
331,37,49820,1,10,0:0:0:0:
176,38,49984,1,2,2:1:0:0:
419,68,50148,6,0,P|472:83|415:147,1,174,0|8,3:2|0:0,0:0:0:0:
149,182,50803,2,0,L|246:168,2,87,2|8|8,2:1|2:1|0:0,0:0:0:0:
410,102,51295,6,0,L|415:365,1,261,0|0,3:2|0:0,0:0:0:0:
104,201,52771,6,0,L|312:177,1,174,6|8,3:2|2:1,0:0:0:0:
15,101,53426,2,0,L|142:98,2,87,8|0|0,0:0|3:2|0:0,0:0:0:0:
176,126,53918,6,0,P|239:127|281:237,1,174,0|2,3:2|2:1,0:0:0:0:
202,230,54410,2,0,L|199:117,1,87,2|0,2:1|3:2,0:0:0:0:
373,98,54738,1,8,0:0:0:0:
452,111,54901,1,0,3:2:0:0:
454,191,55065,1,0,2:1:0:0:
376,209,55229,1,2,0:0:0:0:
211,235,55393,6,0,P|212:151|299:117,1,174,2|8,3:2|2:1,0:0:0:0:
368,114,55885,1,2,2:1:0:0:
209,93,56049,2,0,L|121:105,2,87,8|0|0,0:0|3:2|0:0,0:0:0:0:
373,225,56541,6,0,L|168:226,1,174,0|2,3:2|2:1,0:0:0:0:
281,165,57033,1,2,2:1:0:0:
197,171,57197,1,2,3:2:0:0:
359,87,57361,2,0,L|463:88,1,87,10|2,0:0|3:2,0:0:0:0:
281,82,57689,2,0,L|174:89,1,87,2|0,2:1|0:0,0:0:0:0:
457,81,58016,6,0,L|465:281,1,174,2|10,3:2|3:1,0:0:0:0:
197,255,58672,2,0,L|295:249,2,87,8|10|0,3:2|2:1|3:2,0:0:0:0:
23,207,59164,6,0,P|25:139|134:97,1,174,2|0,2:1|0:0,0:0:0:0:
196,111,59656,2,0,L|316:105,1,87,10|2,3:1|2:1,0:0:0:0:
123,214,59984,2,0,L|116:97,1,87,8|10,3:2|2:1,0:0:0:0:
219,93,60311,2,0,L|327:88,1,87,0|2,3:2|2:1,0:0:0:0:
41,257,60639,6,0,L|37:70,1,174,0|8,3:2|3:1,0:0:0:0:
298,132,61295,2,0,L|191:134,2,87,8|2|0,3:2|3:1|3:2,0:0:0:0:
139,224,61787,5,8,3:1:0:0:
98,211,61868,1,0,0:0:0:0:
82,172,61951,1,0,3:2:0:0:
100,135,62032,1,0,3:2:0:0:
141,125,62114,1,0,3:2:0:0:
305,114,62279,2,0,L|384:113,2,43.5,0|0|8,3:2|0:0|2:1,0:0:0:0:
50,128,62607,5,8,2:1:0:0:
50,128,62771,1,0,0:0:0:0:
96,123,62852,1,8,2:1:0:0:
266,83,62934,1,8,3:1:0:0:
266,83,63098,1,8,2:1:0:0:
220,79,63180,1,8,2:1:0:0:
50,128,63262,5,4,3:2:0:0:
304,148,68508,6,0,L|403:136,1,87,0|2,3:2|0:0,0:0:0:0:
238,96,68836,2,0,L|147:107,1,87,2|2,3:2|0:0,0:0:0:0:
317,52,69164,2,0,L|406:40,2,87,2|2|2,3:2|0:0|3:2,0:0:0:0:
155,213,69656,6,0,L|340:196,1,174,2|2,0:0|0:0,0:0:0:0:
184,147,70148,2,0,L|181:48,1,87,2|2,3:2|0:0,0:0:0:0:
337,39,70475,2,0,L|226:40,2,87,2|2|2,3:2|0:0|3:2,0:0:0:0:
488,43,70967,1,2,0:0:0:0:
220,210,71131,6,0,L|130:212,3,87,0|0|0|0,3:2|3:2|3:2|3:2,0:0:0:0:
295,118,71787,2,0,L|403:117,3,87,0|0|0|0,3:2|3:2|3:2|3:2,0:0:0:0:
134,87,72443,6,0,L|231:79,2,87,0|0|0,3:2|3:2|3:2,0:0:0:0:
47,102,72934,1,8,2:1:0:0:
91,90,73016,1,0,0:0:0:0:
265,71,73098,1,8,2:1:0:0:
265,71,73344,1,8,2:1:0:0:
217,74,73426,1,8,2:1:0:0:
217,74,73590,1,10,2:1:0:0:
265,71,73672,1,8,2:1:0:0:
431,84,73754,6,0,P|481:98|419:165,1,174,6|8,3:2|0:0,0:0:0:0:
343,166,74246,1,2,3:2:0:0:
175,222,74410,2,0,L|347:197,1,174,2|8,2:1|0:0,0:0:0:0:
255,147,74902,1,10,2:1:0:0:
88,182,75066,6,0,P|86:127|184:82,1,174,2|8,3:2|0:0,0:0:0:0:
266,85,75557,1,2,3:2:0:0:
426,112,75721,2,0,L|430:317,1,174,2|8,2:1|0:0,0:0:0:0:
340,305,76213,1,10,2:1:0:0:
59,182,76377,6,0,L|273:158,1,174,2|8,3:2|0:0,0:0:0:0:
142,121,76869,1,2,3:2:0:0:
317,125,77033,2,0,P|370:134|418:256,1,174,2|8,2:1|0:0,0:0:0:0:
337,240,77525,1,10,2:1:0:0:
184,180,77689,6,0,P|186:114|297:78,1,174,2|8,3:2|0:0,0:0:0:0:
363,79,78180,1,2,3:2:0:0:
205,59,78344,2,0,P|131:64|98:161,1,174,2|8,2:1|0:0,0:0:0:0:
185,160,78836,1,10,2:1:0:0:
446,166,79000,6,0,P|501:127|425:62,1,174,2|8,3:2|0:0,0:0:0:0:
365,59,79492,1,2,3:2:0:0:
103,98,79656,2,0,L|103:314,1,174,2|8,2:1|0:0,0:0:0:0:
191,278,80148,1,10,2:1:0:0:
346,250,80311,6,0,P|351:189|244:155,1,174,2|8,3:2|0:0,0:0:0:0:
176,170,80803,1,2,3:2:0:0:
332,143,80967,2,0,L|329:270,1,87,2|0,2:1|3:2,0:0:0:0:
176,170,81295,2,0,L|89:172,1,87,10|10,0:0|2:1,0:0:0:0:
322,113,81623,6,0,P|400:117|436:229,1,174,2|10,3:2|0:0,0:0:0:0:
276,221,82115,2,0,L|173:225,1,87,2|2,3:2|2:1,0:0:0:0:
346,143,82443,2,0,L|441:136,1,87,2|8,3:2|0:0,0:0:0:0:
162,102,82771,6,0,L|374:82,1,174,8|0,2:1|0:0,0:0:0:0:
240,163,83262,1,8,0:0:0:0:
391,229,83426,2,0,L|193:221,1,174,2|0,3:2|3:2,0:0:0:0:
311,168,83918,1,8,0:0:0:0:
159,159,84082,1,10,2:1:0:0:
434,121,84246,6,0,P|495:138|423:179,1,174,6|8,3:2|0:0,0:0:0:0:
357,197,84738,1,2,3:2:0:0:
89,272,84902,2,0,L|84:75,1,174,2|8,2:1|0:0,0:0:0:0:
169,78,85393,1,10,2:1:0:0:
332,112,85557,6,0,L|140:121,1,174,2|8,3:2|0:0,0:0:0:0:
250,180,86049,1,2,3:2:0:0:
491,193,86213,2,0,L|491:98,1,87,2|0,2:1|3:2,0:0:0:0:
339,96,86541,2,0,L|431:92,1,87,10|10,0:0|2:1,0:0:0:0:
163,177,86869,6,0,L|74:172,3,87,2|2|10|2,3:2|0:0|0:0|3:2,0:0:0:0:
231,135,87525,2,0,P|291:141|304:238,1,174,2|10,2:1|0:0,0:0:0:0:
213,246,88016,1,10,2:1:0:0:
367,170,88180,6,0,L|491:166,3,87,2|2|10|2,3:2|0:0|0:0|3:2,0:0:0:0:
294,102,88836,2,0,P|229:103|201:205,1,174,2|10,2:1|0:0,0:0:0:0:
287,205,89328,1,10,2:1:0:0:
62,255,89492,6,0,P|18:238|78:163,1,174,2|8,3:2|0:0,0:0:0:0:
159,162,89984,1,2,3:2:0:0:
312,160,90148,2,0,P|380:166|412:267,1,174,2|8,2:1|0:0,0:0:0:0:
325,268,90639,1,10,2:1:0:0:
162,189,90803,6,0,L|344:172,1,174,2|8,3:2|0:0,0:0:0:0:
192,119,91295,1,2,3:2:0:0:
332,100,91459,2,0,L|425:82,2,87,2|2|10,2:1|3:2|0:0,0:0:0:0:
170,178,91951,1,10,2:1:0:0:
436,202,92115,6,0,L|446:98,1,87,0|0,3:2|0:0,0:0:0:0:
283,99,92443,2,0,P|220:96|182:192,1,174,10|2,0:0|2:1,0:0:0:0:
269,203,92934,1,0,3:2:0:0:
184,206,93098,1,8,0:0:0:0:
339,139,93262,1,10,2:1:0:0:
81,217,93426,6,0,P|34:201|96:126,1,174,2|8,3:2|0:0,0:0:0:0:
169,127,93918,1,2,3:2:0:0:
341,190,94082,2,0,P|401:193|442:302,1,174,2|8,2:1|0:0,0:0:0:0:
355,294,94574,1,10,2:1:0:0:
81,244,94738,6,0,L|77:63,1,174,6|10,3:2|0:0,0:0:0:0:
343,111,95393,2,0,L|239:105,2,87,0|0|8,0:0|3:2|0:0,0:0:0:0:
186,129,95885,6,0,P|103:129|74:217,1,174,2|2,2:1|0:0,0:0:0:0:
237,221,96377,2,0,L|340:219,1,87,10|0,0:0|0:0,0:0:0:0:
161,267,96705,1,2,2:1:0:0:
86,232,96868,1,0,3:2:0:0:
91,151,97032,1,8,0:0:0:0:
169,125,97196,1,0,0:0:0:0:
424,137,97361,6,0,L|433:349,1,174,2|8,3:2|0:0,0:0:0:0:
172,246,98016,2,0,L|280:229,2,87,2|0|8,2:1|3:2|0:0,0:0:0:0:
324,177,98508,6,0,P|385:176|421:288,1,174,2|2,2:1|0:0,0:0:0:0:
267,272,99000,2,0,L|259:146,1,87,10|2,0:0|0:0,0:0:0:0:
417,142,99328,2,0,L|301:140,1,87,2|2,2:1|3:2,0:0:0:0:
488,171,99656,2,0,L|492:62,1,87,10|0,0:0|0:0,0:0:0:0:
234,93,99984,6,0,P|163:87|124:180,1,174,2|10,3:2|3:1,0:0:0:0:
387,187,100639,2,0,L|286:179,2,87,8|10|0,3:2|2:1|3:2,0:0:0:0:
223,122,101131,6,0,P|166:151|240:216,1,174,2|0,2:1|0:0,0:0:0:0:
399,201,101787,1,2,2:1:0:0:
401,157,101868,1,0,0:0:0:0:
403,114,101950,1,8,3:2:0:0:
227,103,102279,1,0,3:2:0:0:
496,100,102607,6,0,L|394:92,3,87,0|0|8|2,3:2|0:0|3:1|3:1,0:0:0:0:
266,159,103262,2,0,L|166:155,3,87,8|2|0|8,3:2|3:1|3:2|3:1,0:0:0:0:
329,104,103918,5,0,3:2:0:0:
371,104,103999,1,0,3:2:0:0:
406,129,104081,1,0,3:2:0:0:
421,170,104163,1,0,3:2:0:0:
410,211,104245,1,0,3:2:0:0:
377,239,104327,1,0,0:0:0:0:
334,243,104409,1,8,2:1:0:0:
65,240,104574,2,0,L|61:112,1,87,8|0,2:1|0:0,0:0:0:0:
110,120,104820,1,8,2:1:0:0:
259,114,104902,2,0,L|366:108,1,87,8|8,2:1|2:1,0:0:0:0:
54,217,105230,6,0,P|29:171|163:44,1,261,4|0,2:2|0:0,0:0:0:0:
331,119,106213,1,2,0:0:0:0:
246,119,106377,6,0,P|203:118|156:225,1,174,2|0,0:0|0:0,0:0:0:0:
309,203,107033,2,0,L|404:192,2,87,2|2|2,0:0|0:0|0:0,0:0:0:0:
219,167,107525,2,0,L|213:63,1,87,2|2,0:0|0:0,0:0:0:0:
365,73,107852,6,0,P|426:79|361:267,1,348,2|0,0:0|0:0,0:0:0:0:
94,201,109492,6,0,L|277:167,2,174,2|2|2,0:0|0:0|0:0,0:0:0:0:
363,106,110475,6,0,P|418:120|349:254,1,261,2|2,0:0|0:0,0:0:0:0:
275,217,111131,2,0,P|277:159|373:106,1,174,2|0,0:0|0:0,0:0:0:0:
460,112,111623,1,2,0:0:0:0:
301,87,111787,6,0,P|235:88|195:185,1,174,2|2,0:0|0:0,0:0:0:0:
355,207,112443,2,0,L|146:212,1,174,2|2,0:0|0:0,0:0:0:0:
459,208,113098,6,0,L|467:24,1,174,2|0,0:0|0:0,0:0:0:0:
196,143,114902,5,2,0:0:0:0:
279,122,115066,2,0,L|276:235,1,87,2|2,0:0|0:0,0:0:0:0:
114,227,115393,2,0,L|17:227,1,87,2|0,0:0|0:0,0:0:0:0:
296,134,115721,5,4,0:0:0:0:
437,126,116049,2,0,L|446:328,1,174,2|0,0:0|0:0,0:0:0:0:
261,217,116705,2,0,L|358:203,1,87,0|2,0:0|0:0,0:0:0:0:
184,157,117197,5,2,0:0:0:0:
330,119,117525,1,2,0:0:0:0:
184,157,117852,1,2,0:0:0:0:
452,139,118180,6,0,P|460:193|358:258,1,174,2|0,0:0|0:0,0:0:0:0:
216,159,118836,2,0,L|332:147,2,87,2|2|2,0:0|0:0|0:0,0:0:0:0:
126,183,119328,1,2,0:0:0:0:
296,145,119492,6,0,P|375:155|394:247,1,174,2|2,0:0|0:0,0:0:0:0:
154,243,120148,1,2,0:0:0:0:
311,167,120475,1,2,0:0:0:0:
226,167,120639,2,0,L|222:62,1,87,2|2,0:0|0:0,0:0:0:0:
467,69,120967,6,0,L|474:168,1,87,0|2,3:2|0:0,0:0:0:0:
303,177,121295,2,0,L|197:184,1,87,2|2,0:0|0:0,0:0:0:0:
364,100,121623,2,0,L|460:95,2,87,2|2|2,0:0|0:0|0:0,0:0:0:0:
213,109,122115,1,2,0:0:0:0:
364,100,122279,5,0,3:2:0:0:
213,109,122443,2,0,L|112:115,2,87,2|2|2,0:0|0:0|0:0,0:0:0:0:
364,100,122934,2,0,L|364:212,1,87,2|2,0:0|0:0,0:0:0:0:
193,207,123262,2,0,L|88:214,1,87,2|2,0:0|0:0,0:0:0:0:
350,252,123590,6,0,P|401:223|331:159,1,174,0|0,3:2|0:0,0:0:0:0:
185,159,124082,2,0,P|139:138|200:60,1,174,0|0,3:2|0:0,0:0:0:0:
345,57,124574,1,0,3:2:0:0:
337,56,124902,6,0,L|232:107,2,87
426,47,125393,2,0,L|430:116,1,43.5,8|0,2:1|0:0,0:0:0:0:
236,172,125557,6,0,L|131:174,1,87,8|0,2:1|0:0,0:0:0:0:
197,106,125803,1,8,2:1:0:0:
338,85,125885,2,0,L|444:83,1,87,8|8,2:1|2:1,0:0:0:0:
382,134,126131,1,0,0:0:0:0:
171,214,126213,6,0,L|66:219,2,87,6|0|8,3:2|0:0|2:1,0:0:0:0:
432,145,126869,2,0,L|319:150,2,87,8|0|0,0:0|3:2|0:0,0:0:0:0:
270,108,127361,6,0,P|189:107|159:199,1,174,0|2,3:2|2:1,0:0:0:0:
316,209,128016,1,0,3:2:0:0:
157,228,128180,2,0,L|154:35,1,174,8|0,0:0|2:1,0:0:0:0:
436,111,128836,6,0,L|239:115,1,174,2|8,3:2|2:1,0:0:0:0:
351,173,129328,1,2,2:1:0:0:
189,213,129492,2,0,L|82:231,2,87,8|0|0,0:0|3:2|0:0,0:0:0:0:
357,209,129984,6,0,P|404:189|341:108,1,174,0|2,3:2|2:1,0:0:0:0:
200,83,130639,1,2,3:2:0:0:
360,85,130803,2,0,L|365:194,1,87,10|2,0:0|3:2,0:0:0:0:
200,83,131131,2,0,L|103:91,1,87,2|0,2:1|0:0,0:0:0:0:
371,215,131459,6,0,P|419:197|357:130,1,174,2|10,3:2|3:1,0:0:0:0:
214,142,132115,2,0,L|391:135,1,174,8|0,3:2|3:2,0:0:0:0:
120,230,132771,6,0,P|73:210|124:126,1,174,2|10,3:2|3:1,0:0:0:0:
287,128,133426,2,0,L|111:122,1,174,8|0,3:2|3:2,0:0:0:0:
394,78,134082,5,0,3:2:0:0:
476,101,134245,1,2,3:1:0:0:
476,183,134409,1,8,3:1:0:0:
395,212,134573,1,2,3:1:0:0:
225,163,134738,2,0,L|221:60,1,87,8|2,3:2|3:1,0:0:0:0:
378,78,135066,2,0,L|390:-24,1,87,0|8,3:2|3:1,0:0:0:0:
148,55,135393,5,0,3:2:0:0:
104,53,135474,1,0,3:2:0:0:
65,70,135556,1,0,3:2:0:0:
37,103,135638,1,0,3:2:0:0:
27,145,135720,1,8,2:1:0:0:
36,187,135802,1,8,2:1:0:0:
63,221,135884,1,8,2:1:0:0:
232,214,136049,6,0,L|238:98,1,87
135,105,136377,2,0,L|126:-1,1,87
367,68,136705,5,4,3:2:0:0:
172,212,141951,6,0,L|167:99,1,87,0|2,3:2|0:0,0:0:0:0:
324,89,142279,2,0,L|417:82,1,87,2|2,3:2|0:0,0:0:0:0:
244,79,142607,2,0,L|138:93,2,87,2|2|2,3:2|0:0|3:2,0:0:0:0:
399,199,143098,6,0,L|205:193,1,174,2|2,0:0|0:0,0:0:0:0:
377,128,143590,2,0,L|466:121,1,87,2|2,3:2|0:0,0:0:0:0:
304,79,143918,2,0,L|194:96,2,87,2|2|2,3:2|0:0|3:2,0:0:0:0:
465,49,144410,1,2,0:0:0:0:
192,183,144574,6,0,L|74:184,1,87,0|0,3:2|3:2,0:0:0:0:
265,116,144902,2,0,L|151:114,1,87,0|0,3:2|3:2,0:0:0:0:
418,181,145230,2,0,L|536:182,1,87,0|0,3:2|3:2,0:0:0:0:
345,114,145558,2,0,L|459:112,1,87,0|0,3:2|3:2,0:0:0:0:
182,146,145885,5,0,3:2:0:0:
316,153,146049,1,0,3:2:0:0:
182,146,146213,1,0,3:2:0:0:
316,153,146377,2,0,L|267:156,1,43.5,8|0,2:1|0:0,0:0:0:0:
124,112,146541,2,0,P|79:115|19:106,1,87,8|0,2:1|0:0,0:0:0:0:
86,167,146787,1,8,2:1:0:0:
247,170,146869,2,0,L|348:174,1,87,8|10,2:1|2:1,0:0:0:0:
81,84,147197,6,0,P|31:98|93:165,1,174,6|8,3:2|3:2,0:0:0:0:
169,166,147689,1,2,2:1:0:0:
337,222,147853,2,0,L|165:197,1,174,2|8,3:1|3:2,0:0:0:0:
257,147,148345,1,10,2:1:0:0:
424,182,148509,6,0,P|426:127|328:82,1,174,2|8,3:2|3:2,0:0:0:0:
246,85,149000,1,2,2:1:0:0:
86,112,149164,2,0,L|82:317,1,174,2|8,3:1|3:2,0:0:0:0:
172,305,149656,1,10,2:1:0:0:
453,182,149820,6,0,L|239:158,1,174,2|8,3:2|3:2,0:0:0:0:
370,121,150312,1,2,2:1:0:0:
88,99,150475,2,0,P|41:110|94:187,1,174,2|8,3:1|3:2,0:0:0:0:
175,240,150968,1,10,2:1:0:0:
328,180,151132,6,0,P|326:114|215:78,1,174,2|8,3:2|3:2,0:0:0:0:
149,79,151623,1,2,2:1:0:0:
307,59,151787,2,0,P|381:64|414:161,1,174,2|8,3:1|3:2,0:0:0:0:
327,160,152279,1,10,2:1:0:0:
66,166,152443,6,0,P|11:127|87:62,1,174,2|8,3:2|3:2,0:0:0:0:
147,59,152935,1,2,2:1:0:0:
409,98,153099,2,0,L|409:314,1,174,2|8,3:1|3:2,0:0:0:0:
321,278,153591,1,10,2:1:0:0:
166,250,153754,6,0,P|161:189|268:155,1,174,2|8,3:2|3:2,0:0:0:0:
336,170,154246,1,2,2:1:0:0:
180,143,154410,2,0,L|183:270,1,87,2|2,3:1|2:1,0:0:0:0:
336,170,154738,2,0,L|423:172,1,87,10|10,3:2|2:1,0:0:0:0:
190,113,155066,6,0,L|94:112,1,87,2|2,3:2|2:1,0:0:0:0:
103,112,155393,1,10,3:2:0:0:
236,221,155557,2,0,L|339:225,1,87,2|2,2:1|3:1,0:0:0:0:
166,143,155886,2,0,L|71:136,1,87,2|8,2:1|3:2,0:0:0:0:
350,102,156214,6,0,L|138:82,1,174,10|0,2:1|0:0,0:0:0:0:
272,163,156705,1,8,3:2:0:0:
121,229,156869,2,0,L|62:228,2,43.5,10|0|10,2:1|0:0|3:1,0:0:0:0:
286,202,157197,1,2,2:1:0:0:
243,185,157279,1,8,2:1:0:0:
201,168,157361,1,8,3:2:0:0:
353,159,157525,1,10,2:1:0:0:
78,121,157689,6,0,P|17:138|89:179,1,174,6|8,3:2|3:2,0:0:0:0:
155,197,158181,1,2,2:1:0:0:
423,272,158345,2,0,L|428:75,1,174,2|8,3:1|3:2,0:0:0:0:
343,78,158836,1,10,2:1:0:0:
180,112,159000,6,0,L|372:121,1,174,2|8,3:2|3:2,0:0:0:0:
262,180,159492,1,2,2:1:0:0:
21,193,159656,2,0,L|21:98,1,87,2|2,3:1|2:1,0:0:0:0:
173,96,159984,1,8,3:2:0:0:
21,106,160148,1,10,2:1:0:0:
282,216,160311,5,2,3:2:0:0:
432,216,160475,1,0,0:0:0:0:
282,216,160639,1,8,3:2:0:0:
432,216,160803,1,2,2:1:0:0:
152,98,160967,2,0,P|107:110|167:186,1,174,2|8,3:1|3:2,0:0:0:0:
303,246,161459,1,10,2:1:0:0:
49,184,161623,5,2,3:2:0:0:
196,185,161787,1,0,0:0:0:0:
49,184,161951,1,8,3:2:0:0:
301,187,162115,1,2,2:1:0:0:
166,149,162279,2,0,L|161:48,1,87,2|2,3:1|2:1,0:0:0:0:
316,48,162607,1,10,3:2:0:0:
161,62,162771,1,10,2:1:0:0:
450,255,162935,6,0,P|494:238|434:163,1,174,2|8,3:2|3:2,0:0:0:0:
353,162,163427,1,2,2:1:0:0:
200,160,163591,2,0,P|132:166|100:267,1,174,2|8,3:1|3:2,0:0:0:0:
187,268,164082,1,10,2:1:0:0:
350,189,164246,6,0,L|168:172,1,174,2|8,3:2|3:2,0:0:0:0:
333,128,164738,1,2,2:1:0:0:
180,100,164902,2,0,L|87:82,2,87,2|2|10,3:1|2:1|3:2,0:0:0:0:
342,178,165394,1,10,2:1:0:0:
76,202,165558,6,0,L|66:98,1,87,0|0,3:2|0:0,0:0:0:0:
229,99,165886,2,0,P|292:96|330:192,1,174,10|2,3:2|3:1,0:0:0:0:
243,203,166377,1,2,2:1:0:0:
328,206,166541,1,8,3:2:0:0:
173,139,166705,1,10,2:1:0:0:
431,217,166869,6,0,P|478:201|416:126,1,174,2|8,3:2|3:2,0:0:0:0:
343,127,167361,1,2,2:1:0:0:
171,190,167525,2,0,P|111:193|70:302,1,174,2|8,3:1|3:2,0:0:0:0:
157,294,168017,1,10,2:1:0:0:
431,244,168181,6,0,L|435:63,1,174,4|10,0:0|2:1,0:0:0:0:
169,111,168836,2,0,L|273:105,2,87,0|2|10,0:0|0:0|2:1,0:0:0:0:
326,129,169328,6,0,P|409:129|438:217,1,174,2|2,0:0|0:0,0:0:0:0:
275,221,169820,2,0,L|172:219,1,87,10|2,2:1|2:1,0:0:0:0:
351,267,170148,1,2,0:0:0:0:
426,232,170311,1,0,0:0:0:0:
421,151,170475,1,10,2:1:0:0:
343,125,170639,1,0,0:0:0:0:
88,137,170804,6,0,L|79:349,1,174,0|10,0:0|2:1,0:0:0:0:
340,246,171459,2,0,L|232:229,2,87,2|2|10,2:2|0:0|2:1,0:0:0:0:
188,177,171951,6,0,P|127:176|91:288,1,174,2|2,0:0|0:0,0:0:0:0:
245,272,172443,2,0,L|253:146,1,87,10|2,2:1|2:1,0:0:0:0:
95,142,172771,2,0,L|211:140,1,87,2|2,0:0|0:0,0:0:0:0:
24,171,173099,2,0,L|20:62,1,87,10|0,2:1|0:0,0:0:0:0:
278,93,173427,6,0,P|349:87|388:180,1,174,2|10,3:2|3:2,0:0:0:0:
125,187,174082,2,0,L|226:179,2,87,0|10|8,3:2|2:1|3:2,0:0:0:0:
289,122,174574,6,0,P|346:151|272:216,1,174,2|0,2:1|0:0,0:0:0:0:
204,224,175066,1,10,3:2:0:0:
113,201,175230,1,2,2:1:0:0:
111,157,175311,1,0,0:0:0:0:
109,114,175393,1,0,3:2:0:0:
285,103,175722,1,8,3:2:0:0:
16,100,176050,6,0,L|118:92,3,87,0|2|8|2,3:2|3:1|3:2|3:1,0:0:0:0:
246,159,176705,2,0,L|346:155,3,87,0|2|8|8,3:2|3:1|3:2|3:1,0:0:0:0:
183,104,177361,5,0,3:2:0:0:
141,104,177442,1,0,3:2:0:0:
106,129,177524,1,0,3:2:0:0:
91,170,177606,1,0,3:2:0:0:
102,211,177688,1,0,3:2:0:0:
135,239,177770,1,0,0:0:0:0:
178,243,177852,1,8,2:1:0:0:
447,240,178017,2,0,L|451:112,1,87,8|0,2:1|0:0,0:0:0:0:
402,120,178263,1,8,2:1:0:0:
253,114,178345,2,0,L|146:108,1,87,8|8,3:1|2:1,0:0:0:0:
458,217,178672,5,2,0:0:0:0:
256,192,178836,12,0,189000,0:0:0:0:
