osu file format v14

[General]
AudioFilename: audio.mp3
AudioLeadIn: 0
PreviewTime: 146869
Countdown: 0
SampleSet: Soft
StackLeniency: 0.3
Mode: 2
LetterboxInBreaks: 0
WidescreenStoryboard: 1

[Editor]
Bookmarks: 10803,31787,32115,32443,32771,33098,33426,33754,34082,34410,34738,35066,35393,35721,36049,36377,36705,37033,37361,37689,38016,38344,38672,39000,39328,39656,39984,40311,40639,40967,41295,41623,41951,63262,63590,63918,64246,64574,64902,65230,65557,65885,66213,66541,66869,67197,67525,67852,68180
DistanceSpacing: 0.9
BeatDivisor: 4
GridSize: 16
TimelineZoom: 2.4

[Metadata]
Title:Astrogirl
TitleUnicode:Astrogirl
Artist:Tsukumo Sana
ArtistUnicode:Tsukumo Sana
Creator:Secre
Version:Platter
Source:
Tags:chickenbible stardust prism Ixcors hololive holoen english council virtual vtuber ujico* snail's house electronic 九十九佐命
BeatmapID:3849527
BeatmapSetID:1818360

[Difficulty]
HPDrainRate:4
CircleSize:3.2
OverallDifficulty:8
ApproachRate:8
SliderMultiplier:1.5
SliderTickRate:2

[Events]
//Background and Video events
0,0,"sananara.png",0,0
Video,0,"sanararnanraa.m4v"
//Break Periods
2,31987,41529
2,63462,67758
2,136905,141201
//Storyboard Layer 0 (Background)
//Storyboard Layer 1 (Fail)
//Storyboard Layer 2 (Pass)
//Storyboard Layer 3 (Foreground)
//Storyboard Layer 4 (Overlay)
//Storyboard Sound Samples

[TimingPoints]
312,327.868852459016,4,2,1,50,1,0
10803,-100,4,2,1,70,0,0
21295,-100,4,2,1,75,0,0
31787,-100,4,2,1,50,0,0
42279,-100,4,2,1,60,0,0
51951,-100,4,2,1,50,0,0
52771,-100,4,2,1,70,0,0
63262,-100,4,2,1,50,0,0
68508,-100,4,2,1,60,0,0
71131,-100,4,2,1,70,0,0
72934,-100,4,2,1,60,0,0
73754,-100,4,2,1,85,0,1
94738,-100,4,2,1,75,0,0
105230,-100,4,2,1,50,0,0
126213,-100,4,2,1,70,0,0
136705,-100,4,2,1,50,0,0
141951,-100,4,2,1,60,0,0
144574,-100,4,2,1,70,0,0
146377,-100,4,2,1,50,0,0
147197,-100,4,2,1,85,0,1
168180,-100,4,2,1,55,0,0
173426,-100,4,2,1,65,0,0
177852,-100,4,2,1,55,0,0
178672,-100,4,2,1,50,0,0
178836,-100,4,2,1,35,0,0

[Colours]
Combo1 : 255,0,134
Combo2 : 140,0,255
Combo3 : 253,244,208

[HitObjects]
315,177,312,6,0,L|130:177,1,150,2|2,0:0|0:0,0:0:0:0:
240,111,803,1,0,0:0:0:0:
151,113,967,2,0,L|151:214,1,75,2|2,0:0|0:0,0:0:0:0:
235,198,1295,2,0,L|302:199,1,37.5,2|2,0:0|0:0,0:0:0:0:
235,198,1459,6,0,L|65:201,1,150,2|2,0:0|0:0,0:0:0:0:
236,88,2115,1,2,0:0:0:0:
236,125,2196,1,2,0:0:0:0:
237,162,2278,1,2,0:0:0:0:
94,190,2607,1,2,0:0:0:0:
355,207,2934,6,0,P|404:188|343:139,1,150,2|2,0:0|0:0,0:0:0:0:
275,133,3426,1,0,0:0:0:0:
354,116,3590,2,0,L|451:108,2,75,2|2|0,0:0|0:0|0:0,0:0:0:0:
203,203,4082,6,0,P|162:191|208:116,1,150,2|2,0:0|0:0,0:0:0:0:
350,96,4738,1,2,0:0:0:0:
352,133,4819,1,2,0:0:0:0:
355,170,4901,1,2,0:0:0:0:
277,198,5066,2,0,L|94:203,1,150,2|0,0:0|0:0,0:0:0:0:
277,198,5557,6,0,P|329:201|368:295,1,150,2|0,0:0|0:0,0:0:0:0:
297,301,6049,1,0,0:0:0:0:
220,236,6213,2,0,L|219:156,1,75
295,140,6541,2,0,L|365:140,1,37.5,2|2,0:0|0:0,0:0:0:0:
295,140,6705,6,0,L|125:143,1,150,2|2,0:0|0:0,0:0:0:0:
301,112,7361,1,2,0:0:0:0:
302,149,7442,1,2,0:0:0:0:
304,186,7524,1,2,0:0:0:0:
148,197,7852,1,2,0:0:0:0:
414,138,8180,6,0,L|241:139,1,150,2|0,0:0|0:0,0:0:0:0:
342,75,8672,1,2,0:0:0:0:
415,72,8836,2,0,L|498:70,2,75,2|2|0,0:0|0:0|0:0,0:0:0:0:
266,131,9328,6,0,L|96:130,1,150,2|2,0:0|0:0,0:0:0:0:
268,129,9984,2,0,L|321:129,2,37.5,2|2|2,0:0|0:0|0:0,0:0:0:0:
191,193,10311,2,0,P|142:173|196:122,1,150,2|0,0:0|0:0,0:0:0:0:
420,101,10803,6,0,P|466:113|413:171,1,150,6|8,3:2|2:1,0:0:0:0:
275,193,11459,2,0,L|186:194,1,75,8|0,0:0|3:2,0:0:0:0:
348,143,11951,6,0,L|351:312,1,150,0|2,3:2|2:1,0:0:0:0:
201,271,12607,1,0,3:2:0:0:
354,207,12771,2,0,L|357:121,1,75,8|0,0:0|3:2,0:0:0:0:
282,131,13098,2,0,L|195:131,1,75,0|2,2:1|0:0,0:0:0:0:
363,126,13426,6,0,P|409:129|446:226,1,150,2|8,3:2|2:1,0:0:0:0:
295,235,14082,2,0,L|381:237,1,75,8|0,0:0|3:2,0:0:0:0:
218,149,14574,6,0,L|62:151,2,150,0|2|0,3:2|2:1|3:2,0:0:0:0:
379,150,15393,1,8,0:0:0:0:
452,172,15556,1,2,3:2:0:0:
453,244,15720,1,2,2:1:0:0:
383,267,15884,1,0,0:0:0:0:
116,104,16049,6,0,P|70:116|123:174,1,150,2|10,3:2|2:1,0:0:0:0:
261,196,16705,2,0,L|350:197,1,75,8|0,0:0|3:2,0:0:0:0:
188,146,17197,6,0,L|185:315,1,150,0|2,3:2|2:1,0:0:0:0:
335,274,17853,1,0,3:2:0:0:
182,210,18017,2,0,L|179:124,1,75,8|0,0:0|3:2,0:0:0:0:
254,134,18344,2,0,L|341:134,1,75,2|0,2:1|0:0,0:0:0:0:
173,129,18672,6,0,P|127:132|90:229,1,150,0|8,3:2|2:1,0:0:0:0:
241,238,19328,2,0,L|155:240,1,75,8|0,0:0|3:2,0:0:0:0:
318,152,19820,6,0,L|474:154,2,150,0|2|0,3:2|2:1|3:2,0:0:0:0:
157,153,20639,1,8,0:0:0:0:
84,175,20802,1,0,3:2:0:0:
83,247,20966,1,0,0:0:0:0:
153,270,21130,1,0,0:0:0:0:
415,267,21295,6,0,L|421:100,1,150,6|10,3:2|0:0,0:0:0:0:
270,108,21951,2,0,L|356:101,2,75,2|0|8,2:1|3:2|0:0,0:0:0:0:
113,192,22443,6,0,P|72:180|129:117,1,150,2|2,2:1|0:0,0:0:0:0:
185,99,22934,2,0,L|183:186,1,75,10|0,0:0|0:0,0:0:0:0:
107,198,23262,2,0,L|26:198,3,75,2|0|8|0,2:1|3:2|0:0|0:0,0:0:0:0:
191,138,23918,6,0,P|237:140|274:249,1,150,2|8,3:2|0:0,0:0:0:0:
127,218,24574,2,0,L|40:220,2,75,2|0|8,2:1|3:2|0:0,0:0:0:0:
289,207,25066,6,0,L|464:202,1,150,2|2,2:1|0:0,0:0:0:0:
363,143,25557,2,0,L|262:143,1,75,10|0,0:0|0:0,0:0:0:0:
363,143,25885,1,2,2:1:0:0:
431,150,26048,1,0,3:2:0:0:
430,218,26212,1,10,0:0:0:0:
362,225,26376,1,0,0:0:0:0:
126,243,26541,6,0,P|78:226|143:186,1,150,2|8,3:2|0:0,0:0:0:0:
276,153,27197,1,2,2:1:0:0:
201,153,27360,1,0,3:2:0:0:
126,153,27524,1,8,0:0:0:0:
276,153,27689,6,0,L|275:322,1,150,2|2,2:1|0:0,0:0:0:0:
200,308,28180,2,0,L|203:221,1,75,10|0,0:0|0:0,0:0:0:0:
281,200,28508,2,0,L|360:198,1,75,2|0,2:1|3:2,0:0:0:0:
281,200,28836,2,0,L|183:200,1,75,10|0,0:0|0:0,0:0:0:0:
369,253,29164,6,0,P|409:236|360:166,1,150,2|10,3:2|0:0,0:0:0:0:
219,128,29820,2,0,L|141:127,2,75,2|0|8,2:1|3:2|0:0,0:0:0:0:
383,137,30311,6,0,L|384:313,1,150,2|2,2:1|0:0,0:0:0:0:
308,289,30803,2,0,L|415:285,1,75,10|0,0:0|0:0,0:0:0:0:
229,137,31131,1,2,2:1:0:0:
156,130,31294,1,0,3:2:0:0:
83,177,31459,1,10,0:0:0:0:
82,252,31623,1,0,0:0:0:0:
321,254,31787,5,2,3:2:0:0:
363,154,42279,5,0,3:2:0:0:
117,197,42607,2,0,L|117:89,1,75,10|0,0:0|0:0,0:0:0:0:
200,103,42934,2,0,L|299:103,2,75,2|0|10,2:1|3:2|0:0,0:0:0:0:
38,205,43426,6,0,L|34:40,1,150,2|2,3:2|2:1,0:0:0:0:
114,23,43918,1,8,0:0:0:0:
275,60,44082,2,0,L|276:157,1,75,2|0,3:2|0:0,0:0:0:0:
196,176,44410,2,0,L|195:90,1,75,2|8,2:1|0:0,0:0:0:0:
277,62,44738,1,2,2:1:0:0:
442,63,44902,6,0,P|485:77|431:148,1,150,0|8,3:2|0:0,0:0:0:0:
371,165,45393,1,2,0:0:0:0:
304,140,45556,1,2,2:1:0:0:
302,69,45720,1,2,3:2:0:0:
367,41,45884,1,10,0:0:0:0:
209,79,46049,6,0,L|50:80,1,150,2|2,3:2|2:1,0:0:0:0:
301,100,46705,2,0,P|346:101|380:197,1,150,2|2,3:2|2:1,0:0:0:0:
301,209,47197,2,0,L|216:209,1,75,8|2,0:0|2:1,0:0:0:0:
400,142,47525,5,0,3:2:0:0:
479,96,47689,2,0,L|480:9,1,75,2|10,2:1|0:0,0:0:0:0:
400,142,48016,1,2,0:0:0:0:
247,80,48180,2,0,L|167:83,2,75,2|2|10,2:1|3:2|0:0,0:0:0:0:
86,234,48672,6,0,P|46:222|100:158,1,150,2|2,3:2|2:1,0:0:0:0:
164,140,49164,2,0,L|241:134,1,75,10|2,0:0|3:2,0:0:0:0:
164,140,49492,2,0,L|160:52,1,75,2|2,0:0|2:1,0:0:0:0:
318,41,49820,1,10,0:0:0:0:
399,37,49984,1,2,2:1:0:0:
239,117,50148,6,0,P|186:117|159:220,1,150,0|8,3:2|0:0,0:0:0:0:
222,205,50639,1,8,2:1:0:0:
300,205,50803,1,2,2:1:0:0:
381,201,50967,1,8,2:1:0:0:
300,205,51131,1,8,0:0:0:0:
145,216,51295,5,0,3:2:0:0:
145,216,51951,1,2,0:0:0:0:
219,215,52114,1,2,0:0:0:0:
294,214,52278,1,2,0:0:0:0:
366,210,52443,2,0,L|366:112,1,75,2|0,0:0|0:0,0:0:0:0:
113,103,52771,6,0,L|114:258,1,150,6|8,3:2|2:1,0:0:0:0:
258,195,53427,2,0,L|347:196,1,75,8|0,0:0|3:2,0:0:0:0:
185,145,53919,6,0,L|182:314,1,150,0|2,3:2|2:1,0:0:0:0:
332,273,54575,1,0,3:2:0:0:
179,209,54739,2,0,L|176:123,1,75,8|0,0:0|3:2,0:0:0:0:
251,133,55066,2,0,L|338:133,1,75,0|2,2:1|0:0,0:0:0:0:
170,128,55394,6,0,P|124:131|87:228,1,150,2|8,3:2|2:1,0:0:0:0:
238,237,56050,2,0,L|152:239,1,75,8|0,0:0|3:2,0:0:0:0:
315,151,56542,6,0,L|471:153,2,150,0|2|2,3:2|2:1|3:2,0:0:0:0:
154,152,57361,1,10,0:0:0:0:
81,174,57524,1,2,3:2:0:0:
80,246,57688,1,2,2:1:0:0:
150,269,57852,1,0,0:0:0:0:
417,106,58017,6,0,P|463:118|410:176,1,150,2|10,3:2|3:1,0:0:0:0:
272,198,58673,2,0,L|183:199,1,75,8|10,3:2|2:1,0:0:0:0:
345,148,59165,6,0,L|348:317,1,150,2|0,2:1|0:0,0:0:0:0:
198,276,59821,1,2,2:1:0:0:
351,212,59985,2,0,L|354:126,1,75,8|10,3:2|2:1,0:0:0:0:
279,136,60312,2,0,L|192:136,1,75,0|2,3:2|2:1,0:0:0:0:
360,131,60640,6,0,P|406:134|443:231,1,150,0|8,3:2|3:1,0:0:0:0:
292,240,61296,2,0,L|378:242,1,75,8|2,3:2|3:1,0:0:0:0:
215,154,61788,6,0,L|59:156,2,150,8|0|8,3:1|3:2|2:1,0:0:0:0:
383,148,62607,1,8,2:1:0:0:
278,76,62852,2,0,L|217:76,1,37.5,8|8,2:1|3:1,0:0:0:0:
164,36,63098,1,8,2:1:0:0:
412,76,63262,5,4,3:2:0:0:
382,124,68508,6,0,L|385:285,1,150,0|2,3:2|3:2,0:0:0:0:
308,288,69000,1,2,0:0:0:0:
229,207,69164,2,0,L|132:211,2,75,2|2|2,3:2|0:0|3:2,0:0:0:0:
394,192,69656,6,0,L|396:282,1,75,2|0,0:0|3:2,0:0:0:0:
320,292,69984,1,2,0:0:0:0:
394,290,70147,1,2,3:2:0:0:
469,288,70311,1,2,0:0:0:0:
320,292,70475,2,0,L|228:288,2,75,2|2|2,3:2|0:0|3:2,0:0:0:0:
403,292,70967,1,2,0:0:0:0:
161,230,71131,5,0,3:2:0:0:
95,203,71294,1,0,3:2:0:0:
96,133,71458,1,0,3:2:0:0:
162,108,71622,1,0,3:2:0:0:
314,94,71787,2,0,L|400:94,1,75,0|0,3:2|3:2,0:0:0:0:
314,94,72115,2,0,L|226:95,1,75,0|0,3:2|3:2,0:0:0:0:
475,95,72443,6,0,L|474:182,1,75,0|0,3:2|3:2,0:0:0:0:
399,172,72771,2,0,L|477:169,1,75,0|8,3:2|2:1,0:0:0:0:
240,123,73098,1,8,2:1:0:0:
127,122,73343,1,8,2:1:0:0:
90,122,73425,1,8,2:1:0:0:
90,122,73590,1,10,2:1:0:0:
345,114,73754,6,0,P|386:126|334:192,1,150,6|8,3:2|0:0,0:0:0:0:
272,194,74246,1,2,3:2:0:0:
436,200,74410,2,0,L|437:37,1,150,2|8,2:1|0:0,0:0:0:0:
359,38,74902,1,10,2:1:0:0:
205,44,75066,6,0,P|150:45|122:134,1,150,2|8,3:2|0:0,0:0:0:0:
198,132,75557,1,2,3:2:0:0:
358,137,75721,2,0,P|414:143|441:236,1,150,2|8,2:1|0:0,0:0:0:0:
370,235,76213,1,10,2:1:0:0:
116,186,76377,6,0,P|73:172|132:117,1,150,2|8,3:2|0:0,0:0:0:0:
199,103,76869,1,2,3:2:0:0:
351,107,77033,2,0,P|351:157|265:193,1,150,2|8,2:1|0:0,0:0:0:0:
192,184,77525,1,10,2:1:0:0:
346,174,77689,6,0,L|511:170,1,150,2|8,3:2|0:0,0:0:0:0:
421,116,78180,1,2,3:2:0:0:
259,91,78344,2,0,P|209:91|165:185,1,150,2|8,2:1|0:0,0:0:0:0:
237,182,78836,1,10,2:1:0:0:
470,208,79000,6,0,L|478:48,1,150,2|8,3:2|0:0,0:0:0:0:
400,43,79492,1,2,3:2:0:0:
238,61,79656,2,0,L|61:61,1,150,2|8,2:1|0:0,0:0:0:0:
168,127,80148,1,10,2:1:0:0:
327,138,80311,6,0,P|381:139|410:230,1,150,2|8,3:2|0:0,0:0:0:0:
337,239,80803,1,2,3:2:0:0:
181,182,80967,2,0,L|180:92,1,75,2|0,2:1|3:2,0:0:0:0:
260,83,81295,2,0,L|353:82,1,75,10|10,0:0|2:1,0:0:0:0:
92,233,81623,6,0,P|55:219|112:153,1,150,2|10,3:2|0:0,0:0:0:0:
257,148,82115,2,0,L|336:147,1,75,2|2,3:2|2:1,0:0:0:0:
176,117,82443,2,0,L|176:30,1,75,2|8,3:2|0:0,0:0:0:0:
333,41,82771,1,8,2:1:0:0:
401,53,82934,5,0,0:0:0:0:
403,130,83098,1,0,0:0:0:0:
331,147,83262,1,8,0:0:0:0:
166,208,83426,2,0,L|164:46,1,150,2|0,3:2|3:2,0:0:0:0:
245,37,83918,2,0,L|333:35,1,75,8|10,0:0|2:1,0:0:0:0:
75,81,84246,6,0,L|73:260,1,150,6|8,3:2|0:0,0:0:0:0:
156,238,84738,1,2,3:2:0:0:
324,239,84902,2,0,L|331:63,1,150,2|8,2:1|0:0,0:0:0:0:
250,74,85393,1,10,2:1:0:0:
502,77,85557,6,0,L|503:240,1,150,2|8,3:2|0:0,0:0:0:0:
416,243,86049,1,2,3:2:0:0:
256,176,86213,2,0,L|257:95,1,75,2|0,2:1|3:2,0:0:0:0:
337,81,86541,2,0,L|433:80,1,75,10|10,0:0|2:1,0:0:0:0:
163,253,86869,5,2,3:2:0:0:
97,228,87032,1,2,0:0:0:0:
96,157,87196,1,10,0:0:0:0:
162,132,87360,1,2,3:2:0:0:
326,124,87525,2,0,L|488:122,1,150,2|10,2:1|0:0,0:0:0:0:
398,184,88016,1,10,2:1:0:0:
162,205,88180,5,2,3:2:0:0:
162,132,88343,1,2,0:0:0:0:
232,81,88507,1,10,0:0:0:0:
304,82,88671,1,2,3:2:0:0:
150,66,88836,2,0,L|-3:65,1,150,2|10,2:1|0:0,0:0:0:0:
76,128,89328,1,10,2:1:0:0:
239,118,89492,6,0,P|299:119|323:219,1,150,2|8,3:2|0:0,0:0:0:0:
256,216,89984,1,2,3:2:0:0:
96,219,90148,2,0,L|96:49,1,150,2|8,2:1|0:0,0:0:0:0:
176,41,90639,1,10,2:1:0:0:
336,42,90803,6,0,L|501:41,1,150,2|8,3:2|0:0,0:0:0:0:
411,109,91295,1,2,3:2:0:0:
248,120,91459,2,0,L|158:125,2,75,2|2|10,2:1|3:2|0:0,0:0:0:0:
329,107,91951,1,10,2:1:0:0:
174,170,92115,6,0,L|91:167,1,75,0|0,3:2|0:0,0:0:0:0:
258,114,92443,2,0,P|297:117|329:224,1,150,10|2,0:0|2:1,0:0:0:0:
256,229,92934,1,0,3:2:0:0:
88,175,93098,2,0,L|85:75,1,75,8|10,0:0|2:1,0:0:0:0:
325,76,93426,6,0,L|156:74,1,150,2|8,3:2|0:0,0:0:0:0:
256,137,93918,1,2,3:2:0:0:
421,141,94082,2,0,P|468:150|409:199,1,150,2|8,2:1|0:0,0:0:0:0:
351,217,94574,1,10,2:1:0:0:
111,270,94738,6,0,L|114:96,1,150,6|10,3:2|0:0,0:0:0:0:
263,107,95393,1,0,0:0:0:0:
188,105,95556,1,0,3:2:0:0:
113,104,95720,1,8,0:0:0:0:
263,107,95885,6,0,P|326:109|353:192,1,150,2|2,2:1|0:0,0:0:0:0:
272,197,96377,2,0,L|271:110,1,75,10|0,0:0|0:0,0:0:0:0:
353,99,96705,2,0,L|350:198,1,75,2|0,2:1|3:2,0:0:0:0:
267,197,97033,2,0,L|176:198,1,75,8|0,0:0|0:0,0:0:0:0:
352,246,97361,6,0,P|414:246|443:340,1,150,2|8,3:2|0:0,0:0:0:0:
297,204,98016,2,0,L|387:203,1,75,2|0,2:1|3:2,0:0:0:0:
215,153,98508,6,0,P|179:135|231:60,1,150,2|2,2:1|0:0,0:0:0:0:
296,59,99000,2,0,L|370:59,1,75,10|2,0:0|0:0,0:0:0:0:
217,209,99328,1,2,2:1:0:0:
153,177,99491,1,2,3:2:0:0:
157,106,99655,1,10,0:0:0:0:
223,82,99819,1,0,0:0:0:0:
396,94,99984,6,0,L|395:251,1,150,2|10,3:2|3:1,0:0:0:0:
246,215,100639,2,0,L|161:212,1,75,8|10,3:2|2:1,0:0:0:0:
314,141,101131,6,0,L|480:140,1,150,2|0,2:1|0:0,0:0:0:0:
315,142,101787,1,2,2:1:0:0:
313,104,101868,1,0,0:0:0:0:
311,67,101950,1,8,3:2:0:0:
456,42,102279,1,0,3:2:0:0:
185,55,102607,6,0,P|144:52|104:157,1,150,0|8,3:2|3:1,0:0:0:0:
247,171,103262,2,0,L|161:173,2,75,8|2|0,3:2|3:1|3:2,0:0:0:0:
410,169,103754,6,0,P|449:175|399:233,1,150,8|0,3:1|3:2,0:0:0:0:
253,168,104246,2,0,L|179:167,1,75,0|8,3:2|2:1,0:0:0:0:
424,95,104574,1,8,2:1:0:0:
490,115,104737,1,0,0:0:0:0:
490,154,104820,1,8,2:1:0:0:
490,185,104901,1,8,2:1:0:0:
424,206,105065,1,8,2:1:0:0:
180,167,105230,6,0,P|156:105|345:33,1,300,4|0,2:2|0:0,0:0:0:0:
179,100,106213,1,2,0:0:0:0:
261,95,106377,6,0,P|319:95|387:235,1,225,2|0,0:0|0:0,0:0:0:0:
313,228,107033,2,0,L|235:232,2,75,2|2|2,0:0|0:0|0:0,0:0:0:0:
396,196,107525,2,0,L|397:112,1,75,2|2,0:0|0:0,0:0:0:0:
231,70,107852,6,0,P|167:72|119:282,1,300,2|0,0:0|0:0,0:0:0:0:
388,157,109492,6,0,L|228:167,2,150,2|2|2,0:0|0:0|0:0,0:0:0:0:
125,217,110475,6,0,P|82:196|140:132,1,150,2|0,0:0|0:0,0:0:0:0:
205,119,110967,1,2,0:0:0:0:
287,122,111131,2,0,L|283:298,1,150,2|0,0:0|0:0,0:0:0:0:
205,279,111623,1,2,0:0:0:0:
360,186,111787,6,0,P|420:188|503:222,3,150,2|2|2|2,0:0|0:0|0:0|0:0,0:0:0:0:
231,92,113098,6,0,P|175:89|110:233,1,225,2|0,0:0|0:0,0:0:0:0:
300,165,114902,5,2,0:0:0:0:
225,167,115066,2,0,L|224:86,1,75,2|2,0:0|0:0,0:0:0:0:
297,68,115393,2,0,L|394:66,1,75,2|0,0:0|0:0,0:0:0:0:
136,162,115721,5,4,0:0:0:0:
262,151,116049,2,0,L|263:312,1,150,2|0,0:0|0:0,0:0:0:0:
136,263,116705,1,0,0:0:0:0:
285,185,116869,6,0,L|460:186,3,150,2|2|2|2,0:0|0:0|0:0|0:0,0:0:0:0:
434,185,118180,1,2,0:0:0:0:
278,103,118344,6,0,P|219:103|196:193,1,150
267,187,118836,2,0,L|367:189,2,75,2|2|2,0:0|0:0|0:0,0:0:0:0:
193,146,119328,1,2,0:0:0:0:
343,117,119492,6,0,L|344:281,1,150,2|2,0:0|0:0,0:0:0:0:
200,272,120148,1,2,0:0:0:0:
342,227,120475,1,2,0:0:0:0:
267,182,120639,2,0,L|264:99,1,75,2|2,0:0|0:0,0:0:0:0:
496,87,120967,6,0,L|497:249,1,150,0|2,3:2|0:0,0:0:0:0:
429,242,121459,2,0,L|277:244,1,150,2|2,0:0|0:0,0:0:0:0:
358,181,121951,2,0,L|358:100,1,75,2|2,0:0|0:0,0:0:0:0:
118,89,122279,6,0,L|117:251,1,150,0|2,3:2|0:0,0:0:0:0:
194,237,122771,2,0,L|346:239,1,150,2|2,0:0|0:0,0:0:0:0:
274,175,123262,2,0,L|186:174,1,75,2|2,0:0|0:0,0:0:0:0:
431,111,123590,6,0,P|468:121|425:191,1,150,0|0,3:2|0:0,0:0:0:0:
278,206,124082,2,0,P|235:188|290:116,1,150,0|0,3:2|0:0,0:0:0:0:
348,105,124574,1,0,3:2:0:0:
191,66,124902,6,0,L|187:166,2,75
271,59,125393,1,8,2:1:0:0:
101,209,125557,1,8,2:1:0:0:
37,177,125720,1,0,0:0:0:0:
36,106,125884,1,8,2:1:0:0:
100,74,126048,1,8,2:1:0:0:
337,98,126213,6,0,L|495:93,1,150,6|8,3:2|2:1,0:0:0:0:
336,98,126869,2,0,L|249:97,2,75,8|0|0,0:0|3:2|0:0,0:0:0:0:
181,197,127361,6,0,P|145:183|200:117,1,150,0|2,3:2|2:1,0:0:0:0:
326,72,128016,1,0,3:2:0:0:
165,74,128180,2,0,L|161:228,1,150,8|0,0:0|2:1,0:0:0:0:
424,238,128836,6,0,L|263:239,1,150,2|8,3:2|2:1,0:0:0:0:
424,238,129492,2,0,L|501:238,2,75,8|0|0,0:0|3:2|0:0,0:0:0:0:
265,198,129984,6,0,P|219:174|279:120,1,150,0|2,3:2|2:1,0:0:0:0:
347,114,130475,1,2,2:1:0:0:
193,71,130639,2,0,L|101:75,2,75,2|10|2,3:2|0:0|3:2,0:0:0:0:
271,66,131131,2,0,L|273:162,1,75,2|0,2:1|0:0,0:0:0:0:
101,220,131459,6,0,P|58:203|115:144,1,150,2|10,3:2|3:1,0:0:0:0:
244,144,132115,2,0,L|73:139,1,150,8|0,3:2|3:2,0:0:0:0:
352,235,132771,6,0,P|395:218|338:159,1,150,2|10,3:2|3:1,0:0:0:0:
209,159,133427,2,0,L|380:154,1,150,8|0,3:2|3:2,0:0:0:0:
89,172,134082,5,0,3:2:0:0:
27,134,134245,1,2,3:1:0:0:
31,63,134409,1,8,3:1:0:0:
96,33,134573,1,2,3:1:0:0:
257,96,134738,2,0,L|341:95,1,75,8|2,3:2|3:1,0:0:0:0:
257,96,135066,2,0,L|177:98,1,75,0|8,3:2|3:1,0:0:0:0:
341,101,135393,5,0,3:2:0:0:
376,101,135474,1,0,3:2:0:0:
396,131,135556,1,0,3:2:0:0:
380,164,135638,1,0,3:2:0:0:
345,169,135720,1,8,2:1:0:0:
268,174,135885,1,8,2:1:0:0:
345,169,136049,2,0,L|345:279,1,75
266,265,136377,1,0,0:0:0:0:
183,263,136541,1,0,0:0:0:0:
413,80,136705,5,4,3:2:0:0:
362,128,141951,6,0,P|400:143|348:215,1,150,0|2,3:2|3:2,0:0:0:0:
213,229,142607,2,0,L|373:217,1,150,2|2,3:2|3:2,0:0:0:0:
106,127,143262,6,0,P|68:142|120:214,1,150,0|2,3:2|3:2,0:0:0:0:
255,228,143918,2,0,L|95:216,1,150,2|2,3:2|3:2,0:0:0:0:
397,108,144574,5,0,3:2:0:0:
470,133,144737,1,0,3:2:0:0:
472,209,144901,1,0,3:2:0:0:
401,227,145065,1,0,3:2:0:0:
246,173,145230,1,0,3:2:0:0:
246,100,145393,1,0,3:2:0:0:
321,52,145557,1,0,3:2:0:0:
397,53,145721,1,0,3:2:0:0:
144,186,145885,5,0,3:2:0:0:
65,211,146048,1,0,3:2:0:0:
64,281,146212,1,0,3:2:0:0:
143,301,146376,1,8,2:1:0:0:
373,228,146541,1,8,2:1:0:0:
474,153,146787,1,8,2:1:0:0:
474,153,146869,1,8,2:1:0:0:
400,152,147033,1,10,2:1:0:0:
166,116,147197,6,0,P|125:128|177:194,1,150,6|8,3:2|3:2,0:0:0:0:
240,194,147689,1,2,2:1:0:0:
76,200,147853,2,0,L|75:37,1,150,2|8,3:1|3:2,0:0:0:0:
153,38,148345,1,10,2:1:0:0:
307,44,148509,6,0,P|362:45|390:134,1,150,2|8,3:2|3:2,0:0:0:0:
314,132,149000,1,2,2:1:0:0:
154,137,149164,2,0,P|98:143|71:236,1,150,2|8,3:1|3:2,0:0:0:0:
142,235,149656,1,10,2:1:0:0:
396,186,149820,6,0,P|439:172|380:117,1,150,2|8,3:2|3:2,0:0:0:0:
313,103,150312,1,2,2:1:0:0:
161,107,150476,2,0,P|161:157|247:193,1,150,2|8,3:1|3:2,0:0:0:0:
320,184,150968,1,10,2:1:0:0:
166,174,151132,6,0,L|1:170,1,150,2|8,3:2|3:2,0:0:0:0:
91,116,151623,1,2,2:1:0:0:
253,91,151787,2,0,P|303:91|347:185,1,150,2|8,3:1|3:2,0:0:0:0:
275,182,152279,1,10,2:1:0:0:
42,208,152443,6,0,L|34:48,1,150,2|8,3:2|3:2,0:0:0:0:
112,43,152935,1,2,2:1:0:0:
274,61,153099,2,0,L|451:61,1,150,2|8,3:1|3:2,0:0:0:0:
344,127,153591,1,10,2:1:0:0:
185,138,153754,6,0,P|131:139|102:230,1,150,2|8,3:2|3:2,0:0:0:0:
175,239,154246,1,2,2:1:0:0:
331,182,154410,2,0,L|332:92,1,75,2|2,3:1|2:1,0:0:0:0:
252,83,154738,2,0,L|159:82,1,75,10|10,3:2|2:1,0:0:0:0:
420,233,155066,6,0,P|457:219|400:153,1,150,2|10,3:2|3:2,0:0:0:0:
255,148,155558,2,0,L|176:147,1,75,2|2,2:1|3:1,0:0:0:0:
336,117,155886,2,0,L|336:30,1,75,2|8,2:1|3:2,0:0:0:0:
179,41,156214,1,10,2:1:0:0:
111,53,156377,5,0,0:0:0:0:
109,130,156541,1,0,0:0:0:0:
181,147,156705,1,8,3:2:0:0:
415,224,156869,2,0,L|414:135,1,75,10|10,2:1|3:1,0:0:0:0:
340,111,157197,1,2,2:1:0:0:
267,37,157361,2,0,L|179:35,1,75,8|10,3:2|2:1,0:0:0:0:
437,81,157689,6,0,L|439:260,1,150,6|8,3:2|3:2,0:0:0:0:
356,238,158181,1,2,2:1:0:0:
188,239,158345,2,0,L|181:63,1,150,2|8,3:1|3:2,0:0:0:0:
262,74,158836,1,10,2:1:0:0:
10,77,159000,6,0,L|9:240,1,150,2|8,3:2|3:2,0:0:0:0:
96,243,159492,1,2,2:1:0:0:
256,176,159656,2,0,L|255:95,1,75,2|2,3:1|2:1,0:0:0:0:
175,81,159984,2,0,L|79:80,1,75,8|10,3:2|2:1,0:0:0:0:
358,250,160312,5,2,3:2:0:0:
432,227,160475,1,0,0:0:0:0:
507,164,160639,1,8,3:2:0:0:
432,227,160803,1,2,2:1:0:0:
186,124,160968,2,0,L|24:122,1,150,2|8,3:1|3:2,0:0:0:0:
114,184,161459,1,10,2:1:0:0:
350,205,161623,5,2,3:2:0:0:
350,132,161786,1,0,0:0:0:0:
280,81,161950,1,8,3:2:0:0:
208,82,162114,1,2,2:1:0:0:
362,66,162279,2,0,L|515:65,1,150,2|10,3:1|3:2,0:0:0:0:
436,128,162771,1,10,2:1:0:0:
204,118,162935,6,0,P|144:119|120:219,1,150,2|8,3:2|3:2,0:0:0:0:
187,216,163427,1,2,2:1:0:0:
340,218,163590,2,0,P|390:219|424:317,1,150,2|8,3:1|3:2,0:0:0:0:
348,40,164082,1,10,2:1:0:0:
176,42,164246,6,0,L|11:41,1,150,2|8,3:2|3:2,0:0:0:0:
101,109,164738,1,2,2:1:0:0:
264,120,164902,2,0,L|354:125,2,75,2|2|10,3:1|2:1|3:2,0:0:0:0:
183,107,165394,1,10,2:1:0:0:
338,170,165558,6,0,L|421:167,1,75,0|0,3:2|0:0,0:0:0:0:
254,114,165886,2,0,P|215:117|183:224,1,150,10|2,3:2|3:1,0:0:0:0:
256,229,166377,1,2,2:1:0:0:
424,175,166541,2,0,L|427:75,1,75,8|10,3:2|2:1,0:0:0:0:
187,76,166869,6,0,L|356:74,1,150,2|8,3:2|3:2,0:0:0:0:
256,137,167361,1,2,2:1:0:0:
91,141,167525,2,0,P|44:150|103:199,1,150,2|8,3:1|3:2,0:0:0:0:
161,217,168017,1,10,2:1:0:0:
401,270,168180,6,0,L|398:96,1,150,4|10,0:0|2:1,0:0:0:0:
249,107,168835,1,0,0:0:0:0:
324,105,169000,1,2,0:0:0:0:
399,104,169164,1,10,2:1:0:0:
249,107,169327,6,0,P|186:109|159:192,1,150,2|2,0:0|0:0,0:0:0:0:
240,197,169819,2,0,L|241:110,1,75,10|2,2:1|2:1,0:0:0:0:
159,99,170147,2,0,L|162:198,1,75,2|0,0:0|0:0,0:0:0:0:
245,197,170475,2,0,L|336:198,1,75,10|0,2:1|0:0,0:0:0:0:
160,246,170803,6,0,P|98:246|69:340,1,150,0|10,0:0|2:1,0:0:0:0:
215,204,171458,2,0,L|125:203,1,75,2|2,2:2|0:0,0:0:0:0:
297,153,171950,6,0,P|333:135|281:60,1,150,2|2,0:0|0:0,0:0:0:0:
216,59,172442,2,0,L|142:59,1,75,10|2,2:1|2:1,0:0:0:0:
295,209,172770,1,2,0:0:0:0:
359,177,172933,1,2,0:0:0:0:
355,106,173097,1,10,2:1:0:0:
289,82,173261,1,0,0:0:0:0:
116,94,173426,6,0,L|117:251,1,150,2|10,3:2|3:2,0:0:0:0:
266,215,174082,2,0,L|351:212,2,75,0|10|8,3:2|2:1|3:2,0:0:0:0:
103,209,174574,6,0,P|66:193|119:129,1,150,2|0,2:1|0:0,0:0:0:0:
194,125,175066,1,10,3:2:0:0:
350,124,175230,1,2,2:1:0:0:
351,86,175311,1,0,0:0:0:0:
352,49,175393,1,0,3:2:0:0:
274,49,175557,1,10,2:1:0:0:
433,50,175721,2,0,L|433:148,1,75,8|0,3:2|0:0,0:0:0:0:
189,193,176049,6,0,P|132:193|118:278,1,150,0|8,3:2|3:2,0:0:0:0:
272,255,176705,2,0,L|175:257,2,75,0|2|8,3:2|3:1|3:2,0:0:0:0:
449,265,177197,6,0,L|449:110,1,150,8|0,3:1|3:2,0:0:0:0:
373,112,177689,2,0,L|464:108,1,75,0|8,3:2|2:1,0:0:0:0:
206,91,178016,1,8,2:1:0:0:
303,41,178262,2,0,L|351:35,1,37.5,8|8,2:1|3:1,0:0:0:0:
411,26,178508,1,8,2:1:0:0:
176,146,178672,5,2,0:0:0:0:
256,192,178836,12,0,189000,0:0:0:0:
