osu file format v14

[General]
AudioFilename: audio.mp3
AudioLeadIn: 0
PreviewTime: 146869
Countdown: 0
SampleSet: Soft
StackLeniency: 0.3
Mode: 2
LetterboxInBreaks: 0
WidescreenStoryboard: 1

[Editor]
Bookmarks: 10803
DistanceSpacing: 0.9
BeatDivisor: 4
GridSize: 16
TimelineZoom: 2.4

[Metadata]
Title:Astrogirl
TitleUnicode:Astrogirl
Artist:Tsukumo Sana
ArtistUnicode:Tsukumo Sana
Creator:Secre
Version:Cup
Source:
Tags:chickenbible stardust prism Ixcors hololive holoen english council virtual vtuber ujico* snail's house electronic 九十九佐命
BeatmapID:3801135
BeatmapSetID:1818360

[Difficulty]
HPDrainRate:2
CircleSize:2
OverallDifficulty:6
ApproachRate:6
SliderMultiplier:1.25
SliderTickRate:1

[Events]
//Background and Video events
0,0,"sananara.png",0,0
Video,0,"sanararnanraa.m4v"
//Break Periods
2,31987,41229
2,63462,67458
2,136905,140901
//Storyboard Layer 0 (Background)
//Storyboard Layer 1 (Fail)
//Storyboard Layer 2 (Pass)
//Storyboard Layer 3 (Foreground)
//Storyboard Layer 4 (Overlay)
//Storyboard Sound Samples

[TimingPoints]
312,327.868852459016,4,2,1,50,1,0
10803,-100,4,2,1,70,0,0
21295,-100,4,2,1,75,0,0
31787,-100,4,2,1,50,0,0
42279,-100,4,2,1,60,0,0
51951,-100,4,2,1,50,0,0
52771,-100,4,2,1,70,0,0
63262,-100,4,2,1,50,0,0
68508,-100,4,2,1,60,0,0
71131,-100,4,2,1,70,0,0
72934,-100,4,2,1,60,0,0
73754,-100,4,2,1,85,0,1
94738,-100,4,2,1,75,0,0
105230,-100,4,2,1,50,0,0
126213,-100,4,2,1,70,0,0
136705,-100,4,2,1,50,0,0
141951,-100,4,2,1,60,0,0
144574,-100,4,2,1,70,0,0
146377,-100,4,2,1,50,0,0
147197,-100,4,2,1,85,0,1
168180,-100,4,2,1,55,0,0
173426,-100,4,2,1,65,0,0
177852,-100,4,2,1,55,0,0
178672,-100,4,2,1,50,0,0
178836,-100,4,2,1,35,0,0

[Colours]
Combo1 : 255,0,134
Combo2 : 140,0,255
Combo3 : 253,244,208

[HitObjects]
365,118,312,6,0,L|362:259,1,125,2|2,0:0|0:0,0:0:0:0:
239,212,967,2,0,L|165:212,1,62.5,2|2,0:0|0:0,0:0:0:0:
291,221,1459,6,0,L|439:223,2,125,2|2|2,0:0|0:0|0:0,0:0:0:0:
228,170,2279,1,2,0:0:0:0:
99,162,2607,1,2,0:0:0:0:
228,170,2934,6,0,L|231:33,1,125,2|2,0:0|0:0,0:0:0:0:
100,50,3590,2,0,L|24:50,1,62.5,2|2,0:0|0:0,0:0:0:0:
165,68,4082,6,0,L|161:216,1,125,2|2,0:0|0:0,0:0:0:0:
41,215,4738,1,2,0:0:0:0:
166,221,5066,1,2,0:0:0:0:
347,219,5557,6,0,L|349:79,1,125,2|0,0:0|0:0,0:0:0:0:
168,104,6541,1,2,0:0:0:0:
102,110,6705,6,0,L|103:249,1,125,2|2,0:0|0:0,0:0:0:0:
226,186,7361,2,0,L|318:182,1,62.5,2|2,0:0|0:0,0:0:0:0:
157,108,7852,1,2,0:0:0:0:
287,107,8180,6,0,L|433:110,1,125,2|0,0:0|0:0,0:0:0:0:
350,171,8672,1,2,0:0:0:0:
288,144,8836,2,0,L|288:63,1,62.5,2|2,0:0|0:0,0:0:0:0:
415,66,9328,6,0,L|419:217,1,125,2|2,0:0|0:0,0:0:0:0:
296,211,9984,2,0,L|295:124,2,62.5,2|2|2,0:0|0:0|0:0,0:0:0:0:
147,151,10803,6,0,L|16:150,1,125,6|8,3:2|2:1,0:0:0:0:
147,63,11459,2,0,L|146:137,1,62.5,8|0,0:0|3:2,0:0:0:0:
274,126,11951,6,0,L|272:259,1,125,0|2,3:2|2:1,0:0:0:0:
146,201,12607,2,0,L|236:199,1,62.5,0|8,3:2|0:0,0:0:0:0:
339,168,13098,1,0,2:1:0:0:
211,117,13426,6,0,L|212:249,1,125,2|8,3:2|2:1,0:0:0:0:
333,221,14082,2,0,L|410:220,1,62.5,8|0,0:0|3:2,0:0:0:0:
271,136,14574,6,0,L|128:138,1,125,0|2,3:2|2:1,0:0:0:0:
267,136,15230,2,0,L|268:228,1,62.5,0|8,3:2|0:0,0:0:0:0:
389,236,15721,1,2,2:1:0:0:
262,181,16049,6,0,L|126:180,1,125,2|10,3:2|2:1,0:0:0:0:
263,114,16705,2,0,L|332:115,1,62.5,8|0,0:0|3:2,0:0:0:0:
199,128,17197,6,0,L|196:262,1,125,0|2,3:2|2:1,0:0:0:0:
381,258,18016,1,8,0:0:0:0:
261,252,18344,1,2,2:1:0:0:
137,196,18672,6,0,L|136:62,1,125,0|8,3:2|2:1,0:0:0:0:
259,54,19328,2,0,L|339:56,1,62.5,8|0,0:0|3:2,0:0:0:0:
185,80,19820,6,0,L|183:232,1,125,0|2,3:2|2:1,0:0:0:0:
315,214,20475,1,0,3:2:0:0:
249,212,20639,1,8,0:0:0:0:
187,207,20803,1,0,3:2:0:0:
372,212,21295,6,0,L|375:71,1,125,6|10,3:2|0:0,0:0:0:0:
254,61,21951,2,0,L|182:61,1,62.5,2|0,2:1|3:2,0:0:0:0:
312,83,22443,6,0,L|446:84,1,125,2|2,2:1|0:0,0:0:0:0:
436,83,22934,1,10,0:0:0:0:
309,142,23262,2,0,L|306:273,1,125,2|8,2:1|0:0,0:0:0:0:
178,223,23918,6,0,L|43:219,1,125,2|8,3:2|0:0,0:0:0:0:
183,131,24574,2,0,L|183:212,1,62.5,2|0,2:1|3:2,0:0:0:0:
319,207,25066,6,0,L|457:208,1,125,2|2,2:1|0:0,0:0:0:0:
443,207,25557,1,10,0:0:0:0:
320,122,25885,2,0,L|321:259,1,125,2|10,2:1|0:0,0:0:0:0:
193,248,26541,6,0,L|342:244,1,125,2|8,3:2|0:0,0:0:0:0:
446,149,27197,2,0,L|446:75,1,62.5,2|0,2:1|3:2,0:0:0:0:
311,66,27689,6,0,L|156:68,1,125,2|2,2:1|0:0,0:0:0:0:
186,67,28180,1,10,0:0:0:0:
317,87,28508,2,0,L|318:227,1,125,2|10,2:1|0:0,0:0:0:0:
189,223,29164,6,0,L|46:222,1,125,2|10,3:2|0:0,0:0:0:0:
187,143,29820,2,0,L|186:222,1,62.5,2|0,2:1|3:2,0:0:0:0:
294,237,30311,6,0,L|296:98,1,125,2|2,2:1|0:0,0:0:0:0:
236,90,30803,1,10,0:0:0:0:
105,58,31131,2,0,L|29:59,2,62.5,2|0|10,2:1|3:2|0:0,0:0:0:0:
240,64,31787,5,2,3:2:0:0:
333,16,42279,5,0,3:2:0:0:
462,27,42607,1,10,0:0:0:0:
327,24,42934,2,0,L|330:164,1,125,2|10,2:1|0:0,0:0:0:0:
394,149,43426,1,2,3:2:0:0:
270,151,43754,5,2,2:1:0:0:
147,159,44082,2,0,L|146:25,1,125,2|2,3:2|2:1,0:0:0:0:
272,30,44738,6,0,P|331:32|388:159,1,187.5,2|8,2:1|0:0,0:0:0:0:
332,143,45393,2,0,L|249:144,2,62.5,2|2|2,0:0|2:1|3:2,0:0:0:0:
463,150,46049,6,0,L|462:16,1,125,2|2,3:2|2:1,0:0:0:0:
326,53,46705,2,0,L|182:57,1,125,2|2,3:2|2:1,0:0:0:0:
268,110,47197,2,0,L|266:187,1,62.5,8|2,0:0|2:1,0:0:0:0:
134,114,47689,6,0,L|65:115,2,62.5,2|10|2,2:1|0:0|0:0,0:0:0:0:
199,105,48180,2,0,L|284:107,2,62.5,2|2|10,2:1|3:2|0:0,0:0:0:0:
135,179,48672,5,2,3:2:0:0:
133,54,48999,1,2,2:1:0:0:
200,36,49164,2,0,L|277:35,1,62.5,10|2,0:0|3:2,0:0:0:0:
200,36,49492,1,2,0:0:0:0:
133,54,49655,1,2,2:1:0:0:
132,113,49819,1,10,0:0:0:0:
203,130,49983,1,2,2:1:0:0:
280,134,50148,6,0,P|336:136|439:295,1,250,0|2,3:2|2:1,0:0:0:0:
238,223,51295,1,0,3:2:0:0:
434,100,51951,6,0,L|381:44,2,62.5,2|2|2,0:0|0:0|0:0,0:0:0:0:
498,101,52443,1,2,0:0:0:0:
374,162,52771,6,0,L|237:160,1,125,6|8,3:2|2:1,0:0:0:0:
373,88,53426,2,0,L|375:153,1,62.5,8|0,0:0|3:2,0:0:0:0:
262,147,53918,6,0,L|126:149,1,125,0|2,3:2|2:1,0:0:0:0:
263,90,54574,2,0,L|340:92,1,62.5,0|8,3:2|0:0,0:0:0:0:
449,106,55066,1,0,2:1:0:0:
318,121,55393,6,0,L|316:247,1,125,2|8,3:2|2:1,0:0:0:0:
190,198,56049,2,0,L|191:121,1,62.5,8|0,0:0|3:2,0:0:0:0:
317,108,56541,6,0,L|452:106,1,125,0|2,3:2|2:1,0:0:0:0:
314,45,57197,2,0,L|313:119,1,62.5,2|10,3:2|0:0,0:0:0:0:
376,116,57525,1,2,3:2:0:0:
438,118,57689,1,2,2:1:0:0:
320,144,58016,6,0,L|177:143,1,125,2|10,3:2|3:1,0:0:0:0:
65,132,58672,2,0,L|65:52,1,62.5,8|10,3:2|2:1,0:0:0:0:
186,43,59164,1,2,2:1:0:0:
311,48,59492,5,0,0:0:0:0:
186,43,59820,1,2,2:1:0:0:
121,44,59984,2,0,L|122:127,1,62.5,8|10,3:2|2:1,0:0:0:0:
187,118,60311,1,0,3:2:0:0:
331,126,60639,6,0,L|331:266,1,125,0|8,3:2|3:1,0:0:0:0:
207,244,61295,2,0,L|133:246,1,62.5,8|2,3:2|3:1,0:0:0:0:
269,164,61787,6,0,L|406:164,1,125,8|0,3:1|3:2,0:0:0:0:
332,113,62279,1,0,3:2:0:0:
269,164,62443,1,8,2:1:0:0:
206,164,62607,1,8,2:1:0:0:
325,127,62934,1,8,3:1:0:0:
188,138,63262,5,4,3:2:0:0:
165,217,68508,6,0,L|163:127,1,62.5,0|2,3:2|0:0,0:0:0:0:
228,111,68836,2,0,L|226:38,1,62.5,2|2,3:2|0:0,0:0:0:0:
159,47,69164,2,0,L|74:49,2,62.5,2|2|2,3:2|0:0|3:2,0:0:0:0:
228,39,69656,1,2,0:0:0:0:
361,47,69984,6,0,L|448:47,2,62.5,2|2|2,0:0|3:2|0:0,0:0:0:0:
291,96,70475,2,0,L|291:172,1,62.5,2|2,3:2|0:0,0:0:0:0:
363,163,70803,1,2,3:2:0:0:
447,172,70967,5,2,0:0:0:0:
446,130,71131,1,0,3:2:0:0:
366,83,71295,1,0,3:2:0:0:
303,83,71458,1,0,3:2:0:0:
241,83,71622,1,0,3:2:0:0:
303,83,71787,1,0,3:2:0:0:
432,84,72115,1,0,3:2:0:0:
303,83,72443,6,0,L|166:85,1,125,0|0,3:2|3:2,0:0:0:0:
305,83,73098,1,8,2:1:0:0:
428,80,73426,2,0,L|343:78,1,62.5,8|10,2:1|2:1,0:0:0:0:
291,79,73754,6,0,P|251:78|212:161,1,125,6|8,3:2|0:0,0:0:0:0:
278,172,74246,1,2,3:2:0:0:
345,178,74410,2,0,L|344:47,1,125,2|8,2:1|0:0,0:0:0:0:
208,64,75066,6,0,L|59:65,1,125,2|8,3:2|0:0,0:0:0:0:
153,140,75557,1,2,3:2:0:0:
225,138,75721,2,0,L|224:289,1,125,2|8,2:1|0:0,0:0:0:0:
76,275,76377,6,0,L|229:278,1,125,2|8,3:2|0:0,0:0:0:0:
271,208,76869,1,2,3:2:0:0:
204,194,77033,2,0,L|205:52,1,125,2|8,2:1|0:0,0:0:0:0:
345,64,77689,6,0,P|396:68|419:140,1,125,2|8,3:2|0:0,0:0:0:0:
356,150,78180,1,2,3:2:0:0:
290,156,78344,2,0,L|137:156,1,125,2|8,2:1|0:0,0:0:0:0:
294,157,79000,6,0,L|296:287,1,125,2|8,3:2|0:0,0:0:0:0:
223,287,79492,1,2,3:2:0:0:
147,212,79656,2,0,L|16:212,1,125,2|8,2:1|0:0,0:0:0:0:
150,85,80311,6,0,L|147:225,1,125,2|8,3:2|0:0,0:0:0:0:
208,209,80803,1,2,3:2:0:0:
270,157,80967,1,2,2:1:0:0:
150,85,81295,2,0,L|149:12,1,62.5,10|10,0:0|2:1,0:0:0:0:
221,18,81623,6,0,L|364:19,1,125,2|10,3:2|0:0,0:0:0:0:
345,18,82115,1,2,3:2:0:0:
212,125,82443,1,2,3:2:0:0:
346,128,82771,6,0,L|347:280,1,125,8|0,2:1|0:0,0:0:0:0:
280,268,83262,1,8,0:0:0:0:
216,211,83426,2,0,L|74:212,1,125,2|0,3:2|3:2,0:0:0:0:
158,142,83918,1,8,0:0:0:0:
223,140,84082,1,10,2:1:0:0:
289,143,84246,6,0,L|292:287,1,125,6|8,3:2|0:0,0:0:0:0:
222,290,84738,1,2,3:2:0:0:
152,209,84902,2,0,L|24:209,1,125,2|8,2:1|0:0,0:0:0:0:
160,94,85557,6,0,L|162:224,1,125,2|8,3:2|0:0,0:0:0:0:
223,219,86049,1,2,3:2:0:0:
291,161,86213,2,0,L|415:162,1,125,2|10,2:1|0:0,0:0:0:0:
285,135,86869,5,2,3:2:0:0:
231,158,87032,1,2,0:0:0:0:
230,217,87196,1,10,0:0:0:0:
283,244,87360,1,2,3:2:0:0:
349,245,87525,2,0,L|350:102,1,125,2|10,2:1|0:0,0:0:0:0:
228,178,88180,5,2,3:2:0:0:
165,168,88343,1,2,0:0:0:0:
103,128,88507,1,10,0:0:0:0:
168,90,88671,1,2,3:2:0:0:
231,90,88836,2,0,P|285:99|301:177,1,125,2|10,2:1|0:0,0:0:0:0:
177,238,89492,6,0,L|177:96,1,125,2|8,3:2|0:0,0:0:0:0:
249,86,89984,1,2,3:2:0:0:
319,83,90148,2,0,L|473:82,1,125,2|8,2:1|0:0,0:0:0:0:
310,103,90803,6,0,L|309:238,1,125,2|8,3:2|0:0,0:0:0:0:
374,229,91295,1,2,3:2:0:0:
454,231,91459,2,0,L|452:143,1,62.5,2|2,2:1|3:2,0:0:0:0:
376,144,91787,1,10,0:0:0:0:
303,139,91951,6,0,L|154:142,1,125,10|0,2:1|0:0,0:0:0:0:
243,181,92443,2,0,L|373:180,1,125,10|2,0:0|2:1,0:0:0:0:
304,121,92934,1,0,3:2:0:0:
237,112,93098,1,8,0:0:0:0:
103,148,93426,6,0,L|99:281,1,125,2|8,3:2|0:0,0:0:0:0:
167,283,93918,1,2,3:2:0:0:
231,250,94082,2,0,L|378:249,1,125,2|8,2:1|0:0,0:0:0:0:
290,175,94574,1,10,2:1:0:0:
221,170,94738,6,0,P|181:151|239:114,1,125,6|10,3:2|0:0,0:0:0:0:
292,93,95230,2,0,L|433:93,1,125,0|0,0:0|3:2,0:0:0:0:
290,96,95885,6,0,L|287:240,1,125,2|2,2:1|0:0,0:0:0:0:
353,223,96377,1,10,0:0:0:0:
484,229,96705,1,2,2:1:0:0:
353,223,97033,1,8,0:0:0:0:
223,169,97361,6,0,L|222:314,1,125,2|8,3:2|0:0,0:0:0:0:
341,295,98016,2,0,L|424:295,1,62.5,2|0,2:1|3:2,0:0:0:0:
270,198,98508,6,0,L|134:195,1,125,2|2,2:1|0:0,0:0:0:0:
264,108,99164,2,0,L|264:179,1,62.5,2|2,0:0|2:1,0:0:0:0:
201,95,99492,1,2,3:2:0:0:
138,95,99656,1,10,0:0:0:0:
256,196,99984,6,0,L|389:196,1,125,2|10,3:2|3:1,0:0:0:0:
249,122,100639,2,0,L|251:37,1,62.5,8|10,3:2|2:1,0:0:0:0:
115,91,101131,6,0,L|113:234,1,125,2|0,2:1|0:0,0:0:0:0:
246,217,101787,2,0,L|324:220,1,62.5,2|8,2:1|3:2,0:0:0:0:
190,145,102279,1,0,3:2:0:0:
320,128,102607,6,0,L|320:261,1,125,0|8,3:2|3:1,0:0:0:0:
201,253,103262,2,0,L|125:249,1,62.5,8|2,3:2|3:1,0:0:0:0:
264,175,103754,6,0,L|396:176,1,125,8|0,3:1|3:2,0:0:0:0:
323,113,104246,1,0,3:2:0:0:
264,175,104410,1,8,2:1:0:0:
199,184,104574,2,0,L|196:46,1,125,8|8,2:1|2:1,0:0:0:0:
324,39,105230,6,0,P|377:46|432:226,1,250,4|0,2:2|0:0,0:0:0:0:
319,201,106213,1,2,0:0:0:0:
250,150,106377,6,0,L|247:303,1,125,2|0,0:0|0:0,0:0:0:0:
368,227,107033,2,0,L|444:227,2,62.5,2|2|2,0:0|0:0|0:0,0:0:0:0:
300,196,107525,2,0,L|300:125,1,62.5,2|2,0:0|0:0,0:0:0:0:
369,117,107852,6,0,P|398:128|360:296,1,250,2|0,0:0|0:0,0:0:0:0:
102,165,109492,6,0,L|244:163,2,125,2|2|2,0:0|0:0|0:0,0:0:0:0:
236,100,110475,6,0,P|298:105|344:230,1,187.5,2|2,0:0|0:0,0:0:0:0:
286,210,111131,2,0,P|236:206|163:315,1,187.5,2|2,0:0|0:0,0:0:0:0:
221,294,111787,6,0,L|363:293,1,125,2|2,0:0|0:0,0:0:0:0:
225,221,112443,2,0,L|221:81,1,125,2|2,0:0|0:0,0:0:0:0:
349,88,113098,6,0,L|496:87,1,125,2|0,0:0|0:0,0:0:0:0:
215,168,114902,5,2,0:0:0:0:
148,125,115066,2,0,L|146:42,1,62.5,2|2,0:0|0:0,0:0:0:0:
219,47,115393,2,0,L|289:43,1,62.5,2|0,0:0|0:0,0:0:0:0:
219,47,115721,5,4,0:0:0:0:
77,103,116049,2,0,L|71:247,1,125,2|0,0:0|0:0,0:0:0:0:
207,231,116705,2,0,L|273:232,1,62.5,0|2,0:0|0:0,0:0:0:0:
142,142,117197,5,2,0:0:0:0:
281,125,117525,2,0,L|280:261,1,125,2|2,0:0|0:0,0:0:0:0:
152,250,118180,6,0,L|21:243,1,125,2|0,0:0|0:0,0:0:0:0:
159,141,118836,2,0,L|251:140,2,62.5,2|2|2,0:0|0:0|0:0,0:0:0:0:
92,140,119328,1,2,0:0:0:0:
156,142,119492,6,0,L|295:144,1,125,2|2,0:0|0:0,0:0:0:0:
399,142,120148,1,2,0:0:0:0:
277,68,120475,2,0,L|201:68,1,62.5,2|2,0:0|0:0,0:0:0:0:
346,72,120967,5,0,3:2:0:0:
411,71,121131,2,0,L|487:73,2,62.5,2|2|2,0:0|0:0|0:0,0:0:0:0:
346,72,121623,1,2,0:0:0:0:
283,72,121786,1,2,0:0:0:0:
221,73,121950,1,2,0:0:0:0:
283,72,122115,1,2,0:0:0:0:
403,78,122443,6,0,L|480:79,2,62.5,2|2|2,0:0|0:0|0:0,0:0:0:0:
334,102,122934,2,0,L|333:177,1,62.5,2|2,0:0|0:0,0:0:0:0:
406,183,123262,1,2,0:0:0:0:
474,187,123426,1,2,0:0:0:0:
406,183,123590,5,0,3:2:0:0:
278,175,123918,2,0,L|190:175,1,62.5,0|0,0:0|3:2,0:0:0:0:
375,96,124574,1,0,3:2:0:0:
253,90,124902,5,0,0:0:0:0:
190,90,125065,1,0,0:0:0:0:
128,90,125229,1,0,0:0:0:0:
253,90,125557,2,0,L|253:180,1,62.5,8|0,2:1|0:0,0:0:0:0:
190,90,125885,2,0,L|104:93,1,62.5,8|8,2:1|2:1,0:0:0:0:
190,90,126213,6,0,L|340:91,2,125,6|8|8,3:2|2:1|0:0,0:0:0:0:
62,171,127197,2,0,L|61:98,1,62.5,0|0,0:0|3:2,0:0:0:0:
192,85,127689,6,0,L|267:88,1,62.5,2|2,2:1|2:1,0:0:0:0:
127,123,128180,2,0,L|126:261,1,125,8|0,0:0|2:1,0:0:0:0:
257,201,128836,6,0,L|394:200,1,125,2|8,3:2|2:1,0:0:0:0:
260,145,129492,2,0,L|260:66,1,62.5,8|0,0:0|3:2,0:0:0:0:
386,79,129984,6,0,L|387:211,1,125,0|2,3:2|2:1,0:0:0:0:
261,207,130639,2,0,L|176:202,2,62.5,2|10|2,3:2|0:0|3:2,0:0:0:0:
329,190,131131,1,2,2:1:0:0:
461,193,131459,6,0,L|460:62,1,125,2|10,3:2|3:1,0:0:0:0:
334,70,132115,2,0,L|197:72,1,125,8|0,3:2|3:2,0:0:0:0:
332,71,132771,6,0,L|334:204,1,125,2|10,3:2|3:1,0:0:0:0:
209,217,133426,2,0,L|66:214,1,125,8|0,3:2|3:2,0:0:0:0:
217,115,134082,6,0,L|305:115,2,62.5,0|2|8,3:2|3:1|3:1,0:0:0:0:
86,153,134738,2,0,L|84:70,1,62.5,8|2,3:2|3:1,0:0:0:0:
151,52,135066,1,0,3:2:0:0:
283,73,135393,6,0,L|421:74,1,125,0|8,3:2|2:1,0:0:0:0:
300,147,136049,1,0,0:0:0:0:
194,125,136377,1,0,0:0:0:0:
322,84,136705,5,4,3:2:0:0:
361,111,141951,6,0,L|366:253,1,125,0|2,3:2|3:2,0:0:0:0:
239,234,142607,2,0,L|239:104,1,125,2|2,3:2|3:2,0:0:0:0:
366,105,143262,6,0,L|497:105,1,125,0|2,3:2|3:2,0:0:0:0:
363,106,143918,2,0,L|232:108,1,125,2|2,3:2|3:2,0:0:0:0:
369,107,144574,5,0,3:2:0:0:
432,120,144737,1,0,3:2:0:0:
432,179,144901,1,0,3:2:0:0:
371,204,145065,1,0,3:2:0:0:
307,211,145230,2,0,L|165:210,1,125,0|0,3:2|3:2,0:0:0:0:
307,211,145885,6,0,L|307:78,1,125,0|0,3:2|3:2,0:0:0:0:
245,78,146377,1,8,2:1:0:0:
181,77,146541,1,8,2:1:0:0:
308,68,146869,1,8,2:1:0:0:
171,96,147197,6,0,L|40:93,1,125,6|8,3:2|3:2,0:0:0:0:
107,215,147689,1,2,2:1:0:0:
171,214,147852,2,0,L|171:63,1,125,2|8,3:1|3:2,0:0:0:0:
304,64,148508,6,0,L|453:65,1,125,2|8,3:2|3:2,0:0:0:0:
359,140,148999,1,2,2:1:0:0:
287,138,149163,2,0,L|288:289,1,125,2|8,3:1|3:2,0:0:0:0:
436,275,149819,6,0,L|283:278,1,125,2|8,3:2|3:2,0:0:0:0:
241,208,150311,1,2,2:1:0:0:
308,194,150475,2,0,L|307:52,1,125,2|8,3:1|3:2,0:0:0:0:
167,64,151131,6,0,P|116:68|93:140,1,125,2|8,3:2|3:2,0:0:0:0:
156,150,151622,1,2,2:1:0:0:
222,156,151786,2,0,L|375:156,1,125,2|8,3:1|3:2,0:0:0:0:
218,157,152442,6,0,L|216:287,1,125,2|8,3:2|3:2,0:0:0:0:
289,287,152934,1,2,2:1:0:0:
365,212,153098,2,0,L|504:215,1,125,2|8,3:1|3:2,0:0:0:0:
363,108,153753,6,0,L|362:236,1,125,2|8,3:2|3:2,0:0:0:0:
303,243,154245,1,2,2:1:0:0:
242,157,154409,1,2,3:1:0:0:
362,85,154737,2,0,L|363:12,1,62.5,10|10,3:2|2:1,0:0:0:0:
291,18,155065,6,0,L|148:19,1,125,2|10,3:2|3:2,0:0:0:0:
167,18,155557,1,2,2:1:0:0:
300,125,155885,1,2,2:1:0:0:
166,128,156213,6,0,L|165:280,1,125,10|0,2:1|0:0,0:0:0:0:
232,268,156704,1,8,3:2:0:0:
296,211,156868,2,0,L|438:212,1,125,10|2,2:1|2:1,0:0:0:0:
354,142,157360,1,8,3:2:0:0:
289,140,157524,1,10,2:1:0:0:
223,143,157689,6,0,L|220:287,1,125,6|8,3:2|3:2,0:0:0:0:
290,290,158181,1,2,2:1:0:0:
360,209,158345,2,0,L|488:209,1,125,2|8,3:1|3:2,0:0:0:0:
352,94,159000,6,0,L|350:224,1,125,2|8,3:2|3:2,0:0:0:0:
289,219,159492,1,2,2:1:0:0:
221,161,159656,2,0,L|97:162,1,125,2|8,3:1|3:2,0:0:0:0:
221,125,160311,6,0,L|81:123,1,125,2|8,3:2|3:2,0:0:0:0:
218,168,160967,2,0,L|348:166,1,125,2|8,3:1|3:2,0:0:0:0:
281,90,161459,1,10,2:1:0:0:
200,105,161623,5,2,3:2:0:0:
200,105,161787,1,0,0:0:0:0:
281,90,161951,1,8,3:2:0:0:
361,83,162115,1,2,2:1:0:0:
281,90,162278,2,0,P|227:99|211:177,1,125,2|10,3:1|3:2,0:0:0:0:
277,192,162771,1,10,2:1:0:0:
348,243,162934,6,0,L|348:101,1,125,2|8,3:2|3:2,0:0:0:0:
277,77,163426,1,2,2:1:0:0:
210,79,163590,2,0,L|56:78,1,125,2|8,3:1|3:2,0:0:0:0:
212,102,164245,6,0,L|213:237,1,125,2|8,3:2|3:2,0:0:0:0:
134,230,164737,1,2,2:1:0:0:
58,231,164901,2,0,L|60:143,1,62.5,2|2,3:1|2:1,0:0:0:0:
136,144,165229,1,10,3:2:0:0:
209,139,165393,6,0,L|358:142,1,125,10|0,2:1|0:0,0:0:0:0:
269,181,165885,2,0,L|139:180,1,125,10|2,3:2|3:1,0:0:0:0:
208,121,166376,1,2,2:1:0:0:
275,112,166540,1,8,3:2:0:0:
409,148,166868,6,0,L|413:281,1,125,2|8,3:2|3:2,0:0:0:0:
345,283,167360,1,2,2:1:0:0:
281,250,167524,2,0,L|134:249,1,125,2|8,3:1|3:2,0:0:0:0:
222,175,168016,1,10,2:1:0:0:
291,170,168180,6,0,P|331:151|273:114,1,125,4|10,0:0|2:1,0:0:0:0:
165,66,168836,2,0,L|89:65,1,62.5,0|2,0:0|0:0,0:0:0:0:
230,70,169328,6,0,L|368:65,1,125,2|2,0:0|0:0,0:0:0:0:
231,70,169984,2,0,L|235:157,1,62.5,2|2,2:1|0:0,0:0:0:0:
358,150,170475,1,10,2:1:0:0:
227,157,170803,6,0,L|86:157,1,125,0|10,0:0|2:1,0:0:0:0:
231,157,171459,2,0,L|230:232,1,62.5,2|2,2:2|0:0,0:0:0:0:
98,222,171951,6,0,L|100:80,1,125,2|2,0:0|0:0,0:0:0:0:
231,72,172607,2,0,L|232:144,1,62.5,2|2,2:1|0:0,0:0:0:0:
169,147,172934,1,2,0:0:0:0:
108,150,173098,1,10,2:1:0:0:
236,171,173426,6,0,L|383:171,1,125,2|10,3:2|3:2,0:0:0:0:
233,170,174082,2,0,L|227:26,1,125,0|8,3:2|3:2,0:0:0:0:
354,42,174738,6,0,L|486:40,1,125,0|10,0:0|3:2,0:0:0:0:
350,42,175393,2,0,L|225:44,1,125,0|8,3:2|3:2,0:0:0:0:
348,42,176049,5,0,3:2:0:0:
415,60,176212,1,2,3:1:0:0:
416,127,176376,1,8,3:2:0:0:
347,144,176540,1,2,3:1:0:0:
282,152,176705,2,0,L|146:152,1,125,0|8,3:2|3:2,0:0:0:0:
281,154,177361,6,0,L|279:283,1,125,0|0,3:2|3:2,0:0:0:0:
212,288,177852,1,8,2:1:0:0:
152,279,178016,1,8,2:1:0:0:
266,168,178344,1,8,3:1:0:0:
135,151,178672,5,2,0:0:0:0:
256,192,179000,12,0,189000,0:0:0:0:
