osu file format v14

[General]
AudioFilename: audio.mp3
AudioLeadIn: 0
PreviewTime: 238158
Countdown: 0
SampleSet: Soft
StackLeniency: 0.7
Mode: 0
LetterboxInBreaks: 0
WidescreenStoryboard: 1

[Editor]
Bookmarks: 510,13824,28025,42226,56427,67788,79149,101871,107551,121753,135954,150155,161516,172877,195599,199504,211220,224001,238202,246545,249563,260924,264829,276545,287906,291812,295717
DistanceSpacing: 1
BeatDivisor: 4
GridSize: 4
TimelineZoom: 1.9

[Metadata]
Title:Atashi no Kamisama
TitleUnicode:アタシの神様
Artist:Tsukudani Norio
ArtistUnicode:佃煮のりお
Creator:Amateurre
Version:Special
Source:
Tags:shizuku- Kazato Asa vtuber virtual youtuber japanese pop Inuyama Tamaki 犬山たまき noriopro maoki yamamoto 山本真央樹 sakuhaku さくはく 朔白 watashi my god
BeatmapID:2647589
BeatmapSetID:1213131

[Difficulty]
HPDrainRate:5.5
CircleSize:4
OverallDifficulty:8.6
ApproachRate:9.2
SliderMultiplier:1.6
SliderTickRate:1

[Events]
//Background and Video events
0,0,"tamaki.jpg",0,0
//Break Periods
2,238402,245443
//Storyboard Layer 0 (Background)
//Storyboard Layer 1 (Fail)
//Storyboard Layer 2 (Pass)
//Storyboard Layer 3 (Foreground)
//Storyboard Layer 4 (Overlay)
//Storyboard Sound Samples

[TimingPoints]
-377,355.029585798817,4,2,1,40,1,0
1043,-125,4,2,1,60,0,0
12936,-125,4,2,1,70,0,0
13824,-83.3333333333333,4,2,1,70,0,0
14622,-83.3333333333333,4,2,1,5,0,0
14711,-83.3333333333333,4,2,1,70,0,0
17463,-83.3333333333333,4,2,1,5,0,0
17551,-83.3333333333333,4,2,1,70,0,0
17818,-83.3333333333333,4,2,1,5,0,0
17906,-83.3333333333333,4,2,1,70,0,0
30332,-111.111111111111,4,2,1,65,0,0
30776,-111.111111111111,4,2,1,5,0,0
30865,-111.111111111111,4,2,1,65,0,0
56427,-90.9090909090908,4,2,1,65,0,0
67788,363.636363636364,4,2,1,60,1,0
67788,-166.666666666667,4,2,1,60,0,0
68151,346.820809248555,4,2,1,60,1,0
68151,-166.666666666667,4,2,1,60,0,0
68844,350.877192982456,4,2,1,60,1,0
69194,352.941176470588,4,2,1,60,1,0
69194,-166.666666666667,4,2,1,60,0,0
69899,357.142857142857,4,2,1,60,1,0
69899,-166.666666666667,4,2,1,60,0,0
70613,375,4,2,1,60,1,0
70613,-166.666666666667,4,2,1,60,0,0
71363,363.636363636364,4,2,1,60,1,0
71363,-166.666666666667,4,2,1,60,0,0
72090,341.102899374645,4,2,1,60,1,0
72090,-166.666666666667,4,2,1,60,0,0
72942,351.906158357771,4,2,1,60,1,0
72942,-166.666666666667,4,2,1,60,0,0
73380,-166.666666666667,4,2,1,5,0,0
73469,355.029585798817,4,2,1,65,1,0
73469,-90.9090909090909,4,2,1,65,0,0
79149,-83.3333333333333,4,2,1,70,0,1
83676,-83.3333333333333,4,2,1,5,0,1
83764,-83.3333333333333,4,2,1,70,0,1
87758,-83.3333333333333,4,2,1,5,0,1
87847,-83.3333333333333,4,2,1,70,0,1
95037,-83.3333333333333,4,2,1,5,0,1
95125,-83.3333333333333,4,2,1,70,0,1
99297,-83.3333333333333,4,2,1,5,0,1
99386,-83.3333333333333,4,2,1,70,0,1
101871,-142.857142857143,4,2,1,60,0,0
106841,-100,4,2,1,70,0,0
107551,-83.3333333333333,4,2,1,70,0,0
108350,-83.3333333333333,4,2,1,5,0,0
108439,-83.3333333333333,4,2,1,70,0,0
111190,-83.3333333333333,4,2,1,5,0,0
111279,-83.3333333333333,4,2,1,70,0,0
111545,-83.3333333333333,4,2,1,5,0,0
111634,-83.3333333333333,4,2,1,70,0,0
124060,-111.111111111111,4,2,1,65,0,0
124504,-111.111111111111,4,2,1,5,0,0
124593,-111.111111111111,4,2,1,65,0,0
135332,-111.111111111111,4,2,1,5,0,0
135421,-111.111111111111,4,2,1,65,0,0
150155,-90.9090909090908,4,2,1,65,0,0
161516,363.636363636364,4,2,1,60,1,0
161516,-166.666666666667,4,2,1,60,0,0
162606,348.837209302326,4,2,1,60,1,0
162954,365.853658536585,4,2,1,60,1,0
162954,-166.666666666667,4,2,1,60,0,0
163685,361.44578313253,4,2,1,60,1,0
163685,-166.666666666667,4,2,1,60,0,0
164407,368.098159509202,4,2,1,60,1,0
164407,-166.666666666667,4,2,1,60,0,0
165143,338.983050847458,4,2,1,60,1,0
165143,-166.666666666667,4,2,1,60,0,0
165800,352.941176470588,4,2,1,60,1,0
165800,-166.666666666667,4,2,1,60,0,0
166663,344.827586206897,4,2,1,60,1,0
166835,361.44578313253,4,2,1,60,1,0
166835,-166.666666666667,4,2,1,60,0,0
167108,-166.666666666667,4,2,1,5,0,0
167196,355.029585798817,4,2,1,65,1,0
167196,-90.909090909091,4,2,1,65,0,0
172876,-83.3333333333333,4,2,1,70,0,1
177403,-83.3333333333333,4,2,1,5,0,1
177492,-83.3333333333333,4,2,1,70,0,1
181486,-83.3333333333333,4,2,1,5,0,1
181575,-83.3333333333333,4,2,1,70,0,1
188764,-83.3333333333333,4,2,1,5,0,1
188853,-83.3333333333333,4,2,1,70,0,1
193025,-83.3333333333333,4,2,1,5,0,1
193114,-83.3333333333333,4,2,1,70,0,1
195598,-142.857142857143,4,2,1,60,0,0
199504,-111.111111111111,4,2,1,65,0,0
211398,-111.111111111111,4,2,1,5,0,0
211486,-111.111111111111,4,2,1,65,0,0
211664,-111.111111111111,4,2,1,5,0,0
211753,-111.111111111111,4,2,1,65,0,0
212108,-111.111111111111,4,2,1,5,0,0
212196,-111.111111111111,4,2,1,65,0,0
212374,-111.111111111111,4,2,1,5,0,0
212463,-111.111111111111,4,2,1,65,0,0
212640,-142.857142857143,4,2,1,65,0,0
215392,-142.857142857143,4,2,1,5,0,0
215480,-111.111111111111,4,2,1,65,0,0
224001,-90.9090909090908,4,2,1,70,0,0
246013,-111.111111111111,4,2,1,65,0,0
246545,-83.3333333333333,4,2,1,65,0,0
248232,-83.3333333333333,4,2,1,5,0,0
248321,-83.3333333333333,4,2,1,65,0,0
249562,-83.3333333333333,4,2,1,70,0,1
254090,-83.3333333333333,4,2,1,5,0,1
254179,-83.3333333333333,4,2,1,70,0,1
258350,-83.3333333333333,4,2,1,5,0,1
258439,-83.3333333333333,4,2,1,70,0,1
260923,-142.857142857143,4,2,1,60,0,0
264829,-90.9090909090909,4,2,1,65,0,0
287906,-142.857142857143,4,2,1,60,0,0

[Colours]
Combo1 : 177,224,252
Combo2 : 252,232,160
Combo3 : 253,170,236

[HitObjects]
183,308,510,6,0,B|175:276,3,26.6666666666667,2|2|2|2,0:2|0:0|0:0|0:2,0:0:0:0:
393,258,1043,6,0,P|400:295|406:346,1,64,6|0,3:2|0:2,0:2:0:0:
267,340,1398,2,0,P|262:277|253:213,1,128,2|0,3:2|3:2,0:2:0:0:
366,109,1930,2,0,P|362:140|356:172,1,64,2|0,0:2|3:2,0:2:0:0:
175,260,2285,6,0,P|168:228|165:196,1,64,2|0,0:2|3:2,0:2:0:0:
281,134,2640,1,0,0:2:0:0:
253,213,2818,1,0,3:2:0:0:
345,269,2995,2,0,P|409:259|499:257,1,128,2|2,0:2|0:2,0:2:0:0:
397,178,3528,1,2,3:2:0:0:
283,339,3705,5,2,0:2:0:0:
283,339,3794,1,2,0:2:0:0:
283,339,3883,2,0,P|246:332|195:326,1,64,6|0,3:2|0:2,0:2:0:0:
38,257,4238,2,0,P|101:248|165:243,1,128,2|0,3:2|3:2,0:2:0:0:
254,143,4770,2,0,P|249:173|245:222,1,64,2|0,0:2|3:2,0:2:0:0:
340,114,5125,5,2,0:2:0:0:
340,114,5303,2,0,P|324:85|238:57,1,128,0|2,3:2|3:2,0:2:0:0:
109,115,5835,2,0,P|160:120|196:127,1,64,2|0,0:2|3:2,0:2:0:0:
247,208,6190,1,2,0:2:0:0:
342,194,6368,2,0,P|373:189|405:186,1,64,2|2,3:2|0:2,0:2:0:0:
502,215,6634,5,2,0:2:0:0:
512,233,6723,2,0,P|509:270|507:314,1,64,6|0,3:2|0:2,0:2:0:0:
405,186,7078,2,0,P|411:247|417:318,1,128,2|0,3:2|3:2,0:2:0:0:
309,342,7611,2,0,P|322:293|328:263,1,64,2|0,0:2|3:2,0:2:0:0:
233,127,7966,6,0,P|240:158|249:189,2,64,2|0|0,0:2|3:2|0:2,0:2:0:0:
321,149,8498,1,2,3:2:0:0:
285,67,8676,2,0,P|223:80|160:90,1,128,2|2,0:2|0:2,0:2:0:0:
82,34,9208,2,0,P|79:81|75:118,1,64,2|2,3:2|0:2,0:2:0:0:
31,172,9474,5,2,0:2:0:0:
21,188,9563,2,0,P|25:225|29:270,1,64,6|0,3:2|0:2,0:2:0:0:
167,363,9918,2,0,P|172:331|179:300,1,64,2|0,3:2|0:2,0:2:0:0:
173,223,10185,1,0,3:2:0:0:
173,223,10273,1,8,0:2:0:0:
34,350,10451,1,0,3:2:0:0:
261,346,10628,1,0,3:2:0:0:
127,143,10806,5,4,3:2:0:0:
256,192,10895,12,2,12758,0:2:0:0:
433,210,12936,5,0,3:2:0:0:
251,60,13113,1,8,0:2:0:0:
434,104,13291,1,0,3:2:0:0:
330,0,13469,5,10,0:2:0:0:
335,26,13557,1,10,0:2:0:0:
341,53,13646,1,2,3:2:0:0:
347,80,13735,1,2,3:2:0:0:
353,107,13824,6,0,P|346:151|334:217,1,95.9999970703126,6|0,3:2|0:2,0:2:0:0:
246,353,14179,1,8,0:2:0:0:
418,301,14356,2,0,B|370:280|315:277|315:277|336:292|346:312,1,143.999995605469,6|0,3:2|0:2,0:2:0:0:
395,382,14711,1,2,3:2:0:0:
253,203,14889,1,10,0:2:0:0:
137,332,15066,6,0,B|160:310|179:294|179:294|171:223|163:146,1,191.999994140625,6|0,3:2|3:2,0:2:0:0:
21,67,15599,5,8,0:2:0:0:
89,257,15776,1,0,3:2:0:0:
272,178,15954,5,10,0:2:0:0:
59,147,16131,1,0,0:2:0:0:
344,104,16309,5,10,0:2:0:0:
151,184,16486,1,0,0:2:0:0:
354,288,16664,6,0,P|363:228|374:172,1,95.9999970703126,6|0,3:2|0:2,0:2:0:0:
223,353,17019,1,8,0:2:0:0:
492,293,17196,2,0,B|421:255|427:317|353:287,1,143.999995605469,6|0,3:2|0:2,0:2:0:0:
255,201,17551,2,0,B|287:173|287:173|264:293,1,143.999995605469,6|0,3:2|0:2,0:2:0:0:
212,362,17906,6,0,P|155:297|46:315,1,191.999994140625,6|2,3:2|3:2,0:2:0:0:
0,194,18439,5,10,0:2:0:0:
122,384,18616,1,2,3:2:0:0:
121,127,18794,5,8,0:2:0:0:
48,324,18971,1,0,3:2:0:0:
39,71,19149,5,8,0:2:0:0:
145,266,19327,1,0,3:2:0:0:
317,62,19504,5,6,3:2:0:0:
137,153,19682,1,2,3:2:0:0:
353,228,19859,1,10,0:2:0:0:
212,21,20037,2,0,P|223:69|233:123,1,95.9999970703126,6|0,3:2|0:2,0:2:0:0:
237,272,20392,5,2,3:2:0:0:
391,118,20569,1,10,0:2:0:0:
353,346,20747,2,0,P|344:298|333:252,1,95.9999970703126,6|0,3:2|0:2,0:2:0:0:
139,126,21102,5,2,3:2:0:0:
420,35,21279,1,10,0:2:0:0:
226,224,21457,1,6,3:2:0:0:
90,57,21812,6,0,L|86:9,3,47.9999985351563,6|2|2|2,3:2|0:2|0:2|0:2,0:2:0:0:
22,134,22167,1,8,0:2:0:0:
22,134,22256,1,8,0:2:0:0:
22,134,22344,6,0,P|75:138|140:153,1,95.9999970703126,4|0,3:2|0:2,0:2:0:0:
149,256,22699,2,0,P|196:246|243:243,1,95.9999970703126,0|0,3:2|0:2,0:2:0:0:
376,171,23054,2,0,P|353:245|337:302,1,95.9999970703126,0|0,3:2|0:2,0:2:0:0:
274,146,23409,1,2,3:2:0:0:
512,291,23587,6,0,B|404:279|443:356|328:356,1,191.999994140625,2|0,3:2|3:2,0:2:0:0:
146,253,24119,1,2,3:2:0:0:
282,137,24297,2,0,P|262:224|243:344,1,191.999994140625,2|0,3:2|3:2,0:2:0:0:
85,377,24829,2,0,P|73:316|60:255,1,95.9999970703126,2|0,3:2|0:2,0:2:0:0:
176,110,25185,6,0,P|129:122|82:128,1,95.9999970703126,4|0,3:2|0:2,0:2:0:0:
289,215,25540,2,0,P|335:227|382:233,1,95.9999970703126,0|0,3:2|0:2,0:2:0:0:
293,20,25895,2,0,P|275:95|263:153,1,95.9999970703126,0|0,3:2|0:2,0:2:0:0:
176,246,26250,1,2,3:2:0:0:
398,346,26427,6,0,P|413:251|435:158,1,191.999994140625,2|0,3:2|3:2,0:2:0:0:
270,293,26960,1,14,0:2:0:0:
499,238,27137,1,2,3:2:0:0:
365,358,27315,1,0,3:2:0:0:
219,165,27492,1,0,3:2:0:0:
216,149,27580,1,0,3:2:0:0:
214,133,27669,1,8,0:2:0:0:
126,345,27847,1,0,3:2:0:0:
354,244,28025,5,4,3:2:0:0:
182,54,30332,5,0,3:2:0:0:
42,107,30510,2,0,B|109:97|109:97|131:124|159:131,1,107.999996704102,8|0,0:2|0:2,0:2:0:0:
235,114,30865,6,0,P|217:174|206:216,1,71.9999978027344,4|0,3:2|0:2,0:2:0:0:
46,264,31220,2,0,P|108:234|177:264,1,143.999995605469,8|0,0:2|3:2,0:2:0:0:
353,381,31753,1,0,3:2:0:0:
235,332,31930,1,8,0:2:0:0:
333,225,32108,6,0,P|321:277|314:310,1,71.9999978027344,2|0,3:2|0:2,0:2:0:0:
428,342,32463,2,0,P|435:306|443:271,1,71.9999978027344,2|8,3:2|0:2,0:2:0:0:
484,145,32818,2,0,P|428:167|397:177,1,71.9999978027344,2|0,3:2|0:2,0:2:0:0:
264,58,33173,2,0,P|320:80|351:90,1,71.9999978027344,2|8,3:2|0:2,0:2:0:0:
255,212,33528,1,2,3:2:0:0:
140,122,33705,6,0,P|133:86|125:51,1,71.9999978027344,6|0,3:2|0:2,0:2:0:0:
40,168,34060,1,10,0:2:0:0:
169,239,34238,2,0,B|91:222|100:288|9:258,1,143.999995605469,2|2,3:2|3:2,0:2:0:0:
176,353,34770,1,10,0:2:0:0:
264,305,34948,2,0,P|311:313|349:322,1,71.9999978027344,0|0,3:2|0:2,0:2:0:0:
506,273,35303,5,0,3:2:0:0:
350,225,35480,1,8,0:2:0:0:
476,44,35658,2,0,P|464:96|445:187,1,143.999995605469,0|2,3:2|3:2,0:2:0:0:
355,42,36190,1,10,0:2:0:0:
272,140,36368,1,2,3:2:0:0:
96,101,36545,6,0,P|134:98|183:92,1,71.9999978027344,0|0,3:2|0:2,0:2:0:0:
386,259,36900,1,10,0:2:0:0:
313,217,37078,2,0,P|277:221|241:223,1,71.9999978027344,2|0,3:2|0:2,0:2:0:0:
63,210,37433,1,2,3:2:0:0:
167,94,37611,1,10,0:2:0:0:
160,187,37788,6,0,P|154:224|150:274,1,71.9999978027344,2|0,3:2|0:2,0:2:0:0:
272,312,38143,2,0,P|278:348|281:384,1,71.9999978027344,2|8,3:2|0:2,0:2:0:0:
336,207,38498,1,2,3:2:0:0:
150,258,38676,1,0,3:2:0:0:
230,168,38853,1,2,3:2:0:0:
361,305,39031,1,8,0:2:0:0:
505,74,39208,1,8,0:2:0:0:
258,275,39386,5,6,3:2:0:0:
421,233,39563,1,2,3:2:0:0:
310,93,39741,1,10,0:2:0:0:
423,16,39918,2,0,P|414:51|405:86,1,71.9999978027344,6|0,3:2|0:2,0:2:0:0:
323,211,40273,1,2,3:2:0:0:
202,64,40451,1,10,0:2:0:0:
112,188,40628,6,0,P|146:179|181:169,1,71.9999978027344,6|0,3:2|0:2,0:2:0:0:
242,281,40983,1,2,3:2:0:0:
13,109,41161,1,10,0:2:0:0:
67,290,41338,1,2,3:2:0:0:
181,169,41516,1,8,0:2:0:0:
330,284,41693,1,2,3:2:0:0:
328,300,41782,1,0,3:2:0:0:
325,316,41870,1,8,0:2:0:0:
425,253,42048,1,0,0:2:0:0:
231,361,42226,6,0,P|186:350|148:345,1,71.9999978027344,4|0,3:2|0:2,0:2:0:0:
10,214,42581,2,0,P|45:208|80:199,1,71.9999978027344,10|0,0:2|0:2,0:2:0:0:
253,130,42936,1,2,3:2:0:0:
157,72,43114,1,2,3:2:0:0:
225,216,43291,1,10,0:2:0:0:
314,192,43469,6,0,P|349:186|385:183,1,71.9999978027344,2|0,3:2|0:2,0:2:0:0:
507,306,43824,1,2,3:2:0:0:
375,269,44001,1,8,0:2:0:0:
483,136,44179,2,0,P|475:170|461:237,1,71.9999978027344,2|0,3:2|0:2,0:2:0:0:
370,358,44534,2,0,P|362:322|354:287,1,71.9999978027344,2|8,3:2|0:2,0:2:0:0:
225,240,44889,1,2,3:2:0:0:
275,127,45066,6,0,P|311:121|345:109,1,71.9999978027344,0|0,3:2|0:2,0:2:0:0:
291,41,45421,1,8,0:2:0:0:
308,208,45599,2,0,P|278:167|188:163,1,143.999995605469,0|0,3:2|3:2,0:2:0:0:
70,73,46131,1,8,0:2:0:0:
19,251,46309,6,0,P|5:203|-6:160,1,71.9999978027344,2|0,3:2|0:2,0:2:0:0:
100,356,46664,2,0,P|109:321|119:286,1,71.9999978027344,2|8,3:2|0:2,0:2:0:0:
183,154,47019,2,0,P|135:168|92:179,1,71.9999978027344,2|0,3:2|0:2,0:2:0:0:
257,274,47374,2,0,P|305:288|348:299,1,71.9999978027344,2|8,3:2|0:2,0:2:0:0:
185,342,47729,1,2,3:2:0:0:
379,230,47906,6,0,P|368:292|350:390,1,143.999995605469,6|10,3:2|0:2,0:2:0:0:
187,208,48439,2,0,P|221:198|256:188,1,71.9999978027344,2|0,3:2|0:2,0:2:0:0:
443,308,48794,1,2,3:2:0:0:
363,219,48971,1,10,0:2:0:0:
480,88,49149,6,0,B|394:70|416:137|322:112,1,143.999995605469,2|0,3:2|3:2,0:2:0:0:
180,14,49682,1,8,0:2:0:0:
102,82,49859,2,0,P|93:107|80:164,1,71.9999978027344,0|0,3:2|0:2,0:2:0:0:
242,213,50214,1,2,3:2:0:0:
165,142,50392,1,10,0:2:0:0:
242,213,50569,1,2,3:2:0:0:
180,340,50747,6,0,P|168:286|157:246,1,71.9999978027344,0|0,3:2|0:2,0:2:0:0:
85,330,51102,1,10,0:2:0:0:
260,294,51279,2,0,P|305:289|351:288,1,71.9999978027344,2|0,3:2|0:2,0:2:0:0:
150,253,51634,1,2,3:2:0:0:
258,375,51812,1,8,0:2:0:0:
387,219,51989,6,0,P|398:184|410:150,1,71.9999978027344,2|0,3:2|0:2,0:2:0:0:
282,50,52344,2,0,P|293:83|305:118,1,71.9999978027344,2|8,3:2|0:2,0:2:0:0:
211,195,52699,2,0,P|154:169|115:178,1,71.9999978027344,2|0,3:2|0:2,0:2:0:0:
150,253,53054,1,2,3:2:0:0:
79,100,53232,2,0,P|72:128|60:197,1,71.9999978027344,8|0,0:2|0:2,0:2:0:0:
108,329,53587,5,6,3:2:0:0:
314,226,53764,1,2,3:2:0:0:
148,154,53942,1,10,0:2:0:0:
250,284,54119,2,0,P|242:319|236:354,1,71.9999978027344,6|0,3:2|0:2,0:2:0:0:
488,170,54474,1,2,3:2:0:0:
332,329,54652,1,10,0:2:0:0:
490,262,54829,6,0,P|436:252|403:227,1,71.9999978027344,6|0,3:2|0:2,0:2:0:0:
249,81,55185,1,2,3:2:0:0:
63,193,55362,1,10,0:2:0:0:
205,15,55540,1,2,3:2:0:0:
254,230,55717,1,8,0:2:0:0:
370,128,55894,1,2,3:2:0:0:
372,112,55983,1,0,3:2:0:0:
375,96,56071,1,8,0:2:0:0:
421,243,56250,1,0,3:2:0:0:
160,279,56427,6,0,P|116:273|66:265,1,88.000002685547,12|0,3:2|0:2,0:2:0:0:
279,229,56782,1,10,0:2:0:0:
115,358,56960,1,2,3:2:0:0:
183,99,57138,2,0,P|188:142|195:186,1,88.000002685547,10|0,0:2|3:2,0:2:0:0:
313,350,57492,1,10,0:2:0:0:
410,168,57670,1,2,3:2:0:0:
224,336,57847,5,10,0:2:0:0:
388,268,58025,2,0,P|431:265|472:283,1,88.000002685547,2|8,3:2|0:2,0:2:0:0:
439,90,58380,2,0,P|395:87|355:104,1,88.000002685547,2|8,3:2|0:2,0:2:0:0:
226,233,58734,1,2,3:2:0:0:
410,168,58912,1,10,0:2:0:0:
419,346,59090,1,2,3:2:0:0:
268,134,59267,6,0,P|257:176|246:219,1,88.000002685547,8|2,0:2|0:2,0:2:0:0:
131,273,59622,2,0,P|141:316|153:359,1,88.000002685547,10|0,0:2|0:2,0:2:0:0:
30,168,59977,2,0,P|95:180|146:186,1,88.000002685547,10|0,0:2|3:2,0:2:0:0:
259,110,60332,2,0,P|324:98|375:92,1,88.000002685547,10|0,0:2|3:2,0:2:0:0:
152,48,60687,5,10,0:2:0:0:
338,193,60865,2,0,P|328:228|311:302,1,88.000002685547,2|8,3:2|0:2,0:2:0:0:
459,128,61220,2,0,P|448:85|437:42,1,88.000002685547,2|8,3:2|0:2,0:2:0:0:
262,135,61575,1,2,3:2:0:0:
416,231,61753,2,0,P|459:242|500:259,1,88.000002685547,10|0,0:2|0:2,0:2:0:0:
149,345,62108,6,0,P|189:328|232:317,1,88.000002685547,12|0,0:2|0:2,0:2:0:0:
349,164,62463,1,10,0:2:0:0:
150,231,62640,1,2,3:2:0:0:
263,19,62818,2,0,P|256:86|250:148,1,88.000002685547,10|0,0:2|0:2,0:2:0:0:
303,254,63173,1,10,0:2:0:0:
72,161,63350,1,2,3:2:0:0:
241,328,63528,5,10,0:2:0:0:
27,264,63705,2,0,P|70:259|114:254,1,88.000002685547,2|8,3:2|0:2,0:2:0:0:
264,347,64060,2,0,P|307:342|351:337,1,88.000002685547,2|8,3:2|0:2,0:2:0:0:
205,233,64415,1,2,3:2:0:0:
449,351,64593,1,10,0:2:0:0:
237,330,64770,1,2,3:2:0:0:
466,162,64948,6,0,P|399:138|349:120,1,88.000002685547,10|0,0:2|0:2,0:2:0:0:
217,244,65303,2,0,P|284:220|334:202,1,88.000002685547,8|0,0:2|0:2,0:2:0:0:
475,46,65658,5,10,0:2:0:0:
371,275,65835,1,0,3:2:0:0:
360,0,66013,5,8,0:2:0:0:
453,236,66190,1,0,3:2:0:0:
212,11,66368,6,0,P|235:93|243:137,1,88.000002685547,10|0,0:2|0:2,0:2:0:0:
124,254,66723,2,0,P|101:336|93:380,1,88.000002685547,12|0,0:2|0:2,0:2:0:0:
80,106,67078,5,10,0:2:0:0:
254,292,67256,1,0,3:2:0:0:
28,271,67433,5,8,0:2:0:0:
257,109,67611,1,0,3:2:0:0:
151,205,67788,5,4,3:2:0:0:
273,204,68151,2,0,B|378:179|355:263|464:226,1,191.999994140625,2|2,0:2|0:2,0:2:0:0:
512,161,69194,2,0,P|502:204|483:312,1,143.999995605469,2|0,0:2|0:2,0:2:0:0:
390,377,69899,2,0,P|377:306|362:235,1,143.999995605469,2|0,0:2|0:2,0:2:0:0:
468,73,70613,6,0,P|435:113|329:111,1,143.999995605469,2|0,0:2|0:2,0:2:0:0:
208,44,71363,2,0,P|240:71|254:174,1,143.999995605469,2|0,0:2|0:2,0:2:0:0:
172,245,72090,2,0,B|183:189|245:195|245:195|281:239|247:288,1,191.999994140625,2|0,0:2|0:2,0:2:0:0:
105,199,72942,5,0,3:2:0:0:
264,300,73117,2,0,P|308:295|350:294,1,71.9999978027344,12|0,0:2|0:2,0:2:0:0:
417,254,73469,6,0,P|410:289|399:372,1,88.000002685547,6|0,3:2|0:2,0:2:0:0:
274,119,73824,1,10,0:2:0:0:
392,168,74001,2,0,P|437:164|479:163,1,88.000002685547,6|0,3:2|0:2,0:2:0:0:
390,59,74356,1,2,3:2:0:0:
254,224,74534,1,8,0:2:0:0:
111,96,74711,6,0,P|99:145|87:199,1,88.000002685547,6|0,3:2|0:2,0:2:0:0:
8,80,75066,1,2,3:2:0:0:
137,276,75244,1,8,0:2:0:0:
241,20,75421,2,0,P|253:69|265:123,1,88.000002685547,6|0,3:2|0:2,0:2:0:0:
364,242,75776,1,2,3:2:0:0:
137,88,75954,1,8,0:2:0:0:
231,277,76131,1,0,3:2:0:0:
350,140,76309,6,0,P|373:69|379:31,1,88.000002685547,6|0,3:2|0:2,0:2:0:0:
512,289,76664,2,0,B|420:273|446:343|337:338,1,176.000005371094,8|0,0:2|0:2,0:2:0:0:
223,164,77196,1,2,3:2:0:0:
486,199,77374,1,10,0:2:0:0:
278,84,77551,1,2,3:2:0:0:
362,253,77729,5,4,3:2:0:0:
175,84,77906,1,8,0:2:0:0:
98,361,78084,1,8,0:2:0:0:
0,101,78261,1,8,0:2:0:0:
247,349,78439,1,12,0:2:0:0:
504,188,78616,5,8,0:2:0:0:
469,161,78704,1,8,0:2:0:0:
426,156,78793,1,8,0:2:0:0:
385,171,78882,1,8,0:2:0:0:
357,205,78971,1,0,3:2:0:0:
355,219,79059,1,0,3:2:0:0:
353,233,79149,6,0,B|290:245|239:265|239:265|201:243|206:178,1,191.999994140625,6|8,3:2|0:2,0:2:0:0:
349,324,79682,1,2,3:2:0:0:
256,67,79859,2,0,P|266:107|280:184,1,95.9999970703126,2|0,3:2|3:2,0:2:0:0:
152,330,80214,1,8,0:2:0:0:
180,131,80392,1,2,3:2:0:0:
512,35,80569,6,0,B|452:53|452:53|408:117|408:117|348:132,1,191.999994140625,2|8,3:2|0:2,0:2:0:0:
125,45,81102,1,2,3:2:0:0:
23,224,81279,2,0,P|73:212|125:206,1,95.9999970703126,2|0,3:2|3:2,0:2:0:0:
255,62,81634,1,8,0:2:0:0:
224,246,81812,1,2,3:2:0:0:
50,129,81989,5,2,3:2:0:0:
138,306,82167,1,2,3:2:0:0:
328,170,82344,1,10,0:2:0:0:
279,358,82522,2,0,P|265:308|248:259,1,95.9999970703126,2|0,3:2|0:2,0:2:0:0:
164,172,82877,1,0,3:2:0:0:
358,265,83054,1,10,0:2:0:0:
249,83,83232,1,2,3:2:0:0:
0,195,83409,6,8,B|48:196|79:169|79:169|80:210|104:244,1,143.999995605469,0|0,3:2|0:2,0:2:0:0:
57,309,83764,2,0,P|108:304|160:301,1,95.9999970703126,10|0,0:2|0:2,0:2:0:0:
283,178,84119,1,2,3:2:0:0:
171,184,84297,1,0,3:2:0:0:
293,352,84474,1,10,0:2:0:0:
289,340,84562,1,2,0:2:0:0:
285,328,84651,1,2,0:2:0:0:
281,316,84740,1,2,0:2:0:0:
277,303,84829,6,0,P|287:244|304:176,1,95.9999970703126,4|0,3:2|3:2,0:2:0:0:
474,176,85185,1,10,0:2:0:0:
316,17,85362,1,2,3:2:0:0:
362,148,85540,1,2,3:2:0:0:
511,59,85717,1,2,3:2:0:0:
402,255,85895,1,8,0:2:0:0:
232,37,86072,6,0,P|184:69|185:204,1,191.999994140625,2|0,3:2|0:2,0:2:0:0:
366,159,86605,2,0,P|319:148|264:137,1,95.9999970703126,10|0,0:2|0:2,0:2:0:0:
81,206,86960,1,2,3:2:0:0:
147,75,87137,1,0,3:2:0:0:
209,289,87315,1,10,0:2:0:0:
23,146,87492,6,0,P|33:215|48:323,1,143.999995605469,6|0,3:2|0:2,0:2:0:0:
29,317,87847,1,2,3:2:0:0:
262,221,88025,1,10,0:2:0:0:
41,133,88202,1,2,3:2:0:0:
181,342,88380,1,10,0:2:0:0:
327,153,88557,1,0,3:2:0:0:
473,295,88735,1,8,0:2:0:0:
473,295,88824,1,8,0:2:0:0:
473,295,88912,6,0,B|406:289|344:274|344:274|325:296|294:315,1,191.999994140625,4|0,3:2|3:2,0:2:0:0:
444,192,89445,2,0,P|455:116|468:64,1,95.9999970703126,8|0,0:2|3:2,0:2:0:0:
262,221,89800,1,8,0:2:0:0:
388,366,89977,1,0,3:2:0:0:
106,278,90155,1,8,0:2:0:0:
242,121,90332,1,8,0:2:0:0:
242,121,90421,1,8,0:2:0:0:
242,121,90510,6,0,P|229:203|210:345,1,191.999994140625,6|8,3:2|0:2,0:2:0:0:
345,174,91043,1,2,3:2:0:0:
155,61,91220,2,0,P|146:112|140:163,1,95.9999970703126,2|0,3:2|3:2,0:2:0:0:
23,351,91575,1,8,0:2:0:0:
46,171,91753,1,2,3:2:0:0:
307,306,91930,6,0,P|261:238|126:266,1,191.999994140625,2|8,3:2|0:0,0:0:0:0:
106,334,92463,1,2,3:2:0:0:
267,117,92640,2,0,P|274:172|276:237,1,95.9999970703126,2|0,3:2|3:2,0:2:0:0:
160,143,92995,1,8,0:2:0:0:
394,270,93173,1,2,3:2:0:0:
206,340,93350,5,2,3:2:0:0:
248,126,93528,1,2,3:2:0:0:
17,240,93705,1,10,0:2:0:0:
7,51,93883,2,0,P|56:66|106:79,1,95.9999970703126,2|0,3:2|0:2,0:2:0:0:
254,229,94238,1,0,3:0:0:0:
397,92,94415,1,10,0:0:0:0:
457,264,94593,1,2,3:2:0:0:
457,264,94682,1,0,3:0:0:0:
457,264,94770,6,0,B|423:248|386:254|386:254|417:220|409:176,1,143.999995605469,0|0,3:0|0:0,0:0:0:0:
512,87,95125,2,0,P|498:143|494:213,1,95.9999970703126,8|0,0:0|0:0,0:0:0:0:
419,336,95480,1,2,3:2:0:0:
325,191,95658,1,0,3:0:0:0:
143,290,95835,1,14,0:2:0:0:
131,294,95923,1,2,0:2:0:0:
119,298,96012,1,2,0:2:0:0:
107,302,96101,1,2,0:2:0:0:
94,306,96190,6,0,P|35:296|-33:279,1,95.9999970703126,4|0,3:2|3:2,0:2:0:0:
120,95,96545,2,0,P|101:172|93:221,1,95.9999970703126,10|0,0:0|0:0,0:0:0:0:
168,368,96900,1,2,3:2:0:0:
17,180,97078,1,2,3:2:0:0:
228,257,97256,1,8,0:0:0:0:
303,114,97433,6,0,P|366:109|437:102,1,95.9999970703126,2|0,3:2|3:0,0:0:0:0:
328,293,97788,1,2,3:2:0:0:
231,161,97966,1,10,0:2:0:0:
493,208,98143,2,0,P|445:212|397:216,1,95.9999970703126,2|0,3:2|3:2,0:2:0:0:
105,139,98498,1,2,3:2:0:0:
241,343,98676,1,8,0:2:0:0:
191,230,98853,1,2,3:2:0:0:
9,343,99031,6,0,B|17:272|17:272|56:257|97:269,1,143.999995605469,0|0,3:0|0:0,0:0:0:0:
156,338,99386,2,0,P|167:279|177:236,1,95.9999970703126,10|0,0:0|0:0,0:0:0:0:
55,60,99741,1,2,3:2:0:0:
209,156,99918,1,2,3:2:0:0:
17,224,100096,1,10,0:2:0:0:
262,282,100273,6,0,B|366:269|334:353|448:342,1,191.999994140625,6|0,3:2|3:0,0:0:0:0:
512,138,100806,1,10,0:2:0:0:
422,254,100983,1,2,3:2:0:0:
223,118,101161,1,0,3:0:0:0:
407,159,101338,1,0,3:0:0:0:
266,26,101516,1,8,0:0:0:0:
147,195,101693,1,2,0:0:0:0:
147,195,101782,1,2,0:0:0:0:
147,195,101871,6,0,B|105:218|105:218|129:95,1,167.999994873047,6|2,3:2|3:2,0:2:0:0:
20,245,102581,2,0,P|52:290|166:279,1,167.999994873047,10|2,0:2|3:2,0:2:0:0:
254,189,103291,2,0,P|242:257|226:366,1,167.999994873047,2|2,3:2|0:2,0:2:0:0:
340,314,104001,2,0,P|335:282|331:248,1,55.9999982910157,14|0,0:2|3:2,0:2:0:0:
167,182,104356,1,0,3:2:0:0:
322,136,104534,1,0,3:2:0:0:
139,344,104711,5,14,0:2:0:0:
139,344,105066,5,2,3:2:0:0:
254,189,105244,1,14,0:2:0:0:
254,189,105599,5,2,3:2:0:0:
52,224,105776,1,14,0:2:0:0:
470,67,106841,6,0,P|430:75|376:80,1,80,0|0,3:0|3:0,0:0:0:0:
306,57,107108,1,0,3:0:0:0:
306,57,107196,2,0,P|311:92|316:122,1,40,8|8,0:0|0:0,0:0:0:0:
391,218,107374,2,0,P|394:198|396:178,1,40,0|0,3:0|3:0,0:0:0:0:
211,41,107551,6,0,P|221:95|232:157,1,95.9999970703126,6|0,3:2|0:0,0:0:0:0:
136,226,107906,1,8,0:0:0:0:
316,287,108084,2,0,B|276:264|227:269|227:269|213:298|177:313,1,143.999995605469,6|0,3:2|0:0,0:0:0:0:
106,306,108439,1,2,3:2:0:0:
296,188,108616,1,10,0:2:0:0:
390,359,108794,6,0,P|407:265|429:164,1,191.999994140625,6|2,3:2|0:0,0:0:0:0:
490,329,109327,1,10,0:2:0:0:
316,212,109504,1,2,3:2:0:0:
431,44,109682,5,8,0:0:0:0:
371,281,109859,1,0,3:0:0:0:
235,0,110037,5,8,0:0:0:0:
296,233,110214,1,0,3:0:0:0:
94,133,110392,6,0,P|46:124|0:117,1,95.9999970703126,6|0,3:2|0:2,0:2:0:0:
43,206,110747,1,8,0:2:0:0:
190,75,110924,2,0,P|175:141|155:235,1,143.999995605469,6|0,3:2|0:2,0:2:0:0:
114,330,111279,2,0,B|87:312|87:312|208:301,1,143.999995605469,6|0,3:2|0:2,0:2:0:0:
288,350,111634,6,0,B|346:349|346:349|406:312|406:312|471:311,1,191.999994140625,4|2,3:2|3:2,0:0:0:0:
481,113,112167,1,10,0:2:0:0:
317,258,112344,1,2,3:2:0:0:
196,163,112522,5,8,0:0:0:0:
463,229,112699,1,0,3:0:0:0:
252,89,112877,1,8,0:0:0:0:
252,89,112966,1,8,0:0:0:0:
252,89,113054,1,0,3:0:0:0:
18,327,113232,5,6,3:2:0:0:
125,190,113410,1,2,3:2:0:0:
230,359,113587,1,10,0:2:0:0:
19,138,113765,2,0,P|30:186|40:240,1,95.9999970703126,6|0,3:2|0:2,0:2:0:0:
236,180,114120,5,2,3:2:0:0:
88,69,114297,1,10,0:2:0:0:
215,271,114475,2,0,P|261:260|309:252,1,95.9999970703126,6|0,3:2|0:2,0:2:0:0:
437,135,114830,5,2,3:2:0:0:
424,354,115007,1,10,0:2:0:0:
257,99,115185,1,6,3:2:0:0:
83,340,115540,6,0,L|79:292,3,47.9999985351563,6|2|2|2,3:2|0:2|0:2|0:2,0:2:0:0:
173,345,115895,1,8,0:2:0:0:
173,345,115984,1,8,0:2:0:0:
173,345,116072,6,0,P|168:288|160:226,1,95.9999970703126,4|0,3:2|0:2,0:2:0:0:
270,130,116427,2,0,P|275:177|279:225,1,95.9999970703126,0|0,3:2|0:2,0:2:0:0:
378,315,116782,2,0,P|330:310|282:305,1,95.9999970703126,0|0,3:2|0:2,0:2:0:0:
185,164,117137,1,2,3:2:0:0:
358,80,117315,6,0,P|292:96|184:33,1,191.999994140625,2|2,3:2|3:2,0:2:0:0:
38,181,117847,1,2,3:2:0:0:
143,349,118025,2,0,P|154:253|169:159,1,191.999994140625,2|2,3:2|3:2,0:2:0:0:
47,57,118557,2,0,P|32:127|26:172,1,95.9999970703126,2|0,3:2|0:2,0:2:0:0:
182,244,118912,6,0,P|230:237|277:226,1,95.9999970703126,6|0,3:2|0:2,0:2:0:0:
430,336,119267,2,0,P|382:330|335:317,1,95.9999970703126,0|0,3:2|0:2,0:2:0:0:
430,145,119622,2,0,P|412:220|400:278,1,95.9999970703126,0|0,3:2|0:2,0:2:0:0:
243,353,119977,1,2,3:2:0:0:
88,209,120154,6,0,B|139:202|174:229|174:229|214:195|210:130,1,191.999994140625,2|2,3:2|3:2,0:2:0:0:
115,313,120687,1,14,0:2:0:0:
319,238,120864,1,2,3:2:0:0:
51,120,121042,1,0,3:2:0:0:
238,321,121221,1,0,3:2:0:0:
241,337,121309,1,0,3:2:0:0:
243,353,121398,1,8,0:2:0:0:
0,286,121574,1,0,3:2:0:0:
212,116,121752,5,4,3:2:0:0:
338,279,124060,5,0,3:0:0:0:
445,354,124238,2,0,B|402:338|402:338|422:312|421:279,1,107.999996704102,0|0,3:0|0:0,0:0:0:0:
379,208,124593,6,0,P|374:163|373:129,2,71.9999978027344,6|2|2,0:2|0:0|0:3,0:0:0:0:
337,279,125125,2,0,P|278:253|183:283,1,143.999995605469,2|2,0:0|0:0,0:0:0:0:
264,364,125658,1,2,0:3:0:0:
111,293,125835,6,0,P|159:293|208:301,1,71.9999978027344,2|2,0:0|0:3,0:0:0:0:
290,174,126190,2,0,P|254:170|218:170,1,71.9999978027344,2|2,0:0|2:3,0:0:0:0:
264,364,126545,2,0,P|269:328|275:292,1,71.9999978027344,2|2,0:0|0:3,0:0:0:0:
394,212,126900,2,0,P|383:153|370:55,1,143.999995605469,2|2,0:0|0:0,0:0:0:0:
486,8,127433,6,0,P|520:69|497:135,1,143.999995605469,2|2,3:2|0:0,0:0:0:0:
290,157,127966,2,0,B|207:147|232:204|144:189,1,143.999995605469,2|2,0:0|0:0,0:0:0:0:
165,112,128498,1,2,0:0:0:0:
88,242,128676,1,0,3:0:0:0:
273,233,128853,1,2,3:3:0:0:
206,348,129031,2,0,P|199:312|190:277,2,71.9999978027344,2|2|2,0:0|0:3|0:0,0:0:0:0:
120,324,129563,1,2,0:3:0:0:
289,316,129741,2,0,P|334:297|361:257,1,71.9999978027344,2|2,0:0|0:0,0:0:0:0:
455,128,130096,1,2,0:0:0:0:
503,216,130273,6,0,P|430:222|371:180,1,143.999995605469,2|2,3:3|0:2,0:0:0:0:
217,89,130806,2,0,P|273:84|316:79,1,71.9999978027344,2|2,0:0|0:3,0:0:0:0:
244,184,131161,1,2,0:0:0:0:
117,124,131338,1,2,0:0:0:0:
140,270,131516,6,0,P|149:235|158:200,1,71.9999978027344,2|2,3:2|0:3,0:0:0:0:
36,269,131871,2,0,P|45:303|54:338,1,71.9999978027344,2|2,0:2|0:3,0:0:0:0:
209,288,132226,2,0,P|174:278|139:269,1,71.9999978027344,2|2,3:2|0:3,0:0:0:0:
13,157,132581,2,0,P|47:147|82:138,1,71.9999978027344,0|2,3:2|0:0,0:0:0:0:
211,25,132936,1,0,3:0:0:0:
154,88,133114,6,0,P|162:130|168:181,2,71.9999978027344,2|2|2,0:0|0:0|0:0,0:0:0:0:
245,113,133646,2,0,B|329:95|312:153|399:120,1,143.999995605469,2|2,0:0|0:0,0:0:0:0:
471,110,134179,1,2,0:0:0:0:
386,206,134356,6,0,P|397:270|408:383,1,143.999995605469,2|2,0:0|0:0,0:0:0:0:
484,240,134889,1,2,0:0:0:0:
312,350,135066,2,0,B|275:345|249:326|249:326|239:350|205:370,1,107.999996704102,2|0,0:0|0:0,0:0:0:0:
306,266,135421,1,0,3:0:0:0:
165,186,135599,2,0,P|174:238|178:292,1,107.999996704102,12|0,0:0|0:0,0:0:0:0:
125,361,135954,6,0,P|140:316|147:270,1,71.9999978027344,4|0,3:2|0:0,0:0:0:0:
253,193,136309,2,0,P|245:157|233:123,1,71.9999978027344,10|0,0:0|0:0,0:0:0:0:
47,131,136664,1,2,3:2:0:0:
165,186,136842,1,2,3:2:0:0:
8,217,137019,1,10,0:2:0:0:
93,50,137197,6,0,P|128:56|164:59,1,71.9999978027344,2|0,3:2|0:2,0:2:0:0:
391,104,137552,1,2,3:2:0:0:
253,193,137729,1,8,0:2:0:0:
320,38,137907,2,0,P|312:72|298:139,1,71.9999978027344,2|0,3:2|0:2,0:2:0:0:
383,261,138262,2,0,P|375:225|367:190,1,71.9999978027344,2|8,3:2|0:2,0:2:0:0:
484,239,138617,1,2,3:2:0:0:
343,341,138794,6,0,P|309:329|273:323,1,71.9999978027344,0|0,3:2|0:2,0:2:0:0:
172,378,139149,1,8,0:2:0:0:
132,304,139327,2,0,P|201:299|249:350,1,143.999995605469,0|0,3:2|3:2,0:2:0:0:
113,311,139859,1,8,0:2:0:0:
226,224,140037,6,0,P|216:189|207:154,1,71.9999978027344,2|0,3:2|0:2,0:2:0:0:
101,89,140392,2,0,P|110:54|120:19,1,71.9999978027344,2|8,3:2|0:2,0:2:0:0:
20,178,140747,2,0,P|54:187|89:197,1,71.9999978027344,2|0,3:2|0:2,0:2:0:0:
201,72,141102,2,0,P|249:58|292:47,1,71.9999978027344,2|8,3:2|0:2,0:2:0:0:
388,209,141457,1,0,3:2:0:0:
354,10,141634,6,0,P|341:81|330:152,1,143.999995605469,6|10,3:2|0:2,0:2:0:0:
489,63,142167,2,0,P|454:72|419:83,1,71.9999978027344,2|0,3:2|0:2,0:2:0:0:
219,136,142522,1,2,3:2:0:0:
291,260,142699,1,8,0:2:0:0:
512,276,142877,6,0,P|461:221|373:242,1,143.999995605469,0|0,3:2|3:2,0:2:0:0:
255,338,143410,1,8,0:2:0:0:
456,341,143587,2,0,P|421:333|387:322,1,71.9999978027344,0|0,3:2|0:2,0:2:0:0:
297,229,143942,1,2,3:2:0:0:
100,334,144120,1,10,0:2:0:0:
197,244,144297,1,2,3:2:0:0:
96,168,144475,6,0,P|105:203|113:239,1,71.9999978027344,0|0,3:2|0:2,0:2:0:0:
232,157,144830,1,10,0:2:0:0:
264,312,145007,2,0,P|272:276|281:242,1,71.9999978027344,2|0,3:2|0:2,0:2:0:0:
221,38,145362,1,2,3:2:0:0:
321,116,145540,1,8,0:2:0:0:
96,168,145717,6,0,P|61:157|27:145,1,71.9999978027344,2|0,3:2|0:2,0:2:0:0:
152,61,146072,2,0,P|185:50|220:38,1,71.9999978027344,2|8,3:2|0:2,0:2:0:0:
333,137,146427,2,0,P|326:165|314:234,1,71.9999978027344,2|0,3:2|0:2,0:2:0:0:
166,263,146782,1,2,3:2:0:0:
306,369,146960,2,0,P|278:362|209:350,1,71.9999978027344,8|0,0:2|0:2,0:2:0:0:
13,195,147315,5,6,3:2:0:0:
142,358,147492,1,2,3:2:0:0:
116,192,147670,1,10,0:2:0:0:
0,319,147847,2,0,P|35:311|70:305,1,71.9999978027344,6|0,3:2|0:2,0:2:0:0:
321,174,148202,1,2,3:2:0:0:
235,353,148380,1,10,0:2:0:0:
178,111,148557,6,4,P|211:126|247:130,1,71.9999978027344,6|0,3:2|0:2,0:2:0:0:
442,69,148913,1,2,3:2:0:0:
290,270,149090,1,10,0:2:0:0:
219,39,149268,1,2,3:2:0:0:
473,267,149445,1,8,0:2:0:0:
191,281,149622,1,2,3:2:0:0:
193,265,149711,1,0,3:2:0:0:
196,249,149799,1,8,0:2:0:0:
361,341,149978,1,0,3:2:0:0:
337,105,150155,6,0,P|327:148|319:191,1,88.000002685547,12|0,0:0|0:0,0:0:0:0:
220,113,150510,1,10,0:2:0:0:
450,168,150688,1,2,3:2:0:0:
374,359,150866,2,0,P|367:315|361:271,1,88.000002685547,10|0,0:2|3:2,0:2:0:0:
235,89,151220,1,10,0:2:0:0:
130,245,151398,1,2,3:2:0:0:
319,196,151575,5,10,0:2:0:0:
48,126,151753,2,0,P|91:129|132:111,1,88.000002685547,2|8,3:2|0:2,0:2:0:0:
299,303,152108,2,0,P|258:286|215:289,1,88.000002685547,2|8,3:2|0:2,0:2:0:0:
39,335,152462,1,2,3:2:0:0:
197,184,152640,1,8,0:2:0:0:
247,367,152818,1,2,3:2:0:0:
70,211,152995,6,0,P|59:169|48:126,1,88.000002685547,8|2,0:2|0:2,0:2:0:0:
212,11,153350,2,0,P|222:54|234:97,1,88.000002685547,10|0,0:2|0:2,0:2:0:0:
407,232,153705,2,0,P|363:225|320:217,1,88.000002685547,10|0,0:2|3:2,0:2:0:0:
128,304,154060,2,0,P|193:292|244:286,1,88.000002685547,10|0,0:2|3:2,0:2:0:0:
472,178,154415,5,10,0:2:0:0:
347,319,154593,1,2,3:2:0:0:
251,118,154770,1,10,0:2:0:0:
482,265,154948,2,0,P|471:308|460:351,1,88.000002685547,2|8,3:2|0:2,0:2:0:0:
370,125,155303,1,2,3:2:0:0:
226,206,155481,2,0,P|183:217|142:234,1,88.000002685547,10|0,0:2|0:2,0:2:0:0:
41,58,155836,6,0,P|81:75|124:86,1,88.000002685547,12|0,0:2|0:2,0:2:0:0:
348,93,156191,1,10,0:2:0:0:
142,233,156368,1,2,3:2:0:0:
263,19,156546,2,0,P|256:86|250:148,1,88.000002685547,10|0,0:2|0:2,0:2:0:0:
303,254,156901,1,10,0:2:0:0:
439,72,157078,1,2,3:2:0:0:
512,314,157256,5,10,0:2:0:0:
348,182,157433,2,0,P|391:177|435:172,1,88.000002685547,2|8,3:2|0:2,0:2:0:0:
296,338,157788,2,0,P|252:343|209:349,1,88.000002685547,2|8,3:2|0:2,0:2:0:0:
223,203,158143,1,2,3:2:0:0:
436,346,158321,1,10,0:2:0:0:
169,272,158498,1,2,3:2:0:0:
391,71,158676,6,0,P|367:138|349:188,1,88.000002685547,10|0,0:2|0:2,0:2:0:0:
113,136,159031,2,0,P|180:112|230:94,1,88.000002685547,8|0,0:2|0:2,0:2:0:0:
412,220,159386,5,10,0:2:0:0:
99,337,159563,1,0,3:2:0:0:
211,93,159741,5,8,0:2:0:0:
278,354,159918,1,0,3:2:0:0:
89,51,160096,6,0,P|112:133|120:177,1,88.000002685547,10|0,0:2|0:2,0:2:0:0:
282,334,160451,2,0,P|292:291|305:249,1,88.000002685547,12|0,0:2|0:2,0:2:0:0:
427,48,160806,5,10,0:2:0:0:
179,191,160984,1,0,3:2:0:0:
423,237,161161,5,8,0:2:0:0:
260,18,161339,1,0,3:2:0:0:
326,148,161516,5,4,3:2:0:0:
331,249,161879,2,0,B|226:224|249:308|141:278,1,191.999994140625,2|2,0:2|0:2,0:2:0:0:
72,352,162954,2,0,P|59:281|44:210,1,143.999995605469,2|0,0:2|0:2,0:2:0:0:
175,132,163685,2,0,P|162:203|147:274,1,143.999995605469,2|0,0:2|0:2,0:2:0:0:
208,352,164407,6,0,P|278:352|328:303,1,143.999995605469,2|0,0:2|0:2,0:2:0:0:
424,333,165143,2,0,P|422:262|376:210,1,143.999995605469,2|0,0:2|0:2,0:2:0:0:
260,180,165800,2,0,P|346:194|371:110,1,191.999994140625,2|0,0:2|0:2,0:2:0:0:
238,21,166663,5,0,3:2:0:0:
238,21,166749,1,0,3:2:0:0:
238,21,166835,2,0,P|233:65|230:101,1,71.9999978027344,12|0,0:2|0:2,0:2:0:0:
260,180,167197,6,0,P|225:173|142:162,1,88.000002685547,6|0,3:2|0:2,0:2:0:0:
8,341,167551,1,10,0:2:0:0:
146,299,167728,2,0,P|191:295|233:294,1,88.000002685547,6|0,3:2|0:2,0:2:0:0:
3,96,168083,1,2,3:2:0:0:
63,258,168261,1,8,0:2:0:0:
187,66,168438,6,0,P|175:115|163:169,1,88.000002685547,6|0,3:2|0:2,0:2:0:0:
306,236,168793,1,2,3:2:0:0:
87,91,168971,1,8,0:2:0:0:
332,1,169149,2,0,P|344:50|356:104,1,88.000002685547,6|0,3:2|0:2,0:2:0:0:
422,240,169504,1,2,3:2:0:0:
450,47,169682,1,8,0:2:0:0:
253,160,169859,1,0,3:2:0:0:
487,306,170036,6,0,P|510:235|516:197,1,88.000002685547,6|0,3:2|0:2,0:2:0:0:
319,86,170392,2,0,P|332:160|342:277,1,176.000005371094,8|0,0:2|3:2,0:2:0:0:
481,58,170923,1,2,3:2:0:0:
245,195,171101,1,10,0:2:0:0:
375,5,171278,1,2,3:2:0:0:
511,315,171456,5,4,3:2:0:0:
221,329,171634,2,0,L|266:268,1,44.0000013427735,8|8,0:0|0:0,0:0:0:0:
431,171,171812,2,0,L|355:162,1,44.0000013427735,8|8,0:0|0:0,0:0:0:0:
190,69,171989,2,0,L|220:138,1,44.0000013427735,8|8,0:0|0:0,0:0:0:0:
90,317,172167,5,8,0:0:0:0:
117,307,172255,1,0,3:0:0:0:
146,304,172344,1,0,3:0:0:0:
175,308,172433,1,0,3:0:0:0:
221,329,172522,5,12,0:0:0:0:
267,358,172610,1,8,0:0:0:0:
321,362,172699,1,8,0:0:0:0:
371,342,172788,1,8,0:0:0:0:
406,299,172877,6,0,B|400:249|434:197|434:197|385:206|336:169,1,191.999994140625,6|8,3:2|0:2,0:2:0:0:
504,288,173409,1,2,3:2:0:0:
268,139,173587,2,0,P|273:183|280:250,1,95.9999970703126,2|0,3:2|3:2,0:2:0:0:
189,68,173942,1,8,0:2:0:0:
406,113,174119,1,2,3:2:0:0:
129,310,174297,6,0,P|120:214|105:119,1,191.999994140625,2|8,3:2|0:2,0:2:0:0:
255,253,174829,1,2,0:2:0:0:
0,226,175007,2,0,P|60:215|106:210,1,95.9999970703126,2|0,3:2|3:2,0:2:0:0:
315,362,175362,1,8,0:2:0:0:
121,318,175540,1,2,3:2:0:0:
194,83,175717,5,2,3:2:0:0:
282,260,175895,1,2,3:2:0:0:
472,124,176072,1,10,0:2:0:0:
423,312,176250,2,0,P|409:262|392:213,1,95.9999970703126,2|0,3:2|0:2,0:2:0:0:
232,157,176605,1,0,3:2:0:0:
478,213,176782,1,10,0:2:0:0:
353,93,176960,1,2,3:2:0:0:
258,244,177137,6,0,B|208:256|174:223|174:223|157:252|115:269,1,143.999995605469,0|0,3:2|0:2,0:2:0:0:
69,333,177492,2,0,P|55:283|38:234,1,95.9999970703126,10|0,0:2|0:2,0:2:0:0:
229,131,177847,1,2,3:2:0:0:
179,317,178025,1,0,3:2:0:0:
354,216,178202,1,10,0:2:0:0:
366,212,178290,1,2,0:2:0:0:
378,208,178379,1,2,0:2:0:0:
390,204,178468,1,2,0:2:0:0:
403,200,178557,6,0,P|462:210|530:227,1,95.9999970703126,4|0,3:2|3:2,0:2:0:0:
405,317,178912,1,10,0:2:0:0:
247,158,179089,1,2,3:2:0:0:
413,53,179267,1,2,3:2:0:0:
360,221,179444,1,2,3:2:0:0:
169,81,179622,1,8,0:2:0:0:
45,351,179799,6,0,P|77:303|212:304,1,191.999994140625,2|0,3:2|0:2,0:2:0:0:
67,106,180332,2,0,P|56:153|45:208,1,95.9999970703126,10|0,0:2|0:2,0:2:0:0:
140,367,180687,1,2,3:2:0:0:
141,173,180864,1,0,3:2:0:0:
271,356,181042,1,10,0:2:0:0:
449,108,181220,6,0,P|390:155|297:113,1,143.999995605469,6|0,3:2|0:2,0:2:0:0:
365,64,181575,1,2,3:2:0:0:
471,281,181753,1,10,0:2:0:0:
208,150,181930,1,2,3:2:0:0:
379,356,182108,1,10,0:2:0:0:
134,352,182285,1,0,3:2:0:0:
301,100,182463,1,8,0:2:0:0:
301,100,182552,1,8,0:2:0:0:
301,100,182640,6,0,B|295:167|285:222|285:222|306:254|352:261,1,191.999994140625,4|0,3:2|3:2,0:2:0:0:
497,149,183172,2,0,P|449:158|402:164,1,95.9999970703126,12|0,0:2|3:2,0:2:0:0:
170,72,183528,1,8,0:2:0:0:
368,263,183705,1,0,3:2:0:0:
328,29,183883,1,8,0:2:0:0:
77,208,184060,1,10,0:2:0:0:
77,208,184149,1,8,0:2:0:0:
77,208,184238,6,0,P|159:195|301:176,1,191.999994140625,4|8,3:2|0:2,0:2:0:0:
67,98,184770,1,2,3:2:0:0:
168,318,184947,2,0,P|174:271|183:224,1,95.9999970703126,2|0,3:2|3:2,0:2:0:0:
389,33,185302,1,8,0:2:0:0:
511,179,185480,1,2,3:2:0:0:
342,117,185657,6,0,P|434:121|491:48,1,191.999994140625,2|8,3:2|0:2,0:2:0:0:
247,27,186190,1,2,3:2:0:0:
420,209,186367,2,0,P|427:264|429:329,1,95.9999970703126,2|0,3:2|3:2,0:2:0:0:
226,171,186722,1,8,0:2:0:0:
389,33,186900,1,2,3:2:0:0:
175,81,187077,5,2,3:2:0:0:
320,218,187255,1,2,3:2:0:0:
129,190,187432,1,10,0:2:0:0:
256,355,187610,2,0,P|241:306|228:256,1,95.9999970703126,2|0,3:2|0:2,0:2:0:0:
32,111,187965,1,0,3:2:0:0:
118,283,188142,1,10,0:2:0:0:
320,218,188320,1,2,3:2:0:0:
320,218,188409,1,0,3:2:0:0:
320,218,188497,6,0,B|304:184|310:147|310:147|276:178|232:170,1,143.999995605469,0|0,3:2|0:2,0:2:0:0:
146,120,188853,2,0,P|202:134|272:138,1,95.9999970703126,10|0,0:2|0:2,0:2:0:0:
417,200,189207,1,2,3:2:0:0:
250,295,189385,1,0,3:2:0:0:
448,58,189562,1,10,0:2:0:0:
452,70,189652,1,2,0:2:0:0:
456,82,189741,1,2,0:2:0:0:
460,94,189829,1,2,0:2:0:0:
464,107,189918,6,0,P|454:166|437:234,1,95.9999970703126,4|0,3:2|3:2,0:2:0:0:
355,339,190273,2,0,P|345:292|333:245,1,95.9999970703126,10|0,0:2|0:2,0:2:0:0:
130,124,190628,1,2,3:2:0:0:
59,224,190806,1,2,3:2:0:0:
248,84,190982,1,8,0:2:0:0:
221,281,191161,6,0,P|158:276|87:269,1,95.9999970703126,2|0,3:2|3:2,0:2:0:0:
41,76,191516,1,2,3:2:0:0:
217,190,191694,1,10,0:2:0:0:
354,62,191871,2,0,P|306:66|258:70,1,95.9999970703126,2|0,3:2|3:2,0:2:0:0:
252,277,192226,1,2,3:2:0:0:
156,117,192404,1,8,0:2:0:0:
324,175,192581,1,2,3:2:0:0:
22,340,192759,6,0,B|112:318|112:318|133:342|159:342,1,143.999995605469,0|0,3:2|0:2,0:2:0:0:
264,283,193114,2,0,P|253:329|244:377,1,95.9999970703126,10|0,0:2|0:2,0:2:0:0:
439,218,193469,1,2,3:2:0:0:
323,173,193646,1,2,3:2:0:0:
353,351,193824,1,10,0:2:0:0:
344,74,194001,6,0,B|240:61|272:145|158:134,1,191.999994140625,6|2,3:2|3:2,0:2:0:0:
21,250,194534,1,10,0:2:0:0:
273,191,194711,1,2,3:2:0:0:
71,53,194889,1,0,3:2:0:0:
162,170,195066,1,0,3:2:0:0:
0,335,195244,1,8,0:2:0:0:
64,168,195421,1,2,3:2:0:0:
260,336,195599,6,0,P|316:278|396:293,1,167.999994873047,6|2,3:2|3:2,0:2:0:0:
511,347,196309,2,0,B|469:370|469:370|492:252,1,167.999994873047,10|2,0:2|3:2,0:2:0:0:
369,127,197019,2,0,P|381:195|397:304,1,167.999994873047,2|2,3:2|0:2,0:2:0:0:
302,355,197729,2,0,P|297:323|293:289,1,55.9999982910157,14|0,0:2|3:2,0:2:0:0:
186,133,198084,1,0,3:2:0:0:
283,205,198262,1,0,3:2:0:0:
171,245,198439,5,12,0:2:0:0:
171,245,198794,5,2,3:2:0:0:
373,105,198972,1,12,0:2:0:0:
77,19,199327,5,2,0:2:0:0:
77,19,199415,1,2,0:2:0:0:
77,19,199504,2,0,B|108:53|132:71|132:71|122:117|104:218,1,215.999993408203,4|0,3:2|3:2,0:2:0:0:
8,318,200214,2,0,P|71:305|109:301,1,71.9999978027344,8|0,0:2|0:2,0:2:0:0:
209,161,200569,2,0,P|195:214|184:254,1,71.9999978027344,8|0,0:2|3:2,0:2:0:0:
325,371,200924,2,0,P|315:336|306:301,1,71.9999978027344,8|0,0:2|3:2,0:2:0:0:
386,157,201279,5,10,0:2:0:0:
512,311,201457,2,0,P|455:303|422:303,1,71.9999978027344,2|8,3:2|0:2,0:2:0:0:
223,153,201812,2,0,P|258:146|294:144,1,71.9999978027344,2|8,3:2|0:2,0:2:0:0:
455,101,202167,1,2,3:2:0:0:
326,232,202344,1,10,0:2:0:0:
462,329,202522,1,2,3:2:0:0:
223,153,202699,6,0,P|235:233|239:319,1,143.999995605469,10|8,0:2|0:2,0:2:0:0:
115,202,203232,1,2,3:2:0:0:
307,57,203409,2,0,P|322:111|324:145,1,71.9999978027344,8|0,0:2|3:2,0:2:0:0:
220,322,203764,2,0,P|214:286|203:252,1,71.9999978027344,8|0,0:2|3:2,0:2:0:0:
70,101,204119,6,0,P|132:120|168:128,1,71.9999978027344,8|0,0:2|0:2,0:2:0:0:
324,56,204474,1,8,0:2:0:0:
314,211,204652,1,0,3:2:0:0:
438,90,204829,1,8,0:2:0:0:
494,263,205007,1,0,3:2:0:0:
292,222,205185,1,10,0:2:0:0:
512,145,205362,1,2,3:2:0:0:
355,326,205540,6,0,P|283:310|191:307,1,143.999995605469,14|8,0:2|0:2,0:2:0:0:
44,188,206072,1,0,3:2:0:0:
181,100,206250,2,0,P|172:135|163:169,1,71.9999978027344,8|0,0:2|3:2,0:2:0:0:
58,349,206605,2,0,P|48:314|40:279,1,71.9999978027344,8|0,0:2|3:2,0:2:0:0:
79,80,206960,5,10,0:2:0:0:
340,149,207137,2,0,P|301:152|257:160,1,71.9999978027344,2|8,3:2|0:2,0:2:0:0:
144,265,207492,2,0,P|183:268|227:276,1,71.9999978027344,2|8,3:2|0:2,0:2:0:0:
448,125,207847,2,0,P|438:159|430:194,1,71.9999978027344,2|8,3:2|0:2,0:2:0:0:
308,349,208202,1,2,3:2:0:0:
512,302,208380,6,0,P|427:282|338:269,1,143.999995605469,12|8,0:2|0:2,0:2:0:0:
269,144,208912,2,0,P|278:202|281:233,1,71.9999978027344,0|8,3:2|0:2,0:2:0:0:
210,298,209267,1,2,3:2:0:0:
377,164,209445,1,10,0:2:0:0:
185,82,209622,1,2,3:2:0:0:
74,310,209800,6,0,P|69:266|63:238,1,71.9999978027344,8|0,0:2|0:2,0:2:0:0:
202,99,210155,2,0,P|194:134|191:170,1,71.9999978027344,12|0,0:2|0:2,0:2:0:0:
54,109,210510,5,8,0:2:0:0:
299,60,210687,1,0,3:2:0:0:
185,201,210865,1,8,0:2:0:0:
393,268,211043,1,0,3:2:0:0:
103,232,211220,6,0,P|93:265|77:320,1,71.9999978027344,6|0,3:2|0:2,0:2:0:0:
152,351,211486,2,0,P|163:315|172:281,1,71.9999978027344,6|0,3:2|0:2,0:2:0:0:
245,340,211753,1,2,3:2:0:0:
393,268,211930,6,0,P|382:233|372:198,1,71.9999978027344,14|0,0:2|0:2,0:2:0:0:
442,149,212196,2,0,P|452:183|462:217,1,71.9999978027344,6|0,3:2|0:2,0:2:0:0:
471,302,212463,1,2,3:2:0:0:
283,232,212640,6,0,P|276:179|360:100,1,167.999994873047,4|2,3:2|0:2,0:2:0:0:
494,48,213350,2,0,P|408:35|320:17,1,167.999994873047,12|2,0:2|0:2,0:2:0:0:
233,8,214060,6,0,P|247:57|259:117,1,111.999996582031,0|2,3:2|0:2,0:2:0:0:
163,184,214593,2,0,P|173:142|177:124,1,55.9999982910157,0|8,3:2|0:2,0:2:0:0:
86,221,214948,2,0,P|134:221|239:256,1,139.999995727539,0|0,3:2|0:2,0:2:0:0:
289,315,215480,6,0,P|304:266|312:231,1,71.9999978027344,4|0,3:2|0:2,0:2:0:0:
442,164,215835,2,0,P|433:129|422:94,1,71.9999978027344,8|0,0:2|3:2,0:2:0:0:
494,268,216190,5,8,0:2:0:0:
276,159,216368,1,0,3:2:0:0:
409,308,216545,1,8,0:2:0:0:
167,351,216723,1,0,3:2:0:0:
193,115,216900,5,8,0:2:0:0:
280,351,217078,1,0,3:2:0:0:
58,219,217256,2,0,P|115:212|156:207,1,71.9999978027344,10|0,0:2|0:2,0:2:0:0:
373,151,217611,2,0,P|316:144|275:139,1,71.9999978027344,10|0,0:2|3:2,0:2:0:0:
182,270,217966,2,0,P|239:263|280:258,1,71.9999978027344,10|0,0:2|3:2,0:2:0:0:
474,130,218321,6,0,P|460:189|448:232,1,71.9999978027344,10|0,0:2|0:2,0:2:0:0:
285,161,218676,1,8,0:2:0:0:
479,39,218853,1,0,3:2:0:0:
243,76,219031,1,8,0:2:0:0:
464,231,219208,1,0,3:2:0:0:
266,274,219386,1,8,0:2:0:0:
374,31,219563,1,0,3:2:0:0:
154,217,219741,5,10,0:2:0:0:
402,304,219918,1,0,3:2:0:0:
146,352,220096,1,8,0:2:0:0:
256,128,220273,1,2,3:2:0:0:
49,256,220451,1,8,0:2:0:0:
343,206,220628,1,2,3:2:0:0:
190,20,220806,1,10,0:2:0:0:
146,248,220983,1,2,3:2:0:0:
359,77,221161,5,12,0:2:0:0:
46,34,221338,1,0,3:2:0:0:
246,262,221516,2,2,L|234:201,3,35.9999989013672,10|2|2|2,0:2|0:2|0:2|0:2,0:2:0:0:
139,283,221871,2,2,L|151:222,3,35.9999989013672,10|2|2|2,0:2|0:2|0:2|0:2,0:2:0:0:
177,173,222226,1,8,0:2:0:0:
329,344,222403,1,0,3:2:0:0:
60,225,222581,5,4,3:2:0:0:
328,78,222758,1,8,0:2:0:0:
229,330,222936,1,8,0:2:0:0:
160,55,223114,1,8,0:2:0:0:
381,275,223291,1,8,0:2:0:0:
444,3,223469,1,8,0:2:0:0:
472,223,223646,5,8,0:2:0:0:
440,191,223734,1,8,0:2:0:0:
399,175,223823,1,8,0:2:0:0:
354,177,223912,1,8,0:2:0:0:
314,198,224001,6,0,B|226:177|245:246|145:227,1,176.000005371094,6|8,3:2|0:2,0:2:0:0:
35,101,224534,2,0,P|45:157|49:213,1,88.000002685547,2|0,3:2|0:2,0:2:0:0:
210,352,224889,2,0,P|214:308|222:265,1,88.000002685547,2|8,3:2|0:2,0:2:0:0:
341,68,225244,6,0,P|273:89|231:96,1,88.000002685547,2|0,3:2|0:2,0:2:0:0:
47,187,225599,2,0,P|115:208|157:215,1,88.000002685547,2|8,3:2|0:2,0:2:0:0:
307,330,225954,2,0,P|331:280|274:177,1,176.000005371094,2|2,3:2|3:2,0:2:0:0:
97,325,226486,1,10,0:2:0:0:
238,265,226664,1,2,3:2:0:0:
25,105,226841,6,0,B|84:106|84:106|147:132|147:132|210:129,1,176.000005371094,2|10,3:2|0:2,0:2:0:0:
338,31,227374,2,0,P|324:91|303:225,1,176.000005371094,2|2,3:2|3:2,0:2:0:0:
211,43,227906,1,10,0:2:0:0:
437,36,228084,6,0,P|422:88|414:137,1,88.000002685547,2|0,3:2|0:2,0:2:0:0:
232,259,228439,1,2,3:2:0:0:
439,210,228616,1,10,0:2:0:0:
338,318,228794,2,0,P|329:274|316:232,1,88.000002685547,2|0,3:2|0:2,0:2:0:0:
128,68,229149,1,2,3:2:0:0:
301,142,229327,1,10,0:2:0:0:
82,233,229504,1,2,3:2:0:0:
235,30,229682,5,6,3:2:0:0:
172,249,229859,2,0,P|160:200|149:161,1,88.000002685547,2|8,3:2|0:2,0:2:0:0:
321,138,230214,2,0,P|332:95|343:52,1,88.000002685547,2|0,3:2|0:2,0:2:0:0:
439,182,230569,1,2,3:2:0:0:
312,275,230747,1,8,0:2:0:0:
458,324,230924,6,0,B|370:306|379:386|294:361,1,176.000005371094,2|2,3:2|3:2,0:2:0:0:
172,164,231457,1,10,0:2:0:0:
324,79,231634,2,0,P|306:181|294:274,1,176.000005371094,2|2,3:2|3:2,0:2:0:0:
312,275,232078,1,2,3:2:0:0:
312,275,232167,1,10,0:2:0:0:
184,72,232344,1,2,3:2:0:0:
31,261,232522,6,0,P|85:255|142:251,1,88.000002685547,6|0,3:2|0:2,0:2:0:0:
254,354,232877,2,0,P|297:357|341:362,1,88.000002685547,8|2,0:2|0:2,0:2:0:0:
205,176,233232,5,8,0:2:0:0:
77,337,233409,1,2,3:2:0:0:
106,141,233587,1,10,0:2:0:0:
312,275,233764,1,2,3:2:0:0:
471,119,233942,6,0,P|387:109|291:86,1,176.000005371094,8|8,0:2|0:2,0:2:0:0:
454,211,234474,1,2,3:2:0:0:
342,0,234652,5,8,0:2:0:0:
188,215,234829,1,2,3:2:0:0:
31,45,235007,1,8,0:2:0:0:
293,182,235185,1,2,3:2:0:0:
106,348,235362,6,0,P|91:280|72:226,1,88.000002685547,14|2,0:2|0:2,0:2:0:0:
284,200,235717,2,0,P|271:242|263:285,1,88.000002685547,10|2,0:2|0:2,0:2:0:0:
133,135,236072,1,8,0:2:0:0:
336,85,236250,1,2,3:2:0:0:
197,209,236427,1,8,0:2:0:0:
406,275,236605,1,2,3:2:0:0:
240,32,236782,5,4,3:2:0:0:
69,244,236960,1,10,0:2:0:0:
335,173,237137,1,8,0:2:0:0:
114,109,237315,1,10,0:2:0:0:
320,303,237492,1,8,0:2:0:0:
369,52,237670,1,10,0:2:0:0:
231,219,237847,5,8,0:2:0:0:
228,235,237935,1,0,3:2:0:0:
225,252,238025,2,0,L|209:324,1,44.0000013427735,2|0,3:2|3:0,0:0:0:0:
51,217,238202,5,6,3:2:0:0:
133,328,246013,6,0,P|98:333|62:338,1,71.9999978027344,0|0,3:2|3:2,0:2:0:0:
41,346,246279,1,8,0:2:0:0:
41,346,246368,1,8,0:2:0:0:
118,65,246545,6,0,P|107:128|82:284,1,191.999994140625,6|2,3:2|3:2,0:2:0:0:
234,104,247078,1,10,0:2:0:0:
14,163,247256,1,2,3:2:0:0:
204,19,247433,1,10,0:2:0:0:
204,19,247522,1,0,3:2:0:0:
204,19,247611,1,0,3:2:0:0:
258,226,247788,1,8,0:2:0:0:
500,115,247966,6,0,P|432:118|368:76,1,143.999995605469,4|0,3:2|0:2,0:2:0:0:
457,29,248321,1,0,3:2:0:0:
259,195,248498,1,8,0:2:0:0:
480,338,248676,1,8,0:2:0:0:
409,140,248853,1,8,0:2:0:0:
262,297,249031,5,8,0:2:0:0:
226,279,249119,1,8,0:2:0:0:
187,283,249208,1,8,0:2:0:0:
155,306,249297,1,8,0:2:0:0:
124,331,249386,1,8,0:2:0:0:
85,338,249474,1,8,0:2:0:0:
47,327,249563,6,0,P|69:231|76:135,1,191.999994140625,6|8,3:2|0:2,0:2:0:0:
202,35,250096,1,2,3:2:0:0:
353,103,250273,2,0,P|398:87|445:76,1,95.9999970703126,2|0,3:2|3:2,0:2:0:0:
365,252,250628,1,8,0:2:0:0:
200,146,250806,1,2,3:2:0:0:
328,352,250983,6,0,P|374:284|509:312,1,191.999994140625,2|8,3:2|0:2,0:2:0:0:
421,175,251516,1,2,3:2:0:0:
271,244,251693,2,0,P|216:237|151:235,1,95.9999970703126,2|0,3:2|3:2,0:2:0:0:
72,308,252048,1,8,0:2:0:0:
172,154,252226,1,2,3:2:0:0:
201,334,252403,5,2,3:2:0:0:
63,178,252581,1,2,3:2:0:0:
283,137,252758,1,10,0:2:0:0:
148,37,252936,2,0,P|163:86|176:136,1,95.9999970703126,2|0,3:2|0:2,0:2:0:0:
338,235,253291,1,0,3:2:0:0:
341,66,253468,1,10,0:2:0:0:
243,257,253646,1,2,3:2:0:0:
243,257,253735,1,0,3:2:0:0:
243,257,253823,6,0,B|227:223|233:186|233:186|199:217|155:209,1,143.999995605469,0|0,3:2|0:2,0:2:0:0:
81,260,254179,2,0,P|95:204|99:134,1,95.9999970703126,10|0,0:2|0:2,0:2:0:0:
269,113,254533,1,2,3:2:0:0:
169,298,254711,1,0,3:2:0:0:
364,320,254889,1,10,0:2:0:0:
376,324,254977,1,2,0:2:0:0:
388,328,255066,1,2,0:2:0:0:
400,332,255155,1,2,0:2:0:0:
413,336,255244,6,0,P|472:326|540:309,1,95.9999970703126,4|0,3:2|3:2,0:2:0:0:
441,143,255599,2,0,P|422:220|414:269,1,95.9999970703126,10|0,0:2|0:2,0:2:0:0:
278,351,255954,1,2,3:2:0:0:
512,233,256130,1,2,3:2:0:0:
318,57,256308,1,8,0:2:0:0:
159,168,256485,6,0,P|222:163|293:156,1,95.9999970703126,2|0,3:2|3:2,0:2:0:0:
418,236,256840,1,2,3:2:0:0:
272,264,257018,1,10,0:2:0:0:
414,34,257196,2,0,P|410:82|406:130,1,95.9999970703126,2|0,3:2|3:2,0:2:0:0:
503,276,257551,1,2,3:2:0:0:
296,106,257728,1,10,0:2:0:0:
512,142,257907,1,2,3:2:0:0:
193,34,258084,6,0,P|212:113|228:190,1,143.999995605469,4|0,3:2|0:2,0:2:0:0:
182,241,258439,2,0,P|117:223|77:219,1,95.9999970703126,10|0,0:2|0:2,0:2:0:0:
228,315,258794,1,2,3:2:0:0:
142,141,258971,1,2,3:2:0:0:
390,256,259149,1,10,0:2:0:0:
467,48,259327,6,0,B|369:46|393:122|288:108,1,191.999994140625,6|2,3:2|3:2,0:2:0:0:
416,280,259859,2,0,P|427:211|450:152,1,95.9999970703126,10|2,0:2|0:2,0:2:0:0:
316,26,260214,1,0,3:2:0:0:
247,188,260392,1,0,3:2:0:0:
111,44,260569,2,0,P|157:57|204:62,1,95.9999970703126,8|0,0:2|0:2,0:2:0:0:
316,245,260924,6,0,P|242:223|138:205,1,167.999994873047,6|2,3:2|3:2,0:2:0:0:
48,138,261634,2,0,B|90:115|90:115|67:233,1,167.999994873047,10|2,0:2|3:2,0:2:0:0:
0,347,262344,2,0,P|74:325|178:307,1,167.999994873047,2|2,3:2|3:2,0:2:0:0:
296,353,263054,2,0,P|268:349|240:345,1,55.9999982910157,14|0,0:2|3:2,0:2:0:0:
179,204,263409,1,0,3:2:0:0:
255,258,263587,1,2,3:2:0:0:
262,172,263764,5,12,0:2:0:0:
262,172,264119,5,2,3:2:0:0:
51,313,264297,1,12,0:2:0:0:
51,313,264652,5,2,3:2:0:0:
337,368,264829,6,0,P|401:326|379:220,1,176.000005371094,4|0,3:2|0:2,0:2:0:0:
215,295,265362,1,0,3:2:0:0:
215,295,265540,2,0,P|268:281|309:279,1,88.000002685547,10|0,0:2|0:2,0:2:0:0:
456,169,265895,2,0,P|403:155|362:153,1,88.000002685547,0|0,3:2|0:2,0:2:0:0:
246,86,266250,1,10,0:2:0:0:
115,189,266427,1,2,0:2:0:0:
194,13,266605,6,0,P|215:88|236:213,1,176.000005371094,2|8,3:2|0:2,0:2:0:0:
82,334,267137,2,0,B|86:298|118:277|118:277|173:287|240:293,1,176.000005371094,2|0,3:2|3:2,0:2:0:0:
396,351,267670,2,0,P|384:296|382:250,1,88.000002685547,10|0,0:2|0:2,0:2:0:0:
457,80,268025,5,2,3:2:0:0:
328,175,268202,1,0,3:2:0:0:
484,213,268380,1,8,0:2:0:0:
327,76,268557,2,0,P|312:163|296:250,1,176.000005371094,0|0,3:2|3:2,0:2:0:0:
169,63,269090,1,10,0:2:0:0:
208,264,269267,1,2,3:2:0:0:
34,208,269445,6,0,P|79:156|178:190,1,176.000005371094,2|8,3:2|0:2,0:2:0:0:
290,345,269977,2,0,P|208:354|186:361,1,88.000002685547,2|0,3:2|0:2,0:2:0:0:
352,195,270332,1,2,3:2:0:0:
121,253,270510,2,0,P|164:261|207:263,1,88.000002685547,8|0,0:2|0:2,0:2:0:0:
447,167,270865,6,0,P|405:111|282:129,2,176.000005371094,6|8|2,3:2|0:2|3:2,0:2:0:0:
356,195,271753,1,2,3:2:0:0:
497,84,271930,1,10,0:2:0:0:
344,209,272108,2,0,P|358:269|361:320,1,88.000002685547,2|0,3:2|0:2,0:2:0:0:
468,247,272463,1,2,3:2:0:0:
268,271,272640,2,0,B|205:282|205:282|163:329|163:329|96:340,1,176.000005371094,10|0,0:2|3:2,0:2:0:0:
268,364,273173,1,0,3:2:0:0:
102,236,273350,1,8,0:2:0:0:
220,27,273528,6,0,P|204:133|198:224,1,176.000005371094,6|2,3:2|3:2,0:2:0:0:
124,42,274060,1,10,0:2:0:0:
350,140,274238,1,0,3:2:0:0:
186,227,274415,1,10,0:2:0:0:
446,160,274593,1,0,3:2:0:0:
232,129,274770,1,8,0:2:0:0:
478,320,274948,6,0,P|439:271|307:288,1,176.000005371094,4|2,3:2|3:2,0:2:0:0:
145,368,275480,2,0,P|225:353|344:342,1,176.000005371094,14|0,0:2|3:2,0:2:0:0:
182,209,276013,1,2,3:2:0:0:
41,338,276190,1,8,0:2:0:0:
54,113,276368,5,8,0:2:0:0:
54,113,276457,1,8,0:2:0:0:
54,113,276545,2,0,P|67:177|73:217,1,88.000002685547,6|0,3:2|0:2,0:2:0:0:
197,317,276900,2,0,P|204:273|213:230,1,88.000002685547,8|0,0:2|0:2,0:2:0:0:
376,55,277256,1,10,0:2:0:0:
331,255,277433,1,2,3:2:0:0:
232,70,277611,1,10,0:2:0:0:
477,144,277788,1,2,3:2:0:0:
221,191,277966,6,0,P|168:178|126:171,1,88.000002685547,8|2,0:2|0:2,0:2:0:0:
426,288,278321,2,0,P|479:275|521:268,1,88.000002685547,10|0,0:2|0:2,0:2:0:0:
337,157,278676,1,8,0:2:0:0:
235,347,278853,1,2,3:2:0:0:
431,199,279031,1,8,0:2:0:0:
211,105,279208,1,0,3:2:0:0:
464,35,279386,6,0,P|449:192|447:235,1,176.000005371094,10|8,0:2|0:2,0:2:0:0:
241,262,279918,1,2,3:2:0:0:
359,357,280096,2,0,P|348:292|337:249,1,88.000002685547,8|0,0:2|3:2,0:2:0:0:
183,116,280451,2,0,P|172:180|161:223,1,88.000002685547,8|0,0:2|3:2,0:2:0:0:
110,322,280806,5,8,0:2:0:0:
306,164,280983,1,0,3:2:0:0:
99,139,281161,2,0,P|56:149|13:158,1,88.000002685547,10|0,0:2|0:2,0:2:0:0:
241,262,281516,2,0,P|283:271|327:280,1,88.000002685547,10|0,0:2|3:2,0:2:0:0:
98,346,281871,2,0,P|89:302|79:259,1,88.000002685547,10|0,0:2|3:2,0:2:0:0:
155,26,282226,6,0,P|195:86|308:77,2,176.000005371094,14|8|8,0:2|0:2|0:2,0:2:0:0:
263,190,283114,1,2,3:2:0:0:
394,33,283291,1,10,0:2:0:0:
204,112,283469,1,2,3:2:0:0:
424,239,283646,6,0,L|417:171,3,44.0000013427735,10|2|2|2,0:2|0:2|0:2|0:2,0:2:0:0:
338,288,284001,2,0,L|345:220,3,44.0000013427735,10|2|2|2,0:2|0:2|0:2|0:2,0:2:0:0:
277,350,284356,5,10,0:2:0:0:
240,359,284444,1,2,3:2:0:0:
203,350,284533,1,2,3:2:0:0:
175,324,284622,1,2,3:2:0:0:
156,290,284711,1,10,0:2:0:0:
133,259,284799,1,2,3:2:0:0:
100,241,284888,1,2,3:2:0:0:
62,241,284977,1,2,3:2:0:0:
25,252,285066,6,0,B|19:207|-3:169|-3:169|41:137|88:140,1,176.000005371094,6|10,3:2|0:2,0:2:0:0:
233,81,285599,2,0,P|164:72|127:66,1,88.000002685547,2|8,3:2|0:2,0:2:0:0:
215,195,285954,2,0,P|284:186|321:180,1,88.000002685547,2|8,3:2|0:2,0:2:0:0:
439,70,286309,6,0,B|402:38|402:38|411:96|419:184,1,176.000005371094,6|0,3:2|3:2,0:2:0:0:
345,302,286841,1,8,0:2:0:0:
504,155,287019,1,2,3:2:0:0:
309,102,287196,1,10,0:2:0:0:
483,294,287374,1,2,3:2:0:0:
401,186,287551,1,2,3:2:0:0:
231,276,287729,1,2,3:2:0:0:
91,111,287906,6,0,P|150:174|241:161,1,167.999994873047,6|0,3:2|3:2,0:2:0:0:
335,54,288616,2,0,P|319:172|312:236,1,167.999994873047,8|0,0:2|3:2,0:2:0:0:
370,294,289327,1,0,3:2:0:0:
458,273,289504,2,0,L|508:270,2,27.9999991455078,2|2|2,0:2|0:2|0:2,0:2:0:0:
366,324,289859,1,2,3:2:0:0:
444,111,290037,2,0,L|454:166,1,55.9999982910157,12|2,0:2|3:2,0:2:0:0:
314,220,290392,2,0,L|324:164,1,55.9999982910157,2|2,3:2|3:2,0:2:0:0:
241,89,290747,5,14,0:2:0:0:
241,89,291102,5,0,3:2:0:0:
95,173,291279,1,12,0:2:0:0:
95,173,291634,5,0,3:2:0:0:
297,258,291812,1,4,3:2:0:0:
256,192,291900,12,2,295717,0:2:0:0:
