osu file format v14

[General]
AudioFilename: audio.mp3
AudioLeadIn: 0
PreviewTime: 65445
Countdown: 1
SampleSet: None
StackLeniency: 0.7
Mode: 0
LetterboxInBreaks: 0
WidescreenStoryboard: 1

[Editor]
DistanceSpacing: 0.8
BeatDivisor: 6
GridSize: 8
TimelineZoom: 1

[Metadata]
Title:Airman Ga Taosenai
TitleUnicode:Airman Ga Taosenai
Artist:Tsuko G.
ArtistUnicode:Tsuko G.
Creator:Drxvmik
Version:Test
Source:
Tags:
BeatmapID:1633056
BeatmapSetID:776069

[Difficulty]
HPDrainRate:6
CircleSize:4
OverallDifficulty:8
ApproachRate:9.5
SliderMultiplier:1.2
SliderTickRate:1

[Events]
//Background and Video events
0,0,"277d259d833d120e8191b6a55df3aba9.jpg",0,0
//Break Periods
2,44242,45326
//Storyboard Layer 0 (Background)
//Storyboard Layer 1 (Fail)
//Storyboard Layer 2 (Pass)
//Storyboard Layer 3 (Foreground)
//Storyboard Sound Samples

[TimingPoints]
2015.56034801925,164.383561643836,4,1,0,64,1,0
4086,-181.818181818181,4,1,0,56,0,0
4892,-90.9090909090909,4,1,0,60,0,0
11960,-66.6666666666667,4,1,0,100,0,0
12316,-50,4,1,0,100,0,0
16433,-133.333333333333,4,1,0,100,0,0
17211,-66.6666666666667,4,1,0,60,0,0
23501,-133.333333333333,4,1,0,60,0,0
24179,-66.6666666666667,4,1,0,60,0,0
30224,-50,4,1,0,60,0,0
42404,-100,4,1,0,60,0,0
43259,-200,4,1,0,60,0,0
45007,-66.6666666666667,4,1,0,60,0,0
64630,-100,4,3,0,100,0,1
71738,-50,4,3,0,100,0,1
83388,-200,4,3,0,100,0,1
85360,-133.333333333333,4,2,2,17,0,0
107933,-66.6666666666667,4,1,0,60,0,0
127659,-153.846153846153,4,1,0,60,0,0
131720,-66.6666666666667,4,1,0,60,0,0
136662,-50,4,3,2,100,0,1
145408,-133.333333333333,4,3,2,100,0,1
146358,-50,4,3,2,100,0,1
156645,-50,4,3,2,100,0,0
184479,-50,4,3,2,100,0,1
210990,-50,4,2,2,5,0,0

[HitObjects]
48,120,1659,6,0,L|304:144,1,240
96,256,2316,1,0,0:0:0:0:
256,168,2481,1,0,0:0:0:0:
72,304,2673,1,0,0:0:0:0:
368,96,2755,2,0,P|400:96|448:160,1,100
272,184,3111,2,0,P|160:176|128:192,1,140
112,136,3604,5,0,0:0:0:0:
135,118,3631,1,0,0:0:0:0:
161,102,3658,1,0,0:0:0:0:
189,90,3686,1,0,0:0:0:0:
217,81,3713,1,0,0:0:0:0:
256,64,4015,6,0,P|312:80|416:104,1,160
360,200,4481,2,0,L|192:192,1,165.000005035401
168,120,5385,2,0,L|208:112,47,22.0000006713867
216,112,6919,5,0,0:0:0:0:
244,128,6960,1,0,0:0:0:0:
272,146,7001,1,0,0:0:0:0:
300,163,7042,1,0,0:0:0:0:
328,180,7083,1,0,0:0:0:0:
356,198,7124,1,0,0:0:0:0:
384,216,7165,1,0,0:0:0:0:
408,56,7221,2,0,L|440:96,1,44.0000013427735
128,96,7440,2,0,L|96:120,1,22.0000006713867
184,184,7659,2,0,L|208:112,1,66.0000020141602
232,96,8015,6,0,P|288:112|328:160,1,110.000003356934
256,216,8371,2,0,P|232:200|112:216,1,154.000004699707
64,88,8947,2,0,L|160:120,3,88.000002685547
328,96,9330,2,0,L|408:136,3,88.000002685547
176,232,9686,2,0,L|96:240,6,66.0000020141602
352,88,10344,6,0,P|416:80|456:128,1,132.00000402832
136,200,10645,2,0,L|80:280,1,88.000002685547
16,64,11029,5,0,0:0:0:0:
48,64,11070,1,0,0:0:0:0:
81,68,11111,1,0,0:0:0:0:
113,78,11152,1,0,0:0:0:0:
136,88,11303,2,0,P|192:80|272:136,1,154.000004699707
240,176,12097,2,0,B|40:184|48:184,1,180.000006866455
176,96,12508,2,0,L|352:152,1,160
240,240,12810,2,0,L|120:224,1,120
160,120,13111,2,0,L|240:136,1,80
304,112,14097,6,0,L|256:88,1,40
240,168,14234,2,0,L|280:200,1,40
304,96,14371,2,0,L|256:72,1,40
224,184,14536,2,0,L|296:224,1,80
288,80,14727,2,0,L|240:56,1,40
224,184,14919,2,0,L|272:232,1,40
48,136,15522,6,0,P|160:216|200:264,5,200
232,144,16344,2,0,P|288:232|360:240,1,160
392,176,16755,2,0,P|336:128|232:72,1,180.000006866455
128,136,17303,2,0,P|160:144|248:184,1,120.000004577637
48,200,17851,1,0,0:0:0:0:
200,120,18015,1,0,0:0:0:0:
72,192,18207,1,0,0:0:0:0:
176,144,18344,1,0,0:0:0:0:
80,192,18536,5,0,0:0:0:0:
200,144,18673,1,0,0:0:0:0:
160,272,19111,1,0,0:0:0:0:
256,128,19248,1,0,0:0:0:0:
176,272,19440,1,0,0:0:0:0:
232,128,19604,1,0,0:0:0:0:
232,256,19796,1,0,0:0:0:0:
40,168,20700,5,0,0:0:0:0:
304,136,20810,1,0,0:0:0:0:
104,296,21001,1,0,0:0:0:0:
296,216,21138,1,0,0:0:0:0:
312,128,21275,2,0,P|352:120|392:152,1,90.0000034332277
208,208,21686,2,0,P|160:184|80:168,6,120.000004577637
96,144,22399,5,0,0:0:0:0:
123,132,22426,1,0,0:0:0:0:
151,121,22453,1,0,0:0:0:0:
179,110,22481,1,0,0:0:0:0:
207,99,22508,1,0,0:0:0:0:
432,104,22645,6,0,L|496:200,1,90.0000034332277
264,184,23029,2,0,L|192:200,4,60.0000022888184
160,232,24289,5,0,0:0:0:0:
136,168,24426,1,0,0:0:0:0:
176,240,24590,1,0,0:0:0:0:
200,176,24727,1,0,0:0:0:0:
176,216,24892,1,0,0:0:0:0:
224,168,25056,1,0,0:0:0:0:
184,208,25166,1,0,0:0:0:0:
248,160,25303,1,0,0:0:0:0:
184,200,25440,1,0,0:0:0:0:
232,168,25549,1,0,0:0:0:0:
376,96,25714,6,0,L|424:136,1,60.0000022888184
280,176,26042,2,0,P|64:176|16:208,1,270.000010299683
16,208,26508,1,0,0:0:0:0:
26,180,26535,1,0,0:0:0:0:
44,155,26562,1,0,0:0:0:0:
67,136,26590,1,0,0:0:0:0:
94,124,26617,1,0,0:0:0:0:
124,119,26644,1,0,0:0:0:0:
312,64,26782,6,0,P|368:80|400:112,1,90.0000034332277
208,168,27138,2,0,P|152:160|112:184,1,90.0000034332277
104,176,27358,5,0,0:0:0:0:
77,188,27385,1,0,0:0:0:0:
56,210,27412,1,0,0:0:0:0:
43,237,27440,1,0,0:0:0:0:
42,267,27467,1,0,0:0:0:0:
50,295,27494,1,0,0:0:0:0:
68,319,27522,1,0,0:0:0:0:
32,136,27659,5,0,0:0:0:0:
208,120,27796,1,0,0:0:0:0:
104,232,28590,1,0,0:0:0:0:
224,160,28755,1,0,0:0:0:0:
144,232,28892,1,0,0:0:0:0:
240,152,29084,1,0,0:0:0:0:
176,200,29248,1,0,0:0:0:0:
232,144,29412,1,0,0:0:0:0:
168,216,29604,1,0,0:0:0:0:
256,136,29741,1,0,0:0:0:0:
192,192,29905,1,0,0:0:0:0:
264,144,30070,1,0,0:0:0:0:
232,88,30262,6,0,P|280:80|328:72,1,80
264,176,30618,2,0,L|184:200,1,80
136,128,31330,5,0,0:0:0:0:
264,96,31495,1,0,0:0:0:0:
96,216,31905,1,0,0:0:0:0:
280,136,32042,1,0,0:0:0:0:
120,256,32453,1,0,0:0:0:0:
272,184,32590,1,0,0:0:0:0:
160,272,33001,1,0,0:0:0:0:
304,208,33138,1,0,0:0:0:0:
184,96,33495,1,0,0:0:0:0:
184,96,33659,1,0,0:0:0:0:
400,88,34070,1,0,0:0:0:0:
400,88,34234,1,0,0:0:0:0:
48,200,34837,5,0,0:0:0:0:
48,200,34947,1,0,0:0:0:0:
240,176,35412,1,0,0:0:0:0:
240,176,35577,1,0,0:0:0:0:
240,176,35714,1,0,0:0:0:0:
312,104,36097,2,0,P|368:88|472:112,1,160
104,296,36399,2,0,L|-32:208,1,160
128,128,36727,2,0,L|408:200,1,280
120,200,37111,5,0,0:0:0:0:
122,239,37138,1,0,0:0:0:0:
140,275,37165,1,0,0:0:0:0:
171,300,37193,1,0,0:0:0:0:
208,312,37220,1,0,0:0:0:0:
248,309,37247,1,0,0:0:0:0:
283,290,37275,1,0,0:0:0:0:
308,260,37302,1,0,0:0:0:0:
320,222,37330,1,0,0:0:0:0:
316,182,37357,1,0,0:0:0:0:
296,147,37384,1,0,0:0:0:0:
265,123,37412,1,0,0:0:0:0:
227,112,37439,1,0,0:0:0:0:
192,144,37631,6,0,P|120:160|96:176,5,80
416,104,38015,6,0,L|488:152,1,80
264,240,38262,2,0,L|104:216,1,160
96,200,39522,6,0,L|192:232,2,80
112,88,39686,2,0,L|216:112,1,80
96,208,39823,2,0,L|176:224,1,80
96,56,39960,2,0,L|200:104,1,80
88,224,40097,2,0,L|144:248,1,40
136,80,40453,6,0,P|224:104|288:168,1,160
240,232,40837,2,0,P|192:208|112:216,1,120
112,176,41851,5,0,0:0:0:0:
232,104,41988,1,0,0:0:0:0:
72,168,42316,1,0,0:0:0:0:
232,72,42508,1,0,0:0:0:0:
216,184,42673,1,0,0:0:0:0:
72,184,42864,1,0,0:0:0:0:
256,192,43029,12,0,44042,0:0:0:0:
168,96,45851,6,0,L|312:160,1,150.000005722046
168,224,46097,2,0,P|120:208|88:224,1,60.0000022888184
320,88,46289,2,0,L|368:112,1,30.0000011444092
192,216,46508,2,0,P|32:176|24:176,1,150.000005722046
112,104,46727,5,0,0:0:0:0:
136,86,46754,1,0,0:0:0:0:
164,77,46781,1,0,0:0:0:0:
194,78,46809,1,0,0:0:0:0:
222,89,46836,1,0,0:0:0:0:
320,112,46864,2,0,P|400:232|368:272,1,210.000008010865
240,216,47221,2,0,P|192:208|96:216,1,120.000004577637
208,56,47412,6,0,L|312:80,1,90.0000034332277
272,192,47686,2,0,L|192:176,1,60.0000022888184
208,112,47851,2,0,L|320:104,1,90.0000034332277
264,216,47988,2,0,L|200:208,1,60.0000022888184
216,72,48152,2,0,L|304:72,1,60.0000022888184
296,216,48316,2,0,L|208:216,1,60.0000022888184
232,176,48563,5,0,0:0:0:0:
205,162,48590,1,0,0:0:0:0:
177,152,48617,1,0,0:0:0:0:
147,145,48645,1,0,0:0:0:0:
117,143,48672,1,0,0:0:0:0:
87,144,48699,1,0,0:0:0:0:
368,96,48864,6,0,P|392:152|416:208,1,120.000004577637
232,200,49221,2,0,P|168:184|104:192,1,120.000004577637
192,96,49577,2,0,P|288:64|304:72,1,120.000004577637
48,144,50097,2,0,L|40:272,3,120.000004577637
304,144,50645,2,0,L|296:272,4,120.000004577637
80,96,51303,2,0,L|64:200,4,90.0000034332277
256,192,52810,12,0,54645,0:0:0:0:
64,184,55303,5,0,0:0:0:0:
176,128,55495,1,0,0:0:0:0:
64,192,55659,1,0,0:0:0:0:
168,128,55878,1,0,0:0:0:0:
72,176,56070,1,0,0:0:0:0:
144,128,56262,5,0,0:0:0:0:
152,192,56618,1,0,0:0:0:0:
88,200,56892,1,0,0:0:0:0:
176,88,57275,1,0,0:0:0:0:
208,168,57549,1,0,0:0:0:0:
24,128,57823,1,0,0:0:0:0:
264,128,58125,1,0,0:0:0:0:
152,200,58453,1,0,0:0:0:0:
184,128,58782,1,0,0:0:0:0:
136,256,59768,5,0,0:0:0:0:
224,160,59905,1,0,0:0:0:0:
272,160,60042,5,0,0:0:0:0:
168,184,60207,1,0,0:0:0:0:
64,200,60536,5,0,0:0:0:0:
176,120,60618,1,0,0:0:0:0:
184,200,60700,1,0,0:0:0:0:
96,104,60810,1,0,0:0:0:0:
248,120,60892,1,0,0:0:0:0:
72,216,61001,1,0,0:0:0:0:
168,56,61084,1,0,0:0:0:0:
184,176,61166,1,0,0:0:0:0:
136,144,61303,1,0,0:0:0:0:
152,240,61440,5,0,0:0:0:0:
272,104,61549,1,0,0:0:0:0:
288,200,61631,1,0,0:0:0:0:
192,128,61741,1,0,0:0:0:0:
256,192,62426,12,0,64399,0:0:0:0:
24,112,64837,6,0,P|80:120|168:144,1,140
352,200,65248,2,0,L|400:104,1,100
368,80,65549,1,0,0:0:0:0:
348,78,65576,1,0,0:0:0:0:
328,78,65603,1,0,0:0:0:0:
308,80,65631,1,0,0:0:0:0:
288,83,65658,1,0,0:0:0:0:
268,87,65685,1,0,0:0:0:0:
249,92,65713,1,0,0:0:0:0:
230,98,65740,1,0,0:0:0:0:
211,106,65768,1,0,0:0:0:0:
264,168,65960,2,0,P|312:160|360:176,2,100
104,192,67193,5,0,0:0:0:0:
200,112,67358,1,0,0:0:0:0:
128,176,67522,1,0,0:0:0:0:
216,112,67686,1,0,0:0:0:0:
152,168,67905,1,0,0:0:0:0:
264,104,68015,1,0,0:0:0:0:
184,176,68207,1,0,0:0:0:0:
280,112,68399,1,0,0:0:0:0:
160,208,68563,1,0,0:0:0:0:
200,192,68837,2,0,L|264:240,1,80
