osu file format v14

[General]
AudioFilename: audio.mp3
AudioLeadIn: 0
PreviewTime: 58139
Countdown: 0
SampleSet: Soft
StackLeniency: 0.7
Mode: 0
LetterboxInBreaks: 0
WidescreenStoryboard: 1

[Editor]
Bookmarks: 1814,10814,18914,20414,30014,39614,49214,56414,58814,78014,82814,91064,93614
DistanceSpacing: 1.1
BeatDivisor: 4
GridSize: 4
TimelineZoom: 2.2

[Metadata]
Title:Hana Saku Iro wa Koi no Gotoshi
TitleUnicode:華咲く色は恋の如し
Artist:Tsukiyama Sae
ArtistUnicode:築山さえ
Creator:Log Off Now
Version:kwk's Hard
Source:鬼がくる。~姉がひん死でピンチです~
Tags:oni ga kuru. ~ane ga hinshi de pinchi desu~ onikuru 鬼くる eroge visual novel vn op opening enishi soft hirari kwk
BeatmapID:1577479
BeatmapSetID:744883

[Difficulty]
HPDrainRate:5
CircleSize:4
OverallDifficulty:6
ApproachRate:7.8
SliderMultiplier:1.2
SliderTickRate:1

[Events]
//Background and Video events
0,0,"kwkbg.jpg",0,0
Video,0,"hirari.avi"
//Break Periods
//Storyboard Layer 0 (Background)
//Storyboard Layer 1 (Fail)
//Storyboard Layer 2 (Pass)
//Storyboard Layer 3 (Foreground)
//Storyboard Sound Samples

[TimingPoints]
1214,300,4,2,1,35,1,0
2339,-125,4,2,2,35,0,0
2489,-125,4,2,1,35,0,0
4814,-125,4,2,3,35,0,0
4889,-125,4,2,1,35,0,0
7214,-125,4,2,2,35,0,0
7289,-125,4,2,1,35,0,0
10814,-83.3333333333333,4,2,1,42,0,0
19814,-83.3333333333333,4,2,1,35,0,0
20414,-83.3333333333333,4,2,1,45,0,0
39614,-125,4,2,1,45,0,0
40814,-125,4,2,3,45,0,0
40889,-125,4,2,1,45,0,0
45614,-125,4,2,3,45,0,0
45689,-125,4,2,1,45,0,0
49214,-100,4,2,1,45,0,0
54014,-90.9090909090909,4,2,1,45,0,0
56714,-90.9090909090909,4,2,1,35,0,0
57014,-90.9090909090909,4,2,1,45,0,0
57314,-90.9090909090909,4,2,1,58,0,0
58814,-83.3333333333333,4,2,1,58,0,1
60014,-83.3333333333333,4,2,3,58,0,1
60089,-83.3333333333333,4,2,1,58,0,1
69614,-83.3333333333333,4,2,3,58,0,1
69689,-83.3333333333333,4,2,1,58,0,1
80714,-83.3333333333333,4,2,1,38,0,1
81014,-83.3333333333333,4,2,1,44,0,1
81314,-83.3333333333333,4,2,1,52,0,1
81614,-83.3333333333333,4,2,1,58,0,1
82814,-125,4,2,1,30,0,0
87614,-125,4,2,2,30,0,0
87689,-125,4,2,1,30,0,0
92414,-100,4,2,1,15,0,0
93014,-100,4,2,1,10,0,0
93614,-100,4,2,1,5,0,0

[Colours]
Combo1 : 94,154,255
Combo2 : 255,43,43
Combo3 : 255,119,119
Combo4 : 155,138,236

[HitObjects]
49,49,2414,6,0,P|145:33|202:101,1,192,2|2,0:0|0:0,0:0:0:0:
188,183,3314,1,2,0:0:0:0:
271,159,3614,2,0,L|374:135,1,96,2|0,0:0|0:0,0:0:0:0:
407,62,4214,1,2,0:0:0:0:
501,206,4814,6,0,P|514:251|499:300,1,96,2|2,0:0|0:0,0:0:0:0:
425,338,5414,1,2,0:0:0:0:
342,311,5714,1,2,0:0:0:0:
263,346,6014,2,0,L|149:355,1,96,2|0,0:0|0:0,0:0:0:0:
81,365,6614,1,2,0:0:0:0:
115,285,6914,1,2,0:0:0:0:
147,205,7214,6,0,L|126:109,1,96,2|0,0:0|0:0,0:0:0:0:
197,61,7814,1,2,0:0:0:0:
271,18,8114,1,2,0:0:0:0:
355,33,8414,2,0,P|405:20|456:31,1,96,2|0,0:0|0:0,0:0:0:0:
494,100,9014,2,0,L|508:210,1,96,2|0,0:0|0:0,0:0:0:0:
455,265,9614,1,2,0:0:0:0:
24,356,10814,6,0,P|93:373|155:334,1,143.999995605469,6|8,1:2|0:0,0:0:0:0:
120,196,11414,2,0,L|190:208,1,71.9999978027344,2|0,1:2|1:0,0:0:0:0:
265,234,11714,2,0,L|342:222,1,71.9999978027344,10|0,0:0|0:0,0:0:0:0:
402,266,12014,6,0,P|394:168|350:147,1,143.999995605469,2|8,1:2|0:0,0:0:0:0:
283,152,12464,1,0,1:0:0:0:
211,118,12614,2,0,L|205:22,1,71.9999978027344,2|0,0:0|1:0,0:0:0:0:
129,26,12914,2,0,L|81:13,2,35.9999989013672,8|8|8,0:0|0:0|0:0,0:0:0:0:
56,27,13214,6,0,P|22:88|43:155,1,143.999995605469,6|10,1:2|0:0,0:0:0:0:
120,174,13664,1,2,0:0:0:0:
197,159,13814,2,0,L|292:132,1,71.9999978027344,2|0,1:2|1:0,0:0:0:0:
345,136,14114,2,0,L|431:175,1,71.9999978027344,10|0,0:0|0:0,0:0:0:0:
475,211,14414,6,0,P|472:290|390:328,1,143.999995605469,2|8,1:2|0:0,0:0:0:0:
273,275,15014,1,2,0:0:0:0:
197,299,15164,1,8,0:0:0:0:
223,373,15314,1,8,0:0:0:0:
299,349,15464,1,8,0:0:0:0:
273,275,15614,6,0,L|224:119,1,143.999995605469,6|8,1:2|0:0,0:0:0:0:
138,19,16214,2,0,L|151:107,1,71.9999978027344,2|0,1:2|1:0,0:0:0:0:
70,105,16514,2,0,L|67:194,1,71.9999978027344,10|0,0:0|0:0,0:0:0:0:
12,233,16814,6,0,P|85:207|157:234,1,143.999995605469,2|8,1:2|0:0,0:0:0:0:
156,376,17414,2,0,L|227:366,1,71.9999978027344,2|0,0:0|1:0,0:0:0:0:
286,314,17714,2,0,L|373:298,1,71.9999978027344,10|0,0:0|1:0,0:0:0:0:
435,217,18014,6,0,L|414:143,1,71.9999978027344,14|0,1:2|0:0,0:0:0:0:
428,69,18314,1,10,0:2:0:0:
356,33,18464,1,0,1:2:0:0:
300,89,18614,1,10,0:2:0:0:
337,161,18764,1,2,1:2:0:0:
415,147,18914,1,14,0:0:0:0:
0,49,19964,5,0,1:2:0:0:
0,49,20114,1,8,0:0:0:0:
69,191,20414,6,0,L|232:172,1,143.999995605469,4|8,1:2|0:0,0:0:0:0:
306,47,21014,2,0,L|329:124,1,71.9999978027344,0|0,1:2|1:0,0:0:0:0:
405,109,21314,2,0,L|411:226,1,71.9999978027344,8|2,0:0|0:0,0:0:0:0:
469,232,21614,6,0,P|416:263|341:219,1,143.999995605469,2|8,1:2|0:0,0:0:0:0:
193,194,22214,1,2,1:2:0:0:
205,272,22364,1,2,1:2:0:0:
184,348,22514,1,10,0:0:0:0:
113,384,22664,1,0,0:0:0:0:
36,364,22814,6,0,L|-15:224,1,143.999995605469,2|8,1:2|0:0,0:0:0:0:
48,82,23414,2,0,P|83:68|121:72,1,71.9999978027344,2|0,1:2|1:0,0:0:0:0:
176,122,23714,2,0,P|211:124|244:110,1,71.9999978027344,10|0,0:0|0:0,0:0:0:0:
280,39,24014,5,2,1:2:0:0:
415,16,24314,2,0,P|432:52|432:102,1,71.9999978027344,8|0,0:0|0:0,0:0:0:0:
421,162,24614,1,2,1:2:0:0:
411,240,24764,1,2,1:2:0:0:
441,313,24914,2,0,L|536:301,1,71.9999978027344,10|0,0:2|0:2,0:0:0:0:
378,364,25214,6,0,L|284:356,1,71.9999978027344,2|0,1:2|0:0,0:0:0:0:
227,347,25514,2,0,L|140:362,1,71.9999978027344,8|0,0:0|0:0,0:0:0:0:
77,371,25814,1,2,1:2:0:0:
23,313,25964,1,0,1:0:0:0:
42,236,26114,1,10,0:0:0:0:
183,164,26414,6,0,P|248:211|257:286,1,143.999995605469,2|8,1:2|0:0,0:0:0:0:
398,349,27014,2,0,P|388:300|399:256,1,71.9999978027344,2|0,1:2|1:0,0:0:0:0:
449,224,27314,2,0,P|451:188|441:153,1,71.9999978027344,8|0,0:0|0:0,0:0:0:0:
394,89,27614,6,0,L|310:62,1,71.9999978027344,6|0,1:2|0:0,0:0:0:0:
272,126,27914,2,0,P|188:129|187:129,1,71.9999978027344,0|0,1:0|1:0,0:0:0:0:
126,159,28214,1,0,1:0:0:0:
106,235,28364,1,8,0:0:0:0:
158,294,28514,1,8,0:0:0:0:
237,293,28664,1,8,0:0:0:0:
285,230,28814,5,0,1:2:0:0:
339,81,29114,2,0,L|327:-21,2,71.9999978027344,0|0|2,1:0|0:0|1:2,0:0:0:0:
388,143,29564,1,8,0:0:0:0:
427,74,29714,1,8,0:0:0:0:
469,140,29864,1,8,0:0:0:0:
503,211,30014,6,0,L|487:281,2,71.9999978027344,4|0|8,1:2|0:0|0:0,0:0:0:0:
348,251,30614,2,0,L|256:231,1,71.9999978027344,2|0,1:2|1:0,0:0:0:0:
202,261,30914,2,0,L|104:242,1,71.9999978027344,10|2,0:0|0:0,0:0:0:0:
212,343,31214,6,0,L|304:323,1,71.9999978027344,0|0,1:2|0:0,0:0:0:0:
358,353,31514,2,0,L|456:334,1,71.9999978027344,10|0,0:0|0:0,0:0:0:0:
479,278,31814,1,2,1:2:0:0:
451,203,31964,1,0,1:0:0:0:
488,132,32114,2,0,L|417:122,1,71.9999978027344,10|0,0:0|0:0,0:0:0:0:
362,64,32414,6,0,P|336:128|372:188,1,143.999995605469,2|8,1:2|0:0,0:0:0:0:
398,263,32864,1,0,0:0:0:0:
358,331,33014,2,0,P|321:345|272:335,1,71.9999978027344,2|0,1:2|1:0,0:0:0:0:
243,277,33314,2,0,P|198:277|167:291,1,71.9999978027344,8|0,0:0|0:0,0:0:0:0:
111,337,33614,6,0,B|83:258,1,71.9999978027344,2|0,1:2|0:0,0:0:0:0:
9,278,33914,2,0,L|26:204,1,71.9999978027344,8|0,0:0|0:0,0:0:0:0:
102,188,34214,1,2,1:2:0:0:
45,131,34364,1,0,1:0:0:0:
121,109,34514,2,0,L|203:122,1,71.9999978027344,10|0,0:0|0:0,0:0:0:0:
259,162,34814,6,0,P|259:78|200:37,1,143.999995605469,8|8,0:0|0:0,0:0:0:0:
139,26,35264,1,0,1:0:0:0:
65,55,35414,2,0,L|78:141,1,71.9999978027344,8|0,0:0|0:0,0:0:0:0:
28,190,35714,2,0,L|21:267,1,71.9999978027344,0|0,1:0|0:0,0:0:0:0:
7,339,36014,5,12,0:0:0:0:
83,318,36164,1,0,1:0:0:0:
158,343,36314,2,0,B|237:319,1,71.9999978027344,8|0,0:0|1:0,0:0:0:0:
303,301,36614,1,8,0:0:0:0:
370,341,36764,1,0,0:0:0:0:
446,321,36914,2,0,L|454:241,1,71.9999978027344,0|0,1:0|0:0,0:0:0:0:
512,183,37214,6,0,P|445:158|376:203,1,143.999995605469,0|8,1:0|3:2,0:0:0:0:
331,249,37664,1,0,3:0:0:0:
253,232,37814,2,0,P|231:194|227:148,1,71.9999978027344,0|0,1:0|3:0,0:0:0:0:
238,88,38114,1,8,3:2:0:0:
304,45,38264,1,0,3:0:0:0:
383,41,38414,6,0,L|464:54,1,71.9999978027344,2|0,1:2|1:2,0:0:0:0:
512,119,38714,2,0,L|441:135,1,71.9999978027344,10|0,0:0|0:0,0:0:0:0:
384,190,39014,2,0,P|367:267|405:335,1,143.999995605469,0|0,1:0|0:0,0:0:0:0:
485,252,39614,5,6,1:2:0:0:
432,117,40064,1,0,1:0:0:0:
432,117,40214,1,0,1:0:0:0:
395,205,40514,1,8,0:0:0:0:
338,127,40814,5,2,1:2:0:0:
294,264,41264,1,0,1:0:0:0:
294,264,41414,1,0,1:0:0:0:
250,178,41714,1,4,0:3:0:0:
203,262,42014,5,4,1:2:0:0:
143,130,42464,1,0,1:0:0:0:
143,130,42614,1,0,1:0:0:0:
89,210,42914,1,8,0:0:0:0:
49,122,43214,5,0,1:0:0:0:
4,258,43664,1,0,1:0:0:0:
4,258,43814,1,8,0:0:0:0:
91,297,44114,1,8,0:3:0:0:
168,240,44414,5,4,1:2:0:0:
159,144,44714,1,0,1:0:0:0:
247,107,45014,1,0,0:0:0:0:
311,180,45314,1,8,0:0:0:0:
261,262,45614,6,0,L|293:362,1,96,2|0,1:2|1:0,0:0:0:0:
339,373,46064,1,8,0:0:0:0:
384,345,46214,2,0,L|388:288,1,48,0|0,0:0|1:0,0:0:0:0:
430,266,46514,2,0,L|430:202,1,48,8|0,0:0|0:0,0:0:0:0:
461,175,46814,6,0,L|461:69,2,96,4|0|0,1:2|1:0|0:0,0:0:0:0:
430,218,47564,1,0,1:0:0:0:
380,206,47714,2,0,L|380:149,1,48,8|0,0:0|0:0,0:0:0:0:
377,105,48014,6,0,P|311:91|278:109,1,96,4|8,3:2|3:2,0:0:0:0:
262,148,48464,1,8,3:2:0:0:
273,199,48614,2,0,L|290:269,1,48,8|8,3:3|3:3,0:0:0:0:
296,296,48914,1,4,0:3:0:0:
277,345,49064,1,4,0:3:0:0:
231,371,49214,6,0,L|154:377,1,60,4|0,1:2|0:0,0:0:0:0:
191,294,49514,2,0,L|128:293,1,60,0|0,1:0|0:0,0:0:0:0:
85,216,49814,2,0,L|162:213,1,60,0|0,1:0|0:0,0:0:0:0:
117,135,50114,2,0,L|179:127,1,60,8|0,0:0|0:0,0:0:0:0:
230,48,50414,6,0,L|93:39,1,120,4|0,1:2|1:0,0:0:0:0:
54,94,50864,1,0,0:0:0:0:
34,18,51014,1,0,1:0:0:0:
17,173,51314,1,8,0:0:0:0:
147,88,51614,6,0,L|143:147,1,60,4|0,1:2|0:0,0:0:0:0:
233,174,51914,2,0,L|225:113,1,60,0|0,1:0|0:0,0:0:0:0:
312,71,52214,2,0,L|308:130,1,60,0|0,1:0|0:0,0:0:0:0:
398,157,52514,2,0,L|390:96,1,60,0|0,1:0|0:0,0:0:0:0:
463,62,52814,6,0,L|478:184,1,120,8|8,0:3|0:3,0:0:0:0:
491,257,53264,1,4,0:3:0:0:
417,230,53414,1,8,0:3:0:0:
255,240,53714,1,8,0:0:0:0:
185,273,53864,1,0,0:0:0:0:
113,241,54014,6,0,P|107:197|130:158,1,66.0000020141602,4|0,1:2|1:0,0:0:0:0:
179,132,54314,1,8,0:0:0:0:
256,148,54464,1,0,0:0:0:0:
322,105,54614,2,0,P|327:62|304:12,1,66.0000020141602,0|0,1:0|1:0,0:0:0:0:
245,16,54914,1,8,0:0:0:0:
174,51,55064,1,0,0:0:0:0:
179,132,55214,6,0,L|195:204,1,66.0000020141602,0|0,1:0|1:0,0:0:0:0:
203,275,55514,1,8,0:0:0:0:
265,225,55664,1,8,0:0:0:0:
339,252,55814,1,0,1:0:0:0:
353,330,55964,1,0,1:0:0:0:
292,381,56114,1,8,0:0:0:0:
218,353,56264,1,0,0:0:0:0:
203,275,56414,6,0,L|177:129,1,132.00000402832,0|8,1:0|0:0,0:0:0:0:
167,66,56864,1,8,0:0:0:0:
240,94,57014,2,0,L|313:55,1,66.0000020141602,8|8,0:0|0:0,0:0:0:0:
367,23,57314,1,8,0:0:0:0:
373,101,57464,1,8,0:0:0:0:
440,58,57614,2,0,P|487:47|542:66,2,99.0000030212403,0|0|0,1:2|1:2|1:2,0:0:0:0:
213,12,58814,6,0,L|223:103,1,71.9999978027344,4|0,1:2|0:0,0:0:0:0:
141,90,59114,2,0,L|146:161,1,71.9999978027344,8|0,0:0|0:0,0:0:0:0:
105,229,59414,1,2,1:2:0:0:
143,297,59564,1,0,1:0:0:0:
188,232,59714,2,0,P|228:221|274:230,1,71.9999978027344,10|0,0:0|0:0,0:0:0:0:
311,282,60014,6,0,P|376:296|431:222,1,143.999995605469,2|8,1:2|0:0,0:0:0:0:
434,87,60614,1,2,1:2:0:0:
393,18,60764,1,0,1:0:0:0:
355,87,60914,2,0,P|307:90|267:66,1,71.9999978027344,10|0,0:0|0:0,0:0:0:0:
210,55,61214,6,0,P|203:88|225:135,1,71.9999978027344,6|0,1:2|0:0,0:0:0:0:
151,172,61514,2,0,P|176:194|227:199,1,71.9999978027344,10|0,0:0|0:0,0:0:0:0:
284,169,61814,1,2,1:2:0:0:
361,187,61964,1,0,1:0:0:0:
399,256,62114,2,0,P|405:301|392:341,1,71.9999978027344,10|0,0:0|0:0,0:0:0:0:
325,357,62414,6,0,L|177:321,1,143.999995605469,2|10,1:2|0:0,0:0:0:0:
48,243,63014,1,0,1:2:0:0:
75,168,63164,1,2,1:2:0:0:
131,224,63314,2,0,P|173:221|208:201,1,71.9999978027344,10|8,0:0|0:0,0:0:0:0:
278,214,63614,6,0,P|265:140|292:67,1,143.999995605469,6|8,1:2|0:0,0:0:0:0:
444,71,64214,2,0,L|455:154,1,71.9999978027344,2|0,1:2|1:2,0:0:0:0:
497,209,64514,2,0,L|456:303,1,71.9999978027344,10|0,0:0|0:0,0:0:0:0:
452,351,64814,6,0,P|386:326|315:336,1,143.999995605469,2|8,1:2|0:0,0:0:0:0:
161,374,65414,1,2,1:2:0:0:
82,380,65564,1,0,1:0:0:0:
23,326,65714,2,0,L|42:243,1,71.9999978027344,10|0,0:0|0:0,0:0:0:0:
92,196,66014,6,0,P|130:190|165:206,1,71.9999978027344,2|0,1:2|0:0,0:0:0:0:
223,250,66314,2,0,P|254:253|305:238,1,71.9999978027344,14|0,0:0|0:0,0:0:0:0:
351,189,66614,1,2,1:2:0:0:
370,265,66764,1,0,1:2:0:0:
429,213,66914,2,0,L|454:138,1,71.9999978027344,14|0,0:0|0:0,0:0:0:0:
479,70,67214,5,2,1:2:0:0:
429,6,67364,1,0,1:0:0:0:
400,80,67514,1,8,0:0:0:0:
350,12,67664,1,8,0:3:0:0:
321,85,67814,2,0,L|316:122,7,35.9999989013672,0|0|8|8|8|8|8|8,1:2|0:0|0:0|0:0|0:0|0:0|0:0|0:0,0:0:0:0:
277,127,68414,6,0,L|299:207,1,71.9999978027344,6|0,1:2|0:0,0:0:0:0:
221,222,68714,2,0,L|245:308,1,71.9999978027344,8|0,0:0|0:0,0:0:0:0:
190,353,69014,1,2,1:2:0:0:
267,368,69164,1,0,1:0:0:0:
315,305,69314,2,0,P|359:297|400:308,1,71.9999978027344,10|0,0:0|0:0,0:0:0:0:
438,361,69614,6,0,P|413:299|441:203,1,143.999995605469,2|8,1:2|0:0,0:0:0:0:
512,86,70214,1,2,1:2:0:0:
487,10,70364,1,0,1:2:0:0:
430,66,70514,2,0,P|391:68|348:51,1,71.9999978027344,10|0,0:0|0:0,0:0:0:0:
291,17,70814,6,0,P|277:73|338:135,1,143.999995605469,2|12,1:2|0:0,0:0:0:0:
435,251,71414,2,0,P|393:210|309:232,1,143.999995605469,2|12,1:2|0:0,0:0:0:0:
160,258,72014,2,0,P|215:242|238:158,1,143.999995605469,2|12,1:2|0:0,0:0:0:0:
170,24,72614,1,0,1:0:0:0:
143,98,72764,1,0,1:0:0:0:
221,88,72914,2,0,L|306:61,1,71.9999978027344,8|8,0:0|0:0,0:0:0:0:
364,39,73214,6,0,P|407:89|369:184,1,143.999995605469,6|8,1:2|0:0,0:0:0:0:
393,319,73814,1,2,1:2:0:0:
420,245,73964,1,0,1:2:0:0:
342,255,74114,2,0,L|257:282,1,71.9999978027344,10|0,0:0|0:0,0:0:0:0:
199,304,74414,6,0,P|156:254|194:159,1,143.999995605469,2|8,1:2|0:0,0:0:0:0:
298,91,75014,1,2,1:2:0:0:
278,15,75164,1,0,1:2:0:0:
225,72,75314,2,0,B|139:58,1,71.9999978027344,10|0,0:0|0:0,0:0:0:0:
83,25,75614,6,0,P|72:55|87:105,1,71.9999978027344,6|0,1:2|0:0,0:0:0:0:
4,120,75914,2,0,P|17:148|63:173,1,71.9999978027344,10|0,0:0|0:0,0:0:0:0:
128,156,76214,1,6,1:2:0:0:
203,179,76364,1,0,1:0:0:0:
216,257,76514,2,0,L|196:343,1,71.9999978027344,10|0,0:0|0:0,0:0:0:0:
265,371,76814,6,0,P|337:381|393:341,1,143.999995605469,6|8,1:2|0:0,0:0:0:0:
415,265,77264,1,2,1:2:0:0:
426,186,77414,2,0,L|395:116,1,71.9999978027344,10|0,0:0|1:0,0:0:0:0:
360,49,77714,1,10,0:0:0:0:
282,30,77864,1,2,1:2:0:0:
203,18,78014,6,0,L|118:22,1,71.9999978027344,6|0,1:2|0:0,0:0:0:0:
144,99,78314,2,0,L|59:103,1,71.9999978027344,10|0,0:0|0:0,0:0:0:0:
203,176,78614,2,0,L|118:180,1,71.9999978027344,10|0,0:0|1:0,0:0:0:0:
144,257,78914,2,0,L|59:261,1,71.9999978027344,10|0,0:0|1:0,0:0:0:0:
235,325,79214,6,0,L|231:253,1,71.9999978027344,14|0,1:2|0:0,0:0:0:0:
316,384,79514,2,0,L|312:312,1,71.9999978027344,10|0,0:0|0:0,0:0:0:0:
393,325,79814,2,0,L|389:253,1,71.9999978027344,10|0,0:0|1:0,0:0:0:0:
474,384,80114,2,0,L|470:312,1,71.9999978027344,10|2,0:0|0:0,0:0:0:0:
466,233,80414,5,6,1:2:0:0:
460,154,80564,1,0,0:0:0:0:
457,74,80714,1,0,1:0:0:0:
451,0,80864,1,10,1:2:0:0:
383,41,81014,2,0,L|312:20,2,71.9999978027344,10|8|10,1:2|1:2|1:2,0:0:0:0:
383,120,81464,1,8,1:2:0:0:
305,101,81614,6,0,L|152:127,1,143.999995605469,10|8,1:2|1:2,0:0:0:0:
129,196,82064,1,0,0:0:0:0:
171,263,82214,2,0,L|315:274,1,143.999995605469,2|8,1:2|0:0,0:0:0:0:
431,334,82814,5,4,1:2:0:0:
277,189,83414,2,0,L|283:133,3,48,2|0|2|0,0:0|0:0|0:0|0:0,0:0:0:0:
287,88,84014,5,2,0:0:0:0:
99,185,84614,2,0,L|105:241,3,48,2|0|2|0,0:0|0:0|0:0|0:0,0:0:0:0:
109,286,85214,5,2,0:0:0:0:
302,370,85814,6,0,L|255:380,2,48,2|0|2,0:0|0:0|0:0,0:0:0:0:
368,289,86414,2,0,L|435:293,3,48,2|2|0|2,0:0|0:0|0:0|0:0,0:0:0:0:
444,336,87014,2,0,L|490:325,3,48,0|2|0|2,0:0|0:0|0:0|0:0,0:0:0:0:
508,275,87614,5,2,0:0:0:0:
424,163,88214,2,0,L|424:74,3,48,2|0|2|0,0:0|0:0|0:0|0:0,0:0:0:0:
423,62,88814,5,2,0:0:0:0:
227,142,89414,2,0,L|228:189,3,48,2|0|2|0,0:0|0:0|0:0|0:0,0:0:0:0:
235,242,90014,5,2,0:0:0:0:
392,288,90614,2,0,L|389:345,2,48,2|0|0,0:0|0:0|0:0,0:0:0:0:
420,244,91064,5,2,0:0:0:0:
256,192,91214,12,0,94064,0:0:0:0:
