osu file format v14

[General]
AudioFilename: audio.mp3
AudioLeadIn: 0
PreviewTime: 58139
Countdown: 0
SampleSet: Soft
StackLeniency: 0.7
Mode: 0
LetterboxInBreaks: 0
WidescreenStoryboard: 1

[Editor]
Bookmarks: 1814,10814,18914,20414,30014,39614,49214,56414,58814,78014,82814,91064,93614
DistanceSpacing: 1
BeatDivisor: 4
GridSize: 4
TimelineZoom: 1

[Metadata]
Title:Hana Saku Iro wa Koi no Gotoshi
TitleUnicode:華咲く色は恋の如し
Artist:Tsukiyama Sae
ArtistUnicode:築山さえ
Creator:Log Off Now
Version:kwk's Easy
Source:鬼がくる。~姉がひん死でピンチです~
Tags:oni ga kuru. ~ane ga hinshi de pinchi desu~ onikuru 鬼くる eroge visual novel vn op opening enishi soft hirari kwk
BeatmapID:1575974
BeatmapSetID:744883

[Difficulty]
HPDrainRate:3
CircleSize:2
OverallDifficulty:3
ApproachRate:4
SliderMultiplier:0.7
SliderTickRate:1

[Events]
//Background and Video events
0,0,"kwkbg.jpg",0,0
Video,0,"hirari.avi"
//Break Periods
//Storyboard Layer 0 (Background)
//Storyboard Layer 1 (Fail)
//Storyboard Layer 2 (Pass)
//Storyboard Layer 3 (Foreground)
//Storyboard Sound Samples

[TimingPoints]
1214,300,4,2,1,35,1,0
1814,-100,4,2,2,35,0,0
2489,-100,4,2,1,35,0,0
4814,-100,4,2,3,35,0,0
4889,-100,4,2,1,35,0,0
7214,-100,4,2,2,35,0,0
7289,-100,4,2,1,35,0,0
10814,-100,4,2,1,42,0,0
20414,-100,4,2,1,45,0,0
40814,-100,4,2,3,45,0,0
40889,-100,4,2,1,45,0,0
45614,-100,4,2,3,45,0,0
45689,-100,4,2,1,45,0,0
56714,-100,4,2,1,35,0,0
57014,-100,4,2,1,45,0,0
57314,-100,4,2,1,58,0,0
58814,-100,4,2,1,58,0,1
60014,-100,4,2,3,58,0,1
60089,-100,4,2,1,58,0,1
69614,-100,4,2,3,58,0,1
69689,-100,4,2,1,58,0,1
80714,-100,4,2,1,38,0,1
81014,-100,4,2,1,44,0,1
81314,-100,4,2,1,52,0,1
81614,-100,4,2,1,58,0,1
82814,-100,4,2,1,30,0,0
87614,-100,4,2,2,30,0,0
87689,-100,4,2,1,30,0,0
92414,-100,4,2,1,15,0,0
93014,-100,4,2,1,10,0,0
93614,-100,4,2,1,5,0,0

[Colours]
Combo1 : 94,154,255
Combo2 : 255,43,43
Combo3 : 255,119,119
Combo4 : 155,138,236

[HitObjects]
124,39,2414,5,2,0:0:0:0:
255,85,3014,1,2,0:0:0:0:
389,47,3614,2,0,P|412:108|397:198,1,140,2|2,0:0|0:0,0:0:0:0:
342,214,4514,1,2,0:0:0:0:
276,190,4814,5,2,0:0:0:0:
177,90,5414,1,2,0:0:0:0:
58,165,6014,2,0,P|49:226|93:326,1,140,2|2,0:0|0:0,0:0:0:0:
127,342,6914,1,2,0:0:0:0:
196,340,7214,6,0,P|258:314|336:285,1,140,2|2,0:0|0:0,0:0:0:0:
390,316,8114,1,2,0:0:0:0:
452,284,8414,2,0,P|455:203|412:137,1,140,2|2,0:0|0:0,0:0:0:0:
308,79,9614,1,2,0:0:0:0:
62,213,10814,6,0,P|126:182|217:186,1,140,6|2,1:2|1:2,0:0:0:0:
251,219,11714,1,10,0:0:0:0:
318,201,12014,1,2,1:2:0:0:
350,64,12614,1,2,0:0:0:0:
457,153,13214,6,0,P|481:217|473:286,1,140,6|2,1:2|1:2,0:0:0:0:
414,326,14114,1,10,0:0:0:0:
344,316,14414,1,2,1:2:0:0:
240,221,15014,2,0,L|230:120,1,70,2|8,0:0|0:0,0:0:0:0:
221,81,15614,5,6,1:2:0:0:
95,142,16214,2,0,P|69:206|97:288,1,140,2|2,1:2|1:2,0:0:0:0:
199,353,17414,2,0,L|274:331,1,70,2|10,0:0|0:0,0:0:0:0:
333,313,18014,6,0,L|350:98,1,210,14|14,1:2|0:0,0:0:0:0:
283,203,20414,5,4,1:2:0:0:
297,342,21014,2,0,L|449:310,2,140,0|2|2,1:2|1:2|1:2,0:0:0:0:
229,361,22514,1,10,0:0:0:0:
159,350,22814,6,0,P|120:294|125:226,1,140,2|2,1:2|1:2,0:0:0:0:
232,135,24014,2,0,P|236:66|197:10,1,140,2|2,1:2|1:2,0:0:0:0:
127,13,24914,1,10,0:2:0:0:
79,64,25214,6,0,L|112:211,1,140,2|2,1:2|1:2,0:0:0:0:
130,267,26114,1,10,0:0:0:0:
151,333,26414,1,2,1:2:0:0:
289,350,27014,2,0,L|353:300,1,70,2|8,1:2|0:0,0:0:0:0:
400,265,27614,5,6,1:2:0:0:
132,183,28814,1,0,1:2:0:0:
271,185,29414,1,2,1:2:0:0:
385,104,30014,6,0,L|232:82,1,140,4|2,1:2|1:2,0:0:0:0:
177,74,30914,1,10,0:0:0:0:
107,71,31214,2,0,P|71:127|89:215,1,140,0|2,1:2|1:2,0:0:0:0:
140,229,32114,1,10,0:0:0:0:
208,216,32414,5,2,1:2:0:0:
284,96,33014,1,2,1:2:0:0:
409,158,33614,2,0,P|431:222|405:302,1,140,2|2,1:2|1:2,0:0:0:0:
353,326,34514,1,10,0:0:0:0:
285,309,34814,6,0,L|252:165,1,140,8|8,0:0|0:0,0:0:0:0:
187,149,35714,1,0,1:0:0:0:
129,189,36014,1,12,0:0:0:0:
174,321,36614,1,8,0:0:0:0:
284,235,37214,6,0,L|302:85,2,140,0|0|2,1:0|1:0|1:2,0:0:0:0:
414,286,39014,2,0,L|400:189,1,70,0|0,1:0|0:0,0:0:0:0:
452,166,39614,6,0,L|434:16,1,140,6|0,1:2|1:0,0:0:0:0:
295,29,40814,2,0,L|278:168,1,140,2|0,1:2|1:0,0:0:0:0:
175,263,42014,6,0,P|108:280|45:252,2,140,4|0|0,1:2|1:0|1:0,0:0:0:0:
182,122,43814,2,0,L|156:30,1,70,8|8,0:0|0:3,0:0:0:0:
222,17,44414,6,0,L|386:9,1,140,4|0,1:2|0:0,0:0:0:0:
459,110,45614,2,0,L|295:102,1,140,2|0,1:2|0:0,0:0:0:0:
182,132,46814,6,0,P|124:238|163:333,1,210,4|8,1:2|0:0,0:0:0:0:
218,330,48014,2,0,P|275:223|236:128,1,210,4|4,3:2|0:3,0:0:0:0:
204,91,49214,5,4,1:2:0:0:
159,223,49814,1,0,1:0:0:0:
298,220,50414,2,0,P|366:218|419:261,1,140,4|0,1:2|1:0,0:0:0:0:
440,328,51314,1,8,0:0:0:0:
375,353,51614,6,0,L|142:331,1,210,4|0,1:2|1:0,0:0:0:0:
100,358,52814,2,0,P|83:285|119:218,1,140,8|8,0:3|0:3,0:0:0:0:
240,180,54014,6,0,P|282:87|134:42,1,280,4|0,1:2|1:0,0:0:0:0:
100,162,55814,1,0,1:0:0:0:
164,286,56414,2,0,P|293:244|436:327,1,280,0|0,1:0|1:2,0:0:0:0:
479,145,58814,6,0,L|316:148,1,140,4|2,1:2|1:2,0:0:0:0:
272,170,59714,1,10,0:0:0:0:
203,154,60014,2,0,P|179:76|214:6,1,140,2|2,1:2|1:2,0:0:0:0:
327,77,61214,6,0,L|384:216,1,140,6|2,1:2|1:2,0:0:0:0:
410,269,62114,1,10,0:0:0:0:
384,333,62414,1,2,1:2:0:0:
248,299,63014,1,0,1:2:0:0:
115,344,63614,6,0,L|135:199,1,140,6|2,1:2|1:2,0:0:0:0:
144,136,64514,1,10,0:0:0:0:
156,67,64814,1,2,1:2:0:0:
260,159,65414,1,2,1:2:0:0:
362,63,66014,6,0,P|403:121|395:196,1,140,2|2,1:2|1:2,0:0:0:0:
347,235,66914,1,14,0:0:0:0:
278,249,67214,2,0,L|67:145,1,210,2|8,1:2|0:0,0:0:0:0:
32,196,68414,6,0,P|12:265|52:347,1,140,6|2,1:2|1:2,0:0:0:0:
97,357,69314,1,10,0:0:0:0:
162,331,69614,2,0,P|225:305|298:318,1,140,2|2,1:2|1:2,0:0:0:0:
429,353,70814,5,2,1:2:0:0:
394,217,71414,1,2,1:2:0:0:
452,89,72014,1,2,1:2:0:0:
394,217,72614,2,0,L|291:224,1,70,0|8,1:0|0:0,0:0:0:0:
281,277,73214,6,0,P|215:293|138:240,1,140,6|2,1:2|1:2,0:0:0:0:
110,125,74414,1,2,1:2:0:0:
225,45,75014,1,2,1:2:0:0:
303,160,75614,6,0,P|239:191|162:165,1,140,6|6,1:2|1:2,0:0:0:0:
109,150,76514,1,10,0:0:0:0:
68,207,76814,2,0,P|57:283|106:358,1,140,6|10,1:2|0:0,0:0:0:0:
224,355,78014,5,6,1:2:0:0:
349,293,78614,1,10,0:0:0:0:
229,219,79214,1,14,1:2:0:0:
354,157,79814,1,10,0:0:0:0:
253,59,80414,6,0,P|136:62|56:127,1,210,6|10,1:2|1:2,0:0:0:0:
49,184,81614,1,10,1:2:0:0:
100,314,82214,1,2,1:2:0:0:
237,341,82814,5,4,1:2:0:0:
225,61,84014,1,2,0:0:0:0:
146,329,85214,1,2,0:0:0:0:
394,199,86414,2,0,L|225:191,1,140,2|0,0:0|0:0,0:0:0:0:
114,186,87614,5,2,0:0:0:0:
373,81,88814,1,2,0:0:0:0:
176,280,90014,1,2,0:0:0:0:
256,192,91064,12,0,93914,0:0:0:0:
