osu file format v14

[General]
AudioFilename: audio.mp3
AudioLeadIn: 0
PreviewTime: 58154
Countdown: 0
SampleSet: Normal
StackLeniency: 0.7
Mode: 1
LetterboxInBreaks: 0
WidescreenStoryboard: 0

[Editor]
DistanceSpacing: 1.2
BeatDivisor: 4
GridSize: 32
TimelineZoom: 1.8

[Metadata]
Title:Hana Saku Iro wa Koi no Gotoshi
TitleUnicode:華咲く色は恋の如し
Artist:Tsukiyama Sae
ArtistUnicode:築山さえ
Creator:[R]
Version:Luqua's Muzukashii
Source:鬼がくる。~姉がひん死でピンチです~
Tags:oni ga kuru. ~ane ga hinshi de pinchi desu~ luqua jacky10186 ron
BeatmapID:2149673
BeatmapSetID:1018567

[Difficulty]
HPDrainRate:6
CircleSize:2
OverallDifficulty:4
ApproachRate:5
SliderMultiplier:1.4
SliderTickRate:1

[Events]
//Background and Video events
0,0,"BG.jpg",0,40
//Break Periods
//Storyboard Layer 0 (Background)
//Storyboard Layer 1 (Fail)
//Storyboard Layer 2 (Pass)
//Storyboard Layer 3 (Foreground)
//Storyboard Layer 4 (Overlay)
//Storyboard Sound Samples

[TimingPoints]
2429,300,4,1,0,80,1,0
58829,-100,4,1,0,80,0,1
82829,-100,4,1,0,80,0,0

[HitObjects]
256,192,2429,5,0,0:0:0:0:
256,192,3029,1,8,0:0:0:0:
256,192,3329,1,8,0:0:0:0:
256,192,3629,1,0,0:0:0:0:
256,192,4229,1,0,0:0:0:0:
256,192,4529,1,0,0:0:0:0:
256,192,4829,1,8,0:0:0:0:
256,192,5429,1,8,0:0:0:0:
256,192,5729,1,8,0:0:0:0:
256,192,6029,1,0,0:0:0:0:
256,192,6629,1,0,0:0:0:0:
256,192,6929,1,8,0:0:0:0:
256,192,7229,1,0,0:0:0:0:
256,192,7829,1,8,0:0:0:0:
256,192,8129,1,0,0:0:0:0:
256,192,8429,1,8,0:0:0:0:
256,192,9029,1,8,0:0:0:0:
256,192,9329,1,0,0:0:0:0:
256,192,9629,1,8,0:0:0:0:
256,192,10529,1,8,0:0:0:0:
256,192,10679,1,8,0:0:0:0:
256,192,10829,1,4,0:0:0:0:
256,192,11129,1,8,0:0:0:0:
256,192,11279,1,0,0:0:0:0:
256,192,11429,1,0,0:0:0:0:
256,192,11729,1,0,0:0:0:0:
256,192,11879,1,8,0:0:0:0:
256,192,12029,1,8,0:0:0:0:
256,192,12329,1,8,0:0:0:0:
256,192,12479,1,0,0:0:0:0:
256,192,12629,1,0,0:0:0:0:
256,192,12929,1,8,0:0:0:0:
256,192,13004,1,8,0:0:0:0:
256,192,13079,1,8,0:0:0:0:
256,192,13229,1,4,0:0:0:0:
256,192,13529,1,8,0:0:0:0:
256,192,13679,1,8,0:0:0:0:
256,192,13829,1,0,0:0:0:0:
256,192,14129,1,8,0:0:0:0:
256,192,14429,1,0,0:0:0:0:
256,192,14579,1,0,0:0:0:0:
256,192,14729,1,8,0:0:0:0:
256,192,15029,1,0,0:0:0:0:
256,192,15629,1,4,0:0:0:0:
256,192,15929,1,8,0:0:0:0:
256,192,16229,1,0,0:0:0:0:
256,192,16379,1,0,0:0:0:0:
256,192,16529,1,8,0:0:0:0:
256,192,16829,1,0,0:0:0:0:
256,192,17129,1,8,0:0:0:0:
256,192,17279,1,8,0:0:0:0:
256,192,17429,1,0,0:0:0:0:
256,192,17729,1,8,0:0:0:0:
256,192,18029,1,4,0:0:0:0:
256,192,18329,1,8,0:0:0:0:
256,192,18629,1,0,0:0:0:0:
256,192,18779,1,8,0:0:0:0:
256,192,18929,1,4,0:0:0:0:
256,192,19829,1,0,0:0:0:0:
256,192,19979,1,0,0:0:0:0:
256,192,20129,1,8,0:0:0:0:
256,192,20204,1,8,0:0:0:0:
256,192,20279,1,8,0:0:0:0:
256,192,20429,1,4,0:0:0:0:
256,192,20729,1,8,0:0:0:0:
256,192,21029,1,0,0:0:0:0:
256,192,21329,1,8,0:0:0:0:
256,192,21479,1,0,0:0:0:0:
256,192,21929,1,8,0:0:0:0:
256,192,22229,1,0,0:0:0:0:
256,192,22529,1,8,0:0:0:0:
256,192,22679,1,8,0:0:0:0:
256,192,22829,1,0,0:0:0:0:
256,192,23129,1,8,0:0:0:0:
256,192,23429,1,0,0:0:0:0:
256,192,23729,1,8,0:0:0:0:
256,192,23879,1,0,0:0:0:0:
256,192,24329,1,8,0:0:0:0:
256,192,24629,1,0,0:0:0:0:
256,192,24779,1,0,0:0:0:0:
256,192,24929,1,8,0:0:0:0:
256,192,25229,1,8,0:0:0:0:
256,192,25529,1,0,0:0:0:0:
256,192,25829,1,0,0:0:0:0:
256,192,25979,1,0,0:0:0:0:
256,192,26129,1,8,0:0:0:0:
256,192,26429,1,0,0:0:0:0:
256,192,27029,1,8,0:0:0:0:
256,192,27179,1,0,0:0:0:0:
256,192,27329,1,8,0:0:0:0:
256,192,27629,1,6,0:0:0:0:
256,192,27929,1,0,0:0:0:0:
256,192,28229,1,8,0:0:0:0:
256,192,28529,1,0,0:0:0:0:
256,192,28679,1,8,0:0:0:0:
256,192,28829,1,0,0:0:0:0:
256,192,29129,1,0,0:0:0:0:
256,192,29429,1,8,0:0:0:0:
256,192,29579,1,8,0:0:0:0:
256,192,29654,1,8,0:0:0:0:
256,192,29729,1,8,0:0:0:0:
256,192,29879,1,8,0:0:0:0:
256,192,30029,1,4,0:0:0:0:
256,192,30329,1,8,0:0:0:0:
256,192,30629,1,0,0:0:0:0:
256,192,30779,1,0,0:0:0:0:
256,192,30929,1,8,0:0:0:0:
256,192,31229,1,0,0:0:0:0:
256,192,31529,1,8,0:0:0:0:
256,192,31829,1,8,0:0:0:0:
256,192,31979,1,8,0:0:0:0:
256,192,32129,1,0,0:0:0:0:
256,192,32429,1,8,0:0:0:0:
256,192,33029,1,0,0:0:0:0:
256,192,33179,1,0,0:0:0:0:
256,192,33329,1,8,0:0:0:0:
256,192,33629,1,0,0:0:0:0:
256,192,33929,1,0,0:0:0:0:
256,192,34229,1,8,0:0:0:0:
256,192,34379,1,8,0:0:0:0:
256,192,34529,1,0,0:0:0:0:
256,192,34829,1,4,0:0:0:0:
256,192,35429,1,0,0:0:0:0:
256,192,35729,1,0,0:0:0:0:
256,192,35879,1,0,0:0:0:0:
256,192,36029,1,12,0:0:0:0:
256,192,36329,1,8,0:0:0:0:
256,192,36479,1,8,0:0:0:0:
256,192,36629,1,0,0:0:0:0:
256,192,36929,1,8,0:0:0:0:
256,192,37229,1,0,0:0:0:0:
256,192,37304,1,0,0:0:0:0:
256,192,37379,1,0,0:0:0:0:
256,192,37529,1,8,0:0:0:0:
256,192,37679,1,0,0:0:0:0:
256,192,37829,1,8,0:0:0:0:
256,192,38129,1,0,0:0:0:0:
256,192,38279,1,8,0:0:0:0:
256,192,38429,1,0,0:0:0:0:
256,192,38729,1,8,0:0:0:0:
256,192,39029,1,0,0:0:0:0:
256,192,39629,1,12,0:0:0:0:
256,192,39929,1,0,0:0:0:0:
256,192,40229,1,0,0:0:0:0:
256,192,40529,1,8,0:0:0:0:
256,192,40829,1,8,0:0:0:0:
256,192,41129,1,0,0:0:0:0:
256,192,41429,1,0,0:0:0:0:
256,192,41579,1,0,0:0:0:0:
256,192,41729,1,8,0:0:0:0:
256,192,42029,1,12,0:0:0:0:
256,192,42329,1,0,0:0:0:0:
256,192,42479,1,0,0:0:0:0:
256,192,42629,1,8,0:0:0:0:
256,192,42929,1,8,0:0:0:0:
256,192,43229,1,0,0:0:0:0:
256,192,43829,1,8,0:0:0:0:
256,192,44129,1,0,0:0:0:0:
256,192,44429,1,12,0:0:0:0:
256,192,44729,1,8,0:0:0:0:
256,192,44879,1,8,0:0:0:0:
256,192,45029,1,0,0:0:0:0:
256,192,45329,1,0,0:0:0:0:
256,192,45629,1,8,0:0:0:0:
256,192,45929,1,8,0:0:0:0:
256,192,46079,1,8,0:0:0:0:
256,192,46229,1,0,0:0:0:0:
256,192,46529,1,0,0:0:0:0:
256,192,46829,1,4,0:0:0:0:
256,192,47129,1,8,0:0:0:0:
256,192,47279,1,8,0:0:0:0:
256,192,47579,1,0,0:0:0:0:
256,192,47729,1,0,0:0:0:0:
256,192,48029,1,0,0:0:0:0:
256,192,48329,1,8,0:0:0:0:
256,192,48479,1,8,0:0:0:0:
256,192,48629,1,0,0:0:0:0:
256,192,48779,1,0,0:0:0:0:
256,192,48854,1,0,0:0:0:0:
256,192,48929,1,0,0:0:0:0:
256,192,49229,1,4,0:0:0:0:
256,192,49829,1,8,0:0:0:0:
256,192,50129,1,0,0:0:0:0:
256,192,50429,1,12,0:0:0:0:
256,192,50729,1,0,0:0:0:0:
256,192,50879,1,0,0:0:0:0:
256,192,51029,1,8,0:0:0:0:
256,192,51329,1,0,0:0:0:0:
256,192,51629,1,12,0:0:0:0:
256,192,51929,1,8,0:0:0:0:
256,192,52079,1,8,0:0:0:0:
256,192,52229,1,0,0:0:0:0:
256,192,52529,1,8,0:0:0:0:
256,192,52829,1,8,0:0:0:0:
256,192,52979,1,0,0:0:0:0:
256,192,53054,1,0,0:0:0:0:
256,192,53129,1,0,0:0:0:0:
256,192,53279,1,0,0:0:0:0:
256,192,53429,1,8,0:0:0:0:
256,192,53579,1,0,0:0:0:0:
256,192,53729,1,8,0:0:0:0:
256,192,54029,1,4,0:0:0:0:
256,192,54329,1,8,0:0:0:0:
256,192,54629,1,0,0:0:0:0:
256,192,54779,1,0,0:0:0:0:
256,192,54929,1,8,0:0:0:0:
256,192,55229,1,8,0:0:0:0:
256,192,55529,1,8,0:0:0:0:
256,192,55679,1,8,0:0:0:0:
256,192,55829,1,0,0:0:0:0:
256,192,56429,1,8,0:0:0:0:
256,192,56729,1,8,0:0:0:0:
256,192,56879,1,0,0:0:0:0:
256,192,57029,1,8,0:0:0:0:
256,192,57104,1,8,0:0:0:0:
256,192,57179,1,8,0:0:0:0:
256,192,57329,1,0,0:0:0:0:
256,192,57479,1,0,0:0:0:0:
256,192,57629,1,8,0:0:0:0:
256,192,57854,1,8,0:0:0:0:
256,192,58079,1,8,0:0:0:0:
256,192,58229,1,0,0:0:0:0:
256,192,58529,1,8,0:0:0:0:
256,192,58829,1,4,0:0:0:0:
256,192,59129,1,0,0:0:0:0:
256,192,59279,1,8,0:0:0:0:
256,192,59429,1,0,0:0:0:0:
256,192,59729,1,8,0:0:0:0:
256,192,59879,1,0,0:0:0:0:
256,192,60029,1,8,0:0:0:0:
256,192,60329,1,0,0:0:0:0:
256,192,60629,1,0,0:0:0:0:
256,192,60779,1,0,0:0:0:0:
256,192,60929,1,8,0:0:0:0:
256,192,61229,1,12,0:0:0:0:
256,192,61529,1,0,0:0:0:0:
256,192,61679,1,0,0:0:0:0:
256,192,61829,1,8,0:0:0:0:
256,192,61979,1,0,0:0:0:0:
256,192,62129,1,8,0:0:0:0:
256,192,62429,1,8,0:0:0:0:
256,192,62579,1,8,0:0:0:0:
256,192,62729,1,0,0:0:0:0:
256,192,62879,1,8,0:0:0:0:
256,192,63029,1,0,0:0:0:0:
256,192,63329,1,8,0:0:0:0:
256,192,63404,1,8,0:0:0:0:
256,192,63479,1,8,0:0:0:0:
256,192,63629,1,4,0:0:0:0:
256,192,63929,1,8,0:0:0:0:
256,192,64229,1,0,0:0:0:0:
256,192,64379,1,0,0:0:0:0:
256,192,64529,1,8,0:0:0:0:
256,192,64829,1,0,0:0:0:0:
256,192,65429,1,0,0:0:0:0:
256,192,65579,1,0,0:0:0:0:
256,192,65729,1,8,0:0:0:0:
256,192,66029,1,8,0:0:0:0:
256,192,66179,1,8,0:0:0:0:
256,192,66329,1,4,0:0:0:0:
256,192,66629,1,0,0:0:0:0:
256,192,66779,1,0,0:0:0:0:
256,192,66929,1,12,0:0:0:0:
256,192,67229,1,0,0:0:0:0:
256,192,67529,1,8,0:0:0:0:
256,192,67679,1,0,0:0:0:0:
256,192,67829,1,0,0:0:0:0:
256,192,67904,1,0,0:0:0:0:
256,192,67979,1,0,0:0:0:0:
256,192,68129,1,8,0:0:0:0:
256,192,68204,1,8,0:0:0:0:
256,192,68279,1,8,0:0:0:0:
256,192,68429,1,4,0:0:0:0:
256,192,68729,1,0,0:0:0:0:
256,192,69029,1,0,0:0:0:0:
256,192,69179,1,0,0:0:0:0:
256,192,69329,1,8,0:0:0:0:
256,192,69629,1,8,0:0:0:0:
256,192,70229,1,0,0:0:0:0:
256,192,70379,1,0,0:0:0:0:
256,192,70529,1,8,0:0:0:0:
256,192,70829,1,8,0:0:0:0:
256,192,70979,1,8,0:0:0:0:
256,192,71129,1,4,0:0:0:0:
256,192,71429,1,8,0:0:0:0:
256,192,71579,1,0,0:0:0:0:
256,192,71729,1,12,0:0:0:0:
256,192,72029,1,0,0:0:0:0:
256,192,72179,1,8,0:0:0:0:
256,192,72329,1,0,0:0:0:0:
256,192,72629,1,0,0:0:0:0:
256,192,72929,1,8,0:0:0:0:
256,192,73004,1,8,0:0:0:0:
256,192,73079,1,8,0:0:0:0:
256,192,73229,1,4,0:0:0:0:
256,192,73529,1,8,0:0:0:0:
256,192,73829,1,0,0:0:0:0:
256,192,73979,1,0,0:0:0:0:
256,192,74129,1,8,0:0:0:0:
256,192,74279,1,8,0:0:0:0:
256,192,74429,1,0,0:0:0:0:
256,192,74729,1,8,0:0:0:0:
256,192,74879,1,8,0:0:0:0:
256,192,75029,1,0,0:0:0:0:
256,192,75179,1,0,0:0:0:0:
256,192,75329,1,8,0:0:0:0:
256,192,75629,1,4,0:0:0:0:
256,192,75929,1,0,0:0:0:0:
256,192,76079,1,0,0:0:0:0:
256,192,76229,1,12,0:0:0:0:
256,192,76529,1,8,0:0:0:0:
256,192,76829,1,4,0:0:0:0:
256,192,77129,1,8,0:0:0:0:
256,192,77279,1,0,0:0:0:0:
256,192,77429,1,0,0:0:0:0:
256,192,77504,1,0,0:0:0:0:
256,192,77579,1,0,0:0:0:0:
256,192,77729,1,8,0:0:0:0:
256,192,77804,1,8,0:0:0:0:
256,192,77879,1,8,0:0:0:0:
256,192,78029,1,4,0:0:0:0:
256,192,78329,1,8,0:0:0:0:
256,192,78479,1,8,0:0:0:0:
256,192,78629,1,8,0:0:0:0:
256,192,78929,1,0,0:0:0:0:
256,192,79229,1,12,0:0:0:0:
256,192,79529,1,0,0:0:0:0:
256,192,79679,1,0,0:0:0:0:
256,192,79829,1,0,0:0:0:0:
256,192,80129,1,0,0:0:0:0:
256,192,80429,1,12,0:0:0:0:
256,192,80729,1,0,0:0:0:0:
256,192,80879,1,0,0:0:0:0:
256,192,81029,1,8,0:0:0:0:
256,192,81179,1,8,0:0:0:0:
256,192,81254,1,8,0:0:0:0:
256,192,81329,1,8,0:0:0:0:
256,192,81479,1,0,0:0:0:0:
256,192,81629,1,8,0:0:0:0:
256,192,81779,1,0,0:0:0:0:
256,192,81929,1,8,0:0:0:0:
256,192,82229,1,0,0:0:0:0:
256,192,82304,1,0,0:0:0:0:
256,192,82379,1,0,0:0:0:0:
256,192,82529,1,8,0:0:0:0:
256,192,82604,1,8,0:0:0:0:
256,192,82679,1,8,0:0:0:0:
256,192,82829,1,4,0:0:0:0:
256,192,83429,1,8,0:0:0:0:
256,192,83579,1,0,0:0:0:0:
256,192,83729,1,0,0:0:0:0:
256,192,83879,1,8,0:0:0:0:
256,192,84029,1,0,0:0:0:0:
256,192,84629,1,0,0:0:0:0:
256,192,84779,1,8,0:0:0:0:
256,192,84929,1,0,0:0:0:0:
256,192,85079,1,0,0:0:0:0:
256,192,85229,1,8,0:0:0:0:
256,192,85829,1,8,0:0:0:0:
256,192,85979,1,0,0:0:0:0:
256,192,86129,1,8,0:0:0:0:
256,192,86429,1,0,0:0:0:0:
256,192,86579,1,8,0:0:0:0:
256,192,86729,1,0,0:0:0:0:
256,192,86879,1,8,0:0:0:0:
256,192,87029,1,0,0:0:0:0:
256,192,87629,1,8,0:0:0:0:
256,192,88229,1,8,0:0:0:0:
256,192,88379,1,8,0:0:0:0:
256,192,88529,1,0,0:0:0:0:
256,192,88679,1,8,0:0:0:0:
256,192,88829,1,0,0:0:0:0:
256,192,89429,1,8,0:0:0:0:
256,192,89579,1,8,0:0:0:0:
256,192,89729,1,0,0:0:0:0:
256,192,89879,1,0,0:0:0:0:
256,192,90029,1,8,0:0:0:0:
256,192,90329,1,0,0:0:0:0:
256,192,90629,1,0,0:0:0:0:
256,192,90779,1,0,0:0:0:0:
256,192,90929,1,0,0:0:0:0:
256,192,91079,1,8,0:0:0:0:
