osu file format v14

[General]
AudioFilename: audio.mp3
AudioLeadIn: 0
PreviewTime: 58154
Countdown: 0
SampleSet: Normal
StackLeniency: 0.7
Mode: 1
LetterboxInBreaks: 0
WidescreenStoryboard: 0

[Editor]
Bookmarks: 10918,20518,30118,39718,49318,58918,78118
DistanceSpacing: 1.2
BeatDivisor: 4
GridSize: 32
TimelineZoom: 1.1

[Metadata]
Title:Hana Saku Iro wa Koi no Gotoshi
TitleUnicode:華咲く色は恋の如し
Artist:Tsukiyama Sae
ArtistUnicode:築山さえ
Creator:[R]
Version:Kantan
Source:鬼がくる。~姉がひん死でピンチです~
Tags:oni ga kuru. ~ane ga hinshi de pinchi desu~ luqua jacky10186 ron
BeatmapID:2158168
BeatmapSetID:1018567

[Difficulty]
HPDrainRate:7
CircleSize:5
OverallDifficulty:3
ApproachRate:5
SliderMultiplier:1.4
SliderTickRate:1

[Events]
//Background and Video events
0,0,"BG.jpg",0,40
//Break Periods
//Storyboard Layer 0 (Background)
//Storyboard Layer 1 (Fail)
//Storyboard Layer 2 (Pass)
//Storyboard Layer 3 (Foreground)
//Storyboard Layer 4 (Overlay)
//Storyboard Sound Samples

[TimingPoints]
2429,300,4,1,0,80,1,0
58829,-100,4,1,0,80,0,1
82829,-100,4,1,0,80,0,0

[HitObjects]
256,192,2429,5,0,0:0:0:0:
256,192,3029,1,8,0:0:0:0:
256,192,3629,1,0,0:0:0:0:
256,192,4829,1,0,0:0:0:0:
256,192,5429,1,0,0:0:0:0:
256,192,6029,1,8,0:0:0:0:
256,192,7229,1,8,0:0:0:0:
256,192,7829,1,0,0:0:0:0:
256,192,8429,1,8,0:0:0:0:
256,192,9629,1,8,0:0:0:0:
256,192,10829,1,4,0:0:0:0:
256,192,11429,1,0,0:0:0:0:
256,192,11729,1,8,0:0:0:0:
256,192,12029,1,8,0:0:0:0:
256,192,12629,1,8,0:0:0:0:
256,192,13229,1,0,0:0:0:0:
256,192,13829,1,8,0:0:0:0:
256,192,14129,1,8,0:0:0:0:
256,192,14429,1,0,0:0:0:0:
256,192,15629,1,4,0:0:0:0:
256,192,16229,1,0,0:0:0:0:
256,192,16529,1,0,0:0:0:0:
256,192,16829,1,8,0:0:0:0:
256,192,17429,1,8,0:0:0:0:
256,192,18029,1,0,0:0:0:0:
256,192,18629,1,0,0:0:0:0:
256,192,18929,1,8,0:0:0:0:
256,192,20429,1,4,0:0:0:0:
256,192,21029,1,0,0:0:0:0:
256,192,21329,1,8,0:0:0:0:
256,192,22229,1,8,0:0:0:0:
256,192,22529,1,8,0:0:0:0:
256,192,22829,1,0,0:0:0:0:
256,192,23429,1,8,0:0:0:0:
256,192,23729,1,0,0:0:0:0:
256,192,24629,1,0,0:0:0:0:
256,192,24929,1,8,0:0:0:0:
256,192,25229,1,0,0:0:0:0:
256,192,25829,1,8,0:0:0:0:
256,192,26429,1,0,0:0:0:0:
256,192,27029,1,0,0:0:0:0:
256,192,27629,1,8,0:0:0:0:
256,192,28229,1,8,0:0:0:0:
256,192,28529,1,8,0:0:0:0:
256,192,28829,1,0,0:0:0:0:
256,192,30029,1,4,0:0:0:0:
256,192,30629,1,0,0:0:0:0:
256,192,30929,1,8,0:0:0:0:
256,192,31829,1,8,0:0:0:0:
256,192,32129,1,8,0:0:0:0:
256,192,32429,1,0,0:0:0:0:
256,192,33029,1,8,0:0:0:0:
256,192,33629,1,0,0:0:0:0:
256,192,34229,1,0,0:0:0:0:
256,192,34529,1,8,0:0:0:0:
256,192,34829,1,0,0:0:0:0:
256,192,35429,1,8,0:0:0:0:
256,192,36029,1,0,0:0:0:0:
256,192,36629,1,0,0:0:0:0:
256,192,36929,1,8,0:0:0:0:
256,192,37229,8,0,38729,0:0:0:0:
256,192,39029,5,0,0:0:0:0:
256,192,39629,1,12,0:0:0:0:
256,192,40229,1,0,0:0:0:0:
256,192,40829,1,8,0:0:0:0:
256,192,42029,1,8,0:0:0:0:
256,192,42629,1,0,0:0:0:0:
256,192,43229,1,8,0:0:0:0:
256,192,43529,1,0,0:0:0:0:
256,192,43829,1,8,0:0:0:0:
256,192,44429,1,0,0:0:0:0:
256,192,45329,1,8,0:0:0:0:
256,192,45629,1,0,0:0:0:0:
256,192,46229,1,0,0:0:0:0:
256,192,46529,1,8,0:0:0:0:
256,192,46829,1,0,0:0:0:0:
256,192,47729,1,8,0:0:0:0:
256,192,48029,1,0,0:0:0:0:
256,192,48629,1,8,0:0:0:0:
256,192,49229,1,4,0:0:0:0:
256,192,49829,1,8,0:0:0:0:
256,192,50429,1,8,0:0:0:0:
256,192,51029,1,8,0:0:0:0:
256,192,51329,1,0,0:0:0:0:
256,192,51629,1,8,0:0:0:0:
256,192,52229,1,0,0:0:0:0:
256,192,52829,1,8,0:0:0:0:
256,192,54029,1,0,0:0:0:0:
256,192,54629,1,8,0:0:0:0:
256,192,54929,1,8,0:0:0:0:
256,192,55229,1,0,0:0:0:0:
256,192,55829,1,8,0:0:0:0:
256,192,56429,1,0,0:0:0:0:
256,192,57629,1,8,0:0:0:0:
256,192,58829,1,4,0:0:0:0:
256,192,59429,1,0,0:0:0:0:
256,192,60029,1,8,0:0:0:0:
256,192,60629,1,0,0:0:0:0:
256,192,61229,1,8,0:0:0:0:
256,192,61529,1,0,0:0:0:0:
256,192,61829,1,8,0:0:0:0:
256,192,62129,1,8,0:0:0:0:
256,192,62429,1,0,0:0:0:0:
256,192,63029,1,8,0:0:0:0:
256,192,63629,1,0,0:0:0:0:
256,192,64829,1,0,0:0:0:0:
256,192,65429,1,8,0:0:0:0:
256,192,66029,1,0,0:0:0:0:
256,192,66629,1,0,0:0:0:0:
256,192,66929,1,8,0:0:0:0:
256,192,67229,1,0,0:0:0:0:
256,192,67829,1,8,0:0:0:0:
256,192,68429,1,4,0:0:0:0:
256,192,69029,1,0,0:0:0:0:
256,192,69629,1,8,0:0:0:0:
256,192,70229,1,0,0:0:0:0:
256,192,70829,1,8,0:0:0:0:
256,192,71129,1,0,0:0:0:0:
256,192,71429,1,8,0:0:0:0:
256,192,71729,1,8,0:0:0:0:
256,192,72029,1,0,0:0:0:0:
256,192,72629,1,8,0:0:0:0:
256,192,73229,1,0,0:0:0:0:
256,192,74429,1,0,0:0:0:0:
256,192,75029,1,8,0:0:0:0:
256,192,75629,1,0,0:0:0:0:
256,192,76229,1,0,0:0:0:0:
256,192,76529,1,8,0:0:0:0:
256,192,76829,1,0,0:0:0:0:
256,192,77429,1,8,0:0:0:0:
256,192,78029,1,4,0:0:0:0:
256,192,79229,1,0,0:0:0:0:
256,192,79529,1,0,0:0:0:0:
256,192,79829,1,8,0:0:0:0:
256,192,80129,1,0,0:0:0:0:
256,192,80429,1,12,0:0:0:0:
256,192,81629,1,8,0:0:0:0:
256,192,81929,1,8,0:0:0:0:
256,192,82229,1,0,0:0:0:0:
256,192,82529,1,8,0:0:0:0:
256,192,82829,1,0,0:0:0:0:
256,192,83429,1,8,0:0:0:0:
256,192,84029,1,0,0:0:0:0:
256,192,84629,1,8,0:0:0:0:
256,192,84929,1,0,0:0:0:0:
256,192,85229,1,0,0:0:0:0:
256,192,85829,1,8,0:0:0:0:
256,192,86429,1,0,0:0:0:0:
256,192,87629,1,0,0:0:0:0:
256,192,88229,1,8,0:0:0:0:
256,192,88829,1,0,0:0:0:0:
256,192,89429,1,8,0:0:0:0:
256,192,89729,1,0,0:0:0:0:
256,192,90029,1,0,0:0:0:0:
256,192,90629,1,0,0:0:0:0:
256,192,91079,1,8,0:0:0:0:
