osu file format v14

[General]
AudioFilename: audio.mp3
AudioLeadIn: 0
PreviewTime: 45382
Countdown: 0
SampleSet: Soft
StackLeniency: 0.7
Mode: 0
LetterboxInBreaks: 0
WidescreenStoryboard: 1

[Editor]
Bookmarks: 32353,42638
DistanceSpacing: 1.1
BeatDivisor: 4
GridSize: 16
TimelineZoom: 1.4

[Metadata]
Title:Balalaika (TV Size)
TitleUnicode:バラライカ (TV Size)
Artist:Tsukishima Kirari (CV: Kusumi Koharu)
ArtistUnicode:月島きらり (CV: 久住小春)
Creator:Yorita Yoshino
Version:Regraz's Hard
Source:きらりん☆レボリューション
Tags:BULGE Sako Shigeki 迫茂樹 OP opening anime japanese Mafumafu Regraz Yugu kirarin revolution kirarevo モーニング娘 Morning Musume
BeatmapID:2503731
BeatmapSetID:1157137

[Difficulty]
HPDrainRate:6
CircleSize:4
OverallDifficulty:5.5
ApproachRate:7.5
SliderMultiplier:1.6
SliderTickRate:1

[Events]
//Background and Video events
0,0,"123126.jpg",0,0
//Break Periods
//Storyboard Layer 0 (Background)
//Storyboard Layer 1 (Fail)
//Storyboard Layer 2 (Pass)
//Storyboard Layer 3 (Foreground)
//Storyboard Layer 4 (Overlay)
//Storyboard Sound Samples

[TimingPoints]
1475,428.571428571429,4,2,0,40,1,0
1689,-100,4,2,0,50,0,0
2332,-100,4,2,0,60,0,0
2760,-100,4,2,0,70,0,0
3189,-100,4,2,0,80,0,0
4903,-100,4,2,0,60,0,0
5332,-100,4,2,0,70,0,0
5760,-100,4,2,0,80,0,0
6617,-100,4,2,0,60,0,0
7046,-100,4,2,0,50,0,0
7475,-100,4,2,0,60,0,0
8332,-100,4,2,0,60,0,0
8760,-100,4,2,0,70,0,0
9189,-100,4,2,0,80,0,0
11332,-100,4,2,0,60,0,0
12189,-100,4,2,0,70,0,0
12617,-100,4,2,0,80,0,0
13475,-100,4,2,0,60,0,0
13903,-100,4,2,0,70,0,0
14332,-100,4,2,0,80,0,0
15189,-100,4,2,0,60,0,0
16046,-100,4,2,0,80,0,0
18189,-100,4,2,0,50,0,0
23760,-100,4,2,0,70,0,0
25046,-100,4,2,0,50,0,0
30617,-100,4,2,0,70,0,0
31689,-100,4,2,0,50,0,0
31903,-100,4,2,0,70,0,0
32332,-100,4,2,0,50,0,0
41760,-100,4,2,0,50,0,0
42189,-100,4,2,0,60,0,0
42618,-100,4,2,0,60,0,0
44332,-100,4,2,0,80,0,0
46046,-100,4,2,0,90,0,1
58046,-100,4,2,0,100,0,1
58903,-100,4,2,0,90,0,0
59332,-100,4,2,0,90,0,1
71760,-100,4,2,0,100,0,1
72617,-100,4,2,0,90,0,1
73475,-100,4,2,0,60,0,0
73903,-100,4,2,0,70,0,0
74332,-100,4,2,0,80,0,0
75189,-100,4,2,0,60,0,0
75617,-100,4,2,0,70,0,0
76046,-100,4,2,0,80,0,0
76903,-100,4,2,0,60,0,0
77332,-100,4,2,0,70,0,0
77760,-100,4,2,0,80,0,0
80332,-100,4,2,0,60,0,0
80760,-100,4,2,0,70,0,0
81189,-100,4,2,0,80,0,0
82046,-100,4,2,0,60,0,0
82475,-100,4,2,0,70,0,0
82903,-100,4,2,0,80,0,0
83867,-100,4,2,0,40,0,0
84617,-100,4,2,0,80,0,0
84725,-100,4,2,0,40,0,0
85475,-100,4,2,0,80,0,0

[Colours]
Combo1 : 255,128,192
Combo2 : 255,255,0
Combo3 : 255,128,128
Combo4 : 255,255,128

[HitObjects]
184,106,4475,5,8,0:0:0:0:
184,106,4689,1,0,0:0:0:0:
184,106,4903,6,0,P|180:174|189:207,1,80,4|2,0:0|0:0,0:0:0:0:
199,221,5225,1,2,0:0:0:0:
199,221,5332,2,0,P|148:220|107:224,1,80,8|2,0:0|0:0,0:0:0:0:
106,301,5760,2,0,P|202:300|249:287,1,120,2|2,0:0|0:0,0:0:0:0:
263,284,6189,2,0,L|256:373,1,80,8|2,0:0|0:0,0:0:0:0:
336,359,6617,5,2,0:0:0:0:
400,310,6832,1,2,0:0:0:0:
400,310,6939,1,2,0:0:0:0:
400,310,7046,2,0,P|455:314|495:302,1,80,8|2,0:0|0:0,0:0:0:0:
487,228,7475,2,0,L|489:86,1,120,2|2,0:0|0:0,0:0:0:0:
485,68,7903,2,0,P|425:77|394:68,1,80,8|2,0:0|0:0,0:0:0:0:
330,38,8332,6,0,B|262:22|248:81|167:51,1,160,2|8,0:0|0:0,0:0:0:0:
118,122,8975,1,2,0:0:0:0:
183,187,9189,2,0,P|231:185|267:196,1,80,2|2,0:0|0:0,0:0:0:0:
297,210,9510,1,2,0:0:0:0:
297,210,9617,2,0,L|293:119,1,80,8|2,0:0|0:0,0:0:0:0:
370,107,10046,5,4,0:0:0:0:
397,23,10260,1,4,0:0:0:0:
485,23,10474,1,12,0:0:0:0:
512,107,10688,1,4,0:0:0:0:
443,160,10903,1,4,0:0:0:0:
443,160,11332,2,0,P|361:151|312:196,1,120,8|0,0:0|0:0,0:0:0:0:
326,201,11760,6,0,L|333:303,1,80,4|2,0:0|0:0,0:0:0:0:
263,328,12189,1,8,0:0:0:0:
189,280,12403,1,2,0:0:0:0:
189,280,12617,2,0,P|114:298|58:268,1,120,2|2,0:0|0:0,0:0:0:0:
53,255,13046,2,0,L|58:148,1,80,8|2,0:0|0:0,0:0:0:0:
62,87,13475,6,0,B|138:84|132:159|228:139,1,160,2|8,0:0|0:0,0:0:0:0:
259,76,14117,1,2,0:0:0:0:
328,131,14332,2,0,P|322:177|340:221,1,80,2|2,0:0|0:0,0:0:0:0:
363,237,14653,1,2,0:0:0:0:
363,237,14760,2,0,P|309:230|273:235,1,80,8|2,0:0|0:0,0:0:0:0:
215,283,15189,6,0,P|132:268|54:281,1,160,4|8,0:0|0:0,0:0:0:0:
18,354,15832,1,2,0:0:0:0:
58,279,16046,2,0,L|47:173,1,80,4|2,0:0|0:0,0:0:0:0:
95,130,16475,2,0,L|90:80,2,40,8|0|2,0:0|0:0|0:0,0:0:0:0:
172,171,16903,5,4,0:0:0:0:
227,102,17117,1,2,0:0:0:0:
309,134,17332,1,12,0:0:0:0:
304,222,17546,1,0,0:0:0:0:
221,246,17760,1,12,0:0:0:0:
221,246,18189,1,8,1:0:0:0:
221,246,18617,6,0,P|136:270|67:231,1,160,6|8,0:0|0:0,0:0:0:0:
76,156,19260,1,0,0:0:0:0:
76,156,19475,2,0,P|158:132|230:171,1,160,2|8,0:0|0:0,0:0:0:0:
308,168,20117,1,0,0:0:0:0:
308,168,20332,6,0,L|306:77,1,80,2|0,0:0|0:0,0:0:0:0:
392,82,20760,2,0,L|393:161,1,80,8|0,0:0|0:0,0:0:0:0:
471,202,21189,2,0,P|471:275|372:307,1,160,2|8,0:0|0:0,0:0:0:0:
230,308,22046,6,0,B|184:295|144:357|73:354,1,160,2|8,0:0|0:0,0:0:0:0:
29,287,22689,1,2,0:0:0:0:
89,222,22903,2,0,L|76:55,1,160,2|8,0:0|0:0,0:0:0:0:
238,25,23760,6,0,P|277:43|325:30,2,80,2|2|8,0:0|0:0|0:0,0:0:0:0:
148,3,24403,1,2,0:0:0:0:
77,63,24617,2,0,P|30:62|-6:87,1,80,2|2,0:0|0:0,0:0:0:0:
0,122,24939,1,2,0:0:0:0:
0,122,25046,2,0,P|12:170|10:208,1,80,8|8,0:0|0:0,0:0:0:0:
52,330,25475,6,0,P|113:324|157:224,1,160,2|8,0:0|0:0,0:0:0:0:
241,207,26117,1,0,0:0:0:0:
241,207,26332,2,0,B|292:208|292:208|346:230|346:230|400:229,1,160,2|8,0:0|0:0,0:0:0:0:
457,288,26975,1,0,0:0:0:0:
386,339,27189,6,0,P|333:325|291:334,1,80,2|0,0:0|0:0,0:0:0:0:
232,360,27617,2,0,P|174:346|139:347,1,80,8|0,0:0|0:0,0:0:0:0:
73,350,28046,2,0,P|25:317|70:231,1,160,2|8,0:0|0:0,0:0:0:0:
229,239,28903,6,0,L|394:241,1,160,2|8,0:0|0:0,0:0:0:0:
440,169,29546,1,2,0:0:0:0:
392,99,29760,2,0,P|340:88|303:98,1,80,2|2,0:0|0:0,0:0:0:0:
250,153,30189,2,0,L|265:246,1,80,8|2,0:0|0:0,0:0:0:0:
235,312,30617,5,2,0:0:0:0:
147,307,30832,1,2,0:0:0:0:
90,239,31046,1,2,0:0:0:0:
81,156,31260,1,2,0:0:0:0:
99,74,31475,2,0,L|197:71,1,80,2|8,0:0|0:3,0:0:0:0:
253,25,31903,2,0,L|379:28,1,120,4|0,0:3|0:0,0:0:0:0:
411,28,32332,6,0,P|398:97|427:193,1,160,4|8,3:0|3:2,3:3:0:0:
465,261,32975,1,0,3:0:0:0:
465,261,33082,1,0,0:0:0:0:
465,261,33189,2,0,P|408:272|350:239,2,120,0|0|0,3:0|3:0|3:0,3:3:0:0:
481,359,34046,6,0,P|403:350|304:350,1,160,0|8,3:0|3:2,3:3:0:0:
240,358,34689,1,2,3:2:0:0:
240,358,34796,1,2,3:2:0:0:
240,358,34903,2,0,L|230:224,2,120,2|0|0,3:2|3:0|3:0,3:3:0:0:
160,354,35760,6,0,P|86:338|80:261,1,160,0|8,3:0|3:2,3:3:0:0:
123,193,36403,1,0,3:0:0:0:
123,193,36617,2,0,P|177:198|206:214,1,80,0|0,3:0|3:0,3:3:0:0:
259,266,37046,2,0,P|292:253|344:245,1,80,8|0,3:2|3:0,3:3:0:0:
416,274,37475,5,0,3:0:0:0:
416,274,37689,1,0,3:0:0:0:
410,185,37903,2,0,L|403:97,1,80,8|0,3:2|3:0,0:0:0:0:
395,22,38332,1,2,3:2:0:0:
318,70,38546,1,2,3:2:0:0:
318,70,38653,1,2,0:2:0:0:
318,70,38760,2,0,P|266:76|240:62,1,80,10|2,3:2|3:2,0:0:0:0:
168,41,39189,6,0,P|93:38|54:123,1,160,2|8,3:2|3:2,3:3:0:0:
79,186,39832,1,0,3:0:0:0:
79,186,40046,2,0,L|77:269,1,80,0|0,3:0|3:0,3:3:0:0:
166,265,40475,2,0,L|167:185,1,80,8|0,3:2|3:0,3:3:0:0:
227,121,40903,6,0,B|272:120|272:120|333:138|333:138|402:132,1,160,0|8,3:0|3:2,3:3:0:0:
451,190,41546,1,0,0:0:0:0:
408,267,41760,2,0,P|358:268|328:247,1,80,0|0,3:0|3:0,3:3:0:0:
327,209,42082,1,0,0:0:0:0:
327,209,42189,1,12,0:1:0:0:
198,88,42617,5,12,0:0:0:0:
109,94,42832,1,2,0:0:0:0:
115,183,43046,1,8,0:0:0:0:
204,177,43261,1,2,0:0:0:0:
272,222,43475,5,8,0:0:0:0:
361,228,43690,1,2,0:0:0:0:
355,317,43904,1,8,0:0:0:0:
266,311,44117,1,2,0:0:0:0:
185,307,44332,6,0,P|147:273|117:348,2,160,4|4|4,0:0|0:0|0:0,0:0:0:0:
111,147,45617,2,0,P|91:99|102:59,1,80,8|2,0:0|0:0,0:0:0:0:
173,31,46046,6,0,L|304:32,1,120,4|0,0:0|0:0,0:0:0:0:
324,62,46475,2,0,L|412:62,1,80,8|0,0:0|0:0,0:0:0:0:
463,126,46903,1,2,0:0:0:0:
467,145,47010,1,2,0:0:0:0:
466,165,47117,1,2,0:0:0:0:
461,184,47224,1,2,0:0:0:0:
451,202,47331,1,8,0:0:0:0:
372,163,47546,1,0,0:0:0:0:
290,195,47760,6,0,P|250:182|202:184,1,80,2|0,0:0|0:0,0:0:0:0:
133,143,48189,2,0,P|86:160|58:191,1,80,8|0,0:0|0:0,0:0:0:0:
55,267,48617,2,0,P|112:290|164:263,1,120,2|0,0:0|0:0,0:0:0:0:
205,259,49046,2,0,L|201:358,1,80,8|0,0:0|0:0,0:0:0:0:
289,349,49475,6,0,L|294:179,1,160,4|8,0:0|0:0,0:0:0:0:
275,103,50117,1,2,0:0:0:0:
195,138,50332,2,0,P|140:149|112:132,1,80,2|2,0:0|0:0,0:0:0:0:
106,97,50653,1,0,0:0:0:0:
106,97,50760,2,0,L|117:13,1,80,8|2,0:0|0:0,0:0:0:0:
198,49,51189,5,4,0:0:0:0:
285,57,51404,1,4,0:0:0:0:
372,65,51617,1,4,0:0:0:0:
459,73,51832,1,4,0:0:0:0:
406,143,52046,2,0,L|402:188,2,40,4|0|0,0:0|0:0|0:0,0:0:0:0:
321,134,52475,1,8,0:0:0:0:
321,134,52689,1,2,0:0:0:0:
233,137,52903,6,0,P|172:148|122:87,1,120,4|0,0:0|0:0,0:0:0:0:
132,69,53332,2,0,L|36:82,1,80,8|0,0:0|0:0,0:0:0:0:
26,163,53760,2,0,L|34:292,1,120,2|0,0:0|0:0,0:0:0:0:
16,323,54189,2,0,L|102:307,1,80,8|0,0:0|0:0,0:0:0:0:
164,255,54617,5,2,0:0:0:0:
177,342,54832,1,0,0:0:0:0:
247,290,55046,2,0,P|305:292|333:313,1,80,8|0,0:0|0:0,0:0:0:0:
409,314,55475,2,0,L|414:205,1,80,2|2,0:0|0:0,0:0:0:0:
421,190,55796,1,0,0:0:0:0:
421,190,55903,2,0,P|364:190|337:173,1,80,8|2,0:0|0:0,0:0:0:0:
305,102,56332,6,0,B|228:100|233:157|150:151,1,160,4|8,0:0|0:0,0:0:0:0:
96,88,56975,1,0,0:0:0:0:
66,168,57189,2,0,P|89:219|93:258,1,80,2|2,0:0|0:0,0:0:0:0:
70,327,57617,2,0,L|20:323,2,40,8|0|2,0:0|0:0|0:0,0:0:0:0:
158,321,58046,6,0,L|163:221,1,80,4|0,0:0|0:0,0:0:0:0:
249,251,58475,2,0,L|244:151,1,80,4|0,0:0|0:0,0:0:0:0:
206,91,58903,2,0,P|281:80|341:88,1,120,4|8,0:0|0:0,0:0:0:0:
367,96,59332,1,8,0:2:0:0:
428,158,59546,1,2,0:0:0:0:
411,252,59760,6,0,P|342:254|316:209,1,120,4|0,0:0|0:0,0:0:0:0:
305,173,60189,2,0,L|198:185,1,80,8|0,0:0|0:0,0:0:0:0:
173,110,60617,1,2,0:0:0:0:
166,91,60724,1,2,0:0:0:0:
165,71,60831,1,2,0:0:0:0:
172,52,60938,1,2,0:0:0:0:
184,36,61045,1,8,0:0:0:0:
267,66,61260,1,0,0:0:0:0:
351,40,61475,6,0,P|402:36|442:53,1,80,2|0,0:0|0:0,0:0:0:0:
420,132,61903,2,0,P|369:136|329:119,1,80,8|0,0:0|0:0,0:0:0:0:
321,212,62332,2,0,P|246:193|176:211,1,120,2|0,0:0|0:0,0:0:0:0:
162,209,62760,2,0,L|173:302,1,80,8|0,0:0|0:0,0:0:0:0:
154,375,63189,6,0,B|201:381|231:352|231:352|261:375|317:370,1,160,4|8,0:0|0:0,0:0:0:0:
375,319,63832,1,0,0:0:0:0:
454,356,64046,1,2,0:0:0:0:
504,284,64260,2,0,L|503:227,2,40,2|0|8,0:0|0:0|0:0,0:0:0:0:
454,356,64689,1,2,0:0:0:0:
375,319,64903,5,4,0:0:0:0:
290,338,65117,1,4,0:0:0:0:
203,354,65332,1,4,0:0:0:0:
116,370,65546,1,4,0:0:0:0:
53,307,65760,2,0,L|7:302,2,40,4|0|0,0:0|0:0|0:0,0:0:0:0:
110,240,66189,1,8,0:0:0:0:
110,240,66403,1,2,0:0:0:0:
104,152,66617,6,0,L|250:160,1,120,4|0,0:0|0:0,0:0:0:0:
244,119,67046,2,0,L|335:123,1,80,8|0,0:0|0:0,0:0:0:0:
396,71,67475,2,0,P|412:131|385:196,1,120,2|0,0:0|0:0,0:0:0:0:
373,223,67903,1,8,0:0:0:0:
292,187,68117,1,0,0:0:0:0:
227,247,68332,6,0,P|157:252|133:241,1,80,2|0,0:0|0:0,0:0:0:0:
96,180,68760,2,0,L|99:86,1,80,8|0,0:0|0:0,0:0:0:0:
86,57,69082,1,0,0:0:0:0:
86,57,69189,2,0,P|134:77|188:39,1,120,2|2,0:0|0:0,0:0:0:0:
230,39,69617,2,0,L|333:44,1,80,8|2,0:0|0:0,0:0:0:0:
365,111,70046,6,0,P|348:198|367:287,1,160,4|8,0:0|0:0,0:0:0:0:
433,316,70689,1,0,0:0:0:0:
359,267,70903,2,0,L|257:261,1,80,2|2,0:0|0:0,0:0:0:0:
212,319,71332,2,0,P|164:327|119:308,1,80,8|2,0:0|0:0,0:0:0:0:
84,236,71760,5,4,0:0:0:0:
63,150,71975,1,4,0:0:0:0:
137,104,72189,1,4,0:0:0:0:
205,158,72403,1,4,0:0:0:0:
178,241,72617,1,4,0:0:0:0:
178,241,73046,2,0,P|241:248|269:270,1,80,8|0,0:0|0:0,0:0:0:0:
337,284,73475,6,0,L|343:176,1,80,2|2,0:0|0:0,0:0:0:0:
346,160,73796,1,2,0:0:0:0:
346,160,73903,2,0,L|353:66,1,80,8|2,0:0|0:0,0:0:0:0:
268,52,74332,2,0,P|199:70|154:42,1,120,2|2,0:0|0:0,0:0:0:0:
120,27,74760,2,0,P|89:67|43:76,1,80,8|2,0:0|0:0,0:0:0:0:
49,163,75189,6,0,P|36:225|54:265,1,80,2|2,0:0|0:0,0:0:0:0:
59,278,75510,1,2,0:0:0:0:
59,278,75617,2,0,L|149:273,1,80,8|2,0:0|0:0,0:0:0:0:
199,208,76046,2,0,P|270:196|311:239,1,120,2|2,0:0|0:0,0:0:0:0:
300,268,76475,2,0,L|291:353,1,80,8|2,0:0|0:0,0:0:0:0:
203,342,76903,6,0,B|151:320|121:367|35:352,1,160,2|8,0:0|0:0,0:0:0:0:
26,267,77546,1,2,0:0:0:0:
64,188,77760,2,0,P|124:198|163:185,1,80,2|2,0:0|0:0,0:0:0:0:
162,154,78082,1,2,0:0:0:0:
162,154,78189,2,0,P|218:149|253:162,1,80,8|2,0:0|0:0,0:0:0:0:
317,113,78617,5,4,0:0:0:0:
317,113,78832,1,4,0:0:0:0:
384,169,79046,1,4,0:0:0:0:
374,256,79260,1,4,0:0:0:0:
361,343,79475,1,4,0:0:0:0:
198,275,79903,2,0,P|120:278|80:226,1,120,8|0,0:0|0:0,0:0:0:0:
93,208,80332,6,0,P|155:187|189:197,1,80,4|2,0:0|0:0,0:0:0:0:
239,138,80760,1,8,0:0:0:0:
309,191,80975,1,2,0:0:0:0:
309,191,81082,1,2,0:0:0:0:
309,191,81189,2,0,L|396:187,1,80,2|2,0:0|0:0,0:0:0:0:
475,201,81617,2,0,L|468:103,1,80,8|2,0:0|0:0,0:0:0:0:
453,34,82046,6,0,P|382:63|321:32,1,120,2|2,0:0|0:0,0:0:0:0:
301,37,82475,2,0,P|250:32|203:56,1,80,8|2,0:0|0:0,0:0:0:0:
135,43,82903,2,0,L|36:44,1,80,2|2,0:0|0:0,0:0:0:0:
24,76,83225,1,2,0:0:0:0:
24,76,83332,1,8,1:2:0:0:
0,161,83546,1,0,1:0:0:0:
68,216,83760,5,4,0:0:0:0:
147,177,83975,1,2,0:0:0:0:
147,177,84082,1,2,0:0:0:0:
147,177,84189,2,0,L|144:87,1,80,2|2,0:0|0:0,0:0:0:0:
226,66,84617,2,0,P|284:75|305:104,1,80,4|2,0:0|0:0,0:0:0:0:
384,101,85046,1,2,0:0:0:0:
384,101,85260,1,2,0:0:0:0:
342,178,85475,5,4,0:0:0:0:
287,247,85689,1,2,0:0:0:0:
205,215,85904,1,4,0:0:0:0:
210,127,86118,1,0,0:0:0:0:
297,108,86332,1,4,0:0:0:0:
297,108,86760,1,4,0:0:0:0:
