osu file format v14

[General]
AudioFilename: audio.mp3
AudioLeadIn: 0
PreviewTime: 45382
Countdown: 0
SampleSet: Soft
StackLeniency: 0.7
Mode: 0
LetterboxInBreaks: 0
WidescreenStoryboard: 0

[Editor]
Bookmarks: 32353,42638
DistanceSpacing: 0.9
BeatDivisor: 4
GridSize: 16
TimelineZoom: 1.4

[Metadata]
Title:Balalaika (TV Size)
TitleUnicode:バラライカ (TV Size)
Artist:Tsukishima Kirari (CV: Kusumi Koharu)
ArtistUnicode:月島きらり (CV: 久住小春)
Creator:Yorita Yoshino
Version:Idol
Source:きらりん☆レボリューション
Tags:BULGE Sako Shigeki 迫茂樹 OP opening anime japanese Mafumafu Regraz Yugu kirarin revolution kirarevo モーニング娘 Morning Musume
BeatmapID:2414778
BeatmapSetID:1157137

[Difficulty]
HPDrainRate:6
CircleSize:4
OverallDifficulty:7
ApproachRate:9
SliderMultiplier:1.8
SliderTickRate:1

[Events]
//Background and Video events
0,0,"123126.jpg",0,0
//Break Periods
//Storyboard Layer 0 (Background)
//Storyboard Layer 1 (Fail)
//Storyboard Layer 2 (Pass)
//Storyboard Layer 3 (Foreground)
//Storyboard Layer 4 (Overlay)
//Storyboard Sound Samples

[TimingPoints]
1475,428.571428571429,4,2,0,40,1,0
1689,-100,4,2,0,50,0,0
2332,-100,4,2,0,60,0,0
2760,-100,4,2,0,70,0,0
3189,-100,4,2,0,80,0,0
4903,-83.3333333333333,4,2,0,60,0,0
5332,-83.3333333333333,4,2,0,70,0,0
5760,-83.3333333333333,4,2,0,80,0,0
6617,-83.3333333333333,4,2,0,60,0,0
7046,-83.3333333333333,4,2,0,70,0,0
7475,-83.3333333333333,4,2,0,80,0,0
8332,-83.3333333333333,4,2,0,60,0,0
8760,-83.3333333333333,4,2,0,70,0,0
9189,-83.3333333333333,4,2,0,80,0,0
11332,-83.3333333333333,4,2,0,60,0,0
12189,-83.3333333333333,4,2,0,70,0,0
12617,-83.3333333333333,4,2,0,80,0,0
13475,-83.3333333333333,4,2,0,60,0,0
13903,-83.3333333333333,4,2,0,70,0,0
14332,-83.3333333333333,4,2,0,80,0,0
15189,-83.3333333333333,4,2,0,60,0,0
16046,-83.3333333333333,4,2,0,80,0,0
18189,-125,4,2,0,50,0,0
23760,-125,4,2,0,70,0,0
25046,-125,4,2,0,50,0,0
30617,-125,4,2,0,70,0,0
31689,-50,4,2,0,50,0,0
31903,-133.333333333333,4,2,0,70,0,0
32332,-111.111111111111,4,2,0,50,0,0
41760,-111.111111111111,4,2,0,50,0,0
42189,-111.111111111111,4,2,0,60,0,0
42618,-100,4,2,0,60,0,0
44332,-66.6666666666667,4,2,0,80,0,0
46046,-76.9230769230769,4,2,0,90,0,1
58046,-66.6666666666667,4,2,0,100,0,1
58903,-66.6666666666667,4,2,0,90,0,0
59332,-83.3333333333333,4,2,0,90,0,1
71760,-83.3333333333333,4,2,0,100,0,1
72617,-100,4,2,0,90,0,1
73475,-83.3333333333333,4,2,0,60,0,0
73903,-83.3333333333333,4,2,0,70,0,0
74332,-83.3333333333333,4,2,0,80,0,0
75189,-83.3333333333333,4,2,0,60,0,0
75617,-83.3333333333333,4,2,0,70,0,0
76046,-83.3333333333333,4,2,0,80,0,0
76903,-83.3333333333333,4,2,0,60,0,0
77332,-83.3333333333333,4,2,0,70,0,0
77760,-83.3333333333333,4,2,0,80,0,0
80332,-83.3333333333333,4,2,0,60,0,0
80760,-83.3333333333333,4,2,0,70,0,0
81189,-83.3333333333333,4,2,0,80,0,0
82046,-83.3333333333333,4,2,0,60,0,0
82475,-83.3333333333333,4,2,0,70,0,0
82903,-83.3333333333333,4,2,0,80,0,0
83867,-83.3333333333333,4,2,0,40,0,0
84617,-83.3333333333333,4,2,0,80,0,0
84725,-83.3333333333333,4,2,0,40,0,0
85475,-83.3333333333333,4,2,0,80,0,0

[Colours]
Combo1 : 255,128,192
Combo2 : 255,255,0
Combo3 : 255,128,128
Combo4 : 255,255,128

[HitObjects]
53,171,1475,5,6,1:2:0:0:
138,328,1689,5,2,0:0:0:0:
132,328,1796,1,2,0:0:0:0:
126,330,1903,5,2,0:0:0:0:
110,299,2010,1,2,0:0:0:0:
141,283,2117,1,2,0:0:0:0:
157,314,2225,1,2,0:0:0:0:
237,370,2332,5,2,1:2:0:0:
258,330,2439,1,2,0:0:0:0:
256,284,2546,1,2,0:0:0:0:
231,245,2653,1,2,0:0:0:0:
372,144,2760,5,2,0:0:0:0:
347,192,2867,1,2,0:0:0:0:
372,240,2975,1,2,0:0:0:0:
347,288,3082,1,2,0:0:0:0:
372,336,3189,6,0,L|432:326,1,45,0|0,1:0|0:0,0:0:0:0:
300,106,3403,6,0,L|256:110,1,45,0|0,1:0|0:0,0:0:0:0:
256,284,3617,6,0,L|326:289,1,45,0|0,1:0|0:0,0:0:0:0:
416,65,3832,6,0,L|372:58,1,45,0|0,1:0|0:0,0:0:0:0:
195,192,4046,6,0,B|167:171|127:214|83:212|62:193|87:171|108:181,1,135,0|0,1:0|0:0,0:0:0:0:
120,152,4475,2,0,P|133:211|120:239,1,90,8|0,0:0|0:0,0:0:0:0:
280,144,4903,5,4,0:0:0:0:
275,126,5010,1,2,0:0:0:0:
276,108,5117,1,2,0:0:0:0:
284,92,5224,1,2,0:0:0:0:
402,167,5332,5,8,0:0:0:0:
389,179,5439,1,2,0:0:0:0:
373,187,5546,1,2,0:0:0:0:
355,189,5653,1,2,0:0:0:0:
361,50,5760,5,2,0:0:0:0:
374,52,5867,1,2,0:0:0:0:
386,58,5974,1,2,0:0:0:0:
396,67,6081,1,2,0:0:0:0:
403,79,6189,2,0,P|386:58|293:63,1,107.999996704102,8|2,0:0|0:0,0:0:0:0:
151,222,6617,5,2,0:0:0:0:
167,214,6724,1,2,0:0:0:0:
184,207,6831,1,2,0:0:0:0:
200,200,6938,1,2,0:0:0:0:
90,283,7046,5,8,0:0:0:0:
76,272,7153,1,2,0:0:0:0:
61,262,7260,1,2,0:0:0:0:
47,251,7367,1,2,0:0:0:0:
173,304,7475,5,2,0:0:0:0:
171,317,7582,1,2,0:0:0:0:
170,331,7689,1,2,0:0:0:0:
168,344,7796,1,2,0:0:0:0:
166,357,7903,2,0,L|178:249,1,107.999996704102,8|2,0:0|0:0,0:0:0:0:
115,151,8332,5,2,0:0:0:0:
94,168,8439,1,2,0:0:0:0:
102,195,8546,1,2,0:0:0:0:
121,175,8653,1,2,0:0:0:0:
156,54,8760,5,8,0:0:0:0:
151,28,8867,1,2,0:0:0:0:
124,21,8974,1,2,0:0:0:0:
131,47,9081,1,2,0:0:0:0:
217,139,9189,5,2,0:0:0:0:
243,146,9296,1,2,0:0:0:0:
264,128,9403,1,2,0:0:0:0:
236,120,9510,1,2,0:0:0:0:
217,139,9617,2,0,L|347:104,1,107.999996704102,8|2,0:0|0:0,0:0:0:0:
402,180,10046,6,0,P|412:204|410:231,1,53.9999983520508,4|0,0:0|0:0,0:0:0:0:
308,310,10260,6,0,P|318:285|316:258,1,53.9999983520508,4|0,0:0|0:0,0:0:0:0:
217,139,10475,6,0,P|227:163|225:190,1,53.9999983520508,12|0,0:0|0:0,0:0:0:0:
123,351,10689,6,0,P|133:326|131:299,1,53.9999983520508,4|0,0:0|0:0,0:0:0:0:
30,84,10903,6,0,B|37:144|37:144|18:252,1,161.999995056153,4|0,0:0|0:0,0:0:0:0:
48,276,11332,2,0,P|56:233|-7:203,1,107.999996704102,8|0,0:0|0:0,0:0:0:0:
177,62,11760,5,4,0:0:0:0:
159,60,11867,1,2,0:0:0:0:
141,59,11974,1,2,0:0:0:0:
123,57,12081,1,2,0:0:0:0:
259,146,12189,5,8,0:0:0:0:
241,147,12296,1,2,0:0:0:0:
223,148,12403,1,2,0:0:0:0:
205,150,12510,1,2,0:0:0:0:
341,68,12617,5,2,0:0:0:0:
327,66,12724,1,2,0:0:0:0:
314,65,12831,1,2,0:0:0:0:
300,64,12938,1,2,0:0:0:0:
287,63,13046,2,0,L|394:71,1,107.999996704102,8|2,0:0|0:0,0:0:0:0:
473,239,13475,5,2,0:0:0:0:
472,256,13582,1,2,0:0:0:0:
469,274,13689,1,2,0:0:0:0:
462,291,13796,1,2,0:0:0:0:
365,206,13903,5,8,0:0:0:0:
365,188,14010,1,2,0:0:0:0:
368,170,14117,1,2,0:0:0:0:
375,153,14224,1,2,0:0:0:0:
259,257,14332,5,2,0:0:0:0:
260,271,14439,1,2,0:0:0:0:
258,284,14546,1,2,0:0:0:0:
254,297,14653,1,2,0:0:0:0:
248,309,14760,2,0,P|261:255|249:199,1,107.999996704102,8|2,0:0|0:0,0:0:0:0:
61,317,15189,5,4,0:0:0:0:
35,308,15296,1,2,0:0:0:0:
35,281,15403,1,2,0:0:0:0:
61,273,15510,1,2,0:0:0:0:
76,295,15617,6,0,L|71:374,1,53.9999983520508,8|0,0:0|0:0,0:0:0:0:
147,259,15832,1,2,0:0:0:0:
102,114,16046,5,4,0:0:0:0:
76,123,16153,1,2,0:0:0:0:
76,150,16260,1,2,0:0:0:0:
102,158,16367,1,2,0:0:0:0:
117,136,16474,6,0,L|112:57,1,53.9999983520508,8|0,0:0|0:0,0:0:0:0:
188,172,16689,1,2,0:0:0:0:
329,116,16903,5,4,0:0:0:0:
367,192,17010,1,2,0:0:0:0:
329,268,17117,1,2,0:0:0:0:
329,116,17332,6,0,L|343:40,1,53.9999983520508,12|0,0:0|0:0,0:0:0:0:
329,268,17546,6,0,L|343:344,1,53.9999983520508
367,192,17760,6,0,B|407:201|407:201|445:190|445:190|486:197,1,107.999996704102,12|0,0:0|0:0,0:0:0:0:
254,313,18189,6,0,P|242:251|255:223,1,72,8|0,1:0|0:0,0:0:0:0:
329,268,18617,1,6,0:0:0:0:
254,313,19046,6,0,P|242:251|255:223,1,72,8|0,0:0|0:0,0:0:0:0:
329,268,19474,1,2,0:0:0:0:
254,313,19903,6,0,P|242:251|255:223,1,72,8|0,0:0|0:0,0:0:0:0:
392,206,20332,2,0,B|391:183|391:183|346:131,1,72,2|0,0:0|0:0,0:0:0:0:
351,354,20760,2,0,B|371:365|371:365|439:352,1,72,8|0,0:0|0:0,0:0:0:0:
243,244,21189,2,0,B|223:255|223:255|201:320,1,72,2|0,0:0|0:0,0:0:0:0:
117,231,21617,6,0,L|12:245,1,72,8|0,0:0|0:0,0:0:0:0:
17,115,22046,2,0,L|174:125,1,144,2|8,0:0|0:0,0:0:0:0:
279,18,22689,1,2,0:0:0:0:
279,18,22903,2,0,P|284:53|272:86,1,72,2|2,0:0|0:0,0:0:0:0:
356,202,23332,2,0,P|361:166|349:133,1,72,8|2,0:0|0:0,0:0:0:0:
267,224,23760,5,2,0:0:0:0:
378,290,23975,1,2,0:0:0:0:
444,179,24189,1,8,0:0:0:0:
333,113,24403,1,2,0:0:0:0:
378,290,24617,1,2,0:0:0:0:
444,179,24832,1,2,0:0:0:0:
444,179,24939,1,2,0:0:0:0:
444,179,25046,6,0,B|428:147|428:147|439:90,1,72,8|8,0:0|0:0,0:0:0:0:
512,137,25475,1,2,0:0:0:0:
444,179,25903,6,0,B|428:147|428:147|439:90,1,72,8|0,0:0|0:0,0:0:0:0:
512,137,26332,1,2,0:0:0:0:
444,179,26760,6,0,B|428:147|428:147|439:90,1,72,8|0,0:0|0:0,0:0:0:0:
353,200,27189,2,0,L|274:191,1,72,2|0,0:0|0:0,0:0:0:0:
239,80,27617,2,0,L|310:71,1,72,8|0,0:0|0:0,0:0:0:0:
170,173,28046,2,0,L|91:164,1,72,2|0,0:0|0:0,0:0:0:0:
41,300,28475,6,0,P|86:292|124:321,1,72,8|0,0:0|0:0,0:0:0:0:
212,363,28903,2,0,B|241:373|241:373|376:355,1,144,2|8,0:0|0:0,0:0:0:0:
490,329,29546,1,2,0:0:0:0:
397,203,29760,2,0,P|399:257|420:291,1,72,2|2,0:0|0:0,0:0:0:0:
509,222,30189,2,0,P|507:168|486:134,1,72,8|2,0:0|0:0,0:0:0:0:
397,203,30617,5,2,0:0:0:0:
418,49,30832,1,2,0:0:0:0:
397,203,31046,5,2,0:0:0:0:
264,28,31260,1,2,0:0:0:0:
243,182,31475,1,2,0:0:0:0:
425,55,31689,6,0,P|429:53|410:53,1,90,8|0,0:3|0:0,0:0:0:0:
420,41,31903,6,0,L|416:132,1,67.5000025749208,4|0,0:3|0:0,0:0:0:0:
299,157,32332,6,0,B|284:74|284:74|309:-10,1,161.999995056153,4|8,3:0|3:2,3:0:0:0:
377,176,32975,1,0,3:0:0:0:
214,146,33189,2,0,P|151:142|96:174,2,121.499996292114,0|0|0,3:0|3:0|3:0,3:0:0:0:
253,244,34046,2,0,P|191:292|114:277,1,161.999995056153,0|8,3:0|3:2,3:0:0:0:
284,360,34689,1,2,3:2:0:0:
298,350,34796,1,2,3:2:0:0:
309,339,34903,2,0,B|337:328|337:328|454:351,2,121.499996292114,2|0|0,3:2|3:0|3:0,3:0:0:0:
486,281,35760,6,0,P|505:194|465:122,1,161.999995056153,0|8,3:0|3:2,3:0:0:0:
390,214,36403,1,0,3:0:0:0:
303,143,36617,2,0,B|288:96|288:96|303:54,1,80.9999975280763,0|0,3:0|3:0,3:0:0:0:
193,13,37046,2,0,L|85:27,1,80.9999975280763,8|0,3:2|3:0,3:0:0:0:
38,183,37475,5,0,3:0:0:0:
162,113,37689,1,0,3:0:0:0:
102,242,37903,1,8,3:2:0:0:
75,103,38117,1,0,3:0:0:0:
179,199,38332,1,2,3:2:0:0:
189,198,38439,1,2,0:2:0:0:
199,197,38546,1,2,3:2:0:0:
209,196,38653,1,2,0:2:0:0:
219,195,38760,1,10,3:2:0:0:
309,301,38975,5,2,3:2:0:0:
319,301,39082,1,2,3:2:0:0:
329,302,39189,2,0,B|436:311|436:311|487:270,1,161.999995056153,2|8,3:2|3:2,3:0:0:0:
401,201,39832,1,0,3:0:0:0:
329,302,40046,2,0,P|323:364|345:399,1,80.9999975280763,0|0,3:0|3:0,3:0:0:0:
235,243,40475,2,0,P|229:181|251:146,1,80.9999975280763,8|0,3:2|3:0,3:0:0:0:
181,333,40903,6,0,B|97:357|97:357|14:347,1,161.999995056153,0|8,3:0|3:2,3:0:0:0:
63,157,41760,6,0,P|91:216|79:255,1,80.9999975280763,0|0,3:0|3:0,3:0:0:0:
4,221,42189,1,12,0:1:0:0:
281,56,42617,5,12,0:0:0:0:
261,188,42832,1,2,0:0:0:0:
393,208,43046,1,8,0:0:0:0:
413,76,43260,1,2,0:0:0:0:
245,199,43475,5,8,0:0:0:0:
428,64,43690,1,2,0:0:0:0:
404,223,43904,1,8,0:0:0:0:
269,40,44118,1,2,0:0:0:0:
415,238,44332,6,0,B|360:264|316:240|316:240|262:211|205:249,1,202.500007724762,4|0,0:0|0:0,0:0:0:0:
219,260,44760,6,0,B|260:231|314:260|314:260|358:284|413:258,1,202.500007724762,4|0,0:0|0:0,0:0:0:0:
415,238,45189,6,0,B|381:225|369:188|369:188|321:260|373:313,1,202.500007724762,4|0,0:0|0:0,0:0:0:0:
443,166,45617,5,8,0:0:0:0:
401,34,45832,1,2,0:0:0:0:
306,126,46046,6,0,B|267:136|267:136|147:106,1,116.999994644165,4|0,0:0|0:0,0:0:0:0:
140,0,46367,2,0,P|149:28|144:64,1,58.4999973220826,0|8,0:0|0:0,0:0:0:0:
118,125,46689,1,0,0:0:0:0:
91,340,46903,5,0,1:0:0:0:
158,294,47010,1,2,0:0:0:0:
156,281,47117,1,2,0:0:0:0:
154,268,47225,1,2,0:0:0:0:
152,255,47332,2,0,B|130:178|72:161,1,116.999994644165,8|0,0:0|0:0,0:0:0:0:
268,330,47760,6,0,P|346:327|397:347,1,116.999994644165,2|0,0:0|0:0,0:0:0:0:
444,290,48082,2,0,B|456:251|456:251|453:233,1,58.4999973220826,0|8,0:0|0:0,0:0:0:0:
457,370,48403,1,0,0:0:0:0:
462,31,48617,6,0,B|458:147,1,116.999994644165,2|0,0:0|0:0,0:0:0:0:
512,217,48939,1,0,0:0:0:0:
447,132,49046,2,0,P|378:117|323:167,1,116.999994644165,8|0,0:0|0:0,0:0:0:0:
259,252,49475,6,0,B|222:208|234:142|234:142|222:208|171:235,1,233.999989288331,4|8,0:0|0:0,0:0:0:0:
0,257,50117,1,2,0:0:0:0:
150,341,50332,1,2,0:0:0:0:
79,185,50546,1,2,0:0:0:0:
45,353,50760,1,8,0:0:0:0:
171,237,50975,1,2,0:0:0:0:
0,144,51189,6,0,L|10:76,1,58.4999973220826,4|0,0:0|0:0,0:0:0:0:
87,273,51403,6,0,L|97:341,1,58.4999973220826,4|0,0:0|0:0,0:0:0:0:
171,124,51617,6,0,L|181:56,1,58.4999973220826,4|0,0:0|0:0,0:0:0:0:
258,293,51831,6,0,L|268:361,1,58.4999973220826,4|0,0:0|0:0,0:0:0:0:
342,104,52046,6,0,P|413:143|369:149,1,175.499991966248,4|0,0:0|0:0,0:0:0:0:
345,183,52475,5,8,0:0:0:0:
419,337,52689,1,2,0:0:0:0:
249,325,52903,6,0,B|200:315|200:315|101:330,1,116.999994644165,4|0,0:0|0:0,0:0:0:0:
61,384,53225,2,0,P|49:359|54:329,1,58.4999973220826,0|8,0:0|0:0,0:0:0:0:
91,254,53546,1,0,0:0:0:0:
43,18,53760,6,0,B|38:52|38:52|43:57|43:57|52:89|52:89|46:88|46:88|42:125,1,116.999994644165,2|0,0:0|0:0,0:0:0:0:
0,197,54082,1,0,0:0:0:0:
57,106,54189,2,0,P|118:126|130:176,1,116.999994644165,8|0,0:0|0:0,0:0:0:0:
192,33,54617,6,0,L|322:29,1,116.999994644165,2|0,0:0|0:0,0:0:0:0:
356,147,54939,2,0,B|366:113|366:113|358:79,1,58.4999973220826,0|8,0:0|0:0,0:0:0:0:
389,22,55260,1,0,0:0:0:0:
466,275,55475,6,0,B|443:233|443:233|460:152,1,116.999994644165,2|2,0:0|0:0,0:0:0:0:
491,17,55796,1,0,0:0:0:0:
445,81,55903,2,0,P|471:94|500:95,1,58.4999973220826,8|2,0:0|0:0,0:0:0:0:
333,36,56117,2,0,P|359:23|388:21,1,58.4999973220826,2|2,0:0|0:0,0:0:0:0:
358,138,56332,6,0,B|307:183|247:152|247:152|181:122|113:170,1,233.999989288331,4|8,0:0|0:0,0:0:0:0:
198,252,56975,1,0,0:0:0:0:
195,54,57189,1,2,0:0:0:0:
26,156,57403,1,2,0:0:0:0:
139,154,57617,1,8,0:0:0:0:
82,56,57832,1,2,0:0:0:0:
132,283,58046,6,0,B|153:231|153:231|139:154,1,135.000005149842,4|0,0:0|0:0,0:0:0:0:
379,283,58475,6,0,B|358:231|358:231|373:154,1,135.000005149842,4|0,0:0|0:0,0:0:0:0:
256,361,58903,5,4,0:0:0:0:
454,263,59225,5,8,0:0:0:0:
379,283,59332,6,0,P|442:306|452:347,1,107.999996704102,8|2,0:2|0:0,0:0:0:0:
321,184,59760,6,0,L|336:62,1,107.999996704102,4|0,0:0|0:0,0:0:0:0:
465,107,60082,2,0,P|432:114|412:105,1,53.9999983520508,0|8,0:0|0:0,0:0:0:0:
398,25,60403,1,0,0:0:0:0:
227,0,60617,5,0,1:0:0:0:
180,62,60725,1,2,0:0:0:0:
167,60,60832,1,2,0:0:0:0:
154,58,60940,1,2,0:0:0:0:
141,56,61046,2,0,L|21:65,1,107.999996704102,8|0,0:0|0:0,0:0:0:0:
70,321,61475,6,0,P|92:261|74:212,1,107.999996704102,2|0,0:0|0:0,0:0:0:0:
58,145,61796,2,0,L|132:149,1,53.9999983520508,0|8,0:0|0:0,0:0:0:0:
7,203,62117,1,0,0:0:0:0:
154,327,62332,6,0,L|297:319,1,107.999996704102,2|0,0:0|0:0,0:0:0:0:
311,381,62653,1,0,0:0:0:0:
280,307,62760,2,0,P|292:256|260:203,1,107.999996704102,8|0,0:0|0:0,0:0:0:0:
443,356,63189,6,0,B|388:315|418:240|418:240|466:209|457:128,1,215.999993408203,4|8,0:0|0:0,0:0:0:0:
488,289,63832,1,0,0:0:0:0:
364,159,64046,1,2,0:0:0:0:
394,265,64260,1,2,0:0:0:0:
440,81,64475,1,8,0:0:0:0:
258,132,64689,1,2,0:0:0:0:
310,372,64903,6,0,P|354:384|386:375,1,53.9999983520508,4|0,0:0|0:0,0:0:0:0:
206,372,65117,6,0,P|162:384|130:375,1,53.9999983520508,4|0,0:0|0:0,0:0:0:0:
338,268,65332,6,0,P|368:260|402:218,1,53.9999983520508,4|0,0:0|0:0,0:0:0:0:
178,268,65546,6,0,P|148:260|114:218,1,53.9999983520508,4|0,0:0|0:0,0:0:0:0:
254,38,65760,6,0,B|228:84|251:124|251:124|276:169|236:227,1,161.999995056153,4|0,0:0|0:0,0:0:0:0:
181,165,66189,5,8,0:0:0:0:
319,82,66403,1,2,0:0:0:0:
420,210,66617,6,0,L|407:327,1,107.999996704102,4|0,0:0|0:0,0:0:0:0:
367,384,66939,2,0,B|327:373|327:373|314:373,1,53.9999983520508,0|8,0:0|0:0,0:0:0:0:
444,384,67260,1,0,0:0:0:0:
66,339,67475,6,0,B|95:336|95:336|105:327|105:327|133:336|133:336|142:327|142:327|178:333,1,107.999996704102,2|0,0:0|0:0,0:0:0:0:
314,373,67796,1,0,0:0:0:0:
251,320,67903,2,0,P|249:264|286:222,1,107.999996704102,8|0,0:0|0:0,0:0:0:0:
173,173,68332,6,0,L|177:44,1,107.999996704102,2|0,0:0|0:0,0:0:0:0:
93,78,68653,2,0,P|49:66|3:75,1,53.9999983520508,0|8,0:0|0:0,0:0:0:0:
119,0,68975,1,0,0:0:0:0:
149,324,69189,6,0,P|118:301|108:213,1,107.999996704102,2|2,0:0|0:0,0:0:0:0:
158,94,69510,1,2,0:0:0:0:
88,149,69617,2,0,P|61:146|35:136,1,53.9999983520508,8|2,0:0|0:0,0:0:0:0:
63,14,69832,2,0,P|90:17|116:27,1,53.9999983520508,2|2,0:0|0:0,0:0:0:0:
158,94,70046,6,0,B|250:98|250:98|275:77|275:77|372:71,1,215.999993408203,4|8,0:0|0:0,0:0:0:0:
460,154,70689,1,0,0:0:0:0:
287,259,70903,1,2,0:0:0:0:
366,71,71117,1,2,0:0:0:0:
411,270,71332,1,8,0:0:0:0:
258,136,71546,1,2,0:0:0:0:
460,154,71760,6,0,P|498:159|526:138,1,53.9999983520508,4|0,0:0|0:0,0:0:0:0:
366,71,71975,6,0,P|382:36|371:4,1,53.9999983520508,4|0,0:0|0:0,0:0:0:0:
258,136,72189,6,0,P|230:109|195:110,1,53.9999983520508,4|0,0:0|0:0,0:0:0:0:
285,258,72404,6,0,P|251:276|241:309,1,53.9999983520508,4|0,0:0|0:0,0:0:0:0:
411,270,72617,6,0,P|417:307|508:334,1,135,4|0,0:0|0:0,0:0:0:0:
499,323,73046,2,0,L|493:209,1,90,8|0,0:0|0:0,0:0:0:0:
359,268,73475,5,2,0:0:0:0:
375,274,73582,1,2,0:0:0:0:
393,275,73689,1,2,0:0:0:0:
411,270,73796,1,2,0:0:0:0:
266,260,73903,5,8,0:0:0:0:
252,271,74010,1,2,0:0:0:0:
242,286,74117,1,2,0:0:0:0:
237,303,74224,1,2,0:0:0:0:
319,183,74332,5,2,0:0:0:0:
317,169,74439,1,2,0:0:0:0:
312,157,74546,1,2,0:0:0:0:
305,145,74653,1,2,0:0:0:0:
295,136,74760,2,0,P|312:156|296:273,1,107.999996704102,8|2,0:0|0:0,0:0:0:0:
129,315,75189,5,2,0:0:0:0:
111,313,75296,1,2,0:0:0:0:
93,312,75403,1,2,0:0:0:0:
75,310,75510,1,2,0:0:0:0:
163,199,75617,5,8,0:0:0:0:
170,215,75724,1,2,0:0:0:0:
178,231,75831,1,2,0:0:0:0:
186,247,75938,1,2,0:0:0:0:
44,227,76046,5,2,0:0:0:0:
52,216,76153,1,2,0:0:0:0:
60,205,76260,1,2,0:0:0:0:
68,194,76367,1,2,0:0:0:0:
76,183,76475,2,0,L|14:271,1,107.999996704102,8|2,0:0|0:0,0:0:0:0:
211,111,76903,5,2,0:0:0:0:
204,74,77011,1,2,0:0:0:0:
167,82,77118,1,2,0:0:0:0:
175,119,77225,1,2,0:0:0:0:
248,217,77332,5,8,0:0:0:0:
219,241,77440,1,2,0:0:0:0:
244,269,77547,1,2,0:0:0:0:
272,244,77654,1,2,0:0:0:0:
321,133,77760,5,2,0:0:0:0:
356,145,77868,1,2,0:0:0:0:
368,109,77975,1,2,0:0:0:0:
332,97,78082,1,2,0:0:0:0:
321,133,78189,2,0,L|452:128,1,107.999996704102,8|2,0:0|0:0,0:0:0:0:
288,245,78617,6,0,L|219:235,1,53.9999983520508,4|0,0:0|0:0,0:0:0:0:
230,361,78832,6,0,L|283:353,1,53.9999983520508,4|0,0:0|0:0,0:0:0:0:
142,263,79046,6,0,P|135:298|143:330,1,53.9999983520508,4|0,0:0|0:0,0:0:0:0:
374,315,79260,6,0,P|376:289|370:263,1,53.9999983520508,4|0,0:0|0:0,0:0:0:0:
178,99,79475,6,0,P|255:119|335:99,1,161.999995056153,4|0,0:0|0:0,0:0:0:0:
341,82,79903,2,0,B|322:124|322:124|336:214,1,107.999996704102,8|0,0:0|0:0,0:0:0:0:
493,86,80332,5,4,0:0:0:0:
495,68,80439,1,2,0:0:0:0:
497,50,80546,1,2,0:0:0:0:
499,32,80653,1,2,0:0:0:0:
413,161,80760,5,8,0:0:0:0:
410,143,80867,1,2,0:0:0:0:
408,125,80974,1,2,0:0:0:0:
406,107,81081,1,2,0:0:0:0:
494,236,81189,5,2,0:0:0:0:
495,222,81296,1,2,0:0:0:0:
497,209,81403,1,2,0:0:0:0:
498,195,81510,1,2,0:0:0:0:
500,182,81617,2,0,L|487:289,1,107.999996704102,8|2,0:0|0:0,0:0:0:0:
307,337,82046,5,2,0:0:0:0:
325,334,82153,1,2,0:0:0:0:
343,337,82260,1,2,0:0:0:0:
359,344,82367,1,2,0:0:0:0:
229,257,82475,5,8,0:0:0:0:
246,259,82582,1,2,0:0:0:0:
264,256,82689,1,2,0:0:0:0:
280,249,82796,1,2,0:0:0:0:
150,329,82903,5,2,0:0:0:0:
163,326,83010,1,2,0:0:0:0:
176,327,83117,1,2,0:0:0:0:
189,330,83224,1,2,0:0:0:0:
201,336,83332,6,0,P|206:300|195:267,1,53.9999983520508,8|0,1:2|0:0,0:0:0:0:
109,191,83546,6,0,P|114:227|103:260,1,53.9999983520508,0|0,1:0|0:0,0:0:0:0:
25,152,83760,5,4,0:0:0:0:
40,148,83867,1,2,0:0:0:0:
63,134,83975,1,2,0:0:0:0:
85,103,84082,1,2,0:0:0:0:
83,54,84189,2,0,B|111:32|111:32|214:40,1,107.999996704102,2|2,0:0|0:0,0:0:0:0:
341,23,84617,5,4,0:0:0:0:
357,22,84725,1,2,0:0:0:0:
383,28,84832,1,2,0:0:0:0:
414,49,84939,1,2,0:0:0:0:
429,95,85046,2,0,P|406:146|430:220,1,107.999996704102,2|2,0:0|0:0,0:0:0:0:
332,266,85475,5,4,0:0:0:0:
256,287,85582,1,2,0:0:0:0:
180,266,85689,1,2,0:0:0:0:
332,266,85903,6,0,P|346:308|335:341,1,53.9999983520508,4|0,0:0|0:0,0:0:0:0:
180,266,86117,6,0,P|166:308|177:341,1,53.9999983520508
256,287,86332,6,0,B|256:205|256:205|269:167|269:167|246:116|246:116|260:53,1,215.999993408203,4|4,0:0|0:0,0:0:0:0:
