osu file format v14

[General]
AudioFilename: audio.ogg
AudioLeadIn: 0
PreviewTime: 50983
Countdown: 0
SampleSet: Soft
StackLeniency: 0.3
Mode: 0
LetterboxInBreaks: 0
WidescreenStoryboard: 1

[Editor]
Bookmarks: 35983,36143,36303,55770,55930,92472,106834,106994,174333
DistanceSpacing: 0.3
BeatDivisor: 4
GridSize: 8
TimelineZoom: 5.399998

[Metadata]
Title:Mental Chainsaw
TitleUnicode:メンタルチェンソー
Artist:Tsukino x Kurousagi Uru
ArtistUnicode:月乃×黒兎ウル
Creator:MuChin
Version:Paranoid
Source:
Tags:かいりきベア Kairiki bear pop vtuber virtual youtuber cover utaite 歌い手 female japanese jpop j-pop GfMRT SnowNiNo_ bkmoonp1g-
BeatmapID:3705040
BeatmapSetID:1806660

[Difficulty]
HPDrainRate:6
CircleSize:4
OverallDifficulty:8.8
ApproachRate:9.4
SliderMultiplier:2
SliderTickRate:1

[Events]
//Background and Video events
0,0,"bg.jpg",0,0
//Break Periods
//Storyboard Layer 0 (Background)
//Storyboard Layer 1 (Fail)
//Storyboard Layer 2 (Pass)
//Storyboard Layer 3 (Foreground)
//Storyboard Layer 4 (Overlay)
//Storyboard Sound Samples

[TimingPoints]
-1197,319.148936170213,4,2,0,50,1,0
717,-166.666666666667,4,2,1,70,0,0
1356,-125,4,2,1,70,0,0
1994,-100,4,2,1,70,0,0
3271,-83.3333333333333,4,2,1,70,0,0
3590,-66.6666666666667,4,2,1,70,0,0
3829,-66.6666666666667,4,2,1,5,0,0
3909,-66.6666666666667,4,2,1,60,0,0
4068,-100,4,2,2,60,0,0
4228,-100,4,2,1,60,0,0
4388,-100,4,2,2,60,0,0
4547,-100,4,2,1,60,0,0
4706,-100,4,2,3,60,0,0
4787,-100,4,2,1,60,0,0
5025,-100,4,2,2,60,0,0
5185,-100,4,2,1,60,0,0
5345,-100,4,2,2,60,0,0
5425,-100,4,2,1,60,0,0
5664,-100,4,2,2,60,0,0
5824,-100,4,2,1,60,0,0
5983,-100,4,2,2,60,0,0
6143,-303.030303030303,4,2,1,60,0,0
6303,-303.030303030303,4,2,3,60,0,0
6382,-303.030303030303,4,2,3,5,0,0
6462,-303.030303030303,4,2,1,60,0,0
6622,-100,4,2,2,60,0,0
6781,-100,4,2,1,60,0,0
6941,-100,4,2,2,60,0,0
7100,-100,4,2,1,60,0,0
7259,-100,4,2,3,60,0,0
7340,-100,4,2,1,60,0,0
7579,-100,4,2,2,60,0,0
7739,-100,4,2,1,60,0,0
7898,-100,4,2,2,60,0,0
7978,-100,4,2,1,60,0,0
8217,-100,4,2,2,60,0,0
8377,-100,4,2,1,60,0,0
8537,-100,4,2,2,60,0,0
8696,-303.030303030303,4,2,1,60,0,0
8856,-303.030303030303,4,2,3,60,0,0
8935,-303.030303030303,4,2,3,5,0,0
9015,-303.030303030303,4,2,1,60,0,0
9175,-100,4,2,2,60,0,0
9334,-100,4,2,1,60,0,0
9494,-100,4,2,2,60,0,0
9654,-100,4,2,1,60,0,0
9813,-100,4,2,3,60,0,0
9893,-100,4,2,1,60,0,0
10132,-100,4,2,2,60,0,0
10292,-100,4,2,1,60,0,0
10451,-100,4,2,2,60,0,0
10531,-100,4,2,1,60,0,0
10771,-100,4,2,2,60,0,0
10930,-100,4,2,1,60,0,0
11090,-100,4,2,2,60,0,0
11249,-333.333333333333,4,2,1,60,0,0
11409,-333.333333333333,4,2,3,60,0,0
11488,-333.333333333333,4,2,3,5,0,0
11568,-333.333333333333,4,2,1,60,0,0
11728,-100,4,2,2,60,0,0
11888,-100,4,2,1,60,0,0
12047,-100,4,2,2,60,0,0
12207,-100,4,2,1,60,0,0
12366,-100,4,2,3,60,0,0
12446,-100,4,2,1,60,0,0
12685,-100,4,2,2,60,0,0
12845,-100,4,2,1,60,0,0
13005,-100,4,2,2,60,0,0
13084,-100,4,2,1,60,0,0
13324,-100,4,2,2,60,0,0
13483,-100,4,2,1,60,0,0
13643,-100,4,2,2,60,0,0
13803,-333.333333333333,4,2,1,60,0,0
14042,-333.333333333333,4,2,1,5,0,0
14122,-66.6666666666667,4,2,1,60,0,0
14361,-66.6666666666667,4,2,1,5,0,0
14441,-125,4,2,1,60,0,0
16276,-125,4,2,1,5,0,0
16356,-125,4,2,1,60,0,0
16595,-125,4,2,1,5,0,0
16675,-125,4,2,1,60,0,0
17792,-66.6666666666667,4,2,1,60,0,0
18590,-125,4,2,1,60,0,0
19148,-125,4,2,1,5,0,0
19228,-125,4,2,1,60,0,0
19786,-125,4,2,1,5,0,0
19866,-125,4,2,1,60,0,0
21941,-500,4,2,1,60,0,0
22180,-500,4,2,1,5,0,0
22260,-125,4,2,1,60,0,0
22420,-500,4,2,1,60,0,0
22659,-500,4,2,1,5,0,0
22739,-125,4,2,1,60,0,0
24015,-500,4,2,1,60,0,0
24254,-500,4,2,1,5,0,0
24334,-500,4,2,1,60,0,0
24494,-100,4,2,1,60,0,0
24813,-100,4,2,3,60,0,0
24973,-100,4,2,1,60,0,0
25132,-100,4,2,3,60,0,0
25212,-100,4,2,1,60,0,0
25451,-100,4,2,2,60,0,0
25611,-100,4,2,1,60,0,0
25771,-100,4,2,2,60,0,0
25850,-100,4,2,1,60,0,0
26090,-100,4,2,2,60,0,0
26249,-100,4,2,1,60,0,0
26409,-100,4,2,2,60,0,0
26568,-303.030303030303,4,2,1,60,0,0
26728,-303.030303030303,4,2,3,60,0,0
26807,-303.030303030303,4,2,3,5,0,0
26888,-303.030303030303,4,2,1,60,0,0
27047,-100,4,2,2,60,0,0
27207,-100,4,2,1,60,0,0
27366,-100,4,2,2,60,0,0
27526,-100,4,2,1,60,0,0
27685,-100,4,2,3,60,0,0
27765,-100,4,2,1,60,0,0
28004,-100,4,2,2,60,0,0
28164,-100,4,2,1,60,0,0
28324,-100,4,2,2,60,0,0
28404,-100,4,2,1,60,0,0
28643,-100,4,2,2,60,0,0
28803,-100,4,2,1,60,0,0
28962,-100,4,2,2,60,0,0
29122,-333.333333333333,4,2,1,60,0,0
29281,-333.333333333333,4,2,3,60,0,0
29361,-333.333333333333,4,2,3,5,0,0
29441,-66.6666666666667,4,2,1,60,0,0
29680,-66.6666666666667,4,2,1,5,0,0
29760,-125,4,2,1,60,0,0
31595,-125,4,2,1,5,0,0
31675,-166.666666666667,4,2,1,60,0,0
33350,-166.666666666667,4,2,1,5,0,0
33430,-166.666666666667,4,2,1,60,0,0
34148,-166.666666666667,4,2,1,5,0,0
34228,-125,4,2,1,60,0,0
34467,-125,4,2,1,5,0,0
34547,-125,4,2,1,60,0,0
35105,-125,4,2,1,5,0,0
35185,-125,4,2,1,60,0,0
36462,-166.666666666667,4,2,1,60,0,0
36622,-111.111111111111,4,2,1,60,0,0
36781,-66.6666666666667,4,2,1,60,0,0
37020,-66.6666666666667,4,2,1,5,0,0
37100,-125,4,2,1,60,0,0
37260,-500,4,2,1,60,0,0
37499,-500,4,2,1,5,0,0
37579,-125,4,2,1,60,0,0
37739,-500,4,2,1,60,0,0
37978,-500,4,2,1,5,0,0
38058,-125,4,2,1,60,0,0
39334,-76.9230769230769,4,2,1,60,0,0
39573,-83.3333333333333,4,2,1,5,0,0
39654,-125,4,2,1,50,0,0
39893,-125,4,2,1,5,0,0
39973,-125,4,2,1,70,0,0
40292,-62.5,4,2,1,70,0,0
40451,-333.333333333333,4,2,1,70,0,0
40690,-333.333333333333,4,2,1,5,0,0
40771,-66.6666666666667,4,2,1,50,0,0
41010,-66.6666666666667,4,2,1,5,0,0
41090,-66.6666666666667,4,2,1,60,0,0
41888,-333.333333333333,4,2,1,60,0,0
42127,-333.333333333333,4,2,1,5,0,0
42207,-125,4,2,1,50,0,0
42446,-125,4,2,1,5,0,0
42526,-125,4,2,1,60,0,0
42845,-62.5,4,2,1,70,0,0
43005,-333.333333333333,4,2,1,70,0,0
43244,-333.333333333333,4,2,1,5,0,0
43324,-66.6666666666667,4,2,1,70,0,0
43563,-66.6666666666667,4,2,1,5,0,0
43643,-66.6666666666667,4,2,1,60,0,0
44441,-333.333333333333,4,2,1,70,0,0
44680,-333.333333333333,4,2,1,5,0,0
44760,-125,4,2,1,50,0,0
44999,-125,4,2,1,5,0,0
45079,-125,4,2,1,60,0,0
45398,-62.5,4,2,1,70,0,0
45558,-333.333333333333,4,2,1,70,0,0
45797,-333.333333333333,4,2,1,5,0,0
45877,-66.6666666666667,4,2,1,70,0,0
46116,-66.6666666666667,4,2,1,5,0,0
46196,-66.6666666666667,4,2,1,60,0,0
46994,-333.333333333333,4,2,1,60,0,0
47233,-333.333333333333,4,2,1,5,0,0
47313,-111.111111111111,4,2,1,60,0,0
48590,-83.3333333333333,4,2,1,60,0,0
48829,-83.3333333333333,4,2,1,5,0,0
48909,-111.111111111111,4,2,1,60,0,0
49148,-111.111111111111,4,2,1,5,0,0
49228,-111.111111111111,4,2,1,60,0,0
49547,-66.6666666666667,4,2,1,60,0,0
49786,-66.6666666666667,4,2,1,5,0,0
49866,-66.6666666666667,4,2,1,60,0,0
50505,-83.3333333333333,4,2,1,60,0,0
50824,-250,4,2,1,60,0,0
51063,-250,4,2,1,5,0,0
51143,319.148936170213,4,2,1,80,1,1
51143,-83.3333333333333,4,2,1,80,0,1
51382,-83.3333333333333,4,2,1,5,0,1
51462,-83.3333333333333,4,2,1,80,0,1
53775,-83.3333333333333,4,2,1,5,0,1
53855,-83.3333333333333,4,2,1,80,0,1
55052,-83.3333333333333,4,2,1,5,0,1
55132,-83.3333333333333,4,2,1,80,0,1
56089,-166.666666666667,4,2,1,80,0,1
56249,-83.3333333333333,4,2,1,80,0,1
56488,-83.3333333333333,4,2,1,5,0,1
56568,-83.3333333333333,4,2,1,80,0,1
58882,-83.3333333333333,4,2,1,5,0,1
58962,-83.3333333333333,4,2,1,80,0,1
61355,-100,4,2,1,60,0,0
61594,-100,4,2,1,5,0,0
61674,-100,4,2,1,60,0,0
61913,-100,4,2,1,5,0,0
61994,-100,4,2,1,60,0,0
62153,-303.030303030303,4,2,1,60,0,0
62392,-303.030303030303,4,2,1,5,0,0
62472,-66.6666666666667,4,2,1,60,0,0
63270,-100,4,2,1,60,0,0
63509,-100,4,2,1,5,0,0
63589,-100,4,2,1,60,0,0
64147,-100,4,2,1,5,0,0
64228,-100,4,2,1,60,0,0
64467,-100,4,2,1,5,0,0
64547,-100,4,2,1,60,0,0
64706,-303.030303030303,4,2,1,60,0,0
64945,-303.030303030303,4,2,1,5,0,0
65025,-66.6666666666667,4,2,1,60,0,0
65823,-100,4,2,1,60,0,0
66062,-100,4,2,1,5,0,0
66143,-100,4,2,1,60,0,0
66701,-100,4,2,1,5,0,0
66781,-100,4,2,1,60,0,0
67020,-100,4,2,1,5,0,0
67100,-100,4,2,1,60,0,0
67260,-303.030303030303,4,2,1,60,0,0
67499,-303.030303030303,4,2,1,5,0,0
67579,-66.6666666666667,4,2,1,60,0,0
68377,-100,4,2,1,60,0,0
69015,-100,4,2,1,70,0,0
69254,-100,4,2,1,5,0,0
69334,-100,4,2,1,70,0,0
69573,-100,4,2,1,5,0,0
69653,-100,4,2,1,70,0,0
69813,-303.030303030303,4,2,1,70,0,0
70052,-303.030303030303,4,2,1,5,0,0
70132,-66.6666666666667,4,2,1,70,0,0
70371,-66.6666666666667,4,2,1,5,0,0
70451,-66.6666666666667,4,2,1,70,0,0
71249,-333.333333333333,4,2,1,70,0,0
71488,-333.333333333333,4,2,1,5,0,0
71568,-333.333333333333,4,2,1,60,0,0
71728,-100,4,2,1,60,0,0
72047,-100,4,2,2,60,0,0
72206,-100,4,2,1,60,0,0
72365,-100,4,2,3,60,0,0
72446,-100,4,2,1,60,0,0
72684,-100,4,2,2,60,0,0
72845,-100,4,2,1,60,0,0
73004,-100,4,2,2,60,0,0
73084,-100,4,2,1,60,0,0
73323,-100,4,2,2,60,0,0
73483,-100,4,2,1,60,0,0
73643,-100,4,2,2,60,0,0
73802,-303.030303030303,4,2,1,60,0,0
73962,-303.030303030303,4,2,3,60,0,0
74041,-303.030303030303,4,2,3,5,0,0
74121,-303.030303030303,4,2,1,60,0,0
74281,-100,4,2,2,60,0,0
74440,-100,4,2,1,60,0,0
74600,-100,4,2,2,60,0,0
74760,-100,4,2,1,60,0,0
74919,-100,4,2,3,60,0,0
74999,-100,4,2,1,60,0,0
75238,-100,4,2,2,60,0,0
75398,-100,4,2,1,60,0,0
75557,-100,4,2,2,60,0,0
75637,-100,4,2,1,60,0,0
75877,-100,4,2,2,60,0,0
76036,-100,4,2,1,60,0,0
76196,-100,4,2,2,60,0,0
76355,-303.030303030303,4,2,1,60,0,0
76515,-303.030303030303,4,2,3,60,0,0
76594,-303.030303030303,4,2,3,5,0,0
76674,-303.030303030303,4,2,1,60,0,0
76834,-100,4,2,2,60,0,0
76994,-100,4,2,1,60,0,0
77153,-100,4,2,2,60,0,0
77313,-100,4,2,1,60,0,0
77472,-100,4,2,3,60,0,0
77552,-100,4,2,1,60,0,0
77791,-100,4,2,2,60,0,0
77951,-100,4,2,1,60,0,0
78111,-100,4,2,2,60,0,0
78190,-100,4,2,1,60,0,0
78430,-100,4,2,2,60,0,0
78589,-100,4,2,1,60,0,0
78749,-100,4,2,2,60,0,0
78908,-303.030303030303,4,2,1,60,0,0
79068,-303.030303030303,4,2,3,60,0,0
79147,-303.030303030303,4,2,3,5,0,0
79228,-303.030303030303,4,2,1,60,0,0
79387,-100,4,2,2,60,0,0
79547,-100,4,2,1,60,0,0
79706,-100,4,2,2,60,0,0
79866,-100,4,2,1,60,0,0
80025,-100,4,2,3,60,0,0
80105,-100,4,2,1,60,0,0
80344,-100,4,2,2,60,0,0
80504,-100,4,2,1,60,0,0
80664,-100,4,2,2,60,0,0
80744,-100,4,2,1,60,0,0
80983,-100,4,2,2,60,0,0
81143,-100,4,2,1,60,0,0
81302,-100,4,2,2,60,0,0
81462,-714.285714285714,4,2,1,60,0,0
81621,-714.285714285714,4,2,3,60,0,0
81781,-714.285714285714,4,2,1,60,0,0
82020,-714.285714285714,4,2,1,5,0,0
82100,-125,4,2,1,60,0,0
82339,-125,4,2,1,5,0,0
82419,-125,4,2,1,60,0,0
83935,-125,4,2,1,5,0,0
84015,-125,4,2,1,60,0,0
84254,-125,4,2,1,5,0,0
84334,-125,4,2,1,60,0,0
85690,-125,4,2,1,5,0,0
85770,-125,4,2,1,60,0,0
86488,-125,4,2,1,5,0,0
86568,-125,4,2,1,60,0,0
87445,-125,4,2,1,5,0,0
87525,-125,4,2,1,60,0,0
89600,-500,4,2,1,60,0,0
89839,-500,4,2,1,5,0,0
89919,-125,4,2,1,60,0,0
90079,-500,4,2,1,60,0,0
90318,-500,4,2,1,5,0,0
90398,-125,4,2,1,60,0,0
90557,-500,4,2,1,60,0,0
90796,-500,4,2,1,5,0,0
90877,-500,4,2,1,60,0,0
91674,-76.9230769230769,4,2,1,60,0,0
91913,-83.3333333333333,4,2,1,5,0,0
91994,-125,4,2,1,50,0,0
92233,-125,4,2,1,5,0,0
92313,-125,4,2,1,60,0,0
92632,-62.5,4,2,1,70,0,0
92791,-333.333333333333,4,2,1,70,0,0
93030,-333.333333333333,4,2,1,5,0,0
93111,-66.6666666666667,4,2,1,70,0,0
93350,-66.6666666666667,4,2,1,5,0,0
93430,-66.6666666666667,4,2,1,70,0,0
94228,-333.333333333333,4,2,1,70,0,0
94467,-333.333333333333,4,2,1,5,0,0
94547,-125,4,2,1,50,0,0
94786,-125,4,2,1,5,0,0
94866,-125,4,2,1,60,0,0
95185,-62.5,4,2,1,70,0,0
95345,-333.333333333333,4,2,1,70,0,0
95584,-333.333333333333,4,2,1,5,0,0
95664,-66.6666666666667,4,2,1,70,0,0
95903,-66.6666666666667,4,2,1,5,0,0
95983,-66.6666666666667,4,2,1,70,0,0
96781,-333.333333333333,4,2,1,70,0,0
97020,-333.333333333333,4,2,1,5,0,0
97100,-125,4,2,1,50,0,0
97339,-125,4,2,1,5,0,0
97419,-125,4,2,1,60,0,0
97738,-62.5,4,2,1,70,0,0
97898,-333.333333333333,4,2,1,50,0,0
98137,-333.333333333333,4,2,1,5,0,0
98217,-66.6666666666667,4,2,1,70,0,0
98456,-66.6666666666667,4,2,1,5,0,0
98536,-66.6666666666667,4,2,1,70,0,0
99334,-333.333333333333,4,2,1,70,0,0
99573,-333.333333333333,4,2,1,5,0,0
99653,-125,4,2,1,60,0,0
100132,-200,4,2,1,60,0,0
100291,-125,4,2,1,60,0,0
100530,-125,4,2,1,5,0,0
100611,-125,4,2,1,60,0,0
101568,-83.3333333333333,4,2,1,60,0,0
101887,-250,4,2,1,60,0,0
102126,-250,4,2,1,5,0,0
102206,-83.3333333333333,4,2,1,80,0,1
102445,-83.3333333333333,4,2,1,5,0,1
102525,-83.3333333333333,4,2,1,80,0,1
104839,-83.3333333333333,4,2,1,5,0,1
104919,-83.3333333333333,4,2,1,80,0,1
106116,-83.3333333333333,4,2,1,5,0,1
106196,-83.3333333333333,4,2,1,80,0,1
107153,-166.666666666667,4,2,1,80,0,1
107313,-83.3333333333333,4,2,1,80,0,1
107552,-83.3333333333333,4,2,1,5,0,1
107632,-83.3333333333333,4,2,1,80,0,1
109387,-66.6666666666667,4,2,1,80,0,1
109706,-83.3333333333333,4,2,1,80,0,1
109945,-83.3333333333333,4,2,1,5,0,1
110025,-83.3333333333333,4,2,1,80,0,1
110983,-66.6666666666667,4,2,1,80,0,1
111222,-66.6666666666667,4,2,1,5,0,1
111302,-66.6666666666667,4,2,1,80,0,1
112100,-83.3333333333333,4,2,1,60,0,1
112339,-83.3333333333333,4,2,1,5,0,1
112419,-83.3333333333333,4,2,1,40,0,0
114334,-66.6666666666667,4,2,1,40,0,0
114573,-66.6666666666667,4,2,1,5,0,0
114653,-333.333333333333,4,2,1,40,0,0
114892,-333.333333333333,4,2,1,5,0,0
114972,-333.333333333333,4,2,4,40,0,0
115291,-125,4,2,4,40,0,0
115530,-125,4,2,4,5,0,0
115611,-125,4,2,4,40,0,0
117206,-83.3333333333333,4,2,4,40,0,0
117445,-83.3333333333333,4,2,4,5,0,0
117525,-83.3333333333333,4,2,1,40,0,0
119440,-66.6666666666667,4,2,1,40,0,0
119679,-66.6666666666667,4,2,1,5,0,0
119760,-333.333333333333,4,2,1,40,0,0
119999,-333.333333333333,4,2,1,5,0,0
120079,-333.333333333333,4,2,4,40,0,0
120398,-125,4,2,4,40,0,0
120637,-125,4,2,4,5,0,0
120717,-125,4,2,4,40,0,0
122313,-83.3333333333333,4,2,1,40,0,0
122552,-83.3333333333333,4,2,1,5,0,0
122632,-83.3333333333333,4,2,1,50,0,0
124547,-66.6666666666667,4,2,1,50,0,0
124786,-66.6666666666667,4,2,1,5,0,0
124866,-333.333333333333,4,2,1,50,0,0
125105,-333.333333333333,4,2,1,5,0,0
125185,-333.333333333333,4,2,4,50,0,0
125504,-125,4,2,4,50,0,0
127419,-83.3333333333333,4,2,1,50,0,0
127658,-83.3333333333333,4,2,1,5,0,0
127738,-83.3333333333333,4,2,1,60,0,0
129653,-66.6666666666667,4,2,1,60,0,0
129892,-66.6666666666667,4,2,1,5,0,0
129972,-333.333333333333,4,2,1,60,0,0
130211,-333.333333333333,4,2,1,5,0,0
130291,-333.333333333333,4,2,4,60,0,0
130611,-125,4,2,4,60,0,0
132845,-125,4,2,1,60,0,0
133004,-125,4,2,3,60,0,0
133164,-125,4,2,1,60,0,0
133323,-125,4,2,2,60,0,0
133403,-125,4,2,1,60,0,0
133643,-125,4,2,3,60,0,0
133722,-125,4,2,3,5,0,0
133802,-125,4,2,1,60,0,0
133962,-125,4,2,2,60,0,0
134121,-125,4,2,1,60,0,0
134360,-125,4,2,1,5,0,0
134440,-125,4,2,1,60,0,0
134679,-125,4,2,1,5,0,0
134760,-125,4,2,1,60,0,0
135318,-125,4,2,1,5,0,0
135398,-125,4,2,1,60,0,0
136674,-125,4,2,1,70,0,0
137313,-100,4,2,1,70,0,0
137472,-83.3333333333333,4,2,1,70,0,0
137632,-71.4285714285714,4,2,1,70,0,0
137791,-62.5,4,2,1,70,0,0
137951,-55.5555555555556,4,2,1,70,0,0
138190,-55.5555555555556,4,2,1,5,0,0
138270,-55.5555555555556,4,2,1,70,0,0
139228,319.148936170213,4,2,1,70,1,1
141621,-333.333333333333,4,2,1,70,0,1
141781,-76.9230769230769,4,2,1,70,0,1
142738,-166.666666666667,4,2,1,70,0,1
142898,-66.6666666666667,4,2,1,70,0,1
143137,-66.6666666666667,4,2,1,5,0,1
143217,-66.6666666666667,4,2,1,70,0,1
144015,-66.6666666666667,4,2,1,70,0,0
144334,-76.9230769230769,4,2,1,80,0,1
144573,-76.9230769230769,4,2,1,5,0,1
144653,-76.9230769230769,4,2,1,80,0,1
146967,-76.9230769230769,4,2,1,5,0,1
147047,-76.9230769230769,4,2,1,80,0,1
149440,-90.9090909090909,4,2,1,80,0,0
149679,-90.9090909090909,4,2,1,5,0,0
149759,-90.9090909090909,4,2,1,70,0,0
149998,-90.9090909090909,4,2,1,5,0,0
150079,-90.9090909090909,4,2,1,70,0,0
150238,-270.27027027027,4,2,1,70,0,0
150477,-270.27027027027,4,2,1,5,0,0
150557,-66.6666666666667,4,2,1,70,0,0
151355,-90.9090909090909,4,2,1,70,0,0
152232,-90.9090909090909,4,2,1,5,0,0
152313,-90.9090909090909,4,2,1,70,0,0
152552,-90.9090909090909,4,2,1,5,0,0
152632,-90.9090909090909,4,2,1,70,0,0
152791,-270.27027027027,4,2,1,70,0,0
153030,-270.27027027027,4,2,1,5,0,0
153110,-66.6666666666667,4,2,1,70,0,0
153908,-90.9090909090909,4,2,1,70,0,0
154786,-90.9090909090909,4,2,1,5,0,0
154866,-90.9090909090909,4,2,1,70,0,0
155105,-90.9090909090909,4,2,1,5,0,0
155185,-90.9090909090909,4,2,1,70,0,0
155345,-270.27027027027,4,2,1,70,0,0
155584,-270.27027027027,4,2,1,5,0,0
155664,-66.6666666666667,4,2,1,70,0,0
156781,-90.9090909090909,4,2,1,70,0,0
157020,-90.9090909090909,4,2,1,5,0,0
157100,-90.9090909090909,4,2,1,70,0,0
157339,-90.9090909090909,4,2,1,5,0,0
157419,-90.9090909090909,4,2,1,70,0,0
157658,-90.9090909090909,4,2,1,5,0,0
157738,-90.9090909090909,4,2,1,70,0,0
157898,-270.27027027027,4,2,1,70,0,0
158137,-270.27027027027,4,2,1,5,0,0
158217,-66.6666666666667,4,2,1,70,0,0
158536,-142.857142857143,4,2,1,70,0,0
158696,-111.111111111111,4,2,1,70,0,0
158855,-90.9090909090909,4,2,1,70,0,0
159015,-76.9230769230769,4,2,1,70,0,0
159334,-90.9090909090909,4,2,1,70,0,0
159573,-90.9090909090909,4,2,1,5,0,0
159653,-90.9090909090909,4,2,1,70,0,0
160291,-166.666666666667,4,2,1,70,0,0
160451,-90.9090909090909,4,2,1,70,0,0
160690,-90.9090909090909,4,2,1,5,0,0
160770,-125,4,2,1,70,0,0
161009,-125,4,2,1,5,0,0
161089,-111.111111111111,4,2,1,70,0,0
161249,-83.3333333333333,4,2,1,70,0,0
161408,-66.6666666666667,4,2,1,70,0,0
161568,-55.5555555555556,4,2,1,70,0,0
161887,-166.666666666667,4,2,1,70,0,0
162126,-166.666666666667,4,2,1,5,0,0
162206,319.148936170213,4,2,1,60,1,0
162684,-100,4,2,2,60,0,0
162844,-100,4,2,1,60,0,0
163003,-100,4,2,3,60,0,0
163083,-100,4,2,1,60,0,0
163322,-100,4,2,2,60,0,0
163482,-100,4,2,1,60,0,0
163642,-100,4,2,2,60,0,0
163721,-100,4,2,1,60,0,0
163961,-100,4,2,2,60,0,0
164120,-100,4,2,1,60,0,0
164280,-100,4,2,2,60,0,0
164440,-303.030303030303,4,2,1,60,0,0
164599,-303.030303030303,4,2,3,60,0,0
164679,-303.030303030303,4,2,3,5,0,0
164759,-303.030303030303,4,2,1,60,0,0
164918,-100,4,2,2,60,0,0
165078,-100,4,2,1,60,0,0
165237,-100,4,2,2,60,0,0
165397,-100,4,2,1,60,0,0
165556,-100,4,2,3,60,0,0
165636,-100,4,2,1,60,0,0
165875,-100,4,2,2,60,0,0
166035,-100,4,2,1,60,0,0
166195,-100,4,2,2,60,0,0
166275,-100,4,2,1,60,0,0
166514,-100,4,2,2,60,0,0
166674,-100,4,2,1,60,0,0
166833,-100,4,2,2,60,0,0
166993,-303.030303030303,4,2,1,60,0,0
167152,-303.030303030303,4,2,3,60,0,0
167232,-303.030303030303,4,2,3,5,0,0
167312,-303.030303030303,4,2,1,60,0,0
167471,-100,4,2,2,60,0,0
167631,-100,4,2,1,60,0,0
167791,-100,4,2,2,60,0,0
167950,-100,4,2,1,60,0,0
168109,-100,4,2,3,60,0,0
168190,-100,4,2,1,60,0,0
168428,-100,4,2,2,60,0,0
168588,-100,4,2,1,60,0,0
168748,-100,4,2,2,60,0,0
168828,-100,4,2,1,60,0,0
169067,-100,4,2,2,60,0,0
169227,-100,4,2,1,60,0,0
169386,-100,4,2,2,60,0,0
169546,-303.030303030303,4,2,1,60,0,0
169706,-303.030303030303,4,2,3,60,0,0
169785,-303.030303030303,4,2,3,5,0,0
169865,-303.030303030303,4,2,1,60,0,0
170025,-100,4,2,2,60,0,0
170184,-100,4,2,1,60,0,0
170344,-100,4,2,2,60,0,0
170503,-100,4,2,1,60,0,0
170662,-100,4,2,3,60,0,0
170743,-100,4,2,1,60,0,0
170982,-100,4,2,2,60,0,0
171142,-100,4,2,1,60,0,0
171301,-100,4,2,2,60,0,0
171381,-100,4,2,1,60,0,0
171620,-100,4,2,2,60,0,0
171780,-100,4,2,1,60,0,0
171940,-100,4,2,2,60,0,0
172099,-303.030303030303,4,2,1,60,0,0
172259,-303.030303030303,4,2,3,60,0,0
172338,-303.030303030303,4,2,3,5,0,0
172418,-303.030303030303,4,2,1,50,0,0
173057,-100,4,2,1,50,0,0
173216,-100,4,2,1,5,0,0
173296,-125,4,2,1,50,0,0
173455,-125,4,2,1,5,0,0
173535,-100,4,2,1,60,0,0
173694,-100,4,2,1,5,0,0
173854,-100,4,2,1,60,0,0

[Colours]
Combo1 : 198,197,199
Combo2 : 159,14,234
Combo3 : 94,168,251
Combo4 : 223,18,118
Combo5 : 207,195,48
Combo6 : 128,128,128

[HitObjects]
345,193,717,70,0,L|352:164,3,29.9999999999999,0|0|0|0,1:0|1:0|1:0|1:0,2:0:0:0:
236,233,1037,1,8,2:0:0:0:
192,198,1116,1,8,2:0:0:0:
177,145,1196,1,8,2:0:0:0:
196,93,1276,1,8,2:0:0:0:
241,61,1356,6,0,P|271:61|316:70,1,40,14|0,1:2|2:0,2:0:0:0:
396,76,1515,1,2,2:0:0:0:
406,70,1675,1,2,2:0:0:0:
396,64,1834,1,2,2:0:0:0:
479,291,1994,70,0,P|449:293|425:292,1,50,2|0,1:2|2:0,2:0:0:0:
310,282,2154,1,2,2:0:0:0:
310,282,2233,1,2,2:0:0:0:
310,282,2313,1,2,2:0:0:0:
124,327,2473,5,2,1:2:0:0:
124,327,2553,1,0,1:0:0:0:
124,327,2632,2,0,P|154:332|178:328,1,50,10|0,1:2|2:0,2:0:0:0:
189,158,2792,69,2,1:2:0:0:
189,158,2872,1,0,1:0:0:0:
189,158,2951,2,0,P|157:162|129:169,1,50,10|0,2:0|2:0,2:0:0:0:
141,176,3111,2,0,P|165:173|190:168,1,50,2|0,1:2|2:0,2:0:0:0:
362,161,3271,2,0,P|397:120|481:148,1,120,10|0,2:0|1:0,2:0:0:0:
461,270,3510,1,0,1:0:0:0:
461,270,3590,54,0,B|389:288|354:249|355:237|308:200|241:243,1,225,10|0,1:2|2:0,2:0:0:0:
298,349,3909,21,6,1:2:0:0:
298,349,3989,1,2,2:0:0:0:
298,349,4068,2,0,P|295:316|307:292,1,50,2|0,2:0|2:0,2:0:0:0:
334,120,4228,6,0,P|349:148|379:172,1,50,10|0,2:0|2:0,2:0:0:0:
461,270,4388,2,0,P|478:242|483:204,1,50,2|0,2:0|2:0,2:0:0:0:
512,48,4547,2,0,P|461:45|407:68,1,100,2|2,1:2|2:0,2:0:0:0:
337,123,4787,1,2,2:0:0:0:
337,123,4866,2,0,P|273:117|226:91,1,100,8|2,2:0|2:0,2:0:0:0:
41,139,5185,1,0,1:0:0:0:
128,47,5345,69,2,2:0:0:0:
128,47,5425,1,2,2:0:0:0:
128,47,5505,2,0,P|117:15|113:-7,1,50,10|0,2:0|2:0,2:0:0:0:
254,46,5664,2,0,P|247:75|239:101,1,50,2|0,2:0|2:0,2:0:0:0:
296,241,5824,1,2,1:2:0:0:
251,275,5904,1,2,2:0:0:0:
204,259,5983,2,0,P|173:254|143:251,1,50,2|0,2:0|2:0,2:0:0:0:
56,320,6143,6,0,P|19:327|-2:329,1,49.5,10|0,2:0|2:0,2:0:0:0:
137,179,6462,69,2,1:2:0:0:
137,179,6542,1,2,2:0:0:0:
137,179,6622,2,0,P|163:172|194:168,1,50,2|0,2:0|2:0,2:0:0:0:
231,51,6781,6,0,P|216:30|205:7,1,50,10|0,2:0|2:0,2:0:0:0:
70,36,6941,2,0,P|62:59|53:82,1,50,2|0,2:0|2:0,2:0:0:0:
154,284,7100,2,0,P|194:269|255:276,1,100,2|2,1:2|2:0,2:0:0:0:
364,357,7340,1,2,2:0:0:0:
364,357,7420,2,0,P|380:313|367:234,1,100,8|2,2:0|2:0,2:0:0:0:
512,217,7739,1,0,1:0:0:0:
371,163,7898,69,2,2:0:0:0:
371,163,7978,1,2,2:0:0:0:
371,163,8058,2,0,P|365:128|355:109,1,50,10|0,2:0|2:0,2:0:0:0:
272,238,8217,2,0,P|277:272|287:291,1,50,2|0,2:0|2:0,2:0:0:0:
471,288,8377,1,2,1:2:0:0:
499,241,8457,1,2,2:0:0:0:
483,194,8537,2,0,L|472:135,1,50,2|0,2:0|2:0,2:0:0:0:
392,48,8696,6,0,L|401:-1,1,49.5,10|0,2:0|2:0,2:0:0:0:
279,102,9015,69,6,1:2:0:0:
279,102,9095,1,2,2:0:0:0:
279,102,9175,2,0,L|228:117,1,50,2|0,2:0|2:0,2:0:0:0:
130,186,9334,6,0,L|168:221,1,50,10|0,2:0|2:0,2:0:0:0:
274,276,9494,2,0,L|285:223,1,50,2|0,2:0|2:0,2:0:0:0:
104,93,9654,2,0,P|53:124|29:177,1,100,2|2,1:2|2:0,2:0:0:0:
30,279,9893,1,2,2:0:0:0:
30,279,9973,2,0,P|27:331|2:382,1,100,8|2,2:0|2:0,2:0:0:0:
137,383,10292,1,0,1:0:0:0:
256,315,10451,69,2,2:0:0:0:
256,315,10531,1,2,2:0:0:0:
256,315,10611,2,0,L|265:261,1,50,10|0,2:0|2:0,2:0:0:0:
142,184,10771,2,0,L|150:233,1,50,2|0,2:0|2:0,2:0:0:0:
188,59,10930,1,2,1:2:0:0:
241,40,11010,1,2,2:0:0:0:
281,70,11090,2,0,L|340:59,1,50,2|0,2:0|2:0,2:0:0:0:
333,206,11249,6,0,L|286:197,1,45,10|0,2:0|2:0,2:0:0:0:
203,383,11568,69,2,1:2:0:0:
203,383,11648,1,2,2:0:0:0:
203,383,11728,2,0,P|235:384|260:376,1,50,2|0,2:0|2:0,2:0:0:0:
389,374,11888,6,0,P|380:341|366:319,1,50,10|0,2:0|2:0,2:0:0:0:
288,197,12047,2,0,P|271:215|261:237,1,50,2|0,2:0|2:0,2:0:0:0:
389,374,12207,2,0,P|447:368|522:377,1,100,2|2,1:2|2:0,2:0:0:0:
512,252,12446,1,2,2:0:0:0:
512,252,12526,2,0,P|510:192|494:119,1,100,8|2,2:0|2:0,2:0:0:0:
395,57,12845,1,0,1:0:0:0:
417,224,13005,69,2,2:0:0:0:
417,224,13084,1,2,2:0:0:0:
417,224,13164,2,0,P|381:219|356:200,1,50,10|0,2:0|2:0,2:0:0:0:
389,374,13324,2,0,P|354:371|324:384,1,50,2|0,2:0|2:0,2:0:0:0:
205,283,13483,1,2,1:2:0:0:
183,231,13563,1,2,2:0:0:0:
211,190,13643,2,0,P|236:182|264:191,1,50,2|0,2:0|2:0,2:0:0:0:
305,276,13803,6,0,P|297:292|294:272,1,45,10|0,2:0|2:0,2:0:0:0:
293,98,14122,70,0,B|223:113|188:58|202:52|158:2|96:18,1,225,4|0,1:2|2:0,2:0:0:0:
86,23,14441,54,0,P|106:58|131:30,1,80,10|0,2:0|2:0,2:0:0:0:
61,238,14760,5,2,1:2:0:0:
142,174,14920,1,2,2:0:0:0:
31,127,15079,1,10,2:0:0:0:
223,192,15239,2,0,P|268:199|322:187,1,80,2|0,2:0|1:0,2:0:0:0:
425,159,15558,69,2,2:0:0:0:
484,263,15717,1,10,2:0:0:0:
423,139,15877,1,2,2:0:0:0:
373,308,16037,2,0,P|306:311|229:326,1,120,2|0,1:2|2:0,2:0:0:0:
233,279,16356,2,0,B|198:310|184:350|243:386|227:336,1,120,8|0,2:0|2:0,2:0:0:0:
62,326,16675,6,0,P|89:276|80:241,1,80,2|2,1:2|2:0,2:0:0:0:
103,177,16914,1,2,2:0:0:0:
103,177,16994,2,0,P|66:153|45:181,1,80,10|2,2:0|2:0,2:0:0:0:
163,56,17313,69,2,1:2:0:0:
51,110,17473,1,2,2:0:0:0:
237,148,17632,6,0,P|212:150|193:159,1,40,10|0,2:0|2:0,2:0:0:0:
182,165,17792,2,0,P|247:172|370:202,1,150,2|0,2:0|1:0,2:0:0:0:
386,298,18111,69,2,2:0:0:0:
243,271,18271,1,10,2:0:0:0:
329,189,18430,1,2,2:0:0:0:
285,347,18590,2,0,P|247:356|178:341,1,80,2|0,1:2|2:0,2:0:0:0:
99,384,18909,2,0,P|93:323|104:242,1,120,10|0,2:0|2:0,2:0:0:0:
110,162,19228,5,4,1:2:0:0:
315,35,19547,70,0,B|375:17|369:85|437:57,1,120,10|0,2:0|2:0,2:0:0:0:
445,59,19866,2,0,P|452:103|440:150,1,80,2|2,1:2|2:0,2:0:0:0:
441,161,20106,1,0,2:0:0:0:
441,161,20185,1,10,2:0:0:0:
257,237,20345,6,0,P|296:230|335:237,1,80,2|0,2:0|1:0,2:0:0:0:
461,294,20664,1,2,2:0:0:0:
441,161,20824,1,10,2:0:0:0:
465,311,20983,1,2,2:0:0:0:
335,237,21143,70,0,P|295:229|256:236,1,80,2|0,1:2|2:0,2:0:0:0:
152,329,21462,1,10,2:0:0:0:
171,326,21542,1,2,2:0:0:0:
180,344,21622,1,2,2:0:0:0:
166,359,21701,1,2,2:0:0:0:
148,348,21781,6,0,P|139:321|143:286,1,40,2|0,1:2|2:0,2:0:0:0:
254,206,21941,2,0,P|257:227|254:243,1,30,2|0,2:0|2:0,2:0:0:0:
148,348,22260,70,0,P|139:321|143:286,1,40,2|0,2:0|2:0,2:0:0:0:
254,206,22420,2,0,P|257:227|254:243,1,30,2|0,1:2|2:0,2:0:0:0:
148,348,22739,6,0,P|139:321|143:286,1,40,10|0,2:0|2:0,2:0:0:0:
161,180,22898,1,2,2:0:0:0:
161,180,22978,1,0,2:0:0:0:
161,180,23058,1,0,1:0:0:0:
277,330,23217,69,2,2:0:0:0:
277,330,23297,1,2,2:0:0:0:
277,330,23377,2,0,P|322:333|361:325,1,80,10|2,2:0|2:0,2:0:0:0:
504,358,23696,5,2,1:2:0:0:
488,324,23776,1,0,2:0:0:0:
459,323,23856,1,0,2:0:0:0:
445,338,23935,1,0,2:0:0:0:
440,352,24015,70,0,P|456:351|465:339,1,30,10|0,2:0|2:0,2:0:0:0:
433,208,24334,21,2,1:2:0:0:
433,208,24414,1,2,2:0:0:0:
433,208,24494,2,0,L|423:138,1,50,2|0,2:0|2:0,2:0:0:0:
338,54,24654,6,0,P|307:62|268:55,1,50,14|0,2:0|2:0,2:0:0:0:
220,145,24813,2,0,P|189:136|158:110,1,50,2|0,2:0|2:0,2:0:0:0:
41,36,24973,2,0,P|23:84|63:153,1,100,2|2,1:2|2:0,2:0:0:0:
129,196,25212,1,2,2:0:0:0:
129,196,25292,2,0,P|137:245|98:308,1,100,8|2,2:0|2:0,2:0:0:0:
66,384,25611,1,0,1:0:0:0:
273,326,25771,69,2,2:0:0:0:
273,326,25850,1,2,2:0:0:0:
273,326,25930,2,0,P|285:300|281:265,1,50,10|0,2:0|2:0,2:0:0:0:
351,170,26090,2,0,P|326:153|291:152,1,50,2|0,2:0|2:0,2:0:0:0:
193,101,26249,1,2,1:2:0:0:
155,140,26329,1,2,2:0:0:0:
152,191,26409,2,0,P|154:213|174:241,1,50,2|0,2:0|2:0,2:0:0:0:
273,326,26568,6,0,P|284:303|286:278,1,49.5,10|0,2:0|2:0,2:0:0:0:
498,214,26888,69,2,1:2:0:0:
498,214,26967,1,2,2:0:0:0:
498,214,27047,6,0,P|487:237|485:262,1,50,2|0,2:0|2:0,2:0:0:0:
414,381,27207,70,0,P|410:350|405:332,1,50,10|0,2:0|2:0,2:0:0:0:
286,280,27366,2,0,P|289:249|294:231,1,50,2|0,2:0|2:0,2:0:0:0:
392,90,27526,2,0,P|332:108|296:67,1,100,2|2,1:2|2:0,2:0:0:0:
206,32,27765,1,2,2:0:0:0:
206,32,27845,2,0,P|146:14|110:55,1,100,8|2,2:0|2:0,2:0:0:0:
17,142,28164,1,0,1:0:0:0:
139,231,28324,5,2,2:0:0:0:
139,231,28404,1,2,2:0:0:0:
139,231,28483,2,0,L|215:217,1,50,10|0,2:0|2:0,2:0:0:0:
151,377,28643,2,0,L|102:369,1,50,2|0,2:0|2:0,2:0:0:0:
291,232,28803,1,2,1:2:0:0:
329,270,28882,1,2,2:0:0:0:
334,320,28962,2,0,P|332:342|313:371,1,50,2|0,2:0|2:0,2:0:0:0:
204,310,29122,70,0,P|230:327|252:320,1,45,10|0,2:0|2:0,2:0:0:0:
291,39,29441,6,0,P|180:53|38:87,1,225,4|0,1:2|2:0,2:0:0:0:
69,99,29760,6,0,P|103:108|155:102,1,80,10|0,2:0|2:0,2:0:0:0:
390,48,30079,5,2,1:2:0:0:
274,153,30239,1,2,2:0:0:0:
291,39,30398,1,10,2:0:0:0:
390,139,30558,2,0,P|398:176|397:217,1,80,2|0,2:0|1:0,2:0:0:0:
343,325,30877,69,2,2:0:0:0:
396,217,31037,1,10,2:0:0:0:
337,340,31196,1,2,2:0:0:0:
247,188,31356,2,0,P|145:182|100:168,1,120,2|0,1:2|2:0,2:0:0:0:
55,173,31675,2,0,P|94:164|133:166,1,59.9999999999999,10|0,2:0|2:0,2:0:0:0:
191,297,31994,5,2,1:2:0:0:
62,180,32154,1,2,2:0:0:0:
62,180,32233,1,2,2:0:0:0:
62,180,32313,1,10,2:0:0:0:
93,350,32473,1,2,2:0:0:0:
170,197,32632,69,2,1:2:0:0:
19,283,32792,1,2,2:0:0:0:
19,283,32872,1,2,2:0:0:0:
19,283,32951,1,10,2:0:0:0:
191,297,33111,2,0,P|183:240|167:194,1,89.9999972534181,2|0,2:0|0:0,0:0:0:0:
260,92,33430,5,2,2:0:0:0:
260,92,33510,1,0,2:0:0:0:
260,92,33590,1,10,2:0:0:0:
170,197,33749,1,2,2:0:0:0:
372,200,33909,70,0,P|356:173|353:213,1,89.9999999999998,2|0,1:2|2:0,2:0:0:0:
318,330,34228,2,0,P|339:294|343:349,1,120,10|0,2:0|2:0,2:0:0:0:
359,357,34547,5,4,1:2:0:0:
359,357,34866,70,0,P|285:365|209:342,1,120,10|0,2:0|2:0,2:0:0:0:
223,345,35185,1,2,1:2:0:0:
143,352,35345,1,2,2:0:0:0:
62,356,35505,1,10,2:0:0:0:
71,279,35664,2,0,P|57:337|71:377,1,80,2|0,2:0|1:0,2:0:0:0:
290,295,35983,5,2,2:0:0:0:
143,352,36143,1,10,2:0:0:0:
185,188,36303,1,2,2:0:0:0:
290,295,36462,2,0,L|294:248,1,29.9999999999999,2|0,1:2|2:0,2:0:0:0:
294,255,36622,2,0,L|298:208,1,44.999998626709,2|0,2:0|2:0,2:0:0:0:
408,206,36781,70,0,P|288:203|165:183,1,225,10|0,2:0|2:0,2:0:0:0:
65,64,37100,6,0,P|63:89|70:118,1,40,2|0,1:2|2:0,2:0:0:0:
184,187,37260,2,0,L|180:157,1,30,2|0,2:0|2:0,2:0:0:0:
65,64,37579,70,0,P|63:89|70:118,1,40,2|0,2:0|2:0,2:0:0:0:
184,187,37739,2,0,L|180:157,1,30,2|0,1:2|2:0,2:0:0:0:
65,64,38058,6,0,P|63:89|70:118,1,40,10|0,2:0|2:0,2:0:0:0:
191,194,38217,1,2,2:0:0:0:
191,194,38297,1,0,2:0:0:0:
191,194,38377,1,0,1:0:0:0:
10,287,38537,69,2,2:0:0:0:
190,195,38696,1,10,2:0:0:0:
117,287,38856,5,2,2:0:0:0:
287,365,39015,1,2,1:2:0:0:
287,365,39334,2,0,P|317:291|398:343,1,194.999991073609,10|0,2:0|2:0,2:0:0:0:
344,182,39654,38,0,P|359:123|326:69,1,120,2|0,1:2|2:0,2:0:0:0:
163,30,39973,2,0,P|162:50|166:71,1,40,14|0,2:0|2:0,2:0:0:0:
168,179,40132,1,2,1:2:0:0:
27,134,40292,2,0,P|30:172|19:219,1,80,6|0,1:2|2:0,2:0:0:0:
184,303,40451,6,0,P|176:274|181:256,1,45,6|0,1:2|2:0,2:0:0:0:
261,262,40771,70,0,P|148:265|39:288,1,225,14|0,2:0|2:0,2:0:0:0:
24,305,41090,53,2,1:2:0:0:
192,380,41249,1,10,2:0:0:0:
168,179,41409,1,2,2:0:0:0:
338,241,41568,1,2,1:2:0:0:
328,276,41648,1,0,2:0:0:0:
302,294,41728,1,0,1:0:0:0:
287,298,41808,1,0,1:0:0:0:
275,297,41888,2,0,P|256:276|264:257,1,45,10|0,2:0|2:0,2:0:0:0:
449,384,42207,22,0,P|456:325|428:273,1,120,2|0,1:2|2:0,2:0:0:0:
412,98,42526,2,0,P|414:127|410:151,1,40,14|0,2:0|2:0,2:0:0:0:
343,244,42685,1,2,1:2:0:0:
237,124,42845,2,0,P|234:80|241:38,1,80,6|0,1:2|2:0,2:0:0:0:
119,171,43005,6,0,P|90:163|72:168,1,45,14|0,2:0|2:0,2:0:0:0:
77,241,43324,70,0,P|80:128|103:19,1,225,14|0,2:0|2:0,2:0:0:0:
115,0,43643,21,2,1:2:0:0:
314,34,43803,1,10,2:0:0:0:
167,116,43962,1,2,1:2:0:0:
339,34,44122,1,2,1:2:0:0:
354,67,44201,1,0,2:0:0:0:
382,81,44281,1,0,1:0:0:0:
402,81,44361,1,0,1:0:0:0:
413,76,44441,2,0,P|427:52|416:34,1,45,10|0,2:0|2:0,2:0:0:0:
234,14,44760,54,0,P|242:75|230:142,1,120,2|0,1:2|2:0,2:0:0:0:
376,269,45079,2,0,P|378:240|381:226,1,40,14|0,2:0|2:0,2:0:0:0:
402,122,45239,1,2,1:2:0:0:
498,268,45398,2,0,P|507:306|511:346,1,80,14|0,2:0|2:0,2:0:0:0:
289,295,45558,6,0,P|281:315|284:338,1,45,14|0,2:0|2:0,2:0:0:0:
358,337,45877,70,0,P|245:334|136:311,1,225,14|0,1:2|2:0,2:0:0:0:
116,303,46196,53,2,1:2:0:0:
315,202,46356,1,10,2:0:0:0:
280,367,46515,1,2,2:0:0:0:
163,185,46675,1,2,1:2:0:0:
149,154,46755,1,0,2:0:0:0:
124,144,46834,1,0,1:0:0:0:
104,143,46914,1,0,1:0:0:0:
93,149,46994,2,0,P|86:177|90:191,1,45,10|0,1:2|2:0,2:0:0:0:
0,331,47313,6,0,B|37:280|84:288|78:298|127:309|169:252,1,180,6|0,1:2|1:0,2:0:0:0:
287,374,47792,1,2,2:0:0:0:
287,374,47872,1,2,2:0:0:0:
287,374,47951,2,0,P|283:319|302:273,1,90.0000000000001,2|0,1:2|2:0,2:0:0:0:
509,336,48271,1,2,1:2:0:0:
413,360,48430,1,10,2:0:0:0:
413,360,48510,1,8,2:0:0:0:
413,360,48590,70,0,P|420:252|470:251,1,180,6|0,1:2|2:0,2:0:0:0:
466,249,48909,6,0,P|500:175|436:142,1,135,6|0,1:2|2:0,2:0:0:0:
469,144,49228,69,6,1:2:0:0:
368,67,49388,1,0,1:0:0:0:
368,67,49467,1,0,1:0:0:0:
368,67,49547,2,0,B|302:71|277:12|277:12|302:71|244:137,1,225,8|0,2:0|2:0,2:0:0:0:
155,48,49866,5,14,2:0:0:0:
11,1,50026,1,2,1:2:0:0:
11,1,50106,1,0,2:0:0:0:
11,1,50185,1,14,2:0:0:0:
79,129,50345,1,2,1:2:0:0:
269,57,50505,70,0,P|268:87|260:116,1,60,14|0,2:0|2:0,2:0:0:0:
87,189,50664,2,0,P|80:159|79:130,1,60,0|0,1:0|1:0,2:0:0:0:
276,55,50824,6,0,P|274:85|267:113,1,60,8|0,1:2|1:2,2:0:0:0:
158,4,51143,38,0,P|172:93|180:182,1,180,6|0,1:2|2:0,2:0:0:0:
179,200,51462,1,10,2:0:0:0:
92,371,51621,1,2,2:0:0:0:
79,129,51781,5,2,1:2:0:0:
253,334,51940,1,2,2:0:0:0:
260,96,52100,69,10,2:0:0:0:
151,312,52260,1,2,2:0:0:0:
296,236,52419,5,2,1:2:0:0:
79,129,52579,1,2,2:0:0:0:
326,60,52738,69,10,2:0:0:0:
67,126,52898,1,2,2:0:0:0:
309,241,53057,1,2,1:2:0:0:
121,275,53217,6,0,P|150:264|180:264,1,60,2|0,2:0|2:0,2:0:0:0:
292,149,53377,2,0,P|321:160|351:160,1,60,10|0,2:0|2:0,2:0:0:0:
497,281,53536,70,0,P|501:189|499:99,1,180,2|0,2:0|2:0,2:0:0:0:
496,82,53855,1,2,2:0:0:0:
350,161,54015,1,10,2:0:0:0:
215,20,54174,1,2,2:0:0:0:
404,85,54334,1,2,1:2:0:0:
238,241,54494,6,0,L|227:182,1,60,2|0,2:0|2:0,2:0:0:0:
109,71,54653,2,0,L|99:130,1,60,10|0,2:0|2:0,2:0:0:0:
49,318,54813,70,0,P|60:245|154:276,1,180,2|0,2:0|2:0,2:0:0:0:
155,276,55132,1,2,2:0:0:0:
306,384,55291,1,10,2:0:0:0:
317,188,55451,1,2,2:0:0:0:
166,294,55611,1,0,1:0:0:0:
378,323,55770,6,0,P|388:336|378:327,1,60,8|0,2:0|2:0,2:0:0:0:
240,233,55930,2,0,P|230:246|240:237,1,60,8|0,2:0|2:0,2:0:0:0:
472,288,56089,6,0,P|485:288|500:299,1,29.9999999999999,8|0,2:0|2:0,2:0:0:0:
512,367,56249,2,0,P|511:264|497:148,1,180,6|0,1:2|2:0,2:0:0:0:
500,164,56568,1,10,2:0:0:0:
313,263,56728,1,2,2:0:0:0:
472,288,56887,5,2,1:2:0:0:
342,114,57047,1,2,2:0:0:0:
327,338,57206,69,10,2:0:0:0:
343,99,57366,1,2,2:0:0:0:
487,292,57525,5,2,1:2:0:0:
231,227,57685,1,2,2:0:0:0:
451,146,57845,69,10,2:0:0:0:
335,351,58004,1,2,2:0:0:0:
254,125,58164,1,2,1:2:0:0:
434,232,58323,6,0,P|391:229|359:217,1,60,2|0,2:0|2:0,2:0:0:0:
262,277,58483,2,0,P|237:242|226:209,1,60,10|0,2:0|2:0,2:0:0:0:
116,53,58643,70,0,P|208:38|307:47,1,180,2|0,2:0|2:0,2:0:0:0:
310,51,58962,1,2,2:0:0:0:
512,149,59121,1,10,2:0:0:0:
300,183,59281,1,2,2:0:0:0:
419,13,59440,1,2,1:2:0:0:
512,149,59600,5,2,2:0:0:0:
285,184,59760,1,10,2:0:0:0:
500,293,59919,1,2,2:0:0:0:
506,296,59999,1,0,2:0:0:0:
512,301,60079,1,4,1:2:0:0:
295,347,60238,69,2,1:2:0:0:
288,340,60398,1,10,2:0:0:0:
281,347,60557,1,10,1:2:0:0:
288,353,60717,1,10,1:2:0:0:
323,216,60877,5,2,1:2:0:0:
310,199,60956,1,2,2:0:0:0:
282,188,61036,1,12,2:0:0:0:
242,201,61116,1,2,2:0:0:0:
208,240,61196,1,2,2:0:0:0:
143,251,61275,1,2,2:0:0:0:
87,216,61355,6,0,P|85:142|92:67,1,150,6|0,1:2|2:0,2:0:0:0:
87,66,61674,6,0,P|80:141|82:216,1,150,10|0,2:0|2:0,2:0:0:0:
109,382,61994,70,0,P|133:387|164:381,1,50,2|0,1:2|2:0,2:0:0:0:
238,321,62153,6,0,P|262:316|293:322,1,49.5,2|0,2:0|2:0,2:0:0:0:
402,371,62472,2,0,P|404:296|400:221,1,150,2|2,2:0|1:2,2:0:0:0:
407,75,62791,5,2,2:0:0:0:
230,152,62951,1,10,2:0:0:0:
400,221,63111,1,2,2:0:0:0:
407,51,63270,6,0,B|334:51|334:51|323:45|323:45|240:45,1,150,2|2,1:2|2:0,2:0:0:0:
119,0,63589,2,0,P|108:48|112:98,1,100,10|0,2:0|2:0,2:0:0:0:
230,152,63829,1,0,2:0:0:0:
237,155,63908,38,0,P|243:230|232:304,1,150,2|0,1:2|2:0,2:0:0:0:
237,303,64228,2,0,P|248:229|242:155,1,150,10|0,2:0|2:0,2:0:0:0:
211,45,64547,6,0,P|235:40|266:46,1,50,2|0,1:2|2:0,2:0:0:0:
336,136,64706,70,0,P|360:141|392:136,1,49.5,2|0,2:0|2:0,2:0:0:0:
507,40,65025,2,0,P|515:114|508:189,1,150,2|2,2:0|1:2,2:0:0:0:
284,240,65345,53,2,2:0:0:0:
377,344,65504,1,10,2:0:0:0:
437,197,65664,1,2,2:0:0:0:
198,301,65823,6,0,P|196:222|204:137,1,150,2|2,1:2|2:0,2:0:0:0:
162,50,66143,2,0,P|125:15|88:44,1,100,10|0,2:0|2:0,2:0:0:0:
20,181,66382,1,0,2:0:0:0:
20,191,66462,6,0,L|168:211,1,150,6|0,1:2|2:0,2:0:0:0:
166,216,66781,2,0,L|18:196,1,150,10|0,2:0|2:0,2:0:0:0:
115,34,67100,6,0,P|139:38|162:50,1,50,2|0,1:2|2:0,2:0:0:0:
277,122,67260,70,0,P|278:147|272:171,1,49.5,2|0,2:0|2:0,2:0:0:0:
212,302,67579,2,0,P|289:291|362:286,1,150,2|2,2:0|1:2,2:0:0:0:
498,286,67898,21,2,2:0:0:0:
340,375,68057,1,10,2:0:0:0:
376,195,68217,1,2,2:0:0:0:
512,384,68377,6,0,P|514:341|491:272,1,100,2|2,1:2|1:2,2:0:0:0:
472,184,68616,1,2,1:2:0:0:
464,177,68696,2,0,P|462:134|485:65,1,100,14|0,2:0|2:0,2:0:0:0:
354,26,68935,1,0,2:0:0:0:
353,15,69015,38,0,L|203:26,1,150,14|0,2:0|2:0,2:0:0:0:
201,21,69334,2,0,L|351:10,1,150,10|0,2:0|2:0,2:0:0:0:
273,208,69653,6,0,P|246:206|222:200,1,50,10|0,2:0|2:0,2:0:0:0:
111,236,69813,70,0,P|99:215|93:191,1,49.5,10|0,2:0|2:0,2:0:0:0:
276,127,70132,2,0,B|293:193|264:240|256:235|221:289|250:356,1,225,6|0,1:2|2:0,2:0:0:0:
253,364,70451,5,10,2:0:0:0:
328,296,70611,1,10,2:0:0:0:
283,191,70770,1,10,1:2:0:0:
175,203,70930,1,10,1:2:0:0:
148,313,71089,1,0,1:0:0:0:
148,313,71169,1,0,1:0:0:0:
148,313,71249,70,0,P|127:323|114:342,1,45,10|0,2:0|2:0,2:0:0:0:
16,262,71568,5,6,1:2:0:0:
16,262,71648,1,2,2:0:0:0:
16,262,71728,2,0,P|8:232|-1:215,1,50,2|0,2:0|2:0,2:0:0:0:
143,179,71887,70,0,P|151:149|160:132,1,50,10|0,2:0|2:0,2:0:0:0:
16,94,72047,2,0,P|8:64|-1:47,1,50,2|0,2:0|2:0,2:0:0:0:
132,13,72206,6,0,P|182:16|241:-9,1,100,2|2,1:2|2:0,2:0:0:0:
306,73,72446,1,2,2:0:0:0:
306,73,72525,2,0,P|356:70|412:108,1,100,8|2,2:0|2:0,2:0:0:0:
510,28,72845,1,0,1:0:0:0:
512,186,73004,69,2,2:0:0:0:
512,186,73084,1,2,2:0:0:0:
512,186,73164,2,0,P|508:218|499:243,1,50,10|0,2:0|2:0,2:0:0:0:
399,328,73323,2,0,P|373:308|356:288,1,50,2|0,2:0|2:0,2:0:0:0:
301,163,73483,1,2,1:2:0:0:
347,148,73563,1,2,2:0:0:0:
392,167,73643,2,0,P|418:185|436:204,1,50,2|0,2:0|2:0,2:0:0:0:
361,295,73802,6,0,P|342:321|323:339,1,49.5,10|0,2:0|2:0,2:0:0:0:
223,199,74121,69,2,1:2:0:0:
223,199,74201,1,2,2:0:0:0:
223,200,74281,2,0,P|240:218|254:238,1,50,2|0,2:0|2:0,2:0:0:0:
142,319,74440,6,0,P|139:345|130:370,1,50,10|0,2:0|2:0,2:0:0:0:
41,228,74600,2,0,P|22:244|0:256,1,50,2|0,2:0|2:0,2:0:0:0:
120,51,74760,2,0,P|171:53|237:79,1,100,2|2,1:2|2:0,2:0:0:0:
300,137,74999,1,2,2:0:0:0:
300,137,75079,2,0,P|351:135|415:101,1,100,8|2,2:0|2:0,2:0:0:0:
512,138,75398,1,0,1:0:0:0:
377,10,75557,69,2,2:0:0:0:
377,10,75637,1,2,2:0:0:0:
377,10,75717,2,0,L|313:-1,1,50,10|0,2:0|2:0,2:0:0:0:
300,137,75877,2,0,L|349:128,1,50,2|0,2:0|2:0,2:0:0:0:
143,5,76036,1,2,1:2:0:0:
120,51,76116,1,2,2:0:0:0:
127,101,76196,2,0,P|137:130|150:152,1,50,2|0,2:0|2:0,2:0:0:0:
245,269,76355,6,0,P|255:246|262:222,1,49.5,10|0,2:0|2:0,2:0:0:0:
235,59,76674,69,6,1:2:0:0:
235,59,76754,1,2,2:0:0:0:
235,59,76834,2,0,P|266:55|294:75,1,50,2|0,2:0|2:0,2:0:0:0:
389,134,76994,6,0,P|379:156|373:180,1,50,10|0,2:0|2:0,2:0:0:0:
263,222,77153,2,0,P|276:250|279:284,1,50,2|0,2:0|2:0,2:0:0:0:
419,384,77313,2,0,P|414:329|454:255,1,100,2|2,1:2|2:0,2:0:0:0:
508,207,77552,1,2,2:0:0:0:
508,207,77632,2,0,P|513:152|473:74,1,100,8|2,2:0|2:0,2:0:0:0:
472,0,77951,1,0,1:0:0:0:
331,77,78111,69,2,2:0:0:0:
331,77,78190,1,2,2:0:0:0:
331,77,78270,2,0,P|337:104|331:127,1,50,10|0,2:0|2:0,2:0:0:0:
201,210,78430,2,0,P|204:179|215:161,1,50,2|0,2:0|2:0,2:0:0:0:
377,202,78589,1,2,1:2:0:0:
390,251,78669,1,2,2:0:0:0:
383,301,78749,2,0,P|352:295|328:285,1,50,2|0,2:0|2:0,2:0:0:0:
237,366,78908,6,0,P|206:372|182:382,1,49.5,10|0,2:0|2:0,2:0:0:0:
26,320,79228,69,2,1:2:0:0:
26,320,79307,1,2,2:0:0:0:
26,320,79387,2,0,P|56:329|78:340,1,50,2|0,2:0|2:0,2:0:0:0:
192,230,79547,6,0,L|180:164,1,50,10|0,2:0|2:0,2:0:0:0:
43,91,79706,2,0,L|34:140,1,50,2|0,2:0|2:0,2:0:0:0:
0,237,79866,2,0,P|46:235|100:204,1,100,2|2,1:2|2:0,2:0:0:0:
209,108,80105,1,2,2:0:0:0:
209,108,80185,2,0,P|255:110|299:142,1,100,8|2,2:0|2:0,2:0:0:0:
452,185,80504,1,0,1:0:0:0:
338,270,80664,69,2,2:0:0:0:
338,270,80744,1,2,2:0:0:0:
338,270,80823,2,0,L|408:284,1,50,10|0,2:0|2:0,2:0:0:0:
246,376,80983,2,0,L|325:389,1,50,2|0,2:0|2:0,2:0:0:0:
183,180,81143,1,2,1:2:0:0:
152,220,81222,1,2,2:0:0:0:
158,270,81302,2,0,L|222:279,1,50,2|0,2:0|2:0,2:0:0:0:
309,183,81462,6,0,L|317:231,1,49,10|0,2:0|2:0,2:0:0:0:
331,262,82100,6,0,P|341:206|359:146,1,120,10|0,2:0|2:0,2:0:0:0:
365,135,82419,1,2,1:2:0:0:
393,21,82579,1,2,2:0:0:0:
271,107,82738,1,10,2:0:0:0:
460,166,82898,2,0,P|458:206|452:244,1,80,2|0,2:0|1:0,2:0:0:0:
333,260,83217,5,2,2:0:0:0:
333,260,83297,1,0,2:0:0:0:
333,260,83377,1,10,2:0:0:0:
451,246,83536,1,2,2:0:0:0:
346,124,83696,2,0,P|280:113|202:111,1,120,2|0,1:2|2:0,2:0:0:0:
333,260,84015,2,0,P|399:249|477:247,1,120,10|0,2:0|2:0,2:0:0:0:
281,369,84334,69,2,1:2:0:0:
169,287,84494,1,2,2:0:0:0:
169,287,84573,1,2,2:0:0:0:
169,287,84653,1,10,2:0:0:0:
128,376,84813,5,2,2:0:0:0:
253,278,84972,1,2,1:2:0:0:
127,215,85132,1,2,2:0:0:0:
127,215,85212,1,2,2:0:0:0:
127,215,85291,1,10,2:0:0:0:
60,257,85451,2,0,P|43:212|87:138,1,120,2|0,2:0|0:0,2:0:0:0:
241,172,85770,69,2,2:0:0:0:
241,172,85850,1,2,2:0:0:0:
241,172,85930,1,10,2:0:0:0:
127,215,86089,1,2,2:0:0:0:
315,223,86249,6,0,P|320:282|317:343,1,120,2|0,1:2|2:0,2:0:0:0:
303,355,86568,2,0,P|259:344|215:341,1,80,10|0,2:0|2:0,2:0:0:0:
211,345,86807,1,0,2:0:0:0:
211,345,86887,69,4,1:2:0:0:
211,345,87206,22,0,L|329:324,1,120,10|0,2:0|2:0,2:0:0:0:
341,322,87525,1,2,1:2:0:0:
415,244,87685,1,2,2:0:0:0:
449,371,87845,1,10,2:0:0:0:
314,237,88004,2,0,L|220:229,1,80,2|0,2:0|1:0,2:0:0:0:
108,312,88323,5,2,2:0:0:0:
234,230,88483,1,10,2:0:0:0:
80,188,88643,1,2,2:0:0:0:
193,373,88802,2,0,P|193:321|183:264,1,80,2|0,1:2|2:0,2:0:0:0:
133,117,89121,1,10,2:0:0:0:
121,119,89201,1,2,2:0:0:0:
109,114,89281,1,2,2:0:0:0:
101,104,89361,1,2,2:0:0:0:
100,92,89440,70,0,P|127:81|165:86,1,40,2|0,1:2|2:0,2:0:0:0:
284,2,89600,2,0,L|246:-1,1,30,2|0,2:0|2:0,2:0:0:0:
100,92,89919,6,0,P|127:81|165:86,1,40,2|0,2:0|2:0,2:0:0:0:
284,2,90079,2,0,L|246:-1,1,30,2|0,1:2|2:0,2:0:0:0:
100,92,90398,70,0,P|127:81|165:86,1,40,10|0,2:0|2:0,2:0:0:0:
284,2,90557,2,0,L|246:-1,1,30,2|0,2:0|2:0,2:0:0:0:
25,14,90877,1,2,1:2:0:0:
150,190,91036,1,10,2:0:0:0:
255,0,91196,5,2,2:0:0:0:
139,88,91355,1,2,1:2:0:0:
139,88,91674,2,0,P|252:102|326:131,1,194.999991073609,10|0,2:0|2:0,2:0:0:0:
269,253,91994,6,0,P|324:273|362:229,1,120,2|0,1:2|2:0,2:0:0:0:
395,37,92313,2,0,P|392:60|388:80,1,40,14|0,2:0|2:0,2:0:0:0:
366,202,92472,1,0,2:0:0:0:
228,39,92632,2,0,P|215:79|211:135,1,80,2|0,1:2|2:0,2:0:0:0:
63,245,92791,6,0,P|55:234|64:245,1,45,10|0,2:0|2:0,2:0:0:0:
159,152,93111,2,0,P|181:83|157:151,1,225,14|0,2:0|2:0,2:0:0:0:
159,168,93430,5,2,1:2:0:0:
319,120,93589,1,10,2:0:0:0:
231,303,93749,1,2,2:0:0:0:
410,336,93908,1,2,1:2:0:0:
414,303,93988,1,0,2:0:0:0:
403,281,94068,1,0,1:0:0:0:
390,272,94148,1,0,1:0:0:0:
381,274,94228,2,0,P|367:301|378:323,1,45,10|0,2:0|2:0,2:0:0:0:
496,266,94547,54,0,P|507:324|494:383,1,120,2|0,1:2|2:0,2:0:0:0:
296,286,94866,2,0,P|273:294|235:298,1,40,14|0,2:0|2:0,2:0:0:0:
151,330,95025,1,0,2:0:0:0:
142,153,95185,2,0,P|181:152|221:159,1,80,10|0,2:0|2:0,2:0:0:0:
387,188,95345,6,0,P|392:203|392:186,1,45,10|0,2:0|2:0,2:0:0:0:
284,84,95664,2,0,P|275:10|293:81,1,225,14|0,2:0|2:0,2:0:0:0:
299,94,95983,37,2,1:2:0:0:
446,197,96143,1,10,2:0:0:0:
377,13,96302,1,2,1:2:0:0:
265,209,96462,1,2,1:2:0:0:
232,213,96541,1,0,2:0:0:0:
210,202,96621,1,0,1:0:0:0:
201,189,96701,1,0,1:0:0:0:
203,180,96781,2,0,P|230:166|252:177,1,45,10|0,2:0|2:0,2:0:0:0:
176,300,97100,22,0,P|113:297|65:333,1,120,2|0,2:0|2:0,2:0:0:0:
84,79,97419,2,0,P|79:103|78:118,1,40,14|0,2:0|2:0,2:0:0:0:
75,230,97579,1,0,2:0:0:0:
242,169,97738,2,0,P|241:129|233:90,1,80,10|0,2:0|2:0,2:0:0:0:
318,0,97898,6,0,P|322:15|316:0,1,45,10|0,2:0|2:0,2:0:0:0:
363,211,98217,2,0,P|365:137|368:211,1,225,14|0,1:2|2:0,2:0:0:0:
353,232,98536,5,2,1:2:0:0:
461,133,98696,1,10,2:0:0:0:
372,318,98855,1,2,2:0:0:0:
244,167,99015,1,2,1:2:0:0:
223,139,99095,1,0,2:0:0:0:
201,130,99174,1,0,1:0:0:0:
185,132,99254,1,0,1:0:0:0:
177,141,99334,2,0,P|184:170|198:184,1,45,10|0,1:2|2:0,2:0:0:0:
52,277,99653,6,0,B|63:201|63:201|57:190|57:190|72:97,1,160,6|0,1:2|1:0,2:0:0:0:
239,286,100132,2,0,P|218:296|208:296,1,25,2|2,2:0|2:0,2:0:0:0:
163,254,100291,2,0,B|171:308|171:308|167:316|167:316|175:371,1,120,2|0,1:2|2:0,2:0:0:0:
309,384,100611,2,0,L|301:344,1,40,2|0,1:2|2:0,2:0:0:0:
370,226,100770,69,10,2:0:0:0:
370,226,100850,1,0,1:0:0:0:
370,226,100930,2,0,L|376:186,1,40,14|0,1:2|2:0,2:0:0:0:
225,95,101089,5,0,1:2:0:0:
225,95,101169,1,0,1:0:0:0:
225,95,101249,2,0,L|235:152,1,40,14|0,2:0|2:0,2:0:0:0:
370,226,101408,2,0,L|376:186,1,40,0|0,1:2|2:0,2:0:0:0:
211,290,101568,70,0,P|150:281|81:304,1,120,14|0,1:2|1:0,2:0:0:0:
0,358,101807,1,0,2:0:0:0:
0,358,101887,6,0,P|26:374|40:351,1,60,8|0,2:0|2:0,2:0:0:0:
41,214,102206,6,0,P|44:126|33:32,1,180,6|0,1:2|2:0,2:0:0:0:
28,18,102525,1,10,2:0:0:0:
225,95,102685,1,2,2:0:0:0:
114,153,102845,5,2,1:2:0:0:
330,41,103004,1,2,2:0:0:0:
350,306,103164,69,10,2:0:0:0:
225,95,103323,1,2,2:0:0:0:
228,322,103483,5,2,1:2:0:0:
432,212,103643,1,2,2:0:0:0:
198,184,103802,69,10,2:0:0:0:
449,215,103962,1,2,2:0:0:0:
212,327,104121,1,2,1:2:0:0:
449,215,104281,6,0,L|508:225,1,60,2|0,2:0|2:0,2:0:0:0:
273,119,104440,2,0,L|213:128,1,60,10|0,2:0|2:0,2:0:0:0:
362,248,104600,70,0,B|343:204|360:162|375:169|394:95|337:51,1,180,2|0,2:0|2:0,2:0:0:0:
348,58,104919,1,2,2:0:0:0:
240,88,105079,1,10,2:0:0:0:
33,48,105238,1,2,2:0:0:0:
142,23,105398,1,2,1:2:0:0:
248,174,105557,6,0,L|257:233,1,60,2|0,2:0|2:0,2:0:0:0:
119,166,105717,2,0,L|129:107,1,60,10|0,2:0|2:0,2:0:0:0:
422,13,105877,70,0,P|420:105|432:209,1,180,2|0,2:0|2:0,2:0:0:0:
436,208,106196,1,2,2:0:0:0:
383,384,106355,1,10,2:0:0:0:
258,234,106515,1,2,2:0:0:0:
208,372,106674,1,2,1:2:0:0:
430,279,106834,6,0,P|432:298|427:282,1,60,8|0,2:0|2:0,2:0:0:0:
248,204,106994,2,0,P|257:191|251:203,1,60,8|0,2:0|2:0,2:0:0:0:
162,303,107153,38,0,P|138:305|113:296,1,29.9999999999999,8|0,2:0|2:0,2:0:0:0:
100,347,107313,2,0,B|113:267|113:267|123:248|123:248|137:158,1,180,6|0,1:2|2:0,2:0:0:0:
127,142,107632,5,10,2:0:0:0:
301,79,107791,1,2,2:0:0:0:
167,74,107951,69,2,1:2:0:0:
396,161,108111,1,2,2:0:0:0:
284,236,108270,5,10,2:0:0:0:
512,186,108430,1,2,2:0:0:0:
390,332,108589,69,2,1:2:0:0:
438,63,108749,1,2,2:0:0:0:
236,168,108908,5,10,2:0:0:0:
499,190,109068,1,2,2:0:0:0:
259,304,109228,1,2,1:2:0:0:
468,284,109387,70,0,B|482:278|500:266|500:266|485:269|462:270,1,75,2|0,2:0|2:0,2:0:0:0:
284,88,109547,2,0,B|269:96|250:109|250:109|269:102|288:101,1,75,10|0,2:0|2:0,2:0:0:0:
373,311,109706,2,0,P|373:218|377:118,1,180,2|0,2:0|2:0,2:0:0:0:
377,112,110025,5,2,2:0:0:0:
258,319,110185,1,10,2:0:0:0:
284,88,110345,1,2,2:0:0:0:
463,271,110504,1,2,1:2:0:0:
283,106,110664,69,2,2:0:0:0:
260,298,110823,1,10,2:0:0:0:
351,216,110983,2,0,P|234:224|121:239,1,225,2|0,2:0|2:0,2:0:0:0:
115,256,111302,5,2,1:2:0:0:
141,155,111462,69,10,2:0:0:0:
222,122,111621,1,10,1:2:0:0:
292,146,111781,1,10,1:2:0:0:
341,321,111940,5,0,1:0:0:0:
361,327,112020,1,0,1:0:0:0:
377,332,112100,2,0,P|389:232|397:121,1,180,14|0,2:0|2:0,2:0:0:0:
395,127,112419,5,6,1:2:0:0:
331,186,112579,1,2,2:0:0:0:
288,16,112738,1,2,1:2:0:0:
373,40,112898,1,2,2:0:0:0:
246,162,113057,5,2,1:2:0:0:
225,77,113217,1,2,2:0:0:0:
395,127,113377,1,2,1:2:0:0:
331,186,113536,1,2,2:0:0:0:
288,16,113696,69,2,1:2:0:0:
373,40,113855,1,2,2:0:0:0:
246,162,114015,1,2,1:2:0:0:
225,77,114174,1,2,2:0:0:0:
395,127,114334,6,0,P|396:233|417:384,1,225,2|0,1:2|2:0,2:0:0:0:
496,290,114653,2,0,P|509:277|495:288,1,45,2|0,1:2|2:0,2:0:0:0:
356,197,114972,5,2,1:2:0:0:
356,197,115291,2,0,B|276:222|276:222|211:207,1,120,2|0,1:2|2:0,2:0:0:0:
216,185,115611,1,2,1:2:0:0:
216,185,115770,2,0,P|231:143|212:103,1,80,2|0,2:0|1:0,2:0:0:0:
128,349,116089,2,0,P|113:307|140:260,1,80,2|0,2:0|1:0,2:0:0:0:
216,185,116408,2,0,P|231:143|212:103,1,80,2|0,2:0|1:0,2:0:0:0:
183,0,116728,1,2,2:0:0:0:
183,0,116887,1,0,1:2:0:0:
183,0,117206,22,0,P|274:0|375:11,1,180,0|0,1:2|2:0,2:0:0:0:
384,24,117525,5,6,1:2:0:0:
461,71,117685,1,2,2:0:0:0:
296,160,117845,1,2,1:2:0:0:
299,66,118004,1,2,2:0:0:0:
457,165,118164,69,2,1:2:0:0:
375,210,118323,1,2,2:0:0:0:
384,24,118483,1,2,1:2:0:0:
461,71,118643,1,2,2:0:0:0:
296,160,118802,5,2,1:2:0:0:
299,66,118962,1,2,2:0:0:0:
457,165,119121,1,2,1:2:0:0:
375,210,119281,1,2,2:0:0:0:
384,24,119440,70,0,P|258:34|149:24,1,225,2|0,1:2|2:0,2:0:0:0:
30,25,119760,2,0,P|37:9|32:25,1,45,2|0,1:2|2:0,2:0:0:0:
160,132,120079,53,2,1:2:0:0:
160,132,120398,2,0,B|130:153|130:153|47:161,1,120,2|0,1:2|2:0,2:0:0:0:
17,187,120717,1,2,1:2:0:0:
17,187,120877,2,0,P|29:239|0:289,1,80,2|0,2:0|1:0,2:0:0:0:
150,350,121196,2,0,P|150:302|182:260,1,80,2|0,2:0|1:0,2:0:0:0:
287,176,121515,5,2,2:0:0:0:
381,195,121674,1,0,1:0:0:0:
420,283,121834,1,2,2:0:0:0:
369,365,121994,1,2,1:2:0:0:
369,365,122313,38,0,P|278:365|177:376,1,180,2|0,1:2|2:0,2:0:0:0:
156,383,122632,5,6,1:2:0:0:
221,295,122791,1,2,2:0:0:0:
5,264,122951,1,10,2:0:0:0:
46,366,123111,1,2,2:0:0:0:
181,192,123270,69,2,1:2:0:0:
75,177,123430,1,2,2:0:0:0:
156,383,123589,1,10,2:0:0:0:
221,295,123749,1,2,2:0:0:0:
5,264,123908,5,2,1:2:0:0:
46,367,124068,1,2,2:0:0:0:
181,192,124228,1,10,2:0:0:0:
75,177,124387,1,2,2:0:0:0:
156,383,124547,70,0,P|185:267|190:138,1,225,2|0,1:2|2:0,2:0:0:0:
349,268,124866,2,0,P|340:283|346:267,1,45,10|0,2:0|2:0,2:0:0:0:
479,169,125185,21,2,1:2:0:0:
479,169,125504,2,0,P|495:213|489:257,1,80,10|0,2:0|2:0,2:0:0:0:
355,345,125823,1,2,1:2:0:0:
355,345,125983,2,0,P|339:301|345:257,1,80,2|8,2:0|2:0,2:0:0:0:
479,169,126302,2,0,P|495:213|489:257,1,80,2|0,2:0|1:0,2:0:0:0:
355,345,126621,2,0,P|339:301|345:257,1,80,2|8,2:0|2:0,2:0:0:0:
311,168,126940,5,2,1:2:0:0:
313,160,127020,1,0,1:0:0:0:
315,152,127100,2,0,L|263:143,1,40,2|0,1:2|2:0,2:0:0:0:
149,257,127260,1,0,1:0:0:0:
141,260,127339,1,0,1:0:0:0:
132,262,127419,6,0,P|137:159|129:69,1,180,14|0,1:2|2:0,2:0:0:0:
125,48,127738,5,6,1:2:0:0:
25,117,127898,1,2,2:0:0:0:
241,222,128057,1,10,2:0:0:0:
233,103,128217,1,2,2:0:0:0:
33,238,128377,69,2,1:2:0:0:
139,290,128536,1,2,2:0:0:0:
125,48,128696,1,10,2:0:0:0:
25,117,128855,1,2,2:0:0:0:
241,222,129015,5,2,1:2:0:0:
233,101,129174,1,2,2:0:0:0:
33,237,129334,1,10,2:0:0:0:
139,288,129494,1,2,2:0:0:0:
125,48,129653,70,0,P|251:53|349:37,1,225,2|0,1:2|2:0,2:0:0:0:
498,55,129972,2,0,P|512:65|496:57,1,45,10|0,2:0|2:0,2:0:0:0:
444,215,130291,53,2,1:2:0:0:
444,215,130611,2,0,P|386:202|332:201,1,80,10|0,2:0|2:0,2:0:0:0:
321,303,130930,1,2,1:2:0:0:
321,303,131089,1,2,1:2:0:0:
216,270,131249,1,8,2:0:0:0:
75,316,131408,5,6,1:2:0:0:
75,316,132047,69,0,1:0:0:0:
97,320,132127,1,0,1:0:0:0:
130,298,132206,5,8,2:0:0:0:
168,270,132286,1,0,1:0:0:0:
216,270,132366,1,0,1:0:0:0:
253,300,132446,1,0,1:0:0:0:
267,338,132525,69,8,2:0:0:0:
253,374,132605,1,8,2:0:0:0:
231,376,132685,1,0,1:0:0:0:
218,362,132765,1,0,1:0:0:0:
216,349,132845,54,0,P|217:256|229:183,1,160,6|0,1:2|1:0,2:0:0:0:
389,144,133323,1,2,2:0:0:0:
389,144,133403,1,2,2:0:0:0:
389,144,133483,2,0,P|343:115|338:167,1,120,2|0,1:2|2:0,2:0:0:0:
338,174,133802,5,2,1:2:0:0:
160,165,133962,1,10,2:0:0:0:
160,165,134041,1,8,2:0:0:0:
160,165,134121,2,0,P|175:107|186:44,1,120,2|0,1:2|2:0,2:0:0:0:
78,238,134440,2,0,P|83:304|94:366,1,120,2|0,1:2|2:0,2:0:0:0:
99,380,134760,69,2,1:2:0:0:
260,308,134919,1,0,1:0:0:0:
256,298,134999,1,0,1:0:0:0:
252,288,135079,2,0,P|318:293|379:310,1,120,8|0,2:0|2:0,2:0:0:0:
392,316,135398,5,10,2:0:0:0:
494,167,135557,1,2,1:2:0:0:
354,218,135717,69,10,2:0:0:0:
370,63,135877,1,2,1:2:0:0:
272,159,136036,5,10,2:0:0:0:
255,50,136196,1,0,1:0:0:0:
255,50,136275,1,0,1:0:0:0:
255,50,136355,1,8,2:0:0:0:
406,145,136515,69,2,2:0:0:0:
196,167,136674,21,14,2:0:0:0:
361,225,136834,1,2,1:2:0:0:
361,225,136914,1,0,1:0:0:0:
361,225,136994,2,0,P|383:247|401:257,1,40,14|0,2:0|2:0,2:0:0:0:
262,323,137153,1,2,1:2:0:0:
262,323,137233,1,0,1:0:0:0:
262,323,137313,6,0,P|231:331|214:343,1,50,14|0,2:0|2:0,2:0:0:0:
165,170,137472,70,0,P|173:130|171:103,1,60,2|0,1:2|2:0,2:0:0:0:
368,195,137632,6,0,P|410:228|443:241,1,70,14|0,2:0|2:0,2:0:0:0:
286,349,137791,70,0,P|240:365|215:385,1,80,2|0,2:0|2:0,2:0:0:0:
77,343,137951,6,0,B|34:286|59:202|80:217|99:145|25:40,1,270,6|0,1:2|2:0,2:0:0:0:
41,69,138270,1,6,1:2:0:0:
41,69,138589,1,6,1:2:0:0:
211,25,138749,1,10,1:2:0:0:
257,19,138829,1,2,2:0:0:0:
293,28,138908,1,10,2:0:0:0:
317,47,138988,1,2,2:0:0:0:
330,72,139068,1,2,2:0:0:0:
329,92,139148,1,2,2:0:0:0:
305,131,139228,37,2,1:2:0:0:
305,131,140345,5,2,1:2:0:0:
303,141,140424,1,0,1:0:0:0:
302,151,140504,1,10,2:0:0:0:
146,202,140664,69,2,1:2:0:0:
148,213,140743,1,0,1:0:0:0:
149,224,140823,1,10,2:0:0:0:
275,318,140983,5,2,1:2:0:0:
272,330,141063,1,0,1:0:0:0:
271,343,141142,1,10,2:0:0:0:
271,343,141621,38,0,L|273:320,1,15,2|0,1:2|2:0,2:0:0:0:
288,294,141781,2,0,P|246:298|197:291,1,65,10|0,2:0|2:0,2:0:0:0:
113,340,141940,5,2,1:2:0:0:
69,303,142020,1,0,1:0:0:0:
63,253,142100,1,10,2:0:0:0:
80,215,142180,1,0,2:0:0:0:
105,194,142259,1,2,1:2:0:0:
123,190,142339,1,0,1:0:0:0:
136,190,142419,2,0,P|130:239|115:257,1,65,10|0,2:0|2:0,2:0:0:0:
110,98,142579,69,2,1:2:0:0:
110,98,142658,1,0,1:0:0:0:
110,98,142738,2,0,P|99:83|112:69,1,29.9999999999999,10|0,2:0|2:0,2:0:0:0:
70,23,142898,6,0,B|59:39|40:53|40:53|144:45|241:65,1,225,4|0,1:2|2:0,2:0:0:0:
243,65,143217,1,2,1:2:0:0:
397,131,143376,1,10,2:0:0:0:
224,208,143536,1,2,1:2:0:0:
214,210,143616,1,0,2:0:0:0:
204,211,143696,1,10,2:0:0:0:
402,311,143855,1,8,2:0:0:0:
174,384,144015,69,10,2:0:0:0:
181,341,144095,1,2,2:0:0:0:
189,298,144174,1,2,2:0:0:0:
197,254,144254,1,2,2:0:0:0:
204,211,144334,54,0,P|305:210|408:222,1,195,6|0,1:2|2:0,2:0:0:0:
417,224,144653,1,10,2:0:0:0:
466,21,144813,1,2,2:0:0:0:
512,345,144972,5,2,1:2:0:0:
476,108,145132,1,2,2:0:0:0:
341,311,145291,69,10,2:0:0:0:
386,50,145451,1,2,2:0:0:0:
136,205,145610,5,2,1:2:0:0:
380,148,145770,1,2,2:0:0:0:
125,60,145930,69,10,2:0:0:0:
400,149,146089,1,2,2:0:0:0:
117,215,146249,1,2,1:2:0:0:
266,0,146408,2,0,P|262:36|254:63,1,65,2|0,2:0|2:0,2:0:0:0:
400,149,146568,2,0,P|405:182|414:214,1,65,10|0,2:0|2:0,2:0:0:0:
195,374,146728,6,0,P|209:277|234:156,1,195,2|0,2:0|2:0,2:0:0:0:
234,164,147047,1,2,2:0:0:0:
437,8,147206,1,10,2:0:0:0:
419,230,147366,1,2,2:0:0:0:
253,63,147525,1,2,1:2:0:0:
355,324,147685,69,2,2:0:0:0:
481,115,147845,1,10,2:0:0:0:
234,164,148004,1,2,2:0:0:0:
223,166,148084,1,0,2:0:0:0:
213,167,148164,1,4,1:2:0:0:
419,230,148323,5,2,1:2:0:0:
419,221,148483,1,10,2:0:0:0:
410,222,148642,1,10,2:0:0:0:
411,231,148802,1,10,1:2:0:0:
415,128,148962,69,2,1:2:0:0:
441,126,149041,1,2,2:0:0:0:
477,141,149121,1,14,2:0:0:0:
505,179,149201,1,2,2:0:0:0:
512,237,149281,1,2,2:0:0:0:
481,291,149360,1,2,2:0:0:0:
416,322,149440,54,0,B|355:335|355:335|292:312|292:312|255:316,1,165,6|0,1:2|2:0,2:0:0:0:
94,226,149759,6,0,P|101:171|100:226,1,165,10|0,2:0|2:0,2:0:0:0:
256,315,150079,70,0,P|254:279|247:255,1,55,2|0,1:2|2:0,2:0:0:0:
376,92,150238,6,0,P|350:106|336:83,1,55.5000000000001,2|0,2:0|2:0,2:0:0:0:
324,34,150557,2,0,P|312:145|315:227,1,150,2|2,2:0|1:2,2:0:0:0:
332,293,150876,21,2,2:0:0:0:
416,82,151036,1,10,2:0:0:0:
195,188,151196,1,2,2:0:0:0:
424,340,151355,2,0,P|426:276|440:200,1,110,2|2,1:2|2:0,2:0:0:0:
313,184,151595,1,2,2:0:0:0:
306,174,151674,2,0,P|303:110|289:34,1,110,10|0,2:0|2:0,2:0:0:0:
100,237,151993,6,0,B|88:184|88:184|108:128|108:128|100:52,1,165,6|0,1:2|2:0,2:0:0:0:
296,64,152313,6,0,P|289:9|287:64,1,165,10|0,2:0|2:0,2:0:0:0:
307,261,152632,70,0,L|316:315,1,55,2|0,1:2|2:0,2:0:0:0:
149,134,152791,6,0,P|135:108|158:94,1,55.5000000000001,2|0,2:0|2:0,2:0:0:0:
200,84,153110,2,0,P|124:75|49:84,1,150,2|2,2:0|1:2,2:0:0:0:
162,333,153430,53,2,2:0:0:0:
200,84,153589,1,10,2:0:0:0:
35,238,153749,1,2,2:0:0:0:
291,265,153908,2,0,P|186:259|118:249,1,165,2|2,1:2|2:0,2:0:0:0:
110,247,154228,1,10,2:0:0:0:
330,324,154387,1,0,2:0:0:0:
330,324,154467,1,0,2:0:0:0:
330,324,154547,38,0,B|350:274|350:274|339:216|339:216|358:142,1,165,6|0,1:2|2:0,2:0:0:0:
440,84,154866,6,0,P|495:91|440:90,1,165,10|0,2:0|2:0,2:0:0:0:
260,70,155185,70,0,P|253:96|252:124,1,55,2|0,1:2|2:0,2:0:0:0:
193,329,155345,6,0,P|179:303|202:289,1,55.5000000000001,2|0,2:0|2:0,2:0:0:0:
237,267,155664,2,0,L|75:295,1,150,2|2,2:0|1:2,2:0:0:0:
0,133,155983,5,2,2:0:0:0:
240,190,156142,1,10,2:0:0:0:
89,293,156302,1,2,2:0:0:0:
118,159,156462,1,2,1:2:0:0:
149,34,156621,1,2,1:2:0:0:
149,34,156701,1,2,1:2:0:0:
149,34,156781,2,0,P|225:40|344:40,1,165,14|0,2:0|2:0,2:0:0:0:
502,57,157100,6,0,B|489:107|489:107|500:165|500:165|480:215,1,165,14|0,2:0|2:0,2:0:0:0:
357,316,157419,70,0,P|302:323|358:325,1,165,10|0,2:0|2:0,2:0:0:0:
257,188,157738,6,0,L|201:204,1,55,10|0,2:0|2:0,2:0:0:0:
45,153,157898,70,0,P|61:134|47:107,1,55.5000000000001,10|0,2:0|2:0,2:0:0:0:
9,82,158217,2,0,L|171:111,1,150,6|0,1:2|2:0,2:0:0:0:
204,203,158536,6,0,P|200:179|207:148,1,35,2|0,1:2|2:0,2:0:0:0:
330,68,158696,70,0,P|324:99|326:123,1,45,10|0,1:2|2:0,2:0:0:0:
378,302,158855,6,0,P|380:269|389:249,1,55,10|0,1:2|2:0,2:0:0:0:
502,140,159015,70,0,P|504:175|513:205,1,65,10|0,1:2|2:0,2:0:0:0:
292,342,159174,1,0,2:0:0:0:
269,353,159254,1,0,1:0:0:0:
245,346,159334,2,0,P|258:257|255:173,1,165,2|0,1:2|2:0,2:0:0:0:
34,187,159653,5,14,2:0:0:0:
250,148,159813,1,0,2:0:0:0:
33,202,159972,69,10,2:0:0:0:
258,263,160132,1,0,2:0:0:0:
22,319,160291,6,0,P|44:317|78:329,1,29.9999999999999,10|0,2:0|2:0,2:0:0:0:
126,360,160451,2,0,P|85:335|126:359,1,165,10|0,2:0|2:0,2:0:0:0:
359,312,160770,70,0,P|393:304|358:316,1,120,6|0,1:2|2:0,2:0:0:0:
250,148,161089,6,0,P|249:121|271:91,1,45,2|0,1:2|2:0,2:0:0:0:
175,220,161249,70,0,P|176:247|154:277,1,60,10|0,1:2|2:0,2:0:0:0:
373,126,161408,6,0,P|359:90|366:56,1,75.0000028610231,10|0,1:2|2:0,2:0:0:0:
279,296,161568,70,0,P|288:340|260:381,1,89.9999972534181,14|0,1:2|2:0,2:0:0:0:
477,302,161728,1,0,1:0:0:0:
488,309,161807,1,0,1:0:0:0:
477,316,161887,6,0,P|468:257|468:226,1,89.9999972534181,8|0,2:0|2:0,2:0:0:0:
509,85,162206,69,6,1:2:0:0:
509,85,162285,1,2,2:0:0:0:
509,85,162365,2,0,L|420:70,1,50,2|0,2:0|2:0,2:0:0:0:
334,15,162525,6,0,P|326:49|335:100,1,50,10|0,2:0|2:0,2:0:0:0:
236,203,162684,2,0,P|269:192|309:159,1,50,2|0,2:0|2:0,2:0:0:0:
191,57,162844,2,0,P|160:28|102:7,1,100,2|2,1:2|2:0,2:0:0:0:
84,145,163083,1,2,2:0:0:0:
84,145,163163,2,0,P|53:173|-5:194,1,100,8|2,2:0|2:0,2:0:0:0:
91,335,163482,1,0,1:0:0:0:
244,209,163642,69,2,2:0:0:0:
244,209,163721,1,2,2:0:0:0:
244,209,163801,2,0,L|258:129,1,50,10|0,2:0|2:0,2:0:0:0:
75,95,163961,2,0,L|89:174,1,50,2|0,2:0|2:0,2:0:0:0:
173,325,164120,5,2,1:2:0:0:
215,352,164200,1,2,2:0:0:0:
261,334,164280,2,0,L|314:343,1,50,2|0,2:0|2:0,2:0:0:0:
458,231,164440,70,0,L|405:241,1,49.5,10|0,2:0|2:0,2:0:0:0:
313,134,164759,5,2,1:2:0:0:
313,134,164838,1,2,2:0:0:0:
313,134,164918,2,0,L|260:124,1,50,2|0,2:0|2:0,2:0:0:0:
186,277,165078,70,0,P|184:253|179:228,1,50,10|0,2:0|2:0,2:0:0:0:
73,171,165237,2,0,P|53:184|34:201,1,50,2|0,2:0|2:0,2:0:0:0:
40,356,165397,2,0,P|86:376|157:384,1,100,2|2,1:2|2:0,2:0:0:0:
266,338,165636,1,2,2:0:0:0:
266,338,165716,2,0,P|312:317|383:309,1,100,8|2,2:0|2:0,2:0:0:0:
477,376,166035,1,0,1:0:0:0:
503,227,166195,5,2,2:0:0:0:
503,227,166275,1,2,2:0:0:0:
503,227,166354,2,0,L|515:157,1,50,10|0,2:0|2:0,2:0:0:0:
378,76,166514,2,0,L|390:145,1,50,2|0,2:0|2:0,2:0:0:0:
289,220,166674,69,2,1:2:0:0:
247,193,166753,1,2,2:0:0:0:
201,211,166833,2,0,L|148:202,1,50,2|0,2:0|2:0,2:0:0:0:
213,346,166993,6,0,L|266:337,1,49.5,10|0,2:0|2:0,2:0:0:0:
443,370,167312,69,6,1:2:0:0:
443,370,167392,1,2,2:0:0:0:
443,370,167471,2,0,L|433:317,1,50,2|0,2:0|2:0,2:0:0:0:
476,126,167631,6,0,P|440:126|405:138,1,50,10|0,2:0|2:0,2:0:0:0:
338,223,167791,2,0,P|302:223|267:211,1,50,2|0,2:0|2:0,2:0:0:0:
141,58,167950,2,0,P|200:41|263:44,1,100,2|2,1:2|2:0,2:0:0:0:
329,111,168190,1,2,2:0:0:0:
329,111,168269,2,0,P|388:128|451:125,1,100,8|2,2:0|2:0,2:0:0:0:
497,19,168588,1,0,1:0:0:0:
336,118,168748,69,2,2:0:0:0:
336,118,168828,1,2,2:0:0:0:
336,118,168908,2,0,L|347:182,1,50,10|0,2:0|2:0,2:0:0:0:
465,286,169067,2,0,L|475:237,1,50,2|0,2:0|2:0,2:0:0:0:
305,340,169227,5,2,1:2:0:0:
263,367,169307,1,2,2:0:0:0:
217,349,169386,2,0,L|164:339,1,50,2|0,2:0|2:0,2:0:0:0:
59,246,169546,70,0,L|6:255,1,49.5,10|0,2:0|2:0,2:0:0:0:
112,125,169865,5,2,1:2:0:0:
112,125,169945,1,2,2:0:0:0:
112,125,170025,2,0,P|137:133|160:133,1,50,2|0,2:0|2:0,2:0:0:0:
297,235,170184,70,0,P|317:206|311:153,1,50,10|0,2:0|2:0,2:0:0:0:
292,14,170344,2,0,P|257:19|222:61,1,50,2|0,2:0|2:0,2:0:0:0:
160,132,170503,2,0,P|157:188|130:257,1,100,2|2,1:2|2:0,2:0:0:0:
0,256,170743,1,2,2:0:0:0:
0,256,170823,2,0,P|2:312|29:381,1,100,8|2,2:0|2:0,2:0:0:0:
150,384,171142,1,0,1:0:0:0:
306,270,171301,5,2,2:0:0:0:
306,270,171381,1,2,2:0:0:0:
306,270,171461,2,0,L|359:277,1,50,10|0,2:0|2:0,2:0:0:0:
427,137,171620,2,0,L|373:144,1,50,2|0,2:0|2:0,2:0:0:0:
214,27,171780,69,2,1:2:0:0:
256,0,171860,1,2,2:0:0:0:
302,18,171940,2,0,L|355:28,1,50,2|0,2:0|2:0,2:0:0:0:
427,137,172099,6,0,L|373:144,1,49.5,10|0,2:0|2:0,2:0:0:0:
218,205,172418,69,6,1:2:0:0:
218,205,172498,1,2,2:0:0:0:
218,205,172578,1,2,2:0:0:0:
0,129,172737,1,2,2:0:0:0:
165,129,172897,5,2,2:0:0:0:
55,203,173057,2,0,L|72:303,1,100,2|0,2:0|2:0,2:0:0:0:
90,288,173296,2,0,L|72:189,1,80,2|0,2:0|2:0,2:0:0:0:
222,229,173535,70,0,L|218:205,4,25,14|0|0|0|0,2:0|2:0|2:0|2:0|2:0,2:0:0:0:
231,238,173854,5,2,1:2:0:0:
231,238,173934,1,2,1:2:0:0:
231,238,174014,1,10,1:2:0:0:
327,212,174174,1,10,1:2:0:0:
444,291,174333,69,14,1:2:0:0:
