osu file format v14

[General]
AudioFilename: audio.ogg
AudioLeadIn: 0
PreviewTime:50983
Countdown: 0
SampleSet: Soft
StackLeniency: 0.5
Mode: 0
LetterboxInBreaks: 0
WidescreenStoryboard: 1

[Editor]
Bookmarks:3909,14122,24334,29441,39654,51143,61355,71568,81781,91994,102206,112419,132845,139228,144334,149440,162206
DistanceSpacing: 1.4
BeatDivisor: 2
GridSize: 8
TimelineZoom: 2.7

[Metadata]
Title:Mental Chainsaw
TitleUnicode:メンタルチェンソー
Artist:Tsukino x Kurousagi Uru
ArtistUnicode:月乃×黒兎ウル
Creator:MuChin
Version:GfMRT's Hard
Source:
Tags:かいりきベア Kairiki bear pop vtuber virtual youtuber cover utaite 歌い手 female japanese jpop j-pop GfMRT SnowNiNo_ bkmoonp1g-
BeatmapID:3756478
BeatmapSetID:1806660

[Difficulty]
HPDrainRate:4.5
CircleSize:3.2
OverallDifficulty:6.4
ApproachRate:8
SliderMultiplier:1.4
SliderTickRate:1

[Events]
//Background and Video events
0,0,"bg.jpg",0,0
//Break Periods
2,115172,116456
2,120278,121563
2,125385,126669
2,130491,131297
//Storyboard Layer 0 (Background)
//Storyboard Layer 1 (Fail)
//Storyboard Layer 2 (Pass)
//Storyboard Layer 3 (Foreground)
//Storyboard Layer 4 (Overlay)
//Storyboard Sound Samples

[TimingPoints]
-1197,319.148936170213,4,2,0,50,1,0
717,-100,4,2,1,70,0,0
3829,-100,4,2,1,5,0,0
3909,-100,4,2,1,60,0,0
4068,-100,4,2,2,60,0,0
4228,-100,4,2,1,60,0,0
4388,-100,4,2,2,60,0,0
4547,-100,4,2,1,60,0,0
4707,-100,4,2,3,60,0,0
4787,-100,4,2,1,60,0,0
5026,-100,4,2,2,60,0,0
5185,-100,4,2,1,60,0,0
5345,-100,4,2,2,60,0,0
5425,-100,4,2,1,60,0,0
5664,-100,4,2,2,60,0,0
5824,-100,4,2,1,60,0,0
5983,-100,4,2,2,60,0,0
6143,-100,4,2,1,60,0,0
6303,-100,4,2,3,60,0,0
6382,-100,4,0,3,5,0,0
6462,-100,4,2,1,60,0,0
6622,-100,4,2,2,60,0,0
6781,-100,4,2,1,60,0,0
6941,-100,4,2,2,60,0,0
7100,-100,4,2,1,60,0,0
7260,-100,4,2,3,60,0,0
7340,-100,4,2,1,60,0,0
7579,-100,4,2,2,60,0,0
7739,-100,4,2,1,60,0,0
7898,-100,4,2,2,60,0,0
7978,-100,4,2,1,60,0,0
8217,-100,4,2,2,60,0,0
8377,-100,4,2,1,60,0,0
8537,-100,4,2,2,60,0,0
8696,-100,4,2,1,60,0,0
8856,-100,4,2,3,60,0,0
8935,-100,4,0,3,5,0,0
9015,-100,4,2,1,60,0,0
9175,-100,4,2,2,60,0,0
9334,-100,4,2,1,60,0,0
9494,-100,4,2,2,60,0,0
9654,-100,4,2,1,60,0,0
9813,-100,4,2,3,60,0,0
9893,-100,4,2,1,60,0,0
10132,-100,4,2,2,60,0,0
10292,-100,4,2,1,60,0,0
10451,-100,4,2,2,60,0,0
10531,-100,4,2,1,60,0,0
10771,-100,4,2,2,60,0,0
10930,-100,4,2,1,60,0,0
11090,-100,4,2,2,60,0,0
11249,-100,4,2,1,60,0,0
11409,-100,4,2,3,60,0,0
11488,-100,4,0,3,5,0,0
11568,-100,4,2,1,60,0,0
11728,-100,4,2,2,60,0,0
11888,-100,4,2,1,60,0,0
12047,-100,4,2,2,60,0,0
12207,-100,4,2,1,60,0,0
12366,-100,4,2,3,60,0,0
12446,-100,4,2,1,60,0,0
12685,-100,4,2,2,60,0,0
12845,-100,4,2,1,60,0,0
13005,-100,4,2,2,60,0,0
13084,-100,4,2,1,60,0,0
13324,-100,4,2,2,60,0,0
13483,-100,4,2,1,60,0,0
13643,-100,4,2,2,60,0,0
13803,-100,4,2,1,60,0,0
14042,-100,4,0,1,5,0,0
14122,-100,4,2,1,60,0,0
18749,-100,4,0,1,5,0,0
18909,-100,4,2,1,60,0,0
21302,-100,4,0,1,5,0,0
21462,-100,4,2,1,60,0,0
22579,-100,4,0,1,5,0,0
22739,-100,4,2,1,60,0,0
24174,-100,4,0,1,5,0,0
24334,-100,4,2,1,60,0,0
24813,-100,4,2,3,60,0,0
24973,-100,4,2,1,60,0,0
25132,-100,4,2,3,60,0,0
25212,-100,4,2,1,60,0,0
25451,-100,4,2,2,60,0,0
25611,-100,4,2,1,60,0,0
25771,-100,4,2,2,60,0,0
25850,-100,4,2,1,60,0,0
26090,-100,4,2,2,60,0,0
26249,-100,4,2,1,60,0,0
26409,-100,4,2,2,60,0,0
26568,-100,4,2,1,60,0,0
26728,-100,4,2,3,60,0,0
26888,-100,4,2,1,60,0,0
27047,-100,4,2,2,60,0,0
27207,-100,4,2,1,60,0,0
27366,-100,4,2,2,60,0,0
27526,-100,4,2,1,60,0,0
27685,-100,4,2,3,60,0,0
27765,-100,4,2,1,60,0,0
28005,-100,4,2,2,60,0,0
28164,-100,4,2,1,60,0,0
28324,-100,4,2,2,60,0,0
28404,-100,4,2,1,60,0,0
28643,-100,4,2,2,60,0,0
28803,-100,4,2,1,60,0,0
28962,-100,4,2,2,60,0,0
29122,-100,4,2,1,60,0,0
29281,-100,4,2,3,60,0,0
29361,-100,4,0,3,5,0,0
29440,-100,4,2,1,60,0,0
34068,-100,4,0,1,5,0,0
34228,-100,4,2,1,60,0,0
39174,-100,4,0,1,5,0,0
39334,-100,4,2,1,60,0,0
39493,-100,4,0,1,5,0,0
39574,-100,4,2,1,5,0,0
39654,-100,4,2,1,50,0,0
39893,-100,4,2,1,5,0,0
39973,-100,4,2,1,70,0,0
40212,-100,4,2,1,5,0,0
40292,-100,4,2,1,70,0,0
40691,-100,4,2,1,5,0,0
40771,-100,4,2,1,50,0,0
41090,-100,4,2,1,60,0,0
42207,-100,4,2,1,50,0,0
42446,-100,4,2,1,5,0,0
42526,-100,4,2,1,60,0,0
42765,-100,4,2,1,5,0,0
42845,-100,4,2,1,70,0,0
43244,-100,4,2,1,5,0,0
43324,-100,4,2,1,70,0,0
43643,-100,4,2,1,60,0,0
44441,-100,4,2,1,70,0,0
44760,-100,4,2,1,50,0,0
44999,-100,4,2,1,5,0,0
45079,-100,4,2,1,60,0,0
45319,-100,4,2,1,5,0,0
45398,-100,4,2,1,70,0,0
45797,-100,4,2,1,5,0,0
45877,-100,4,2,1,70,0,0
46196,-100,4,2,1,60,0,0
47233,-100,4,0,1,5,0,0
47313,-100,4,2,1,60,0,0
48829,-100,4,2,1,5,0,0
48909,-100,4,2,1,60,0,0
49148,-100,4,2,1,5,0,0
49228,-100,4,2,1,60,0,0
49866,-125,4,2,1,60,0,0
50505,-100,4,2,1,60,0,0
51143,319.148936170213,4,2,1,80,1,0
51143,-90.9090909090909,4,2,1,80,0,1
61275,-90.9090909090909,4,0,1,5,0,1
61355,-100,4,2,1,60,0,0
63748,-100,4,0,1,5,0,0
63908,-100,4,2,1,60,0,0
66302,-100,4,0,1,5,0,0
66462,-100,4,2,1,60,0,0
69015,-100,4,2,1,70,0,1
71488,-100,4,0,1,5,0,1
71568,-100,4,2,1,60,0,0
72047,-100,4,2,2,60,0,0
72206,-100,4,2,1,60,0,0
72366,-100,4,2,3,60,0,0
72446,-100,4,2,1,60,0,0
72685,-100,4,2,2,60,0,0
72845,-100,4,2,1,60,0,0
73004,-100,4,2,2,60,0,0
73084,-100,4,2,1,60,0,0
73323,-100,4,2,2,60,0,0
73483,-100,4,2,1,60,0,0
73643,-100,4,2,2,60,0,0
73802,-100,4,2,1,60,0,0
73962,-100,4,2,3,60,0,0
74041,-100,4,0,3,5,0,0
74121,-100,4,2,1,60,0,0
74281,-100,4,2,2,60,0,0
74440,-100,4,2,1,60,0,0
74600,-100,4,2,2,60,0,0
74760,-100,4,2,1,60,0,0
74919,-100,4,2,3,60,0,0
74999,-100,4,2,1,60,0,0
75238,-100,4,2,2,60,0,0
75398,-100,4,2,1,60,0,0
75557,-100,4,2,2,60,0,0
75637,-100,4,2,1,60,0,0
75877,-100,4,2,2,60,0,0
76036,-100,4,2,1,60,0,0
76196,-100,4,2,2,60,0,0
76355,-100,4,2,1,60,0,0
76515,-100,4,2,3,60,0,0
76594,-100,4,0,3,5,0,0
76674,-100,4,2,1,60,0,0
76834,-100,4,2,2,60,0,0
76994,-100,4,2,1,60,0,0
77153,-100,4,2,2,60,0,0
77313,-100,4,2,1,60,0,0
77472,-100,4,2,3,60,0,0
77552,-100,4,2,1,60,0,0
77791,-100,4,2,2,60,0,0
77951,-100,4,2,1,60,0,0
78111,-100,4,2,2,60,0,0
78190,-100,4,2,1,60,0,0
78430,-100,4,2,2,60,0,0
78589,-100,4,2,1,60,0,0
78749,-100,4,2,2,60,0,0
78908,-100,4,2,1,60,0,0
79068,-100,4,2,3,60,0,0
79147,-100,4,0,3,5,0,0
79228,-100,4,2,1,60,0,0
79387,-100,4,2,2,60,0,0
79547,-100,4,2,1,60,0,0
79706,-100,4,2,2,60,0,0
79866,-100,4,2,1,60,0,0
80025,-100,4,2,3,60,0,0
80105,-100,4,2,1,60,0,0
80345,-100,4,2,2,60,0,0
80504,-100,4,2,1,60,0,0
80664,-100,4,2,2,60,0,0
80744,-100,4,2,1,60,0,0
80983,-100,4,2,2,60,0,0
81143,-100,4,2,1,60,0,0
81302,-100,4,2,2,60,0,0
81462,-100,4,2,1,60,0,0
81621,-100,4,2,3,60,0,0
81781,-100,4,2,1,60,0,0
83855,-100,4,0,1,5,0,0
84015,-100,4,2,1,60,0,0
86408,-100,4,0,1,5,0,0
86568,-100,4,2,1,60,0,0
86727,-100,4,0,1,5,0,0
86887,-100,4,2,1,60,0,0
87365,-100,4,0,1,5,0,0
87525,-100,4,2,1,60,0,0
88961,-100,4,0,1,5,0,0
89121,-100,4,2,1,60,0,0
91514,-100,4,0,1,5,0,0
91674,-100,4,2,1,60,0,0
91833,-100,4,0,1,5,0,0
91994,-100,4,2,1,50,0,0
92233,-100,4,2,1,60,0,0
92552,-100,4,2,1,5,0,0
92632,-100,4,2,1,70,0,0
94547,-100,4,2,1,50,0,0
94786,-100,4,2,1,5,0,0
94866,-100,4,2,1,60,0,0
95105,-100,4,2,1,5,0,0
95185,-100,4,2,1,70,0,0
95584,-100,4,2,1,5,0,0
95664,-100,4,2,1,70,0,0
97100,-100,4,2,1,50,0,0
97419,-100,4,2,1,60,0,0
97738,-100,4,2,1,70,0,0
97898,-100,4,2,1,50,0,0
98137,-100,4,2,1,70,0,0
99653,-100,4,2,1,60,0,0
102206,-90.9090909090909,4,2,1,80,0,1
112100,-90.9090909090909,4,2,1,60,0,1
112339,-111.111111111111,4,0,1,5,0,0
112419,-111.111111111111,4,2,1,40,0,0
114573,-111.111111111111,4,0,1,5,0,0
114653,-111.111111111111,4,2,1,40,0,0
114972,-111.111111111111,4,2,4,40,0,0
117206,-111.111111111111,4,2,1,40,0,0
117445,-111.111111111111,4,0,1,5,0,0
117525,-111.111111111111,4,2,1,40,0,0
119679,-111.111111111111,4,0,1,5,0,0
119759,-111.111111111111,4,2,1,40,0,0
120079,-111.111111111111,4,2,4,40,0,0
122313,-111.111111111111,4,2,1,40,0,0
122552,-111.111111111111,4,0,1,5,0,0
122632,-111.111111111111,4,2,1,50,0,0
124786,-111.111111111111,4,0,1,5,0,0
124866,-111.111111111111,4,2,1,50,0,0
125185,-111.111111111111,4,2,4,50,0,0
127339,-111.111111111111,4,2,4,5,0,0
127419,-111.111111111111,4,2,1,50,0,0
127658,-111.111111111111,4,0,1,5,0,0
127738,-111.111111111111,4,2,1,60,0,0
129892,-111.111111111111,4,0,1,5,0,0
129972,-111.111111111111,4,2,1,60,0,0
130291,-111.111111111111,4,2,4,60,0,0
132845,-100,4,2,1,60,0,0
133004,-100,4,2,3,60,0,0
133164,-100,4,2,1,60,0,0
133323,-100,4,2,2,60,0,0
133403,-100,4,2,1,60,0,0
133643,-100,4,2,3,60,0,0
133802,-100,4,2,1,60,0,0
133962,-100,4,2,2,60,0,0
134121,-100,4,2,1,60,0,0
136674,-100,4,2,1,70,0,0
139228,319.148936170213,4,2,1,70,1,0
139228,-100,4,2,1,70,0,1
139547,-100,4,2,1,70,0,0
143137,-100,4,2,1,5,0,0
143217,-100,4,2,1,70,0,0
144334,-86.9565217391304,4,2,1,80,0,1
149121,-100,4,2,1,80,0,0
149440,-100,4,2,1,80,0,1
149680,-100,4,2,1,70,0,1
154387,-100,4,0,1,5,0,1
154547,-100,4,2,1,70,0,1
156940,-100,4,0,1,5,0,1
157100,-100,4,2,1,70,0,1
159334,-100,4,2,1,70,0,0
159653,-100,4,2,1,70,0,1
162206,319.148936170213,4,2,1,60,1,0
162684,-100,4,2,2,60,0,0
162844,-100,4,2,1,60,0,0
163003,-100,4,2,3,60,0,0
163083,-100,4,2,1,60,0,0
163323,-100,4,2,2,60,0,0
163482,-100,4,2,1,60,0,0
163642,-100,4,2,2,60,0,0
163721,-100,4,2,1,60,0,0
163961,-100,4,2,2,60,0,0
164120,-100,4,2,1,60,0,0
164280,-100,4,2,2,60,0,0
164440,-100,4,2,1,60,0,0
164599,-100,4,2,3,60,0,0
164679,-100,4,0,3,5,0,0
164759,-100,4,2,1,60,0,0
164918,-100,4,2,2,60,0,0
165078,-100,4,2,1,60,0,0
165237,-100,4,2,2,60,0,0
165397,-100,4,2,1,60,0,0
165557,-100,4,2,3,60,0,0
165636,-100,4,2,1,60,0,0
165876,-100,4,2,2,60,0,0
166035,-100,4,2,1,60,0,0
166195,-100,4,2,2,60,0,0
166275,-100,4,2,1,60,0,0
166514,-100,4,2,2,60,0,0
166674,-100,4,2,1,60,0,0
166833,-100,4,2,2,60,0,0
166993,-100,4,2,1,60,0,0
167152,-100,4,2,3,60,0,0
167232,-100,4,0,3,5,0,0
167312,-100,4,2,1,60,0,0
167471,-100,4,2,2,60,0,0
167631,-100,4,2,1,60,0,0
167791,-100,4,2,2,60,0,0
167950,-100,4,2,1,60,0,0
168110,-100,4,2,3,60,0,0
168190,-100,4,2,1,60,0,0
168429,-100,4,2,2,60,0,0
168588,-100,4,2,1,60,0,0
168748,-100,4,2,2,60,0,0
168828,-100,4,2,1,60,0,0
169067,-100,4,2,2,60,0,0
169227,-100,4,2,1,60,0,0
169386,-100,4,2,2,60,0,0
169546,-100,4,2,1,60,0,0
169706,-100,4,2,3,60,0,0
169785,-100,4,0,3,5,0,0
169865,-100,4,2,1,60,0,0
170025,-100,4,2,2,60,0,0
170184,-100,4,2,1,60,0,0
170344,-100,4,2,2,60,0,0
170503,-100,4,2,1,60,0,0
170663,-100,4,2,3,60,0,0
170743,-100,4,2,1,60,0,0
170982,-100,4,2,2,60,0,0
171142,-100,4,2,1,60,0,0
171301,-100,4,2,2,60,0,0
171381,-100,4,2,1,60,0,0
171620,-100,4,2,2,60,0,0
171780,-100,4,2,1,60,0,0
171940,-100,4,2,2,60,0,0
172099,-100,4,2,1,60,0,0
172259,-100,4,2,3,60,0,0
172338,-100,4,0,3,5,0,0
172418,-100,4,2,1,50,0,0
173456,-100,4,2,1,5,0,0
173535,-100,4,2,1,60,0,0
173695,-100,4,2,1,5,0,0
173775,-100,4,2,1,60,0,0

[Colours]
Combo1 : 91,113,234
Combo2 : 199,5,121
Combo3 : 172,89,255
Combo4 : 0,130,191
Combo5 : 220,103,250

[HitObjects]
346,273,717,6,0,L|312:277,7,35,0|0|0|0|8|8|8|8,1:1|1:1|1:1|1:1|2:2|2:2|2:2|2:2,0:0:0:0:
386,304,1356,5,14,1:2:0:0:
512,53,1994,1,2,1:2:0:0:
237,98,2632,2,0,L|222:29,1,70,10|2,1:2|1:2,0:0:0:0:
148,129,2951,2,0,L|133:60,1,70,10|2,2:2|1:2,0:0:0:0:
37,35,3271,1,10,2:2:0:0:
19,204,3590,6,0,P|75:232|116:266,1,105,10|0,1:2|0:0,0:0:0:0:
110,307,3909,6,0,P|167:291|199:284,1,70,6|2,1:2|2:2,0:0:0:0:
256,229,4228,2,0,P|313:245|345:252,1,70,10|2,2:2|2:2,0:0:0:0:
421,241,4547,2,0,L|438:145,1,70,2|2,1:2|2:2,0:0:0:0:
475,144,4787,1,2,2:2:0:0:
475,144,4866,2,0,L|458:48,1,70,8|2,2:2|2:2,0:0:0:0:
395,3,5185,6,0,P|333:14|322:39,1,70,0|2,1:1|2:2,0:0:0:0:
299,53,5425,1,2,2:2:0:0:
299,53,5505,2,0,L|207:43,1,70,10|2,2:2|2:2,0:0:0:0:
141,75,5824,1,2,1:2:0:0:
141,75,5904,1,2,2:2:0:0:
141,75,5983,1,2,2:2:0:0:
58,0,6143,2,0,P|7:16|12:80,1,105,10|0,2:2|0:0,0:0:0:0:
26,102,6462,6,0,P|35:140|43:189,1,70,2|2,1:2|2:2,0:0:0:0:
128,214,6781,2,0,P|118:252|111:301,1,70,10|2,2:2|2:2,0:0:0:0:
150,373,7100,2,0,L|250:350,1,70,2|2,1:2|2:2,0:0:0:0:
250,320,7340,1,2,2:2:0:0:
250,320,7420,2,0,L|350:343,1,70,8|2,2:2|2:2,0:0:0:0:
390,269,7738,5,0,1:1:0:0:
353,177,7898,2,0,L|346:114,2,35,2|2|10,2:2|2:2|2:2,0:0:0:0:
259,206,8217,1,2,2:2:0:0:
177,151,8377,2,0,L|170:88,2,35,2|2|2,1:2|2:2|2:2,0:0:0:0:
98,208,8696,2,0,P|44:194|31:143,1,105,10|0,2:2|0:0,0:0:0:0:
17,103,9015,6,0,P|79:82|97:73,1,70,6|2,1:2|2:2,0:0:0:0:
140,0,9334,2,0,P|202:21|220:30,1,70,10|2,2:2|2:2,0:0:0:0:
274,94,9654,2,0,L|357:75,1,70,2|2,1:2|2:2,0:0:0:0:
373,41,9893,1,2,2:2:0:0:
373,41,9973,2,0,L|456:60,1,70,8|2,2:2|2:2,0:0:0:0:
500,135,10292,6,0,P|483:198|481:222,1,70,0|2,1:1|2:2,0:0:0:0:
445,234,10531,1,2,2:2:0:0:
445,234,10611,2,0,L|357:222,1,70,10|2,2:2|2:2,0:0:0:0:
296,278,10930,1,2,1:2:0:0:
296,278,11010,1,2,2:2:0:0:
296,278,11090,1,2,2:2:0:0:
222,200,11249,2,0,P|171:191|107:159,1,105,10|0,2:2|0:0,0:0:0:0:
75,156,11568,6,0,P|77:192|70:255,1,70,2|2,1:2|2:2,0:0:0:0:
18,307,11888,2,0,P|53:314|112:337,1,70,10|2,2:2|2:2,0:0:0:0:
164,384,12207,2,0,L|257:359,1,70,2|2,1:2|2:2,0:0:0:0:
271,336,12446,1,2,2:2:0:0:
271,336,12526,2,0,L|364:361,1,70,8|2,2:2|2:2,0:0:0:0:
421,300,12845,5,0,1:1:0:0:
479,220,13005,2,0,L|539:200,2,35,2|2|10,2:2|2:2|2:2,0:0:0:0:
394,170,13324,1,2,2:2:0:0:
452,90,13484,2,0,L|512:70,2,35,2|2|2,1:2|2:2|2:2,0:0:0:0:
378,24,13803,2,0,P|305:3|259:-1,1,105,10|0,2:2|0:0,0:0:0:0:
230,17,14122,1,4,1:2:0:0:
115,175,14441,6,0,L|127:98,1,70,10|0,2:2|0:0,0:0:0:0:
62,39,14760,1,2,1:2:0:0:
62,39,14920,2,0,P|23:16|-4:19,1,70,2|10,2:2|2:2,0:0:0:0:
3,116,15239,6,0,L|28:260,1,140,2|2,2:2|2:2,0:0:0:0:
121,294,15717,1,10,2:2:0:0:
121,294,15877,1,2,2:2:0:0:
184,369,16037,2,0,P|248:355|291:336,1,105,2|0,1:2|0:0,0:0:0:0:
326,314,16356,2,0,P|297:301|267:277,1,70,8|0,2:2|0:0,0:0:0:0:
266,179,16675,5,2,1:2:0:0:
316,99,16834,1,2,2:2:0:0:
316,99,16914,1,2,2:2:0:0:
316,99,16994,2,0,L|392:111,1,70,10|2,2:2|2:2,0:0:0:0:
482,93,17313,2,0,P|492:50|509:11,2,70,2|2|10,1:2|2:2|2:2,0:0:0:0:
512,186,17792,2,0,P|450:217|403:283,1,140,2|2,2:2|2:2,0:0:0:0:
355,356,18271,5,10,2:2:0:0:
355,356,18430,1,2,2:2:0:0:
277,288,18590,2,0,L|194:303,1,70,2|0,1:2|0:0,0:0:0:0:
141,372,18909,2,0,L|58:387,1,70,10|0,2:2|0:0,0:0:0:0:
0,318,19228,5,4,1:2:0:0:
53,129,19547,2,0,L|64:211,1,70,10|0,2:2|0:0,0:0:0:0:
158,220,19866,1,2,1:2:0:0:
251,190,20026,2,0,L|297:207,2,35,2|0|10,2:2|0:0|2:2,0:0:0:0:
221,96,20345,6,0,P|266:41|351:72,1,140,2|2,2:2|2:2,0:0:0:0:
428,29,20824,1,10,2:2:0:0:
428,29,20983,1,2,2:2:0:0:
414,126,21143,2,0,L|431:212,1,70,2|0,1:2|0:0,0:0:0:0:
501,258,21462,2,0,L|491:303,3,35,10|2|2|2,2:2|0:0|0:0|0:0,0:0:0:0:
472,336,21781,5,2,1:2:0:0:
382,376,21941,2,0,P|312:361|300:360,1,70,2|8,2:2|2:2,0:0:0:0:
217,383,22260,1,2,2:2:0:0:
137,325,22420,2,0,P|114:256|109:245,1,70,2|0,1:2|0:0,0:0:0:0:
31,207,22739,1,10,2:2:0:0:
86,126,22899,2,0,P|156:141|168:142,1,70,2|0,2:2|1:1,0:0:0:0:
250,106,23217,5,2,2:2:0:0:
250,106,23297,1,2,2:2:0:0:
250,106,23377,2,0,L|256:28,1,70,10|2,2:2|2:2,0:0:0:0:
350,11,23696,2,0,P|396:-4|439:-9,1,70,2|0,1:2|0:0,0:0:0:0:
445,86,24015,2,0,P|479:92|512:104,1,70,10|0,2:2|0:0,0:0:0:0:
511,202,24334,6,0,L|419:228,1,70,2|2,1:2|2:2,0:0:0:0:
360,274,24654,2,0,B|293:241|213:218|213:218|198:168|193:121|193:121|152:133|138:155|138:155|103:145|35:138|35:138,2,420,14|0|10,2:2|1:1|2:2,0:0:0:0:
512,149,26888,6,0,P|473:115|433:95,1,70,2|2,1:2|2:2,0:0:0:0:
408,20,27207,2,0,P|359:36|321:61,1,70,10|2,2:2|2:2,0:0:0:0:
245,64,27526,2,0,L|257:149,1,70,2|2,1:2|2:2,0:0:0:0:
291,173,27765,1,2,2:2:0:0:
291,173,27845,2,0,L|281:251,1,70,8|2,2:2|2:2,0:0:0:0:
214,314,28164,6,0,P|163:288|134:286,1,70,0|2,1:1|2:2,0:0:0:0:
106,302,28404,1,2,2:2:0:0:
106,302,28483,2,0,L|88:225,1,70,10|2,2:2|2:2,0:0:0:0:
17,174,28803,1,2,1:2:0:0:
17,174,28882,1,2,2:2:0:0:
17,174,28962,1,2,2:2:0:0:
60,85,29122,2,0,P|112:102|179:113,1,105,10|0,2:2|0:0,0:0:0:0:
209,102,29441,1,4,1:2:0:0:
398,52,29760,6,0,P|330:39|314:31,1,70,10|0,2:2|0:0,0:0:0:0:
241,0,30079,1,2,1:2:0:0:
241,0,30239,2,0,L|230:94,1,70,2|10,2:2|2:2,0:0:0:0:
162,137,30558,6,0,L|185:303,1,140,2|2,2:2|2:2,0:0:0:0:
126,358,31037,1,10,2:2:0:0:
126,358,31196,1,2,2:2:0:0:
221,384,31356,2,0,P|266:360|303:351,1,70,2|0,1:2|0:0,0:0:0:0:
345,278,31675,2,0,P|312:266|281:248,1,70,10|0,2:2|0:0,0:0:0:0:
288,150,31994,5,2,1:2:0:0:
383,114,32154,1,2,2:2:0:0:
383,114,32233,1,2,2:2:0:0:
383,114,32313,2,0,L|461:133,1,70,10|2,2:2|2:2,0:0:0:0:
502,214,32632,2,0,L|492:258,3,35,2|0|2|2,1:2|0:0|2:2|0:0,0:0:0:0:
512,294,32951,1,10,2:2:0:0:
408,309,33111,2,0,B|320:309|366:352|265:354,1,140,2|2,2:2|2:2,0:0:0:0:
239,334,33510,5,0,0:0:0:0:
239,334,33590,2,0,L|224:243,1,70,10|2,2:2|2:2,0:0:0:0:
130,247,33909,2,0,P|99:239|135:235,1,70,2|0,1:2|0:0,0:0:0:0:
192,156,34228,2,0,P|202:118|226:82,1,70,10|0,2:2|0:0,0:0:0:0:
311,120,34547,5,4,1:2:0:0:
428,277,34866,2,0,L|340:263,1,70,10|0,2:2|0:0,0:0:0:0:
267,301,35185,1,2,1:2:0:0:
198,230,35345,2,0,L|204:174,2,35,2|0|10,2:2|0:0|2:2,0:0:0:0:
124,295,35664,6,0,P|55:291|45:211,1,140,2|2,2:2|2:2,0:0:0:0:
28,133,36143,2,0,P|77:143|101:157,1,70,10|2,2:2|2:2,0:0:0:0:
187,197,36462,1,2,1:2:0:0:
187,197,36622,1,2,2:2:0:0:
237,113,36781,2,0,P|273:76|301:64,1,70,10|0,2:2|0:0,0:0:0:0:
360,1,37100,5,2,1:2:0:0:
446,47,37260,2,0,L|436:133,1,70,2|8,2:2|2:2,0:0:0:0:
394,204,37579,1,2,2:2:0:0:
471,264,37739,2,0,L|461:350,1,70,2|0,1:2|0:0,0:0:0:0:
379,384,38058,1,10,2:2:0:0:
331,297,38218,2,0,L|252:306,1,70,2|0,2:2|1:1,0:0:0:0:
202,384,38537,5,2,2:2:0:0:
202,384,38696,2,0,P|140:344|117:344,1,70,10|2,2:2|2:2,0:0:0:0:
48,360,39015,2,0,P|19:365|38:334,1,70,2|0,1:2|0:0,0:0:0:0:
87,259,39334,2,0,L|102:174,1,70,10|0,2:2|0:0,0:0:0:0:
63,97,39654,5,2,1:2:0:0:
220,212,39973,1,14,2:2:0:0:
330,51,40292,1,6,1:2:0:0:
330,51,40451,2,0,P|285:45|249:34,1,70,6|0,1:2|0:0,0:0:0:0:
165,13,40771,6,0,P|168:71|138:168,1,140,14|2,2:2|1:2,0:0:0:0:
73,213,41249,2,0,L|85:294,1,70,10|2,2:2|2:2,0:0:0:0:
33,368,41568,1,2,1:2:0:0:
33,368,41728,1,0,1:1:0:0:
130,384,41888,2,0,P|173:360|210:347,1,70,10|0,2:2|0:0,0:0:0:0:
244,269,42207,5,2,1:2:0:0:
416,361,42526,1,14,2:2:0:0:
496,184,42845,1,6,1:2:0:0:
496,184,43005,2,0,P|456:202|417:227,1,70,14|0,2:2|0:0,0:0:0:0:
347,261,43324,6,0,P|327:172|297:118,1,140,14|2,2:2|1:2,0:0:0:0:
284,33,43803,2,0,L|195:72,1,70,10|2,2:2|1:2,0:0:0:0:
133,14,44122,1,2,1:2:0:0:
93,103,44281,1,0,1:1:0:0:
119,8,44441,2,0,P|68:-7|43:11,1,70,10|0,2:2|1:1,0:0:0:0:
0,79,44760,5,2,1:2:0:0:
72,261,45079,1,14,2:2:0:0:
254,184,45398,1,14,2:2:0:0:
254,184,45558,2,0,P|216:180|184:166,1,70,14|0,2:2|0:0,0:0:0:0:
99,123,45877,6,0,P|88:195|66:279,1,140,14|2,1:2|1:2,0:0:0:0:
80,357,46356,2,0,P|158:340|170:340,1,70,10|2,2:2|2:2,0:0:0:0:
223,278,46675,1,2,1:2:0:0:
271,374,46834,1,0,1:1:0:0:
271,374,46914,1,0,1:1:0:0:
271,374,46994,2,0,L|375:358,1,105,10|0,1:2|0:0,0:0:0:0:
421,374,47313,6,0,P|378:332|401:247,1,140,6|0,1:2|1:1,0:0:0:0:
492,243,47792,1,2,2:2:0:0:
492,243,47872,1,2,2:2:0:0:
492,243,47951,2,0,L|484:162,1,70,2|0,1:2|0:0,0:0:0:0:
433,88,48271,1,2,1:2:0:0:
338,112,48430,1,10,2:2:0:0:
243,136,48590,5,6,1:2:0:0:
236,116,48909,1,6,1:2:0:0:
229,96,49228,1,6,1:2:0:0:
52,85,49547,2,0,P|101:105|122:131,1,70,8|2,2:2|2:2,0:0:0:0:
161,201,49866,6,0,L|149:275,3,56,14|2|14|2,2:2|1:2|2:2|1:2,0:0:0:0:
61,294,50505,2,0,B|147:271|123:342|220:334,1,140,14|8,2:2|1:2,0:0:0:0:
403,315,51143,6,0,L|416:212,1,77.0000023498536,6|0,1:2|0:0,0:0:0:0:
360,150,51462,1,10,2:2:0:0:
360,150,51621,1,2,2:2:0:0:
454,96,51781,1,2,1:2:0:0:
454,96,51940,1,2,2:2:0:0:
404,6,52100,2,0,P|330:5|319:29,1,77.0000023498536,10|2,2:2|2:2,0:0:0:0:
230,25,52419,5,2,1:2:0:0:
122,46,52579,1,2,2:2:0:0:
179,137,52738,1,10,2:2:0:0:
179,137,52898,1,2,2:2:0:0:
64,141,53057,2,0,P|49:176|38:220,1,77.0000023498536,2|2,1:2|2:2,0:0:0:0:
95,306,53377,1,10,2:2:0:0:
21,384,53536,6,0,P|101:338|160:344,1,154.000004699707,2|2,2:2|2:2,0:0:0:0:
242,274,54015,1,10,2:2:0:0:
342,314,54175,1,2,2:2:0:0:
430,256,54334,2,0,P|448:207|440:155,1,77.0000023498536,2|2,1:2|2:2,0:0:0:0:
358,121,54654,1,10,2:2:0:0:
417,31,54813,6,0,P|337:77|278:71,1,154.000004699707,2|2,2:2|2:2,0:0:0:0:
190,9,55291,2,0,L|105:23,1,77.0000023498536,10|2,2:2|2:2,0:0:0:0:
36,98,55611,1,0,1:1:0:0:
130,162,55770,1,8,2:2:0:0:
130,162,55930,2,0,P|144:221|146:254,1,77.0000023498536,8|8,2:2|2:2,0:0:0:0:
133,344,56249,6,0,L|226:329,1,77.0000023498536,6|0,1:2|0:0,0:0:0:0:
300,271,56568,1,10,2:2:0:0:
300,271,56728,1,2,2:2:0:0:
354,369,56887,1,2,1:2:0:0:
354,369,57047,1,2,2:2:0:0:
454,333,57206,2,0,P|471:279|465:252,1,77.0000023498536,10|2,2:2|2:2,0:0:0:0:
425,160,57525,5,2,1:2:0:0:
322,127,57685,1,2,2:2:0:0:
377,35,57845,1,10,2:2:0:0:
377,35,58004,1,2,2:2:0:0:
274,1,58164,2,0,P|236:5|197:20,1,77.0000023498536,2|2,1:2|2:2,0:0:0:0:
123,94,58483,1,10,2:2:0:0:
29,41,58643,6,0,P|89:120|97:175,1,154.000004699707,2|2,0:0|2:2,0:0:0:0:
198,207,59121,2,0,L|169:306,1,77.0000023498536,10|2,2:2|2:2,0:0:0:0:
78,325,59440,1,2,1:2:0:0:
183,299,59600,1,2,2:2:0:0:
258,384,59760,1,10,2:2:0:0:
258,384,59919,6,0,L|418:358,1,154.000004699707,2|2,2:2|1:2,0:0:0:0:
491,288,60398,1,10,2:2:0:0:
389,253,60557,1,10,1:2:0:0:
435,155,60717,2,0,P|399:145|338:159,1,77.0000023498536,10|0,1:2|1:2,0:0:0:0:
275,216,61036,2,0,P|202:177|162:174,1,115.50000352478,12|0,2:2|0:0,0:0:0:0:
126,195,61355,5,6,1:2:0:0:
276,323,61674,1,10,2:2:0:0:
19,316,61994,1,2,1:2:0:0:
19,316,62153,2,0,L|40:232,1,70,2|8,2:2|2:2,0:0:0:0:
123,202,62472,6,0,P|52:198|54:119,1,140,2|2,2:2|2:2,0:0:0:0:
118,81,62951,1,10,2:2:0:0:
118,81,63111,1,2,2:2:0:0:
197,136,63270,2,0,L|289:115,1,70,2|2,1:2|0:0,0:0:0:0:
324,42,63589,2,0,L|416:21,1,70,10|0,2:2|0:0,0:0:0:0:
470,85,63908,5,2,1:2:0:0:
387,263,64228,1,10,2:2:0:0:
188,158,64547,1,2,1:2:0:0:
188,158,64706,2,0,L|104:133,1,70,2|8,2:2|2:2,0:0:0:0:
46,73,65025,6,0,P|73:119|51:220,1,140,2|2,2:2|2:2,0:0:0:0:
13,286,65504,1,10,2:2:0:0:
95,340,65664,1,2,2:2:0:0:
189,314,65823,2,0,L|209:217,1,70,2|2,1:2|0:0,0:0:0:0:
292,202,66143,2,0,L|312:299,1,70,10|0,2:2|0:0,0:0:0:0:
392,317,66462,5,6,1:2:0:0:
465,135,66781,1,10,2:2:0:0:
190,226,67100,1,2,1:2:0:0:
190,226,67260,2,0,P|195:181|208:140,1,70,2|8,2:2|2:2,0:0:0:0:
107,130,67579,6,0,P|181:119|243:75,1,140,2|2,2:2|2:2,0:0:0:0:
196,0,68057,1,10,2:2:0:0:
196,0,68217,1,2,2:2:0:0:
321,37,68377,2,0,L|338:122,1,70,2|2,1:2|1:2,0:0:0:0:
430,129,68696,2,0,L|413:214,1,70,14|0,2:2|0:0,0:0:0:0:
470,279,69015,5,14,2:2:0:0:
288,351,69334,1,10,2:2:0:0:
182,186,69653,1,10,2:2:0:0:
182,186,69813,1,10,2:2:0:0:
0,258,70132,1,6,1:2:0:0:
187,384,70451,6,0,L|270:371,2,70,10|10|10,2:2|2:2|1:2,0:0:0:0:
140,297,70930,1,10,1:2:0:0:
271,151,71249,2,0,P|340:136|358:177,1,105,10|0,2:2|0:0,0:0:0:0:
353,204,71568,6,0,B|328:232|328:232|334:279,1,70,6|2,1:2|2:2,0:0:0:0:
350,360,71887,2,0,P|369:378|369:341,1,70,10|2,2:2|2:2,0:0:0:0:
474,313,72206,2,0,P|460:253|457:216,1,70,2|2,1:2|2:2,0:0:0:0:
502,218,72446,1,2,2:2:0:0:
502,218,72525,2,0,P|507:165|524:119,1,70,8|2,2:2|2:2,0:0:0:0:
481,54,72845,6,0,P|435:62|417:107,1,70,0|2,1:1|2:2,0:0:0:0:
395,121,73084,1,2,2:2:0:0:
395,121,73164,2,0,L|305:109,1,70,10|2,2:2|2:2,0:0:0:0:
240,151,73483,1,2,1:2:0:0:
240,151,73563,1,2,2:2:0:0:
240,151,73643,1,2,2:2:0:0:
184,70,73802,2,0,P|120:78|112:129,1,105,10|0,2:2|0:0,0:0:0:0:
68,138,74121,6,0,P|93:183|98:230,1,70,2|2,1:2|2:2,0:0:0:0:
26,269,74440,2,0,L|48:357,1,70,10|2,2:2|2:2,0:0:0:0:
130,384,74760,2,0,P|171:360|216:345,1,70,2|2,1:2|2:2,0:0:0:0:
216,311,74999,1,2,2:2:0:0:
216,311,75079,2,0,P|263:309|310:316,1,70,8|2,2:2|2:2,0:0:0:0:
372,358,75398,5,0,1:1:0:0:
448,297,75557,2,0,L|507:286,2,35,2|2|10,2:2|2:2|2:2,0:0:0:0:
391,216,75877,1,2,2:2:0:0:
457,144,76036,2,0,L|516:133,2,35,2|2|2,1:2|2:2|2:2,0:0:0:0:
402,62,76355,2,0,B|335:34|357:83|274:49,1,105,10|0,2:2|0:0,0:0:0:0:
268,20,76674,6,0,L|170:37,1,70,6|2,1:2|2:2,0:0:0:0:
102,54,76994,2,0,P|126:121|129:146,1,70,10|2,2:2|2:2,0:0:0:0:
83,208,77313,2,0,L|170:222,1,70,2|2,1:2|2:2,0:0:0:0:
188,264,77552,1,2,2:2:0:0:
188,264,77632,2,0,L|275:250,1,70,8|2,2:2|2:2,0:0:0:0:
328,185,77951,6,0,P|340:142|379:111,1,70,0|2,1:1|2:2,0:0:0:0:
368,79,78190,1,2,2:2:0:0:
368,79,78270,2,0,P|412:71|456:93,1,70,10|2,2:2|2:2,0:0:0:0:
505,162,78589,1,2,1:2:0:0:
505,162,78669,1,2,2:2:0:0:
505,162,78749,1,2,2:2:0:0:
453,244,78908,2,0,P|370:232|330:232,1,105,10|0,2:2|0:0,0:0:0:0:
313,265,79228,6,0,L|237:283,1,70,2|2,1:2|2:2,0:0:0:0:
172,347,79547,2,0,P|127:331|109:291,1,70,10|2,2:2|2:2,0:0:0:0:
33,258,79866,2,0,L|51:177,1,70,2|2,1:2|2:2,0:0:0:0:
87,159,80105,1,2,2:2:0:0:
87,159,80185,2,0,L|69:78,1,70,8|2,2:2|2:2,0:0:0:0:
138,18,80504,5,0,1:1:0:0:
205,88,80664,2,0,L|196:135,2,35,2|2|10,2:2|2:2|2:2,0:0:0:0:
291,42,80983,1,2,2:2:0:0:
361,110,81143,2,0,L|352:157,2,35,2|2|2,1:2|2:2|2:2,0:0:0:0:
466,92,81462,2,0,L|438:233,1,140,10|0,2:2|0:0,0:0:0:0:
303,370,82100,6,0,P|259:324|234:306,1,70,10|0,2:2|0:0,0:0:0:0:
163,351,82419,1,2,1:2:0:0:
163,351,82579,2,0,L|91:336,1,70,2|10,2:2|2:2,0:0:0:0:
16,277,82898,6,0,P|21:224|97:228,1,140,2|2,2:2|2:2,0:0:0:0:
145,240,83297,1,0,0:0:0:0:
145,240,83377,2,0,L|161:167,1,70,10|2,2:2|2:2,0:0:0:0:
88,104,83696,2,0,P|75:83|104:96,1,70,2|0,1:2|0:0,0:0:0:0:
203,85,84015,2,0,P|240:86|293:72,1,70,10|0,2:2|0:0,0:0:0:0:
341,9,84334,5,2,1:2:0:0:
437,58,84494,1,2,2:2:0:0:
437,58,84573,1,2,2:2:0:0:
437,58,84653,2,0,L|421:148,1,70,10|2,2:2|2:2,0:0:0:0:
357,198,84972,2,0,L|370:257,3,35,2|0|2|2,1:2|0:0|2:2|0:2,0:0:0:0:
401,264,85291,1,10,2:2:0:0:
322,323,85451,6,0,B|282:315|249:327|259:357|183:340,1,140,2|2,2:2|2:2,0:0:0:0:
157,309,85850,1,2,2:2:0:0:
157,309,85930,1,10,2:2:0:0:
68,349,86089,1,2,2:2:0:0:
0,277,86249,2,0,L|18:193,1,70,2|0,1:2|0:0,0:0:0:0:
101,162,86568,2,0,L|119:78,1,70,10|0,2:2|0:0,0:0:0:0:
59,13,86887,5,4,1:2:0:0:
223,119,87206,2,0,P|269:85|267:54,1,70,10|0,2:2|0:0,0:0:0:0:
187,24,87525,1,2,1:2:0:0:
115,93,87685,2,0,L|122:155,2,35,2|0|10,2:2|0:0|2:2,0:0:0:0:
18,109,88004,6,0,L|36:275,1,140,2|2,2:2|2:2,0:0:0:0:
112,305,88483,1,10,2:2:0:0:
183,237,88643,1,2,2:2:0:0:
262,294,88802,2,0,P|308:298|341:270,1,70,2|0,1:2|0:0,0:0:0:0:
383,206,89121,2,0,P|414:192|448:198,1,70,10|2,2:2|0:0,0:0:0:0:
501,281,89440,5,2,1:2:0:0:
421,338,89600,2,0,L|326:319,1,70,2|8,2:2|2:2,0:0:0:0:
275,262,89919,1,2,2:2:0:0:
195,319,90079,2,0,L|100:300,1,70,2|0,1:2|0:0,0:0:0:0:
52,240,90398,1,10,2:2:0:0:
86,148,90557,2,0,L|181:129,1,70,2|0,2:2|1:1,0:0:0:0:
250,157,90877,5,2,1:2:0:0:
250,157,91036,2,0,P|271:120|310:121,1,70,10|2,2:2|2:2,0:0:0:0:
384,158,91355,2,0,L|371:240,1,70,2|0,1:2|0:0,0:0:0:0:
470,241,91674,2,0,L|480:171,1,70,10|0,2:2|0:0,0:0:0:0:
449,78,91994,5,2,1:2:0:0:
284,183,92313,1,14,2:2:0:0:
201,11,92632,1,2,1:2:0:0:
201,11,92791,2,0,P|245:9|272:30,1,70,10|0,2:2|0:0,0:0:0:0:
214,106,93111,6,0,L|65:130,1,140,14|2,2:2|1:2,0:0:0:0:
24,212,93589,1,10,2:2:0:0:
24,212,93749,1,2,2:2:0:0:
54,304,93908,2,0,P|100:287|129:282,1,70,2|0,1:2|1:1,0:0:0:0:
206,234,94228,2,0,P|252:248|278:262,1,70,10|0,2:2|0:0,0:0:0:0:
314,346,94547,5,2,1:2:0:0:
501,289,94866,1,14,2:2:0:0:
404,125,95185,1,10,2:2:0:0:
404,125,95345,2,0,P|394:167|390:201,1,70,10|0,2:2|0:0,0:0:0:0:
310,250,95664,6,0,P|246:217|176:205,1,140,14|2,2:2|1:2,0:0:0:0:
85,233,96143,1,10,2:2:0:0:
56,326,96302,1,2,1:2:0:0:
65,228,96462,2,0,L|54:132,1,70,2|0,1:2|1:1,0:0:0:0:
128,91,96781,2,0,L|135:21,1,70,10|0,2:2|1:1,0:0:0:0:
232,1,97100,5,2,2:2:0:0:
390,116,97419,1,14,2:2:0:0:
208,183,97738,1,10,2:2:0:0:
208,183,97898,2,0,P|211:144|239:121,1,70,10|0,2:2|0:0,0:0:0:0:
302,192,98217,6,0,L|327:346,1,140,14|2,1:2|1:2,0:0:0:0:
419,371,98696,1,10,2:2:0:0:
419,371,98855,1,2,2:2:0:0:
503,320,99015,2,0,P|503:273|482:248,1,70,2|0,1:2|1:1,0:0:0:0:
448,241,99254,1,0,1:1:0:0:
448,241,99334,2,0,L|355:258,1,70,10|0,1:2|0:0,0:0:0:0:
302,192,99653,6,0,P|234:155|167:131,1,140,6|0,1:2|1:1,0:0:0:0:
79,155,100132,1,2,2:2:0:0:
0,98,100291,2,0,L|16:15,1,70,2|0,1:2|0:0,0:0:0:0:
108,0,100611,1,2,1:2:0:0:
197,38,100770,1,10,2:2:0:0:
291,11,100930,6,0,L|303:100,1,70,14|0,1:2|1:2,0:0:0:0:
394,51,101249,2,0,L|406:140,1,70,14|0,2:2|1:2,0:0:0:0:
501,124,101568,1,14,1:2:0:0:
452,211,101728,1,0,1:1:0:0:
452,211,101887,2,0,L|425:311,1,70,8|2,2:2|2:2,0:0:0:0:
333,317,102206,6,0,P|282:291|237:281,1,77.0000023498536,6|0,1:2|0:0,0:0:0:0:
181,223,102525,1,10,2:2:0:0:
181,223,102685,1,2,2:2:0:0:
101,295,102845,1,2,1:2:0:0:
101,295,103005,1,2,2:2:0:0:
3,250,103164,2,0,L|20:169,1,77.0000023498536,10|2,2:2|2:2,0:0:0:0:
12,66,103483,5,2,1:2:0:0:
109,112,103643,1,2,2:2:0:0:
112,0,103802,1,10,2:2:0:0:
112,0,103962,1,2,2:2:0:0:
205,53,104121,2,0,P|258:38|285:17,1,77.0000023498536,2|2,1:2|2:2,0:0:0:0:
382,42,104440,1,10,2:2:0:0:
316,128,104600,6,0,L|344:283,1,154.000004699707,2|2,0:2|2:2,0:0:0:0:
415,359,105079,1,10,2:2:0:0:
503,298,105238,1,2,2:2:0:0:
410,244,105398,2,0,P|354:268|331:296,1,77.0000023498536,2|2,1:2|2:2,0:0:0:0:
245,232,105717,1,10,2:2:0:0:
323,157,105877,6,0,L|295:2,1,154.000004699707,2|2,0:0|2:2,0:0:0:0:
192,35,106355,2,0,L|174:134,1,77.0000023498536,10|2,2:2|2:2,0:0:0:0:
75,77,106674,1,2,1:2:0:0:
13,166,106834,1,8,2:2:0:0:
13,166,106994,2,0,L|30:265,1,77.0000023498536,8|8,2:2|2:2,0:0:0:0:
91,327,107313,6,0,P|146:288|189:280,1,77.0000023498536,6|0,1:2|0:0,0:0:0:0:
250,232,107632,1,10,2:2:0:0:
250,232,107791,1,2,2:2:0:0:
353,277,107951,1,2,1:2:0:0:
353,277,108110,1,2,2:2:0:0:
442,215,108270,2,0,P|459:171|474:134,1,77.0000023498536,10|2,2:2|2:2,0:0:0:0:
454,36,108589,5,2,1:2:0:0:
353,75,108749,1,2,2:2:0:0:
284,0,108908,1,10,2:2:0:0:
284,0,109068,1,2,2:2:0:0:
190,52,109228,2,0,L|172:145,1,77.0000023498536,2|2,1:2|2:2,0:0:0:0:
79,177,109547,1,10,2:2:0:0:
33,79,109706,6,0,B|119:87|92:31|175:35,1,154.000004699707,2|2,0:0|2:2,0:0:0:0:
277,0,110185,1,10,2:2:0:0:
306,104,110345,1,2,2:2:0:0:
412,90,110504,2,0,L|401:189,1,77.0000023498536,2|2,1:2|2:2,0:0:0:0:
458,259,110823,1,10,2:2:0:0:
358,300,110983,5,2,2:2:0:0:
175,196,111302,1,2,1:2:0:0:
175,196,111462,1,10,2:2:0:0:
75,237,111621,1,10,1:2:0:0:
75,237,111781,6,0,L|0:208,1,77.0000023498536,10|0,1:2|1:1,0:0:0:0:
54,114,112100,2,0,P|119:91|162:59,1,115.50000352478,14|0,2:2|0:0,0:0:0:0:
179,26,112419,6,0,L|245:45,1,62.9999980773926,6|2,1:2|2:2,0:0:0:0:
324,23,112738,2,0,L|390:42,1,62.9999980773926,2|2,1:2|2:2,0:0:0:0:
385,129,113057,2,0,L|318:148,1,62.9999980773926,2|2,1:2|2:2,0:0:0:0:
240,126,113376,2,0,L|173:145,1,62.9999980773926,2|2,1:2|2:2,0:0:0:0:
177,232,113696,2,0,L|243:251,1,62.9999980773926,2|2,1:2|2:2,0:0:0:0:
322,230,114015,2,0,L|388:249,1,62.9999980773926,2|2,1:2|2:2,0:0:0:0:
470,237,114334,6,0,P|431:272|416:334,1,94.499997116089,2|0,1:2|0:0,0:0:0:0:
410,355,114653,2,0,B|362:351|362:351|338:362|338:362|260:354,1,125.999996154785,2|2,1:2|1:2,0:0:0:0:
148,245,117206,6,0,P|101:284|101:328,1,94.499997116089,0|0,1:2|0:0,0:0:0:0:
122,351,117525,6,0,L|188:331,1,62.9999980773926,6|2,1:2|2:2,0:0:0:0:
268,354,117845,2,0,L|334:334,1,62.9999980773926,2|2,1:2|2:2,0:0:0:0:
329,248,118164,2,0,L|262:228,1,62.9999980773926,2|2,1:2|2:2,0:0:0:0:
183,250,118483,2,0,L|116:230,1,62.9999980773926,2|2,1:2|2:2,0:0:0:0:
120,144,118802,2,0,L|186:124,1,62.9999980773926,2|2,1:2|2:2,0:0:0:0:
266,147,119121,2,0,L|332:127,1,62.9999980773926,2|2,1:2|2:2,0:0:0:0:
410,158,119440,6,0,P|371:122|356:60,1,94.499997116089,2|0,1:2|0:0,0:0:0:0:
376,43,119759,2,0,B|430:48|430:48|450:35|450:35|526:43,1,125.999996154785,2|2,1:2|1:2,0:0:0:0:
260,5,122313,6,0,L|240:128,1,94.499997116089,2|0,1:2|0:0,0:0:0:0:
238,141,122632,6,0,P|180:114|165:112,1,62.9999980773926,6|2,1:2|2:2,0:0:0:0:
103,155,122951,2,0,P|45:128|30:126,1,62.9999980773926,10|2,2:2|2:2,0:0:0:0:
3,205,123270,2,0,L|20:288,1,62.9999980773926,2|2,1:2|2:2,0:0:0:0:
97,300,123589,2,0,L|114:383,1,62.9999980773926,10|2,2:2|2:2,0:0:0:0:
196,329,123908,6,0,P|254:302|269:300,1,62.9999980773926,2|2,1:2|2:2,0:0:0:0:
331,343,124227,2,0,P|389:316|404:314,1,62.9999980773926,10|2,2:2|2:2,0:0:0:0:
444,248,124547,6,0,P|415:188|373:196,1,94.499997116089,2|0,1:2|0:0,0:0:0:0:
354,203,124866,2,0,B|307:167|264:161|264:161|219:193,1,125.999996154785,10|2,2:2|1:2,0:0:0:0:
57,294,127419,6,0,P|119:283|131:252,1,94.499997116089,14|0,1:2|0:0,0:0:0:0:
119,216,127738,6,0,L|134:129,1,62.9999980773926,6|2,1:2|2:2,0:0:0:0:
180,81,128057,2,0,L|195:-6,1,62.9999980773926,10|2,2:2|2:2,0:0:0:0:
279,19,128377,2,0,L|289:81,1,62.9999980773926,2|2,1:2|2:2,0:0:0:0:
338,154,128696,2,0,L|348:216,1,62.9999980773926,10|2,2:2|2:2,0:0:0:0:
414,274,129015,6,0,P|465:226|465:208,1,62.9999980773926,2|2,1:2|2:2,0:0:0:0:
507,162,129334,2,0,P|459:111|441:111,1,62.9999980773926,10|2,2:2|2:2,0:0:0:0:
408,52,129653,6,0,L|302:70,1,94.499997116089,2|0,1:2|0:0,0:0:0:0:
272,79,129972,2,0,P|252:23|195:64,1,125.999996154785,10|2,2:2|1:2,0:0:0:0:
74,162,132047,5,0,1:1:0:0:
74,162,132127,1,0,1:1:0:0:
74,162,132206,2,0,L|81:220,3,31.4999990386963,8|0|0|0,2:2|1:1|1:1|1:1,0:0:0:0:
53,229,132525,2,0,L|60:287,3,31.4999990386963,8|8|0|0,2:2|2:2|1:1|1:1,0:0:0:0:
36,305,132845,6,0,B|75:286|116:300|98:337|185:316,1,140,6|0,1:2|1:1,0:0:0:0:
271,353,133323,1,2,2:2:0:0:
271,353,133403,1,2,2:2:0:0:
271,353,133483,2,0,P|302:303|337:291,1,70,2|2,1:2|2:2,0:0:0:0:
404,325,133802,1,2,1:2:0:0:
425,229,133961,1,10,2:2:0:0:
446,133,134121,5,2,1:2:0:0:
473,125,134440,1,2,1:2:0:0:
500,117,134760,1,2,1:2:0:0:
337,6,135079,2,0,P|374:46|373:80,1,70,8|2,2:2|2:2,0:0:0:0:
306,129,135398,5,10,2:2:0:0:
306,129,135557,1,2,1:2:0:0:
216,103,135717,1,10,2:2:0:0:
216,103,135876,1,2,1:2:0:0:
126,77,136036,2,0,P|89:117|90:151,1,70,10|0,2:2|1:1,0:0:0:0:
45,152,136275,1,0,1:1:0:0:
45,152,136355,2,0,L|57:239,1,70,8|2,2:2|2:2,0:0:0:0:
110,301,136674,6,0,P|151:287|188:283,1,70,14|2,2:2|1:2,0:0:0:0:
172,382,136994,2,0,P|213:368|250:364,1,70,14|2,2:2|1:2,0:0:0:0:
300,287,137313,2,0,P|341:300|378:305,1,70,14|2,2:2|1:2,0:0:0:0:
362,206,137633,2,0,P|403:219|439:224,1,70,14|2,2:2|2:2,0:0:0:0:
484,142,137951,5,6,1:2:0:0:
289,116,138270,1,6,1:2:0:0:
94,90,138589,1,6,1:2:0:0:
16,148,138749,5,8,2:2:0:0:
16,148,138908,2,0,L|36:320,1,140,8|2,2:2|1:2,0:0:0:0:
299,282,140345,5,2,1:2:0:0:
299,282,140504,2,0,P|340:277|368:235,1,70,10|2,2:2|1:2,0:0:0:0:
222,226,140823,2,0,P|181:221|154:182,1,70,10|2,2:2|1:2,0:0:0:0:
290,161,141142,1,10,2:2:0:0:
512,0,141621,5,2,1:2:0:0:
452,78,141781,2,0,L|370:60,1,70,10|2,2:2|1:2,0:0:0:0:
308,0,142100,2,0,L|226:18,1,70,10|2,2:2|1:2,0:0:0:0:
158,70,142419,1,10,2:2:0:0:
79,21,142579,1,2,1:2:0:0:
79,21,142738,1,10,2:2:0:0:
4,84,142898,6,0,B|32:111|32:111|17:217,1,140,4|2,1:2|1:2,0:0:0:0:
10,263,143297,1,0,0:0:0:0:
10,263,143376,2,0,L|100:246,1,70,10|2,2:2|1:2,0:0:0:0:
149,180,143696,5,10,2:2:0:0:
242,208,143855,1,8,2:2:0:0:
301,286,144015,2,0,L|351:276,3,35,10|2|2|2,2:2|2:2|2:2|2:2,0:0:0:0:
383,271,144334,6,0,P|391:218|404:178,1,80.5000015354157,6|0,1:2|0:0,0:0:0:0:
504,148,144653,1,10,2:2:0:0:
504,148,144813,1,2,2:2:0:0:
481,42,144972,1,2,1:2:0:0:
481,42,145132,1,2,2:2:0:0:
373,74,145291,2,0,P|318:74|276:54,1,80.5000015354157,10|2,2:2|2:2,0:0:0:0:
196,10,145610,5,2,1:2:0:0:
87,41,145770,1,2,2:2:0:0:
162,132,145930,1,10,2:2:0:0:
162,132,146089,1,2,2:2:0:0:
268,102,146249,2,0,L|289:203,1,80.5000015354157,2|2,1:2|2:2,0:0:0:0:
393,149,146568,1,10,2:2:0:0:
345,251,146728,6,0,P|291:223|185:234,1,161.000003070831,2|2,0:0|2:2,0:0:0:0:
125,320,147206,1,10,2:2:0:0:
93,212,147366,1,2,2:2:0:0:
93,212,147525,2,0,L|187:237,1,80.5000015354157,2|2,1:2|2:2,0:0:0:0:
278,197,147845,1,10,2:2:0:0:
369,261,148004,6,0,P|436:208|402:126,1,161.000003070831,2|2,0:0|1:2,0:0:0:0:
415,29,148483,1,10,2:2:0:0:
305,55,148642,1,10,2:2:0:0:
195,81,148802,2,0,P|141:82|197:35,1,161.000003070831,10|8,1:2|1:2,0:0:0:0:
272,197,149440,5,6,1:2:0:0:
331,384,149759,1,10,2:2:0:0:
472,247,150079,1,2,1:2:0:0:
472,247,150238,2,0,P|436:224|395:233,1,70,2|8,2:2|2:2,0:0:0:0:
330,282,150557,6,0,L|177:303,1,140,2|2,2:2|2:2,0:0:0:0:
110,255,151036,1,10,2:2:0:0:
110,255,151196,1,2,2:2:0:0:
18,288,151355,2,0,L|7:199,1,70,2|2,1:2|0:2,0:0:0:0:
87,159,151674,2,0,L|98:70,1,70,10|0,2:2|0:0,0:0:0:0:
32,14,151993,5,6,1:2:0:0:
198,117,152313,1,10,2:2:0:0:
368,17,152632,1,2,1:2:0:0:
368,17,152791,2,0,L|358:90,1,70,2|8,2:2|2:2,0:0:0:0:
291,157,153110,6,0,P|306:221|315:314,1,140,2|2,2:2|2:2,0:0:0:0:
407,340,153589,1,10,2:2:0:0:
407,340,153749,1,2,2:2:0:0:
286,384,153908,2,0,L|206:363,1,70,2|2,1:2|0:2,0:0:0:0:
142,302,154228,2,0,L|62:323,1,70,10|0,2:2|0:0,0:0:0:0:
0,384,154547,5,6,1:2:0:0:
76,203,154866,1,10,2:2:0:0:
0,29,155185,1,2,1:2:0:0:
0,29,155345,2,0,L|71:46,1,70,2|8,2:2|2:2,0:0:0:0:
137,114,155664,6,0,P|181:66|257:54,1,140,2|2,2:2|2:2,0:0:0:0:
347,21,156142,1,10,2:2:0:0:
347,21,156302,1,2,2:2:0:0:
325,157,156462,2,0,L|245:141,1,70,2|2,1:2|1:2,0:0:0:0:
235,239,156781,2,0,L|303:252,1,70,14|0,2:2|0:0,0:0:0:0:
396,219,157100,5,14,2:2:0:0:
267,366,157419,1,10,2:2:0:0:
146,177,157738,1,10,2:2:0:0:
146,177,157898,1,10,2:2:0:0:
337,131,158217,1,6,1:2:0:0:
218,286,158536,6,0,P|185:274|137:272,2,70,2|10|10,1:2|1:2|1:2,0:0:0:0:
295,346,159015,2,0,P|344:326|439:309,1,140,10|2,1:2|1:2,0:0:0:0:
512,132,159653,5,14,2:2:0:0:
340,226,159972,1,10,2:2:0:0:
195,101,160291,1,10,2:2:0:0:
195,101,160451,1,10,2:2:0:0:
379,0,160770,1,6,1:2:0:0:
438,194,161089,6,0,L|520:211,2,70,2|10|10,1:2|1:2|1:2,0:0:0:0:
364,128,161568,2,0,P|309:161|223:184,1,140,14|8,1:2|2:2,0:0:0:0:
83,59,162206,6,0,P|93:87|105:131,1,70,6|2,1:2|2:2,0:0:0:0:
146,214,162525,2,0,P|140:243|129:287,1,70,10|2,2:2|2:2,0:0:0:0:
201,349,162844,2,0,P|269:331|299:334,1,70,2|2,1:2|2:2,0:0:0:0:
316,356,163083,1,2,2:2:0:0:
316,356,163163,2,0,L|395:345,1,70,8|2,2:2|2:2,0:0:0:0:
442,266,163482,6,0,P|416:218|426:179,1,70,0|2,1:1|2:2,0:0:0:0:
415,159,163721,1,2,2:2:0:0:
415,159,163801,2,0,P|372:153|331:128,1,70,10|2,2:2|2:2,0:0:0:0:
363,51,164120,1,2,1:2:0:0:
363,51,164200,1,2,2:2:0:0:
363,51,164280,1,2,2:2:0:0:
267,75,164440,2,0,L|136:93,1,105,10|0,2:2|0:0,0:0:0:0:
115,101,164759,6,0,P|89:74|35:82,1,70,2|2,1:2|2:2,0:0:0:0:
13,158,165078,2,0,L|26:227,1,70,10|2,2:2|2:2,0:0:0:0:
88,302,165397,2,0,P|150:278|157:277,1,70,2|2,1:2|2:2,0:0:0:0:
188,311,165636,1,2,2:2:0:0:
188,311,165716,2,0,P|253:321|260:323,1,70,8|2,2:2|2:2,0:0:0:0:
345,281,166035,5,0,1:1:0:0:
286,202,166195,2,0,L|225:186,2,35,2|2|10,2:2|2:2|2:2,0:0:0:0:
374,160,166514,1,2,2:2:0:0:
315,81,166674,2,0,L|254:65,2,35,2|2|2,1:2|2:2|2:2,0:0:0:0:
395,24,166993,2,0,P|470:3|488:28,1,105,10|0,2:2|0:0,0:0:0:0:
509,53,167312,6,0,L|493:138,1,70,6|2,1:2|2:2,0:0:0:0:
455,211,167631,2,0,L|471:296,1,70,10|2,2:2|2:2,0:0:0:0:
409,358,167950,2,0,P|339:334|326:334,1,70,2|2,1:2|2:2,0:0:0:0:
318,298,168190,1,2,2:2:0:0:
318,298,168269,2,0,P|245:312|234:318,1,70,8|2,2:2|2:2,0:0:0:0:
185,384,168588,6,0,L|113:369,1,70,0|2,1:1|2:2,0:0:0:0:
89,334,168828,1,2,2:2:0:0:
89,334,168908,2,0,L|17:319,1,70,10|2,2:2|2:2,0:0:0:0:
0,234,169227,1,2,1:2:0:0:
0,234,169307,1,2,2:2:0:0:
0,234,169386,1,2,2:2:0:0:
84,183,169546,2,0,P|115:131|101:90,1,105,10|0,2:2|0:0,0:0:0:0:
89,44,169865,6,0,P|137:56|186:63,1,70,2|2,1:2|2:2,0:0:0:0:
244,14,170184,2,0,P|292:2|341:-5,1,70,10|2,2:2|2:2,0:0:0:0:
403,35,170503,2,0,L|397:118,1,70,2|2,1:2|2:2,0:0:0:0:
437,143,170743,1,2,2:2:0:0:
437,143,170823,2,0,L|431:226,1,70,8|2,2:2|2:2,0:0:0:0:
354,272,171142,5,0,1:1:0:0:
280,336,171301,2,0,L|276:378,2,35,2|2|10,2:2|2:2|2:2,0:0:0:0:
219,260,171620,1,2,2:2:0:0:
154,333,171779,2,0,L|150:375,2,35,2|2|2,1:2|2:2|2:2,0:0:0:0:
57,309,172099,2,0,P|23:282|42:220,1,105,10|0,2:2|0:0,0:0:0:0:
77,206,172418,5,6,1:2:0:0:
448,124,173535,1,14,2:2:0:0:
274,33,173854,6,0,L|269:-16,2,35,2|2|10,1:2|1:2|1:2,0:0:0:0:
202,87,174174,1,10,1:2:0:0:
202,87,174333,1,14,1:2:0:0:
