osu file format v14

[General]
AudioFilename: audio.ogg
AudioLeadIn: 0
PreviewTime: 50983
Countdown: 0
SampleSet: Soft
StackLeniency: 0.5
Mode: 0
LetterboxInBreaks: 0
WidescreenStoryboard: 1

[Editor]
Bookmarks: 71568
DistanceSpacing: 0.5
BeatDivisor: 4
GridSize: 8
TimelineZoom: 2.7

[Metadata]
Title:Mental Chainsaw
TitleUnicode:メンタルチェンソー
Artist:Tsukino x Kurousagi Uru
ArtistUnicode:月乃×黒兎ウル
Creator:MuChin
Version:Collab Insane
Source:
Tags:かいりきベア Kairiki bear pop vtuber virtual youtuber cover utaite 歌い手 female japanese jpop j-pop GfMRT SnowNiNo_ bkmoonp1g-
BeatmapID:3750115
BeatmapSetID:1806660

[Difficulty]
HPDrainRate:5
CircleSize:3.8
OverallDifficulty:8
ApproachRate:9
SliderMultiplier:1.8
SliderTickRate:1

[Events]
//Background and Video events
0,0,"bg.jpg",0,0
//Break Periods
//Storyboard Layer 0 (Background)
//Storyboard Layer 1 (Fail)
//Storyboard Layer 2 (Pass)
//Storyboard Layer 3 (Foreground)
//Storyboard Layer 4 (Overlay)
//Storyboard Sound Samples

[TimingPoints]
-1197,319.148936170213,4,2,0,50,1,0
717,-100,4,2,1,70,0,0
3909,-100,4,2,1,60,0,0
4068,-100,4,2,2,60,0,0
4228,-100,4,2,1,60,0,0
4388,-100,4,2,2,60,0,0
4547,-100,4,2,1,60,0,0
4706,-100,4,2,3,60,0,0
4787,-100,4,2,1,60,0,0
5025,-100,4,2,2,60,0,0
5185,-100,4,2,1,60,0,0
5345,-100,4,2,2,60,0,0
5425,-100,4,2,1,60,0,0
5664,-100,4,2,2,60,0,0
5824,-100,4,2,1,60,0,0
5983,-100,4,2,2,60,0,0
6143,-100,4,2,1,60,0,0
6302,-100,4,2,3,60,0,0
6462,-100,4,2,1,60,0,0
6622,-100,4,2,2,60,0,0
6781,-100,4,2,1,60,0,0
6941,-100,4,2,2,60,0,0
7100,-100,4,2,1,60,0,0
7259,-100,4,2,3,60,0,0
7340,-100,4,2,1,60,0,0
7579,-100,4,2,2,60,0,0
7739,-100,4,2,1,60,0,0
7898,-100,4,2,2,60,0,0
7978,-100,4,2,1,60,0,0
8217,-100,4,2,2,60,0,0
8377,-100,4,2,1,60,0,0
8537,-100,4,2,2,60,0,0
8696,-100,4,2,1,60,0,0
8855,-100,4,2,3,60,0,0
9015,-100,4,2,1,60,0,0
9175,-100,4,2,2,60,0,0
9334,-100,4,2,1,60,0,0
9493,-100,4,2,2,60,0,0
9654,-100,4,2,1,60,0,0
9813,-100,4,2,3,60,0,0
9893,-100,4,2,1,60,0,0
10132,-100,4,2,2,60,0,0
10292,-100,4,2,1,60,0,0
10451,-100,4,2,2,60,0,0
10531,-100,4,2,1,60,0,0
10771,-100,4,2,2,60,0,0
10930,-100,4,2,1,60,0,0
11090,-100,4,2,2,60,0,0
11249,-100,4,2,1,60,0,0
11408,-100,4,2,3,60,0,0
11568,-100,4,2,1,60,0,0
11728,-100,4,2,2,60,0,0
11888,-100,4,2,1,60,0,0
12047,-100,4,2,2,60,0,0
12207,-100,4,2,1,60,0,0
12366,-100,4,2,3,60,0,0
12446,-100,4,2,1,60,0,0
12685,-100,4,2,2,60,0,0
12845,-100,4,2,1,60,0,0
13004,-100,4,2,2,60,0,0
13084,-100,4,2,1,60,0,0
13324,-100,4,2,2,60,0,0
13483,-100,4,2,1,60,0,0
13643,-100,4,2,2,60,0,0
13803,-100,4,2,1,60,0,0
24813,-100,4,2,3,60,0,0
24973,-100,4,2,1,60,0,0
25132,-100,4,2,3,60,0,0
25212,-100,4,2,1,60,0,0
25451,-100,4,2,2,60,0,0
25611,-100,4,2,1,60,0,0
25770,-100,4,2,2,60,0,0
25850,-100,4,2,1,60,0,0
26089,-100,4,2,2,60,0,0
26249,-100,4,2,1,60,0,0
26409,-100,4,2,2,60,0,0
26568,-100,4,2,1,60,0,0
26727,-100,4,2,3,60,0,0
26888,-100,4,2,1,60,0,0
27047,-100,4,2,2,60,0,0
27207,-100,4,2,1,60,0,0
27366,-100,4,2,2,60,0,0
27526,-100,4,2,1,60,0,0
27685,-100,4,2,3,60,0,0
27765,-100,4,2,1,60,0,0
28004,-100,4,2,2,60,0,0
28164,-100,4,2,1,60,0,0
28324,-100,4,2,2,60,0,0
28404,-100,4,2,1,60,0,0
28643,-100,4,2,2,60,0,0
28803,-100,4,2,1,60,0,0
28962,-100,4,2,2,60,0,0
29122,-100,4,2,1,60,0,0
29281,-100,4,2,3,60,0,0
29441,-100,4,2,1,60,0,0
39654,-100,4,2,1,50,0,0
39893,-100,4,2,1,5,0,0
39973,-100,4,2,1,70,0,0
40771,-100,4,2,1,50,0,0
41090,-100,4,2,1,60,0,0
42207,-100,4,2,1,50,0,0
42446,-100,4,2,1,5,0,0
42526,-100,4,2,1,60,0,0
42845,-100,4,2,1,70,0,0
43643,-100,4,2,1,60,0,0
44441,-100,4,2,1,70,0,0
44760,-100,4,2,1,50,0,0
44999,-100,4,2,1,5,0,0
45079,-100,4,2,1,60,0,0
45398,-100,4,2,1,70,0,0
46196,-100,4,2,1,60,0,0
51143,319.148936170213,4,2,1,80,1,1
51143,-90.9090909090909,4,2,1,80,0,1
51382,-90.9090909090909,4,2,1,5,0,1
51462,-90.9090909090909,4,2,1,80,0,1
56488,-90.9090909090909,4,2,1,5,0,1
56568,-90.9090909090909,4,2,1,80,0,1
61356,-90.9090909090909,4,2,1,60,0,1
69015,-90.9090909090909,4,2,1,70,0,1
71568,-100,4,2,1,60,0,0
72047,-100,4,2,2,60,0,0
72206,-100,4,2,1,60,0,0
72365,-100,4,2,3,60,0,0
72446,-100,4,2,1,60,0,0
72684,-100,4,2,2,60,0,0
72844,-100,4,2,1,60,0,0
73004,-100,4,2,2,60,0,0
73084,-100,4,2,1,60,0,0
73323,-100,4,2,2,60,0,0
73483,-100,4,2,1,60,0,0
73642,-100,4,2,2,60,0,0
73802,-100,4,2,1,60,0,0
73961,-100,4,2,3,60,0,0
74121,-100,4,2,1,60,0,0
74281,-100,4,2,2,60,0,0
74440,-100,4,2,1,60,0,0
74600,-100,4,2,2,60,0,0
74759,-100,4,2,1,60,0,0
74918,-100,4,2,3,60,0,0
74999,-100,4,2,1,60,0,0
75238,-100,4,2,2,60,0,0
75398,-100,4,2,1,60,0,0
75557,-100,4,2,2,60,0,0
75637,-100,4,2,1,60,0,0
75876,-100,4,2,2,60,0,0
76036,-100,4,2,1,60,0,0
76196,-100,4,2,2,60,0,0
76355,-100,4,2,1,60,0,0
76514,-100,4,2,3,60,0,0
76674,-100,4,2,1,60,0,0
76834,-100,4,2,2,60,0,0
76993,-100,4,2,1,60,0,0
77152,-100,4,2,2,60,0,0
77313,-100,4,2,1,60,0,0
77472,-100,4,2,3,60,0,0
77552,-100,4,2,1,60,0,0
77791,-100,4,2,2,60,0,0
77951,-100,4,2,1,60,0,0
78110,-100,4,2,2,60,0,0
78190,-100,4,2,1,60,0,0
78430,-100,4,2,2,60,0,0
78589,-100,4,2,1,60,0,0
78749,-100,4,2,2,60,0,0
78908,-100,4,2,1,60,0,0
79067,-100,4,2,3,60,0,0
79227,-100,4,2,1,60,0,0
79387,-100,4,2,2,60,0,0
79547,-100,4,2,1,60,0,0
79706,-100,4,2,2,60,0,0
79866,-100,4,2,1,60,0,0
80025,-100,4,2,3,60,0,0
80105,-100,4,2,1,60,0,0
80344,-100,4,2,2,60,0,0
80504,-100,4,2,1,60,0,0
80663,-100,4,2,2,60,0,0
80743,-100,4,2,1,60,0,0
80983,-100,4,2,2,60,0,0
81142,-100,4,2,1,60,0,0
81302,-100,4,2,2,60,0,0
81462,-100,4,2,1,60,0,0
91994,-100,4,2,1,50,0,0
92233,-100,4,2,1,5,0,0
92313,-100,4,2,1,60,0,0
92632,-100,4,2,1,70,0,0
94547,-100,4,2,1,50,0,0
94786,-100,4,2,1,5,0,0
94866,-100,4,2,1,60,0,0
95185,-100,4,2,1,70,0,0
97100,-100,4,2,1,50,0,0
97339,-100,4,2,1,5,0,0
97419,-100,4,2,1,60,0,0
97738,-100,4,2,1,70,0,0
97898,-100,4,2,1,50,0,0
98217,-100,4,2,1,70,0,0
99653,-100,4,2,1,60,0,0
102206,-90.9090909090909,4,2,1,80,0,1
102445,-90.9090909090909,4,2,1,5,0,1
102525,-90.9090909090909,4,2,1,80,0,1
107552,-90.9090909090909,4,2,1,5,0,1
107632,-90.9090909090909,4,2,1,80,0,1
111781,-90.9090909090909,4,2,1,80,0,0
112100,-111.111111111111,4,2,1,60,0,0
112339,-111.111111111111,4,2,1,30,0,0
112419,-111.111111111111,4,2,1,40,0,0
114972,-111.111111111111,4,2,4,40,0,0
117206,-111.111111111111,4,2,1,40,0,0
120079,-111.111111111111,4,2,4,40,0,0
122313,-111.111111111111,4,2,1,40,0,0
122632,-111.111111111111,4,2,1,50,0,0
125185,-111.111111111111,4,2,4,50,0,0
127419,-111.111111111111,4,2,1,50,0,0
127738,-111.111111111111,4,2,1,60,0,0
130291,-111.111111111111,4,2,4,60,0,0
132845,-100,4,2,1,60,0,0
133004,-100,4,2,3,60,0,0
133164,-100,4,2,1,60,0,0
133323,-100,4,2,2,60,0,0
133403,-100,4,2,1,60,0,0
133642,-100,4,2,3,60,0,0
133802,-100,4,2,1,60,0,0
133962,-100,4,2,2,60,0,0
134121,-100,4,2,1,60,0,0
136674,-100,4,2,1,70,0,0
139228,319.148936170213,4,2,1,70,1,0
143137,-100,4,2,1,5,0,0
143217,-100,4,2,1,70,0,0
144334,-90.9090909090909,4,2,1,80,0,1
144573,-90.9090909090909,4,2,1,5,0,1
144653,-90.9090909090909,4,2,1,80,0,1
149759,-90.9090909090909,4,2,1,70,0,1
159573,-90.9090909090909,4,2,1,5,0,1
159653,-90.9090909090909,4,2,1,70,0,1
162206,319.148936170213,4,2,1,60,1,0
162685,-100,4,2,2,60,0,0
162844,-100,4,2,1,60,0,0
163003,-100,4,2,3,60,0,0
163084,-100,4,2,1,60,0,0
163322,-100,4,2,2,60,0,0
163482,-100,4,2,1,60,0,0
163642,-100,4,2,2,60,0,0
163722,-100,4,2,1,60,0,0
163961,-100,4,2,2,60,0,0
164121,-100,4,2,1,60,0,0
164280,-100,4,2,2,60,0,0
164440,-100,4,2,1,60,0,0
164599,-100,4,2,3,60,0,0
164759,-100,4,2,1,60,0,0
164918,-100,4,2,2,60,0,0
165078,-100,4,2,1,60,0,0
165238,-100,4,2,2,60,0,0
165397,-100,4,2,1,60,0,0
165556,-100,4,2,3,60,0,0
165637,-100,4,2,1,60,0,0
165876,-100,4,2,2,60,0,0
166036,-100,4,2,1,60,0,0
166195,-100,4,2,2,60,0,0
166275,-100,4,2,1,60,0,0
166514,-100,4,2,2,60,0,0
166674,-100,4,2,1,60,0,0
166834,-100,4,2,2,60,0,0
166993,-100,4,2,1,60,0,0
167152,-100,4,2,3,60,0,0
167312,-100,4,2,1,60,0,0
167472,-100,4,2,2,60,0,0
167631,-100,4,2,1,60,0,0
167791,-100,4,2,2,60,0,0
167951,-100,4,2,1,60,0,0
168110,-100,4,2,3,60,0,0
168190,-100,4,2,1,60,0,0
168429,-100,4,2,2,60,0,0
168589,-100,4,2,1,60,0,0
168748,-100,4,2,2,60,0,0
168828,-100,4,2,1,60,0,0
169068,-100,4,2,2,60,0,0
169227,-100,4,2,1,60,0,0
169387,-100,4,2,2,60,0,0
169546,-100,4,2,1,60,0,0
169705,-100,4,2,3,60,0,0
169865,-100,4,2,1,60,0,0
170025,-100,4,2,2,60,0,0
170185,-100,4,2,1,60,0,0
170344,-100,4,2,2,60,0,0
170504,-100,4,2,1,60,0,0
170663,-100,4,2,3,60,0,0
170743,-100,4,2,1,60,0,0
170982,-100,4,2,2,60,0,0
171142,-100,4,2,1,60,0,0
171301,-100,4,2,2,60,0,0
171381,-100,4,2,1,60,0,0
171621,-100,4,2,2,60,0,0
171780,-100,4,2,1,60,0,0
171940,-100,4,2,2,60,0,0
172099,-100,4,2,1,60,0,0
172258,-100,4,2,3,60,0,0
172418,-100,4,2,1,50,0,0
173535,-100,4,2,1,60,0,0

[Colours]
Combo1 : 91,113,234
Combo2 : 199,5,121
Combo3 : 172,89,255
Combo4 : 0,130,191
Combo5 : 220,103,250

[HitObjects]
136,136,717,6,0,L|115:79,3,45,0|0|0|0,1:0|1:0|1:0|1:0,2:0:0:0:
204,209,1037,2,0,L|183:266,3,45,8|8|8|8,2:0|2:0|2:0|2:0,2:0:0:0:
241,113,1356,1,14,1:2:0:0:
345,336,1994,1,2,1:2:0:0:
483,76,2473,5,2,1:2:0:0:
483,76,2553,1,0,1:0:0:0:
483,76,2632,2,0,P|437:56|393:59,1,90,10|2,1:2|1:2,2:0:0:0:
346,123,2872,1,0,1:0:0:0:
346,123,2951,2,0,P|300:143|256:140,1,90,10|2,2:0|1:2,2:0:0:0:
195,100,3191,1,0,2:0:0:0:
195,100,3271,5,10,2:0:0:0:
149,215,3430,1,0,1:0:0:0:
149,215,3510,1,0,1:0:0:0:
149,215,3590,2,0,P|162:263|158:317,1,90,10|0,1:2|2:0,2:0:0:0:
271,365,3909,6,0,P|284:317|280:263,1,90,6|2,1:2|2:0,2:0:0:0:
353,198,4228,1,10,2:0:0:0:
375,302,4388,1,2,2:0:0:0:
477,290,4547,2,0,P|468:231|476:194,1,90,2|2,1:2|2:0,2:0:0:0:
493,128,4787,1,2,2:0:0:0:
493,128,4866,2,0,P|502:69|494:32,1,90,8|2,2:0|2:0,2:0:0:0:
399,16,5185,5,0,1:0:0:0:
344,135,5345,1,2,2:0:0:0:
344,135,5425,1,2,2:0:0:0:
344,135,5505,1,10,2:0:0:0:
303,43,5664,1,2,2:0:0:0:
262,161,5824,1,2,1:2:0:0:
262,161,5904,1,2,2:0:0:0:
262,161,5983,1,2,2:0:0:0:
221,69,6143,2,0,P|171:56|129:62,1,90,10|2,2:0|2:0,2:0:0:0:
64,129,6462,5,2,1:2:0:0:
64,129,6542,1,2,2:0:0:0:
64,129,6622,1,2,2:0:0:0:
135,195,6781,1,10,2:0:0:0:
66,264,6941,1,2,2:0:0:0:
137,330,7100,2,0,L|244:320,1,90,2|2,1:2|2:0,2:0:0:0:
277,243,7340,1,2,2:0:0:0:
277,243,7420,2,0,L|384:253,1,90,8|2,2:0|2:0,2:0:0:0:
450,306,7739,5,0,1:0:0:0:
493,221,7898,1,2,2:0:0:0:
493,221,7978,1,2,2:0:0:0:
493,221,8058,1,10,2:0:0:0:
474,125,8217,1,2,2:0:0:0:
403,185,8377,1,2,1:2:0:0:
403,185,8457,1,2,2:0:0:0:
403,185,8537,1,2,2:0:0:0:
384,89,8696,2,0,P|342:73|282:77,1,90,10|2,2:0|2:0,2:0:0:0:
218,129,9015,5,6,1:2:0:0:
218,129,9095,1,2,2:0:0:0:
218,129,9175,1,2,2:0:0:0:
266,211,9334,2,0,L|271:306,1,90,10|2,2:0|2:0,2:0:0:0:
184,355,9654,2,0,P|132:334|77:336,1,90,2|2,1:2|2:0,2:0:0:0:
13,353,9893,1,2,2:0:0:0:
13,353,9973,2,0,L|8:263,1,90,8|2,2:0|2:0,2:0:0:0:
100,206,10292,6,0,L|104:116,1,90,0|2,1:0|2:0,2:0:0:0:
109,33,10531,1,2,2:0:0:0:
109,33,10611,1,10,2:0:0:0:
189,82,10771,1,2,2:0:0:0:
269,131,10930,1,2,1:2:0:0:
269,131,11010,1,2,2:0:0:0:
269,131,11090,1,2,2:0:0:0:
349,180,11249,2,0,P|367:227|367:270,1,90,10|2,2:0|2:0,2:0:0:0:
303,344,11568,5,2,1:2:0:0:
303,344,11648,1,2,2:0:0:0:
303,344,11728,1,2,2:0:0:0:
406,369,11888,2,0,P|464:364|496:341,1,90,10|2,2:0|2:0,2:0:0:0:
497,245,12207,2,0,L|487:144,1,90,2|2,1:2|2:0,2:0:0:0:
411,114,12446,1,2,2:0:0:0:
411,114,12526,2,0,L|421:13,1,90,8|2,2:0|2:0,2:0:0:0:
313,163,12845,6,0,L|303:62,1,90,0|2,1:0|2:0,2:0:0:0:
243,19,13084,1,2,2:0:0:0:
243,19,13164,1,10,2:0:0:0:
217,119,13324,1,2,2:0:0:0:
137,61,13483,1,2,1:2:0:0:
137,61,13563,1,2,2:0:0:0:
137,61,13643,1,2,2:0:0:0:
83,143,13803,2,0,P|92:194|85:239,1,90,10|0,2:0|2:0,2:0:0:0:
24,307,14122,5,4,1:2:0:0:
326,349,14441,2,0,L|216:334,1,90,10|0,2:0|2:0,2:0:0:0:
74,286,14760,1,2,1:2:0:0:
159,262,14920,1,2,2:0:0:0:
95,197,15079,1,10,2:0:0:0:
180,173,15239,5,2,2:0:0:0:
437,203,15558,2,0,P|392:205|347:202,2,90,2|10|2,2:0|2:0|2:0,2:0:0:0:
470,119,16037,2,0,P|461:70|459:15,1,90,2|0,1:2|2:0,2:0:0:0:
490,277,16356,2,0,P|481:326|479:381,1,90,8|0,2:0|2:0,2:0:0:0:
371,347,16675,6,0,P|319:329|259:322,1,90,2|2,1:2|2:0,2:0:0:0:
186,354,16994,1,10,2:0:0:0:
129,125,17313,2,0,P|144:171|149:226,1,90,2|2,1:2|2:0,2:0:0:0:
77,292,17632,1,10,2:0:0:0:
13,212,17792,1,2,2:0:0:0:
209,45,18111,6,0,L|116:39,2,90,2|10|2,2:0|2:0|2:0,2:0:0:0:
343,17,18590,2,0,P|323:59|313:115,1,90,2|0,1:2|2:0,2:0:0:0:
243,228,18909,2,0,P|233:184|213:143,1,90,10|0,2:0|2:0,2:0:0:0:
119,131,19228,5,4,1:2:0:0:
277,343,19547,2,0,L|168:335,1,90,10|0,2:0|2:0,2:0:0:0:
358,263,19866,2,0,P|383:326|388:368,2,90,2|2|10,1:2|2:0|2:0,2:0:0:0:
292,180,20345,1,2,2:0:0:0:
62,260,20664,6,0,P|115:272|172:269,2,90,2|10|2,2:0|2:0|2:0,2:0:0:0:
17,171,21143,2,0,P|37:100|37:60,1,90,2|0,1:2|2:0,2:0:0:0:
158,6,21462,1,10,2:0:0:0:
159,28,21542,1,2,2:0:0:0:
161,50,21622,1,2,2:0:0:0:
162,73,21701,1,2,2:0:0:0:
164,95,21781,5,2,1:2:0:0:
241,154,21941,2,0,P|255:109|254:52,1,90,2|8,2:0|2:0,2:0:0:0:
143,186,22260,1,2,2:0:0:0:
229,246,22420,2,0,P|274:235|323:206,1,90,2|0,1:2|2:0,2:0:0:0:
131,176,22739,1,10,2:0:0:0:
79,262,22898,1,2,2:0:0:0:
77,284,22978,1,0,2:0:0:0:
76,306,23058,5,0,1:0:0:0:
179,362,23217,2,0,L|172:301,2,45,2|2|10,2:0|2:0|2:0,2:0:0:0:
256,270,23537,1,2,2:0:0:0:
331,337,23696,2,0,P|379:347|437:348,1,90,2|0,1:2|2:0,2:0:0:0:
489,238,24015,2,0,P|444:240|400:249,1,90,10|0,2:0|2:0,2:0:0:0:
256,270,24334,5,2,1:2:0:0:
362,31,24654,2,0,P|344:85|344:132,1,90,14|2,2:0|2:0,2:0:0:0:
230,66,24973,2,0,L|139:54,1,90,2|2,1:2|2:0,2:0:0:0:
65,23,25212,1,2,2:0:0:0:
65,23,25292,2,0,P|43:67|39:117,1,90,8|2,2:0|2:0,2:0:0:0:
106,171,25611,6,0,P|99:215|79:255,1,90,0|2,1:0|2:0,2:0:0:0:
20,324,25850,1,2,2:0:0:0:
20,324,25930,2,0,L|118:343,1,90,10|2,2:0|2:0,2:0:0:0:
202,359,26249,1,2,1:2:0:0:
202,359,26329,1,2,2:0:0:0:
202,359,26409,1,2,2:0:0:0:
315,290,26568,2,0,P|299:332|296:377,1,90,10|2,2:0|2:0,2:0:0:0:
405,366,26888,6,0,L|459:363,1,45,2|2,1:2|2:0,2:0:0:0:
498,283,27047,1,2,2:0:0:0:
498,283,27207,1,10,2:0:0:0:
424,201,27366,1,2,2:0:0:0:
473,121,27526,2,0,P|481:69|474:28,1,90,2|2,1:2|2:0,2:0:0:0:
439,7,27765,1,2,2:0:0:0:
439,7,27845,2,0,L|339:14,1,90,8|2,2:0|2:0,2:0:0:0:
258,59,28164,5,0,1:0:0:0:
328,142,28324,1,2,2:0:0:0:
328,142,28404,1,2,2:0:0:0:
328,142,28483,1,10,2:0:0:0:
238,177,28643,1,2,2:0:0:0:
308,260,28803,1,2,1:2:0:0:
308,260,28882,1,2,2:0:0:0:
308,260,28962,1,2,2:0:0:0:
218,295,29122,2,0,P|163:303|121:294,1,90,10|2,2:0|2:0,2:0:0:0:
51,232,29441,5,4,1:2:0:0:
274,25,29760,2,0,P|294:71|301:129,1,90,10|0,2:0|2:0,2:0:0:0:
371,186,30079,1,2,1:2:0:0:
286,231,30239,1,2,2:0:0:0:
371,282,30398,1,10,2:0:0:0:
286,327,30558,2,0,P|230:341|189:330,1,90,2|0,2:0|1:0,2:0:0:0:
88,225,30877,6,0,P|132:218|174:232,2,90,2|10|2,2:0|2:0|2:0,2:0:0:0:
19,157,31356,2,0,P|20:107|12:66,1,90,2|0,1:2|2:0,2:0:0:0:
11,286,31675,2,0,P|12:336|4:377,1,90,10|0,2:0|2:0,2:0:0:0:
111,359,31994,6,0,P|166:340|209:341,1,90,2|2,1:2|2:0,2:0:0:0:
279,370,32233,1,2,2:0:0:0:
279,370,32313,1,10,2:0:0:0:
331,301,32473,1,2,2:0:0:0:
409,350,32632,2,0,L|417:298,1,45,2|0,1:2|2:0,2:0:0:0:
432,225,32792,2,0,L|440:173,1,45,2|2,2:0|2:0,2:0:0:0:
453,98,32951,1,10,2:0:0:0:
343,183,33111,1,2,2:0:0:0:
144,26,33430,6,0,L|148:89,1,45,2|0,2:0|2:0,2:0:0:0:
74,134,33590,1,10,2:0:0:0:
140,196,33749,1,2,2:0:0:0:
68,260,33909,2,0,P|53:311|48:355,1,90,2|0,1:2|2:0,2:0:0:0:
246,220,34228,2,0,P|239:175|226:132,1,90,10|0,2:0|2:0,2:0:0:0:
189,329,34547,5,4,1:2:0:0:
415,179,34866,2,0,P|466:172|506:177,1,90,10|0,2:0|2:0,2:0:0:0:
456,275,35185,2,0,P|411:279|366:272,1,90,2|2,1:2|2:0,2:0:0:0:
297,209,35505,1,10,2:0:0:0:
189,329,35664,2,0,P|232:317|271:296,1,90,2|0,2:0|1:0,2:0:0:0:
210,148,35983,6,0,P|195:203|191:246,2,90,2|10|2,2:0|2:0|2:0,2:0:0:0:
233,31,36462,1,2,1:2:0:0:
298,94,36622,1,2,2:0:0:0:
374,38,36781,2,0,P|421:33|477:38,1,90,10|0,2:0|2:0,2:0:0:0:
459,143,37100,5,2,1:2:0:0:
393,208,37260,2,0,P|379:248|383:302,1,90,2|8,2:0|2:0,2:0:0:0:
451,134,37579,1,2,2:0:0:0:
346,126,37739,2,0,P|304:133|259:164,1,90,2|0,1:2|2:0,2:0:0:0:
443,125,38058,1,10,2:0:0:0:
398,43,38217,1,2,2:0:0:0:
375,40,38297,1,0,2:0:0:0:
352,37,38377,5,0,1:0:0:0:
233,21,38537,2,0,P|252:74|255:117,1,90,2|10,2:0|2:0,2:0:0:0:
212,187,38856,1,2,2:0:0:0:
127,142,39015,2,0,P|132:97|149:55,1,90,2|0,1:2|2:0,2:0:0:0:
16,165,39334,2,0,P|32:206|38:251,1,90,10|0,2:0|2:0,2:0:0:0:
142,257,39654,6,0,P|159:298|266:308,1,135,2|0,1:2|2:0,2:0:0:0:
273,291,39973,2,0,L|333:287,1,45,14|0,2:0|2:0,2:0:0:0:
400,284,40132,1,2,1:2:0:0:
229,206,40292,2,0,L|289:202,1,45,6|0,1:2|2:0,2:0:0:0:
356,196,40451,2,0,L|416:192,1,45,6|0,1:2|2:0,2:0:0:0:
484,185,40611,1,0,2:0:0:0:
468,357,40771,2,0,P|455:314|456:270,1,90,14|0,2:0|2:0,2:0:0:0:
361,364,41090,5,2,1:2:0:0:
365,275,41249,1,10,2:0:0:0:
273,359,41409,1,2,2:0:0:0:
277,270,41568,2,0,P|237:248|177:248,1,90,2|0,1:2|1:0,2:0:0:0:
151,254,41808,1,0,1:0:0:0:
151,254,41888,2,0,L|160:153,1,90,10|0,2:0|2:0,2:0:0:0:
22,68,42207,6,0,L|12:218,1,135,2|0,1:2|2:0,2:0:0:0:
38,235,42526,2,0,L|33:309,1,45,14|0,2:0|2:0,2:0:0:0:
26,367,42685,1,2,1:2:0:0:
141,107,42845,2,0,L|136:181,1,45,6|0,1:2|2:0,2:0:0:0:
131,231,43005,2,0,L|126:305,1,45,14|0,2:0|2:0,2:0:0:0:
120,357,43164,1,0,2:0:0:0:
293,328,43324,2,0,P|243:314|190:334,1,90,14|0,2:0|2:0,2:0:0:0:
223,222,43643,5,2,1:2:0:0:
310,219,43803,1,10,2:0:0:0:
221,139,43962,1,2,1:2:0:0:
308,136,44122,2,0,L|423:133,1,90,2|0,1:2|1:0,2:0:0:0:
418,104,44361,1,0,1:0:0:0:
418,104,44441,2,0,L|507:106,1,90,10|0,2:0|1:0,2:0:0:0:
286,7,44760,6,0,P|263:49|167:43,1,135,2|0,1:2|2:0,2:0:0:0:
147,41,45079,2,0,L|77:33,1,45,14|0,2:0|2:0,2:0:0:0:
19,31,45239,1,2,1:2:0:0:
174,136,45398,2,0,L|104:128,1,45,14|0,2:0|2:0,2:0:0:0:
28,214,45558,2,0,L|98:206,1,45,14|0,2:0|2:0,2:0:0:0:
148,272,45717,1,0,2:0:0:0:
15,372,45877,2,0,L|123:359,1,90,14|0,1:2|2:0,2:0:0:0:
246,284,46196,6,0,P|226:333|215:380,1,90,2|10,1:2|2:0,2:0:0:0:
322,221,46515,1,2,2:0:0:0:
336,316,46675,2,0,P|378:333|446:343,1,90,2|0,1:2|1:0,2:0:0:0:
463,324,46914,1,0,1:0:0:0:
463,324,46994,2,0,L|454:212,1,90,10|0,1:2|2:0,2:0:0:0:
487,121,47313,6,0,B|401:92|403:162|303:117,1,180,6|0,1:2|1:0,2:0:0:0:
254,45,47792,1,2,2:0:0:0:
254,45,47872,1,2,2:0:0:0:
254,45,47951,2,0,P|201:28|155:29,1,90,2|0,1:2|2:0,2:0:0:0:
138,212,48271,1,2,1:2:0:0:
186,129,48430,1,10,2:0:0:0:
210,288,48590,5,6,1:2:0:0:
41,56,48909,1,6,1:2:0:0:
367,23,49228,1,6,1:2:0:0:
304,92,49388,1,0,1:0:0:0:
304,92,49467,1,0,1:0:0:0:
304,92,49547,2,0,P|319:137|325:192,1,90,8|2,2:0|2:0,2:0:0:0:
214,268,49866,6,0,P|220:223|234:180,1,90,14|2,2:0|1:2,2:0:0:0:
117,258,50185,1,14,2:0:0:0:
133,167,50345,1,2,1:2:0:0:
28,283,50505,1,14,2:0:0:0:
22,136,50664,2,0,L|30:188,1,45,0|0,1:0|1:0,2:0:0:0:
117,258,50824,2,0,L|103:348,1,90,8|2,1:2|1:2,2:0:0:0:
227,368,51143,6,0,B|272:327|272:327|380:348,1,148.50000453186,6|0,1:2|2:0,2:0:0:0:
400,355,51462,1,10,2:0:0:0:
472,299,51621,1,2,2:0:0:0:
420,216,51781,2,0,P|428:167|417:113,1,99.0000030212403,2|2,1:2|2:0,2:0:0:0:
331,64,52100,2,0,P|322:112|330:161,1,99.0000030212403,10|2,2:0|2:0,2:0:0:0:
232,182,52420,6,0,L|238:130,1,49.5000015106202,2|0,1:2|2:0,2:0:0:0:
148,142,52579,2,0,L|142:90,1,49.5000015106202,2|0,2:0|2:0,2:0:0:0:
221,190,52739,2,0,L|227:138,1,49.5000015106202,10|0,2:0|2:0,2:0:0:0:
137,150,52898,2,0,L|131:98,1,49.5000015106202,2|0,2:0|2:0,2:0:0:0:
143,244,53058,1,2,1:2:0:0:
149,338,53217,2,0,P|205:351|253:339,1,99.0000030212403,2|10,2:0|2:0,2:0:0:0:
351,339,53537,6,0,L|338:217,1,99.0000030212403,2|0,2:0|1:0,2:0:0:0:
262,131,53856,2,0,L|254:183,1,49.5000015106202,2|0,2:0|2:0,2:0:0:0:
174,207,54015,2,0,L|166:155,1,49.5000015106202,10|0,2:0|2:0,2:0:0:0:
254,125,54175,2,0,L|246:177,1,49.5000015106202,2|0,2:0|2:0,2:0:0:0:
166,201,54334,2,0,L|158:149,1,49.5000015106202,2|0,1:2|2:0,2:0:0:0:
185,66,54494,1,2,2:0:0:0:
111,21,54654,1,10,2:0:0:0:
48,91,54813,6,0,P|65:143|65:203,1,99.0000030212403,2|0,2:0|1:0,2:0:0:0:
50,273,55132,2,0,L|104:264,1,49.5000015106202,2|0,2:0|2:0,2:0:0:0:
140,360,55292,2,0,L|86:351,1,49.5000015106202,10|0,2:0|2:0,2:0:0:0:
45,282,55451,2,0,L|99:273,1,49.5000015106202,2|0,2:0|2:0,2:0:0:0:
135,369,55611,2,0,L|81:360,1,49.5000015106202,0|0,1:0|2:0,2:0:0:0:
192,293,55771,1,8,2:0:0:0:
266,361,55930,2,0,P|319:335|371:338,1,99.0000030212403,8|8,2:0|2:0,2:0:0:0:
471,355,56249,6,0,P|439:315|465:205,1,148.50000453186,6|0,1:2|2:0,2:0:0:0:
482,195,56568,1,10,2:0:0:0:
409,114,56728,1,2,2:0:0:0:
344,203,56888,2,0,P|296:188|243:183,1,99.0000030212403,2|2,1:2|2:0,2:0:0:0:
210,106,57207,2,0,P|162:121|109:126,1,99.0000030212403,10|2,2:0|2:0,2:0:0:0:
8,172,57526,6,0,L|18:235,1,49.5000015106202,2|0,1:2|2:0,2:0:0:0:
108,217,57685,2,0,L|98:280,1,49.5000015106202,2|0,2:0|2:0,2:0:0:0:
19,179,57845,2,0,L|29:242,1,49.5000015106202,10|0,2:0|2:0,2:0:0:0:
119,224,58005,2,0,L|109:287,1,49.5000015106202,2|0,2:0|2:0,2:0:0:0:
33,327,58164,1,2,1:2:0:0:
122,371,58324,2,0,L|229:357,1,99.0000030212403,2|10,2:0|2:0,2:0:0:0:
287,284,58643,6,0,L|394:298,1,99.0000030212403,2|0,2:0|1:2,2:0:0:0:
460,211,58962,2,0,L|398:219,1,49.5000015106202,2|0,2:0|2:0,2:0:0:0:
372,116,59122,2,0,L|434:124,1,49.5000015106202,10|0,2:0|2:0,2:0:0:0:
453,201,59281,2,0,L|391:209,1,49.5000015106202,2|0,2:0|2:0,2:0:0:0:
365,106,59441,2,0,L|427:114,1,49.5000015106202,2|0,1:2|2:0,2:0:0:0:
306,192,59600,2,0,P|245:176|190:177,1,99.0000030212403,2|10,2:0|2:0,2:0:0:0:
98,194,59920,6,0,P|110:145|110:82,1,99.0000030212403,2|4,2:0|1:2,2:0:0:0:
34,274,60239,2,0,L|42:327,1,49.5000015106202,2|0,1:2|2:0,2:0:0:0:
117,285,60398,2,0,L|125:338,1,49.5000015106202,10|0,2:0|2:0,2:0:0:0:
200,296,60558,2,0,L|208:349,1,49.5000015106202,10|0,1:2|2:0,2:0:0:0:
283,307,60717,2,0,L|291:360,1,49.5000015106202,10|0,1:2|2:0,2:0:0:0:
366,318,60877,1,0,1:2:0:0:
450,271,61037,2,0,B|435:223|435:223|443:167,1,99.0000030212403,12|0,2:0|2:0,2:0:0:0:
456,66,61356,6,0,P|401:43|345:39,1,99.0000030212403,6|0,1:2|2:0,2:0:0:0:
290,116,61675,2,0,P|235:139|179:143,1,99.0000030212403,10|0,2:0|2:0,2:0:0:0:
111,86,61994,1,2,1:2:0:0:
35,167,62154,2,0,P|46:222|52:273,1,99.0000030212403,2|8,2:0|2:0,2:0:0:0:
145,369,62473,6,0,P|151:319|161:271,1,99.0000030212403,2|2,2:0|1:2,2:0:0:0:
273,283,62792,1,2,2:0:0:0:
289,374,62951,1,10,2:0:0:0:
365,264,63111,1,2,2:0:0:0:
387,365,63271,2,0,P|449:356|491:331,1,99.0000030212403,2|2,1:2|2:0,2:0:0:0:
436,193,63590,2,0,P|391:171|342:167,1,99.0000030212403,10|0,2:0|2:0,2:0:0:0:
230,155,63909,6,0,P|248:97|255:27,1,99.0000030212403,2|0,1:2|2:0,2:0:0:0:
115,128,64228,2,0,P|123:176|138:223,1,99.0000030212403,10|0,2:0|2:0,2:0:0:0:
231,280,64547,1,2,1:2:0:0:
162,338,64707,2,0,P|108:330|50:305,1,99.0000030212403,2|8,2:0|2:0,2:0:0:0:
298,216,65026,6,0,P|315:258|319:331,1,99.0000030212403,2|2,2:0|1:2,2:0:0:0:
413,214,65345,2,0,P|417:164|435:118,1,99.0000030212403,2|10,2:0|2:0,2:0:0:0:
496,28,65664,1,2,2:0:0:0:
387,9,65824,2,0,P|342:31|271:35,1,99.0000030212403,2|2,1:2|2:0,2:0:0:0:
126,83,66143,2,0,P|174:89|219:111,1,99.0000030212403,10|0,2:0|2:0,2:0:0:0:
312,231,66462,6,0,P|325:172|328:125,1,99.0000030212403,6|0,1:2|2:0,2:0:0:0:
217,319,66781,2,0,P|204:260|201:213,1,99.0000030212403,10|0,2:0|2:0,2:0:0:0:
308,324,67100,1,2,1:2:0:0:
130,369,67260,2,0,P|72:358|20:335,1,99.0000030212403,2|8,2:0|2:0,2:0:0:0:
0,251,67579,2,0,P|46:233|94:225,1,99.0000030212403,2|2,2:0|1:2,2:0:0:0:
199,186,67898,5,2,2:0:0:0:
96,121,68058,1,10,2:0:0:0:
199,84,68217,1,2,2:0:0:0:
98,23,68377,2,0,P|46:24|-10:34,1,99.0000030212403,2|2,1:2|1:2,2:0:0:0:
296,123,68696,2,0,P|310:68|315:19,1,99.0000030212403,14|0,2:0|2:0,2:0:0:0:
414,218,69015,6,0,P|405:183|401:152,1,49.5000015106202,14|0,2:0|2:0,2:0:0:0:
430,75,69175,1,0,2:0:0:0:
461,303,69334,2,0,P|422:312|347:286,1,99.0000030212403,10|0,2:0|2:0,2:0:0:0:
313,211,69654,1,10,2:0:0:0:
250,371,69813,2,0,P|231:318|241:256,1,99.0000030212403,10|0,2:0|2:0,2:0:0:0:
65,182,70132,6,0,P|84:235|74:297,1,99.0000030212403,6|0,1:2|2:0,2:0:0:0:
147,92,70451,2,0,L|138:31,1,49.5000015106202,10|0,2:0|2:0,2:0:0:0:
229,152,70611,2,0,L|220:213,1,49.5000015106202,10|0,2:0|2:0,2:0:0:0:
294,76,70771,2,0,L|285:15,1,49.5000015106202,10|0,1:2|2:0,2:0:0:0:
376,136,70930,1,10,1:2:0:0:
441,60,71090,1,0,1:0:0:0:
441,60,71170,1,0,1:0:0:0:
441,60,71249,2,0,P|469:114|468:168,1,99.0000030212403,10|0,2:0|2:0,2:0:0:0:
474,264,71568,6,0,P|430:273|385:270,1,90,6|2,1:2|2:0,2:0:0:0:
308,194,71887,1,10,2:0:0:0:
255,279,72047,1,2,2:0:0:0:
180,192,72206,2,0,L|184:91,1,90,2|2,1:2|2:0,2:0:0:0:
180,20,72446,1,2,2:0:0:0:
180,20,72525,2,0,P|121:11|84:19,1,90,8|2,2:0|2:0,2:0:0:0:
29,92,72844,5,0,1:0:0:0:
95,163,73004,1,2,2:0:0:0:
95,163,73084,1,2,2:0:0:0:
95,163,73164,1,10,2:0:0:0:
16,228,73323,1,2,2:0:0:0:
90,294,73483,1,2,1:2:0:0:
90,294,73563,1,2,2:0:0:0:
90,294,73642,1,2,2:0:0:0:
187,251,73802,2,0,L|283:252,1,90,10|2,2:0|2:0,2:0:0:0:
428,319,74121,5,2,1:2:0:0:
428,319,74201,1,2,2:0:0:0:
428,319,74281,1,2,2:0:0:0:
379,222,74440,1,10,2:0:0:0:
484,236,74600,1,2,2:0:0:0:
435,129,74759,2,0,P|384:114|330:129,1,90,2|2,1:2|2:0,2:0:0:0:
272,160,74999,1,2,2:0:0:0:
272,160,75079,2,0,L|272:55,1,90,8|2,2:0|2:0,2:0:0:0:
198,7,75398,5,0,1:0:0:0:
117,67,75557,1,2,2:0:0:0:
117,67,75637,1,2,2:0:0:0:
117,67,75717,1,10,2:0:0:0:
198,124,75876,1,2,2:0:0:0:
119,185,76036,1,2,1:2:0:0:
119,185,76116,1,2,2:0:0:0:
119,185,76196,1,2,2:0:0:0:
207,257,76355,2,0,P|254:269|309:250,1,90,10|2,2:0|2:0,2:0:0:0:
389,185,76674,5,6,1:2:0:0:
389,185,76754,1,2,2:0:0:0:
389,185,76834,1,2,2:0:0:0:
461,267,76993,2,0,P|441:313|393:338,1,90,10|2,2:0|2:0,2:0:0:0:
325,352,77313,2,0,P|276:341|227:365,1,90,2|2,1:2|2:0,2:0:0:0:
157,379,77552,1,2,2:0:0:0:
157,379,77632,2,0,P|148:326|158:281,1,90,8|2,2:0|2:0,2:0:0:0:
165,158,77951,6,0,P|247:159|274:189,1,90,0|2,1:0|2:0,2:0:0:0:
251,161,78190,1,2,2:0:0:0:
251,161,78270,1,10,2:0:0:0:
310,248,78430,1,2,2:0:0:0:
389,185,78589,1,2,1:2:0:0:
389,185,78669,1,2,2:0:0:0:
389,185,78749,1,2,2:0:0:0:
463,256,78908,2,0,P|483:210|485:167,1,90,10|2,2:0|2:0,2:0:0:0:
418,72,79227,5,2,1:2:0:0:
418,72,79307,1,2,2:0:0:0:
418,72,79387,1,2,2:0:0:0:
315,26,79547,2,0,P|267:21|226:38,1,90,10|2,2:0|2:0,2:0:0:0:
209,119,79866,2,0,L|119:112,1,90,2|2,1:2|2:0,2:0:0:0:
61,174,80105,1,2,2:0:0:0:
61,174,80185,2,0,L|71:275,1,90,8|2,2:0|2:0,2:0:0:0:
148,339,80504,6,0,P|196:342|249:329,1,90,0|2,1:0|2:0,2:0:0:0:
294,268,80743,1,2,2:0:0:0:
294,268,80823,1,10,2:0:0:0:
368,213,80983,1,2,2:0:0:0:
460,249,81142,1,2,1:2:0:0:
460,249,81222,1,2,2:0:0:0:
460,249,81302,1,2,2:0:0:0:
385,323,81462,1,10,2:0:0:0:
385,323,82100,6,0,P|333:355|264:354,1,90,10|0,2:0|2:0,2:0:0:0:
266,260,82419,1,2,1:2:0:0:
184,228,82579,1,2,2:0:0:0:
116,297,82738,1,10,2:0:0:0:
25,257,82898,2,0,L|27:137,1,90,2|0,2:0|1:0,2:0:0:0:
116,69,83217,5,2,2:0:0:0:
116,69,83297,1,0,2:0:0:0:
116,69,83377,1,10,2:0:0:0:
191,132,83536,1,2,2:0:0:0:
288,97,83696,2,0,L|291:-23,1,90,2|0,1:2|2:0,2:0:0:0:
390,98,84015,2,0,L|392:187,1,90,10|0,2:0|2:0,2:0:0:0:
390,293,84334,6,0,P|317:308|287:288,1,90,2|2,1:2|2:0,2:0:0:0:
289,298,84573,1,2,2:0:0:0:
289,298,84653,1,10,2:0:0:0:
200,264,84813,1,2,2:0:0:0:
111,318,84973,2,0,L|108:273,1,45,2|0,1:2|2:0,2:0:0:0:
64,199,85132,2,0,L|66:154,1,45,2|2,2:0|2:0,2:0:0:0:
114,76,85292,1,10,2:0:0:0:
191,132,85451,1,2,2:0:0:0:
297,21,85770,6,0,L|352:22,1,45,2|2,2:0|2:0,2:0:0:0:
441,21,85930,1,10,2:0:0:0:
393,100,86089,1,2,2:0:0:0:
445,187,86249,2,0,P|377:199|330:170,1,90,2|0,1:2|2:0,2:0:0:0:
288,134,86568,2,0,P|268:199|292:249,1,90,10|0,2:0|2:0,2:0:0:0:
300,301,86887,1,4,1:2:0:0:
217,348,87206,6,0,P|156:355|102:332,1,90,10|0,2:0|2:0,2:0:0:0:
85,260,87525,2,0,L|84:156,1,90,2|2,1:2|2:0,2:0:0:0:
85,66,87845,5,10,2:0:0:0:
182,113,88004,2,0,L|271:113,1,90,2|0,2:0|1:0,2:0:0:0:
361,78,88323,2,0,P|369:113|348:174,2,90,2|10|2,2:0|2:0|2:0,2:0:0:0:
272,16,88802,2,0,L|182:16,1,90,2|0,1:2|2:0,2:0:0:0:
85,66,89121,2,0,P|77:101|98:162,1,90,10|2,2:0|2:0,2:0:0:0:
50,231,89440,5,2,1:2:0:0:
129,290,89600,2,0,L|215:263,1,90,2|8,2:0|2:0,2:0:0:0:
36,220,89919,5,2,2:0:0:0:
70,307,90079,2,0,L|157:328,1,90,2|0,1:2|2:0,2:0:0:0:
22,199,90398,5,10,2:0:0:0:
0,324,90557,1,2,2:0:0:0:
23,327,90637,1,0,2:0:0:0:
46,330,90717,5,0,1:0:0:0:
157,328,90877,2,0,P|200:316|243:327,1,90,2|10,1:2|2:0,2:0:0:0:
333,384,91196,1,2,2:0:0:0:
434,329,91355,2,0,P|442:279|434:239,1,90,2|0,1:2|2:0,2:0:0:0:
338,196,91674,2,0,P|330:146|338:106,1,90,10|0,2:0|2:0,2:0:0:0:
405,52,91994,6,0,P|330:22|255:63,1,135,2|0,1:2|2:0,2:0:0:0:
244,60,92313,2,0,L|244:111,1,45,14|0,2:0|2:0,2:0:0:0:
246,189,92472,1,0,2:0:0:0:
266,307,92632,2,0,L|221:307,1,45,2|0,1:2|2:0,2:0:0:0:
174,375,92791,2,0,L|129:375,1,45,10|0,2:0|2:0,2:0:0:0:
79,306,92951,1,0,2:0:0:0:
25,162,93111,2,0,P|10:215|25:264,1,90,14|0,2:0|2:0,2:0:0:0:
116,201,93430,5,2,1:2:0:0:
165,100,93589,1,10,2:0:0:0:
246,189,93749,1,2,2:0:0:0:
310,105,93908,2,0,P|350:152|350:220,1,90,2|0,1:2|1:0,2:0:0:0:
349,220,94148,1,0,1:0:0:0:
349,220,94228,2,0,L|448:220,1,90,10|0,2:0|2:0,2:0:0:0:
510,165,94547,6,0,P|528:232|494:300,1,135,2|0,1:2|2:0,2:0:0:0:
471,297,94866,2,0,L|420:298,1,45,14|0,2:0|2:0,2:0:0:0:
336,303,95025,1,0,2:0:0:0:
220,378,95185,2,0,L|220:333,1,45,10|0,2:0|2:0,2:0:0:0:
152,286,95344,2,0,L|152:241,1,45,10|0,2:0|2:0,2:0:0:0:
221,191,95504,1,0,2:0:0:0:
134,87,95664,2,0,P|177:96|221:86,1,90,14|0,2:0|2:0,2:0:0:0:
283,23,95983,5,2,1:2:0:0:
345,97,96143,1,10,2:0:0:0:
408,26,96302,1,2,1:2:0:0:
465,107,96462,2,0,P|465:161|448:202,1,90,2|0,1:2|1:0,2:0:0:0:
411,228,96701,1,0,1:0:0:0:
411,228,96781,2,0,L|421:330,1,90,10|0,2:0|1:0,2:0:0:0:
335,370,97100,6,0,P|291:327|227:389,1,135,2|0,2:0|2:0,2:0:0:0:
217,380,97419,2,0,L|166:380,1,45,14|0,2:0|2:0,2:0:0:0:
84,376,97579,1,0,2:0:0:0:
58,242,97738,2,0,L|132:247,1,45,10|0,2:0|2:0,2:0:0:0:
182,252,97898,2,0,L|256:257,1,45,10|0,2:0|2:0,2:0:0:0:
308,263,98057,1,0,2:0:0:0:
420,318,98217,2,0,L|421:210,1,90,14|0,1:2|2:0,2:0:0:0:
464,132,98536,6,0,P|407:123|363:143,1,90,2|10,1:2|2:0,2:0:0:0:
294,183,98855,1,2,2:0:0:0:
199,153,99015,2,0,L|193:55,1,90,2|0,1:2|1:0,2:0:0:0:
181,16,99254,1,0,1:0:0:0:
181,16,99334,2,0,P|118:13|81:26,1,90,10|0,1:2|2:0,2:0:0:0:
18,103,99653,6,0,B|-19:185|49:190|-5:285,1,180,6|0,1:2|1:0,2:0:0:0:
113,158,100132,1,2,2:0:0:0:
113,158,100212,1,2,2:0:0:0:
113,158,100291,2,0,P|158:151|204:175,1,90,2|0,1:2|2:0,2:0:0:0:
140,308,100611,1,2,1:2:0:0:
225,264,100770,1,10,2:0:0:0:
305,330,100930,6,0,P|377:335|397:318,1,90,14|0,1:2|1:2,2:0:0:0:
432,248,101169,1,0,2:0:0:0:
432,248,101249,2,0,L|430:148,1,90,14|0,2:0|1:2,2:0:0:0:
336,36,101568,1,14,1:2:0:0:
429,76,101728,1,0,1:0:0:0:
243,86,101887,2,0,P|230:32|250:-18,1,90,8|2,2:0|2:0,2:0:0:0:
122,38,102206,6,0,P|53:8|-2:93,1,148.50000453186,6|0,1:2|2:0,2:0:0:0:
10,85,102525,1,10,2:0:0:0:
82,145,102685,1,2,2:0:0:0:
0,223,102845,2,0,P|37:256|87:257,1,99.0000030212403,2|2,1:2|2:0,2:0:0:0:
164,197,103164,2,0,P|214:197|252:230,1,99.0000030212403,10|2,2:0|2:0,2:0:0:0:
333,284,103483,6,0,L|385:278,1,49.5000015106202,2|0,1:2|2:0,2:0:0:0:
373,368,103642,2,0,L|425:374,1,49.5000015106202,2|0,2:0|2:0,2:0:0:0:
325,295,103802,2,0,L|377:289,1,49.5000015106202,10|0,2:0|2:0,2:0:0:0:
365,379,103961,2,0,L|417:385,1,49.5000015106202,2|0,2:0|2:0,2:0:0:0:
496,335,104121,1,2,1:2:0:0:
512,208,104281,2,0,P|459:203|402:241,1,99.0000030212403,2|10,2:0|2:0,2:0:0:0:
397,118,104600,6,0,P|406:66|367:-7,1,99.0000030212403,2|0,2:0|1:2,2:0:0:0:
290,110,104919,2,0,L|241:102,1,49.5000015106202,2|0,2:0|2:0,2:0:0:0:
214,22,105078,2,0,L|262:14,1,49.5000015106202,10|0,2:0|2:0,2:0:0:0:
296,102,105238,2,0,L|247:94,1,49.5000015106202,2|0,2:0|2:0,2:0:0:0:
220,14,105397,2,0,L|268:6,1,49.5000015106202,2|0,1:2|2:0,2:0:0:0:
129,22,105557,1,2,2:0:0:0:
64,93,105717,1,10,2:0:0:0:
124,190,105877,6,0,P|70:180|20:200,1,99.0000030212403,2|0,2:0|1:0,2:0:0:0:
82,291,106196,2,0,L|90:343,1,49.5000015106202,2|0,2:0|2:0,2:0:0:0:
170,367,106355,2,0,L|178:315,1,49.5000015106202,10|0,2:0|2:0,2:0:0:0:
90,285,106515,2,0,L|98:337,1,49.5000015106202,2|0,2:0|2:0,2:0:0:0:
178,361,106674,2,0,L|186:309,1,49.5000015106202,2|0,1:2|2:0,2:0:0:0:
197,221,106834,1,8,2:0:0:0:
278,279,106994,2,0,P|327:281|379:239,1,99.0000030212403,8|8,2:0|2:0,2:0:0:0:
437,149,107313,6,0,P|375:124|289:158,1,148.50000453186,6|0,1:2|2:0,2:0:0:0:
306,164,107632,1,10,2:0:0:0:
253,76,107791,1,2,2:0:0:0:
206,166,107951,2,0,P|156:180|99:159,1,99.0000030212403,2|2,1:2|2:0,2:0:0:0:
158,77,108270,2,0,P|208:63|265:84,1,99.0000030212403,10|2,2:0|2:0,2:0:0:0:
306,164,108589,6,0,L|316:227,1,49.5000015106202,2|0,1:2|2:0,2:0:0:0:
406,209,108748,2,0,L|396:272,1,49.5000015106202,2|0,2:0|2:0,2:0:0:0:
317,171,108908,2,0,L|327:234,1,49.5000015106202,10|0,2:0|2:0,2:0:0:0:
417,216,109068,2,0,L|407:279,1,49.5000015106202,2|0,2:0|2:0,2:0:0:0:
344,320,109227,1,2,1:2:0:0:
254,275,109387,2,0,P|206:263|154:278,1,99.0000030212403,2|10,2:0|2:0,2:0:0:0:
79,338,109706,6,0,P|62:291|71:238,1,99.0000030212403,2|0,2:0|1:0,2:0:0:0:
142,167,110025,2,0,L|202:152,1,49.5000015106202,2|0,2:0|2:0,2:0:0:0:
189,46,110185,2,0,L|133:75,1,49.5000015106202,10|0,2:0|2:0,2:0:0:0:
144,154,110344,2,0,L|204:139,1,49.5000015106202,2|0,2:0|2:0,2:0:0:0:
192,34,110504,2,0,L|136:63,1,49.5000015106202,2|0,1:2|2:0,2:0:0:0:
278,93,110663,2,0,P|331:98|399:84,1,99.0000030212403,2|10,2:0|2:0,2:0:0:0:
473,32,110983,6,0,P|486:83|483:152,1,99.0000030212403,2|0,2:0|2:0,2:0:0:0:
470,272,111302,2,0,L|462:325,1,49.5000015106202,2|0,1:2|2:0,2:0:0:0:
387,283,111461,2,0,L|379:336,1,49.5000015106202,10|0,2:0|2:0,2:0:0:0:
304,294,111621,2,0,L|296:347,1,49.5000015106202,10|0,1:2|2:0,2:0:0:0:
221,305,111781,1,10,1:2:0:0:
221,305,112100,6,0,B|154:324|152:237|45:277,1,161.999995056153,14|6,2:0|1:2,2:0:0:0:
18,342,112579,1,2,2:0:0:0:
69,270,112738,2,0,L|70:183,1,80.9999975280763,2|2,1:2|2:0,2:0:0:0:
33,108,113057,2,0,P|72:100|111:109,1,80.9999975280763,2|2,1:2|2:0,2:0:0:0:
232,33,113377,2,0,P|184:25|145:35,1,80.9999975280763,2|2,1:2|2:0,2:0:0:0:
330,0,113696,2,0,P|338:48|328:87,1,80.9999975280763,2|2,1:2|2:0,2:0:0:0:
292,170,114015,2,0,P|340:178|379:168,1,80.9999975280763,2|2,1:2|2:0,2:0:0:0:
283,289,114334,6,0,B|334:300|334:300|389:281|389:281|470:292,1,161.999995056153,2|2,1:2|1:2,2:0:0:0:
399,375,114972,1,2,1:2:0:0:
440,287,115291,1,2,1:2:0:0:
427,194,115611,2,0,B|522:192,2,80.9999975280763,2|2|0,1:2|2:0|1:0,2:0:0:0:
332,198,116089,1,2,2:0:0:0:
286,108,116408,1,2,2:0:0:0:
343,22,116728,2,0,L|262:22,1,80.9999975280763,2|0,2:0|1:2,2:0:0:0:
192,91,117206,6,0,B|125:71|123:158|16:118,1,161.999995056153,0|6,1:2|1:2,2:0:0:0:
73,30,117685,1,2,2:0:0:0:
40,125,117845,2,0,L|39:227,1,80.9999975280763,2|2,1:2|2:0,2:0:0:0:
2,306,118164,2,0,P|50:314|84:304,1,80.9999975280763,2|2,1:2|2:0,2:0:0:0:
201,224,118483,2,0,P|161:215|122:223,1,80.9999975280763,2|2,1:2|2:0,2:0:0:0:
262,384,118802,2,0,P|267:321|259:281,1,80.9999975280763,2|2,1:2|2:0,2:0:0:0:
201,224,119121,2,0,P|195:161|203:121,1,80.9999975280763,2|2,1:2|2:0,2:0:0:0:
151,51,119440,6,0,B|202:40|202:40|257:59|257:59|338:48,1,161.999995056153,2|2,1:2|1:2,2:0:0:0:
390,0,120079,1,2,1:2:0:0:
453,74,120398,1,2,1:2:0:0:
416,163,120717,2,0,P|371:169|330:193,2,80.9999975280763,2|2|0,1:2|2:0|1:0,2:0:0:0:
494,223,121196,1,2,2:0:0:0:
474,321,121515,2,0,L|362:330,1,80.9999975280763,2|0,2:0|1:0,2:0:0:0:
328,384,121834,1,2,2:0:0:0:
328,384,121994,1,2,1:2:0:0:
256,283,122313,6,0,P|191:251|123:297,1,161.999995056153,2|6,1:2|1:2,2:0:0:0:
198,357,122791,1,2,2:0:0:0:
122,297,122951,2,0,L|122:202,1,80.9999975280763,10|2,2:0|2:0,2:0:0:0:
84,127,123270,2,0,P|123:116|180:135,1,80.9999975280763,2|2,1:2|2:0,2:0:0:0:
214,35,123589,2,0,P|253:46|310:27,1,80.9999975280763,10|2,2:0|2:0,2:0:0:0:
394,2,123908,1,2,1:2:0:0:
394,2,124068,1,2,2:0:0:0:
489,62,124228,1,10,2:0:0:0:
489,62,124387,1,2,2:0:0:0:
418,155,124547,6,0,B|378:188|344:164|311:142|258:187,1,161.999995056153,2|10,1:2|2:0,2:0:0:0:
321,263,125185,1,2,1:2:0:0:
264,181,125504,1,10,2:0:0:0:
209,100,125823,2,0,L|115:103,2,80.9999975280763,2|2|8,1:2|2:0|2:0,2:0:0:0:
264,181,126302,1,2,2:0:0:0:
321,263,126621,2,0,P|359:272|425:243,1,80.9999975280763,2|8,2:0|2:0,2:0:0:0:
483,253,126940,2,0,L|488:294,2,40.4999987640381,2|0|2,1:2|1:0|1:2,2:0:0:0:
512,134,127419,6,0,P|457:181|379:154,1,161.999995056153,14|6,1:2|1:2,2:0:0:0:
401,68,127898,1,2,2:0:0:0:
319,18,128057,2,0,L|233:20,1,80.9999975280763,10|2,2:0|2:0,2:0:0:0:
149,50,128377,2,0,L|159:135,1,80.9999975280763,2|2,1:2|2:0,2:0:0:0:
72,179,128696,2,0,L|61:264,1,80.9999975280763,10|2,2:0|2:0,2:0:0:0:
136,342,129015,1,2,1:2:0:0:
136,342,129174,1,2,2:0:0:0:
203,269,129334,1,10,2:0:0:0:
203,269,129494,1,2,2:0:0:0:
249,350,129653,6,0,B|294:373|323:343|350:315|412:348,1,161.999995056153,2|10,1:2|2:0,2:0:0:0:
487,375,130291,1,2,1:2:0:0:
404,344,130611,1,10,2:0:0:0:
323,317,130930,1,2,1:2:0:0:
323,232,131089,1,2,1:2:0:0:
404,206,131248,1,8,2:0:0:0:
453,275,131408,1,6,1:2:0:0:
276,176,132047,5,0,1:0:0:0:
257,171,132127,1,0,1:0:0:0:
239,178,132206,6,0,L|243:219,3,40.4999987640381,8|0|0|0,2:0|1:0|1:0|1:0,2:0:0:0:
128,228,132525,6,0,L|124:269,3,40.4999987640381,8|8|0|0,2:0|2:0|1:0|1:0,2:0:0:0:
172,358,132845,6,0,B|113:381|78:365|49:328|-15:371,1,180,6|0,1:2|1:0,2:0:0:0:
0,267,133323,1,2,2:0:0:0:
0,267,133403,1,2,2:0:0:0:
0,267,133483,2,0,L|7:151,1,90,2|2,1:2|2:0,2:0:0:0:
21,85,133802,1,2,1:2:0:0:
94,148,133962,1,10,2:0:0:0:
124,55,134121,6,0,L|230:46,1,90,2|0,1:2|2:0,2:0:0:0:
255,123,134440,2,0,L|361:132,1,90,2|0,1:2|2:0,2:0:0:0:
429,58,134760,2,0,B|491:141|414:229,1,180,2|8,1:2|2:0,2:0:0:0:
328,229,135238,5,2,2:0:0:0:
378,321,135398,2,0,P|336:318|286:330,1,90,10|2,2:0|1:2,2:0:0:0:
213,378,135717,2,0,P|171:381|121:369,1,90,10|2,2:0|1:2,2:0:0:0:
21,371,136036,2,0,P|27:305|137:240,1,180,10|8,2:0|2:0,2:0:0:0:
174,304,136515,1,2,2:0:0:0:
231,195,136674,5,14,2:0:0:0:
310,252,136834,1,2,1:2:0:0:
336,152,136994,1,14,2:0:0:0:
415,209,137154,1,2,1:2:0:0:
439,115,137313,6,0,P|441:62|419:18,1,90,14|2,2:0|1:2,2:0:0:0:
323,65,137632,2,0,P|321:118|343:162,1,90,14|2,2:0|2:0,2:0:0:0:
415,209,137951,1,6,1:2:0:0:
433,351,138270,1,6,1:2:0:0:
327,266,138589,2,0,B|278:348|227:264|188:377,1,180,6|8,1:2|2:0,2:0:0:0:
120,282,139068,1,0,2:0:0:0:
47,356,139228,5,2,1:2:0:0:
44,98,140345,2,0,L|35:151,2,45,2|0|10,1:2|1:0|2:0,2:0:0:0:
123,176,140664,2,0,L|132:229,2,45,2|0|10,1:2|1:0|2:0,2:0:0:0:
29,234,140983,2,0,L|20:287,2,45,2|0|10,1:2|1:0|2:0,2:0:0:0:
147,294,141621,5,2,1:2:0:0:
228,224,141781,1,10,2:0:0:0:
313,278,141940,2,0,L|322:331,2,45,2|0|10,1:2|1:0|2:0,2:0:0:0:
228,224,142259,2,0,L|219:277,2,45,2|0|10,1:2|1:0|2:0,2:0:0:0:
301,161,142579,1,2,1:2:0:0:
375,211,142738,1,10,2:0:0:0:
428,144,142898,6,0,P|444:85|395:21,1,135,4|0,1:2|2:0,2:0:0:0:
382,45,143217,1,2,1:2:0:0:
300,84,143376,1,10,2:0:0:0:
300,84,143536,1,2,1:2:0:0:
218,44,143696,1,10,2:0:0:0:
218,44,143855,1,8,2:0:0:0:
136,93,144015,2,0,L|146:145,1,45,10|2,2:0|2:0,2:0:0:0:
51,55,144174,2,0,L|60:8,1,45,2|2,2:0|2:0,2:0:0:0:
23,210,144334,6,0,B|74:180|74:180|175:224,1,148.50000453186,6|0,1:2|2:0,2:0:0:0:
167,242,144653,1,10,2:0:0:0:
248,177,144813,1,2,2:0:0:0:
290,263,144972,2,0,P|352:240|393:253,1,99.0000030212403,2|2,1:2|2:0,2:0:0:0:
332,348,145291,2,0,P|270:371|229:358,1,99.0000030212403,10|2,2:0|2:0,2:0:0:0:
167,289,145610,6,0,L|173:237,1,49.5000015106202,2|0,1:2|2:0,2:0:0:0:
83,249,145769,2,0,L|77:197,1,49.5000015106202,2|0,2:0|2:0,2:0:0:0:
156,297,145929,2,0,L|162:245,1,49.5000015106202,10|0,2:0|2:0,2:0:0:0:
72,257,146088,2,0,L|66:205,1,49.5000015106202,2|0,2:0|2:0,2:0:0:0:
131,133,146249,1,2,1:2:0:0:
75,57,146408,2,0,P|127:38|190:59,1,99.0000030212403,2|10,2:0|2:0,2:0:0:0:
255,140,146728,6,0,L|263:40,1,99.0000030212403,2|0,2:0|1:0,2:0:0:0:
374,48,147047,2,0,L|365:102,1,49.5000015106202,2|0,2:0|2:0,2:0:0:0:
461,138,147207,2,0,L|452:84,1,49.5000015106202,10|0,2:0|2:0,2:0:0:0:
383,43,147366,2,0,L|374:97,1,49.5000015106202,2|0,2:0|2:0,2:0:0:0:
470,133,147526,2,0,L|461:79,1,49.5000015106202,2|0,1:2|2:0,2:0:0:0:
396,189,147686,1,2,2:0:0:0:
454,254,147845,1,10,2:0:0:0:
392,320,148004,2,0,P|338:319|274:286,1,99.0000030212403,2|4,2:0|1:2,2:0:0:0:
160,362,148323,6,0,L|223:367,1,49.5000015106202,2|0,1:2|2:0,2:0:0:0:
209,282,148483,2,0,L|159:285,1,49.5000015106202,10|0,2:0|2:0,2:0:0:0:
157,204,148642,2,0,L|206:207,1,49.5000015106202,10|0,2:0|2:0,2:0:0:0:
206,124,148802,2,0,L|156:127,1,49.5000015106202,10|0,1:2|2:0,2:0:0:0:
155,47,148962,1,0,1:0:0:0:
256,12,149121,2,0,P|309:2|371:22,1,99.0000030212403,8|0,1:2|1:0,2:0:0:0:
440,28,149440,6,0,P|442:85|416:157,1,99.0000030212403,6|0,1:2|2:0,2:0:0:0:
386,201,149759,2,0,P|312:212|265:260,1,99.0000030212403,10|0,2:0|2:0,2:0:0:0:
359,312,150079,1,2,1:2:0:0:
476,318,150238,2,0,L|460:203,1,99.0000030212403,2|8,2:0|2:0,2:0:0:0:
364,134,150557,6,0,P|310:133|244:137,1,99.0000030212403,2|2,2:0|1:2,2:0:0:0:
194,61,150876,1,2,2:0:0:0:
151,155,151036,1,10,2:0:0:0:
66,79,151196,1,2,2:0:0:0:
32,182,151355,2,0,P|19:226|21:302,1,99.0000030212403,2|2,1:2|2:0,2:0:0:0:
86,359,151674,2,0,P|119:364|185:346,1,99.0000030212403,10|0,2:0|2:0,2:0:0:0:
334,383,151993,6,0,P|343:300|323:247,1,99.0000030212403,6|0,1:2|2:0,2:0:0:0:
263,232,152313,2,0,P|254:149|274:96,1,99.0000030212403,10|0,2:0|2:0,2:0:0:0:
367,186,152632,1,2,1:2:0:0:
417,63,152791,2,0,L|304:46,1,99.0000030212403,2|8,2:0|2:0,2:0:0:0:
159,119,153110,6,0,L|257:134,1,99.0000030212403,2|2,2:0|1:2,2:0:0:0:
346,280,153430,2,0,P|365:234|366:185,1,99.0000030212403,2|10,2:0|2:0,2:0:0:0:
256,134,153749,1,2,2:0:0:0:
164,275,153908,2,0,L|267:298,1,99.0000030212403,2|2,1:2|2:0,2:0:0:0:
462,197,154228,2,0,P|415:182|366:185,1,99.0000030212403,10|0,2:0|2:0,2:0:0:0:
256,134,154547,6,0,L|280:31,1,99.0000030212403,6|0,1:2|2:0,2:0:0:0:
376,13,154866,2,0,P|430:7|489:31,1,99.0000030212403,10|0,2:0|2:0,2:0:0:0:
424,113,155185,1,2,1:2:0:0:
496,176,155345,2,0,L|485:291,1,99.0000030212403,2|8,2:0|2:0,2:0:0:0:
428,343,155664,6,0,P|368:357|325:350,1,99.0000030212403,2|2,2:0|1:2,2:0:0:0:
367,263,155983,1,2,2:0:0:0:
274,231,156142,1,10,2:0:0:0:
352,159,156302,1,2,2:0:0:0:
255,117,156462,2,0,P|200:112|151:123,1,99.0000030212403,2|2,1:2|1:2,2:0:0:0:
117,212,156701,1,2,1:2:0:0:
117,212,156781,2,0,P|62:207|13:218,1,99.0000030212403,14|0,2:0|2:0,2:0:0:0:
20,352,157100,6,0,L|76:348,1,49.5000015106202,14|0,2:0|2:0,2:0:0:0:
162,336,157259,1,0,2:0:0:0:
271,375,157419,2,0,P|269:316|239:241,1,99.0000030212403,10|0,2:0|2:0,2:0:0:0:
276,126,157738,2,0,L|287:188,1,49.5000015106202,10|0,2:0|2:0,2:0:0:0:
352,256,157898,2,0,P|301:275|241:275,1,99.0000030212403,10|0,2:0|2:0,2:0:0:0:
178,123,158217,2,0,P|227:116|276:126,1,99.0000030212403,6|0,1:2|2:0,2:0:0:0:
452,90,158536,6,0,L|387:111,1,49.5000015106202,2|0,1:2|2:0,2:0:0:0:
408,192,158696,2,0,L|473:213,1,49.5000015106202,10|0,1:2|2:0,2:0:0:0:
460,283,158855,2,0,L|395:304,1,49.5000015106202,10|0,1:2|2:0,2:0:0:0:
419,384,159015,1,10,1:2:0:0:
61,358,159334,6,0,P|135:331|219:385,1,148.50000453186,2|0,1:2|2:0,2:0:0:0:
210,370,159653,2,0,L|216:253,1,99.0000030212403,14|0,2:0|2:0,2:0:0:0:
167,188,159972,2,0,P|226:175|284:208,1,99.0000030212403,10|0,2:0|2:0,2:0:0:0:
352,257,160291,1,10,2:0:0:0:
483,151,160451,2,0,P|436:136|387:143,1,99.0000030212403,10|0,2:0|2:0,2:0:0:0:
352,257,160770,6,0,P|399:272|447:264,1,99.0000030212403,6|0,1:2|2:0,2:0:0:0:
253,236,161089,2,0,L|262:175,1,49.5000015106202,2|0,1:2|2:0,2:0:0:0:
184,297,161249,2,0,L|193:358,1,49.5000015106202,10|0,1:2|2:0,2:0:0:0:
129,221,161409,2,0,L|138:160,1,49.5000015106202,10|0,1:2|2:0,2:0:0:0:
60,294,161568,1,14,1:2:0:0:
3,194,161728,1,0,1:0:0:0:
3,194,161807,1,0,1:0:0:0:
3,194,161887,2,0,P|14:136|57:93,1,99.0000030212403,8|0,2:0|2:0,2:0:0:0:
148,94,162206,6,0,L|237:88,1,90,6|2,1:2|2:0,2:0:0:0:
296,0,162525,1,10,2:0:0:0:
352,88,162685,1,2,2:0:0:0:
406,5,162844,2,0,P|439:29|461:83,1,90,2|2,1:2|2:0,2:0:0:0:
419,146,163084,1,2,2:0:0:0:
419,146,163163,2,0,L|428:239,1,90,8|2,2:0|2:0,2:0:0:0:
427,341,163482,5,0,1:0:0:0:
348,306,163642,1,2,2:0:0:0:
348,306,163722,1,2,2:0:0:0:
348,306,163802,1,10,2:0:0:0:
276,357,163961,1,2,2:0:0:0:
201,309,164121,1,2,1:2:0:0:
201,309,164201,1,2,2:0:0:0:
201,309,164280,1,2,2:0:0:0:
124,367,164440,2,0,P|103:319|118:265,1,90,10|2,2:0|2:0,2:0:0:0:
137,185,164759,5,2,1:2:0:0:
137,185,164839,1,2,2:0:0:0:
137,185,164918,1,2,2:0:0:0:
219,221,165078,1,10,2:0:0:0:
277,144,165238,1,2,2:0:0:0:
340,207,165397,2,0,P|391:192|445:207,1,90,2|2,1:2|2:0,2:0:0:0:
510,242,165637,1,2,2:0:0:0:
510,242,165717,2,0,L|510:137,1,90,8|2,2:0|2:0,2:0:0:0:
450,56,166036,5,0,1:0:0:0:
376,105,166195,1,2,2:0:0:0:
376,105,166275,1,2,2:0:0:0:
376,105,166355,1,10,2:0:0:0:
286,63,166514,1,2,2:0:0:0:
214,119,166674,1,2,1:2:0:0:
214,119,166754,1,2,2:0:0:0:
214,119,166834,1,2,2:0:0:0:
142,65,166993,2,0,P|85:79|48:118,1,90,10|2,2:0|2:0,2:0:0:0:
80,206,167312,5,6,1:2:0:0:
80,206,167392,1,2,2:0:0:0:
80,206,167472,1,2,2:0:0:0:
136,284,167631,1,10,2:0:0:0:
196,353,167791,1,2,2:0:0:0:
258,281,167951,2,0,P|307:271|361:283,1,90,2|2,1:2|2:0,2:0:0:0:
387,354,168190,1,2,2:0:0:0:
387,354,168270,2,0,L|485:355,1,90,8|2,2:0|2:0,2:0:0:0:
509,270,168589,6,0,P|523:227|512:185,1,90,0|2,1:0|2:0,2:0:0:0:
483,105,168828,1,2,2:0:0:0:
483,105,168908,1,10,2:0:0:0:
414,168,169068,1,2,2:0:0:0:
342,103,169227,1,2,1:2:0:0:
342,103,169307,1,2,2:0:0:0:
342,103,169387,1,2,2:0:0:0:
274,164,169546,2,0,P|278:208|297:249,1,90,10|2,2:0|2:0,2:0:0:0:
374,328,169865,5,2,1:2:0:0:
374,328,169945,1,2,2:0:0:0:
374,328,170025,1,2,2:0:0:0:
297,249,170185,2,0,P|255:248|205:270,1,90,10|2,2:0|2:0,2:0:0:0:
189,355,170504,2,0,L|99:348,1,90,2|2,1:2|2:0,2:0:0:0:
35,294,170743,1,2,2:0:0:0:
35,294,170823,2,0,L|45:193,1,90,8|2,2:0|2:0,2:0:0:0:
9,115,171142,6,0,P|56:103|106:139,1,90,0|2,1:0|2:0,2:0:0:0:
181,145,171381,1,2,2:0:0:0:
181,145,171461,1,10,2:0:0:0:
264,159,171621,1,2,2:0:0:0:
349,174,171780,1,2,1:2:0:0:
349,174,171860,1,2,2:0:0:0:
349,174,171940,1,2,2:0:0:0:
440,112,172099,6,0,B|466:152|448:225,1,90,10|2,2:0|2:0,2:0:0:0:
465,308,172418,1,6,1:2:0:0:
465,308,172498,1,2,2:0:0:0:
465,308,172578,1,2,2:0:0:0:
374,264,172737,1,2,2:0:0:0:
306,342,172896,1,2,2:0:0:0:
224,272,173057,2,0,P|149:256|97:294,2,135,2|2|14,2:0|2:0|2:0,2:0:0:0:
306,342,173854,5,2,1:2:0:0:
306,342,173934,1,2,1:2:0:0:
306,342,174014,1,10,1:2:0:0:
374,264,174174,1,10,1:2:0:0:
465,308,174333,1,14,1:2:0:0:
