osu file format v14

[General]
AudioFilename: audio.mp3
AudioLeadIn: 0
PreviewTime: 20125
Countdown: 0
SampleSet: Soft
StackLeniency: 0.8
Mode: 0
LetterboxInBreaks: 0
WidescreenStoryboard: 1

[Editor]
Bookmarks: 7658,19833,20125,32593,45060,57528,69995,82463,94930,107398,135450,160385,172852,200904,225839,232073,244541,257008,266359,291294
DistanceSpacing: 1
BeatDivisor: 4
GridSize: 8
TimelineZoom: 2.3

[Metadata]
Title:Fuyuukan UFO
TitleUnicode:浮遊感UFO
Artist:Tsukino Mito
ArtistUnicode:月ノ美兎
Creator:Renumi
Version:Normal
Source:
Tags:indie japanese j-pop dream pop shoegaze NARASAKI vtuber 月の兎はヴァーチュアルの夢をみる Moon Rabbits Dream About Virtual VVLC-1790 2021
BeatmapID:4553215
BeatmapSetID:2159510

[Difficulty]
HPDrainRate:4
CircleSize:3.3
OverallDifficulty:5
ApproachRate:6
SliderMultiplier:1.15
SliderTickRate:1

[Events]
//Background and Video events
0,0,"bg.jpg",0,0
//Break Periods
2,232273,243491
//Storyboard Layer 0 (Background)
//Storyboard Layer 1 (Fail)
//Storyboard Layer 2 (Pass)
//Storyboard Layer 3 (Foreground)
//Storyboard Layer 4 (Overlay)
//Storyboard Sound Samples

[TimingPoints]
6879,389.61038961039,4,1,1,70,1,0
7658,389.61038961039,4,1,1,70,1,0
20125,-100,4,1,2,90,0,1
32593,-100,4,2,1,80,0,0
32982,-100,4,2,1,75,0,0
57528,-100,4,1,2,90,0,1
63761,-100,4,1,3,90,0,1
63956,-100,4,1,2,90,0,1
69995,-100,4,2,1,80,0,0
70385,-100,4,2,1,75,0,0
94930,-100,4,2,3,70,0,0
104281,-100,4,2,3,75,0,0
107398,-100,4,1,1,80,0,0
135450,-100,4,2,1,80,0,0
135839,-100,4,2,1,60,0,0
147917,-100,4,2,1,75,0,0
160385,-100,4,2,3,70,0,0
169735,-100,4,2,3,75,0,0
171489,-100,4,1,1,75,0,0
172852,-100,4,1,1,80,0,0
200904,-100,4,1,2,100,0,1
202268,-100,4,1,3,100,0,1
202463,-100,4,1,2,100,0,1
205385,-100,4,1,3,100,0,1
205580,-100,4,1,2,100,0,1
208502,-100,4,1,3,100,0,1
208696,-100,4,1,2,100,0,1
214735,-100,4,1,3,100,0,1
214930,-100,4,1,2,100,0,1
219606,-100,4,1,1,90,0,1
228956,-100,4,1,3,90,0,1
230515,-100,4,1,1,90,0,1
232073,-100,4,2,1,90,0,0
244541,-100,4,2,1,70,0,0
257008,-100,4,2,1,80,0,0
266359,-100,4,1,2,90,0,1
278826,-100,4,1,2,100,0,1
291294,-100,4,2,1,90,0,0
292852,-100,4,2,1,70,0,0
294411,-100,4,2,1,50,0,0
295969,-100,4,2,1,30,0,0

[Colours]
Combo1 : 79,151,240
Combo2 : 173,255,95
Combo3 : 255,88,100
Combo4 : 255,94,55

[HitObjects]
124,146,7658,5,2,3:0:0:0:
103,21,8047,1,8,0:0:0:0:
228,0,8437,1,2,0:3:0:0:
249,125,8826,1,8,0:0:0:0:
124,146,9216,2,0,P|91:149|51:156,1,57.5,2|8,0:3|0:3,0:0:0:0:
10,165,9606,1,8,0:0:0:0:
81,255,9995,2,0,P|114:252|154:245,1,57.5,2|8,0:3|0:3,0:0:0:0:
195,244,10385,1,8,0:0:0:0:
249,125,10774,5,2,3:0:0:0:
374,104,11163,1,8,0:0:0:0:
395,229,11553,1,2,0:3:0:0:
270,250,11942,1,8,0:0:0:0:
249,125,12332,2,0,P|246:92|239:52,1,57.5,2|8,0:3|0:3,0:0:0:0:
231,10,12722,1,8,0:0:0:0:
132,87,13111,2,0,P|135:120|142:160,1,57.5,2|8,0:3|0:3,0:0:0:0:
150,206,13501,1,8,0:0:0:0:
270,250,13891,6,0,B|325:230|325:230|388:240,1,115,2|8,3:0|0:0,0:0:0:0:
469,148,14670,2,0,L|459:70,2,57.5,2|2|8,0:3|0:0|0:0,0:0:0:0:
510,199,15255,1,2,3:1:0:0:
510,199,15450,2,0,P|505:258|494:313,1,115,2|8,0:3|0:0,0:0:0:0:
368,327,16229,2,0,L|358:405,2,57.5,2|2|8,0:3|0:0|0:0,0:0:0:0:
341,268,16814,1,2,3:1:0:0:
341,268,17008,6,0,B|259:289|259:289|171:257,1,172.5,4|2,3:1|0:0,0:0:0:0:
54,255,17982,1,8,0:2:0:0:
54,255,18177,2,0,L|70:190,1,57.5,8|8,0:2|0:2,0:0:0:0:
67,135,18567,2,0,L|51:70,2,57.5,6|8|10,1:2|0:2|0:2,0:0:0:0:
190,163,19346,2,0,L|260:152,1,57.5,10|8,0:2|0:0,0:0:0:0:
280,100,19735,2,0,P|309:105|346:113,1,57.5,10|8,0:2|0:0,0:0:0:0:
355,176,20125,5,12,1:3:0:0:
355,176,20320,2,0,B|413:184|413:184|490:155,1,115,2|0,3:1|3:0,0:0:0:0:
512,215,20904,1,4,3:0:0:0:
512,215,21099,1,2,3:1:0:0:
417,299,21489,2,0,L|409:359,2,57.5,0|6|2,3:1|3:0|3:1,0:0:0:0:
293,270,22268,2,0,L|300:213,2,57.5,2|6|2,3:1|3:0|3:0,0:0:0:0:
194,349,23047,6,0,L|124:341,1,57.5,2|4,3:1|1:3,0:0:0:0:
81,311,23437,2,0,P|64:265|86:187,1,115,2|0,3:1|3:0,0:0:0:0:
122,158,24021,1,4,3:0:0:0:
122,158,24216,1,2,3:1:0:0:
248,158,24606,2,0,L|259:224,2,57.5,0|6|2,3:1|3:0|3:1,0:0:0:0:
344,75,25385,2,0,L|334:18,2,57.5,2|6|6,3:1|3:0|3:0,0:0:0:0:
404,94,25969,2,0,L|418:175,1,57.5,8|2,0:0|3:1,0:0:0:0:
465,197,26359,5,12,1:3:0:0:
465,197,26554,2,0,P|444:248|381:272,1,115,2|0,3:1|3:0,0:0:0:0:
340,246,27138,1,4,3:0:0:0:
340,246,27333,1,2,3:1:0:0:
219,209,27722,2,0,L|163:220,2,57.5,0|6|2,3:1|3:0|3:1,0:0:0:0:
301,112,28502,2,0,L|357:101,2,57.5,2|6|2,3:1|3:0|3:0,0:0:0:0:
184,63,29281,6,0,L|128:74,1,57.5,2|4,3:1|1:3,0:0:0:0:
67,53,29670,2,0,B|95:112|95:112|80:179,1,115,2|0,3:1|3:0,0:0:0:0:
47,213,30255,1,4,3:0:0:0:
47,213,30450,1,2,3:1:0:0:
126,311,30839,2,0,P|116:338|101:368,2,57.5,0|6|2,3:1|3:0|3:1,0:0:0:0:
238,239,31619,2,0,P|230:216|215:186,1,57.5,2|4,0:0|3:0,0:0:0:0:
208,129,32008,2,0,P|220:103|231:76,1,57.5,2|8,3:1|3:1,0:0:0:0:
279,43,32398,1,10,0:0:0:0:
279,43,32593,6,0,L|407:58,1,115,4|10,1:0|0:2,0:0:0:0:
444,29,33177,1,0,1:0:0:0:
490,134,33567,2,0,P|501:191|466:252,1,115,0|0,3:0|0:0,0:0:0:0:
436,281,34151,1,2,3:2:0:0:
329,324,34541,2,0,L|214:310,1,115,10|2,1:2|3:2,0:0:0:0:
167,340,35125,1,0,3:0:0:0:
167,340,35320,1,10,1:2:0:0:
92,252,35709,6,0,B|116:204|116:204|98:134,1,115,0|10,1:0|0:0,0:0:0:0:
70,101,36294,1,2,1:2:0:0:
70,101,36489,2,0,L|-1:95,2,57.5,0|2|10,3:0|3:2|0:0,0:0:0:0:
187,122,37268,1,0,3:0:0:0:
187,122,37463,2,0,B|222:133|222:133|306:109,1,115,2|2,0:0|0:0,0:0:0:0:
348,84,38047,2,0,P|379:87|416:96,2,57.5,0|0|8,1:0|1:0|1:2,0:0:0:0:
335,198,38826,5,0,1:0:0:0:
340,312,39216,1,10,0:2:0:0:
449,277,39606,2,0,P|462:253|472:225,2,57.5,2|0|10,3:2|3:0|0:0,0:0:0:0:
340,312,40385,1,2,3:2:0:0:
247,380,40774,2,0,P|215:330|199:260,1,115,10|2,1:2|3:2,0:0:0:0:
218,224,41359,1,0,3:0:0:0:
218,224,41554,1,10,1:2:0:0:
292,136,41943,6,0,P|276:80|245:32,1,115,0|10,1:0|0:0,0:0:0:0:
194,18,42528,1,2,1:2:0:0:
194,18,42722,2,0,L|135:32,2,57.5,0|2|10,3:0|3:2|0:0,0:0:0:0:
152,125,43502,2,0,P|124:131|95:136,1,57.5,0|2,3:0|0:0,0:0:0:0:
51,104,43891,1,10,1:2:0:0:
7,210,44281,2,0,P|28:232|60:257,1,57.5,0|0,1:0|1:0,0:0:0:0:
105,260,44670,2,0,P|127:241|146:220,1,57.5,8|4,0:2|1:2,0:0:0:0:
200,200,45060,5,4,1:0:0:0:
302,252,45450,2,0,L|309:318,1,57.5,10|0,0:2|1:0,0:0:0:0:
363,325,45839,2,0,L|370:391,2,57.5,2|0|10,3:2|3:0|0:0,0:0:0:0:
450,249,46619,2,0,P|464:206|474:135,1,115,2|10,3:2|1:2,0:0:0:0:
447,94,47203,1,0,0:0:0:0:
447,94,47398,2,0,L|456:37,2,57.5,2|0|10,3:2|3:0|1:2,0:0:0:0:
333,114,48177,5,0,1:0:0:0:
338,233,48567,1,10,0:0:0:0:
338,233,48761,2,0,P|281:225|226:209,1,115,2|2,1:2|3:2,0:0:0:0:
192,161,49346,1,10,0:0:0:0:
111,234,49735,1,0,3:0:0:0:
49,136,50125,2,0,L|66:67,1,57.5,10|2,1:2|0:0,0:0:0:0:
119,69,50515,2,0,P|113:42|105:13,2,57.5,0|0|8,1:0|1:0|1:2,0:0:0:0:
192,161,51294,5,0,1:0:0:0:
273,79,51683,2,0,L|347:69,1,57.5,10|0,0:2|1:0,0:0:0:0:
382,95,52073,2,0,P|386:153|368:215,1,115,2|10,3:2|0:0,0:0:0:0:
292,290,52852,2,0,P|350:292|405:316,1,115,2|10,3:2|1:2,0:0:0:0:
443,361,53437,1,0,0:0:0:0:
443,361,53632,2,0,L|520:349,2,57.5,2|0|10,3:2|3:0|1:2,0:0:0:0:
330,383,54411,5,4,1:2:0:0:
227,344,54800,1,10,0:0:0:0:
227,344,54995,2,0,P|169:342|114:318,1,115,2|2,1:2|1:2,0:0:0:0:
30,253,55774,1,2,1:2:0:0:
30,253,55969,2,0,L|50:184,1,57.5,0|2,3:0|0:0,0:0:0:0:
93,169,56359,1,10,0:2:0:0:
93,169,56554,2,0,P|81:144|68:49,1,115,2|2,1:2|1:2,0:0:0:0:
99,10,57138,1,14,0:2:0:0:
228,30,57528,5,12,1:3:0:0:
228,30,57722,2,0,L|218:154,1,115,2|0,3:1|3:0,0:0:0:0:
249,206,58307,1,4,3:0:0:0:
249,206,58502,1,2,3:1:0:0:
360,145,58891,2,0,L|355:81,2,57.5,0|6|2,3:1|3:0|3:1,0:0:0:0:
466,213,59670,2,0,L|474:157,2,57.5,2|6|2,3:1|3:0|3:0,0:0:0:0:
348,262,60450,6,0,L|344:340,1,57.5,2|4,3:1|1:3,0:0:0:0:
293,355,60839,2,0,B|245:333|245:333|174:342,1,115,2|0,3:1|3:0,0:0:0:0:
140,384,61424,1,4,3:0:0:0:
140,384,61619,1,2,3:1:0:0:
55,289,62008,2,0,L|-28:306,2,57.5,0|6|2,3:1|3:0|3:1,0:0:0:0:
162,222,62787,2,0,L|218:210,2,57.5,2|6|6,3:1|3:0|3:0,0:0:0:0:
109,186,63372,2,0,L|52:197,1,57.5,12|2,0:0|3:1,0:0:0:0:
6,162,63761,5,12,1:3:0:0:
6,162,63956,2,0,P|8:108|68:71,1,115,2|0,3:1|3:0,0:0:0:0:
117,95,64541,1,4,3:0:0:0:
117,95,64735,1,2,3:1:0:0:
234,47,65125,2,0,P|251:25|273:-24,2,57.5,0|6|2,3:1|3:0|3:1,0:0:0:0:
250,172,65904,2,0,P|233:194|211:243,2,57.5,2|6|2,3:1|3:0|3:0,0:0:0:0:
339,81,66683,6,0,L|403:74,1,57.5,2|4,3:1|1:3,0:0:0:0:
455,53,67073,2,0,L|469:190,1,115,2|0,3:1|3:0,0:0:0:0:
506,223,67658,1,4,3:0:0:0:
506,223,67852,1,2,3:1:0:0:
418,314,68242,2,0,P|414:344|410:382,2,57.5,0|6|2,3:1|3:0|3:1,0:0:0:0:
316,238,69021,2,0,P|305:264|294:291,1,57.5,2|4,0:0|3:0,0:0:0:0:
249,336,69411,2,0,P|220:333|192:325,1,57.5,2|8,3:1|3:1,0:0:0:0:
161,277,69800,1,10,0:0:0:0:
161,277,69995,6,0,L|34:287,1,115,4|10,1:0|0:2,0:0:0:0:
10,240,70580,1,0,1:0:0:0:
10,240,70774,1,2,3:2:0:0:
56,134,71164,2,0,P|64:108|72:72,1,57.5,10|0,0:0|0:0,0:0:0:0:
113,31,71554,1,2,3:2:0:0:
212,98,71943,1,10,1:2:0:0:
212,98,72138,2,0,L|326:88,1,115,2|0,0:0|3:0,0:0:0:0:
374,47,72722,1,10,1:2:0:0:
471,108,73112,5,0,1:0:0:0:
399,193,73502,2,0,L|411:262,1,57.5,10|2,0:0|1:2,0:0:0:0:
365,287,73891,2,0,L|377:356,2,57.5,0|2|10,3:0|3:2|0:0,0:0:0:0:
262,247,74670,1,0,3:0:0:0:
262,247,74865,2,0,B|278:190|278:190|264:128,1,115,2|2,0:0|0:0,0:0:0:0:
226,93,75450,2,0,L|231:35,2,57.5,0|0|8,1:0|1:0|1:2,0:0:0:0:
141,170,76229,5,0,1:0:0:0:
38,117,76619,1,10,0:2:0:0:
6,227,77008,2,0,L|-1:291,2,57.5,2|0|10,3:2|3:0|0:0,0:0:0:0:
105,284,77787,2,0,B|161:304|161:304|219:285,1,115,2|10,3:2|1:2,0:0:0:0:
258,249,78372,1,0,0:0:0:0:
258,249,78567,2,0,P|283:255|318:275,2,57.5,2|0|10,3:2|3:0|1:2,0:0:0:0:
224,138,79346,5,0,1:0:0:0:
313,65,79735,2,0,P|338:78|366:85,1,57.5,10|2,0:0|1:2,0:0:0:0:
421,70,80125,2,0,P|447:46|467:22,2,57.5,0|2|10,3:0|3:2|0:0,0:0:0:0:
414,184,80904,2,0,P|422:218|431:248,1,57.5,0|2,3:0|0:0,0:0:0:0:
466,282,81294,1,10,1:2:0:0:
375,353,81683,2,0,P|344:334|321:313,1,57.5,0|0,1:0|1:0,0:0:0:0:
285,281,82073,2,0,P|254:300|231:321,1,57.5,8|4,0:2|1:2,0:0:0:0:
201,358,82463,6,0,P|163:337|76:340,1,115,4|10,1:0|0:2,0:0:0:0:
47,356,83047,1,0,1:0:0:0:
47,356,83242,2,0,L|-12:349,2,57.5,2|0|10,3:2|3:0|0:0,0:0:0:0:
73,244,84021,2,0,B|90:190|90:190|77:119,1,115,2|10,3:2|1:2,0:0:0:0:
52,84,84606,1,0,0:0:0:0:
52,84,84800,2,0,B|108:101|108:101|177:88,1,115,2|10,3:2|1:2,0:0:0:0:
247,10,85580,5,0,1:0:0:0:
340,89,85969,1,10,0:0:0:0:
340,89,86164,2,0,P|327:155|303:208,1,115,2|2,1:2|3:2,0:0:0:0:
253,217,86748,1,10,0:0:0:0:
296,323,87138,1,0,3:0:0:0:
384,254,87528,2,0,P|412:259|441:267,1,57.5,10|2,1:2|0:0,0:0:0:0:
454,322,87917,2,0,P|482:317|511:309,2,57.5,0|0|8,1:0|1:0|1:2,0:0:0:0:
359,384,88696,5,0,1:0:0:0:
267,313,89086,2,0,L|188:297,1,57.5,10|0,0:2|1:0,0:0:0:0:
152,306,89476,2,0,P|123:267|128:197,1,115,2|10,3:2|0:0,0:0:0:0:
159,158,90060,1,0,0:0:0:0:
159,158,90255,1,2,3:2:0:0:
143,43,90645,1,10,1:2:0:0:
257,29,91034,2,0,L|322:17,1,57.5,2|0,3:2|3:0,0:0:0:0:
353,48,91424,1,10,1:2:0:0:
466,62,91813,5,4,1:2:0:0:
400,156,92203,1,10,0:0:0:0:
400,156,92398,2,0,P|348:155|271:183,1,115,2|2,1:2|1:2,0:0:0:0:
177,175,93177,1,2,1:2:0:0:
177,175,93372,2,0,P|182:206|198:247,1,57.5,0|2,3:0|0:0,0:0:0:0:
229,280,93761,1,10,0:2:0:0:
229,280,93956,2,0,P|174:297|117:297,1,115,2|2,1:2|1:2,0:0:0:0:
71,270,94541,1,14,0:2:0:0:
23,165,94930,5,4,3:0:0:0:
161,65,95515,2,0,B|185:120|185:120|175:182,2,115,8|0|0,0:0|3:0|1:0,0:0:0:0:
115,29,96489,1,4,3:0:0:0:
22,174,97073,2,0,B|13:228|13:228|37:283,2,115,8|0|0,0:0|3:0|1:0,0:0:0:0:
62,143,98047,1,4,3:0:0:0:
172,275,98632,2,0,B|196:330|196:330|187:384,1,115,8|0,0:0|3:0,0:0:0:0:
83,347,99411,1,0,1:0:0:0:
83,347,99606,2,0,L|22:355,2,57.5,4|0|2,3:0|0:0|3:2,0:0:0:0:
172,275,100385,2,0,L|229:267,1,57.5,2|0,0:0|3:0,0:0:0:0:
267,223,100774,2,0,P|265:190|259:166,1,57.5,2|0,0:0|1:0,0:0:0:0:
227,118,101164,5,4,3:0:0:0:
388,178,101748,2,0,B|447:188|447:188|511:160,1,115,8|2,0:0|3:2,0:0:0:0:
448,67,102528,1,2,1:2:0:0:
448,67,102722,2,0,L|454:-7,2,57.5,4|2|0,3:0|1:2|3:0,0:0:0:0:
338,103,103502,2,0,L|280:98,1,57.5,2|0,0:0|3:0,0:0:0:0:
230,70,103891,2,0,P|201:70|172:74,1,57.5,2|8,0:0|1:2,0:0:0:0:
122,102,104281,5,4,3:0:0:0:
83,210,104670,1,4,3:0:0:0:
149,304,105060,1,4,3:0:0:0:
269,288,105450,1,4,3:0:0:0:
269,288,105645,2,0,L|391:280,1,115,2|10,0:0|0:0,0:0:0:0:
434,307,106229,2,0,P|450:278|458:246,1,57.5,10|0,0:0|3:0,0:0:0:0:
426,205,106619,2,0,P|434:177|448:152,1,57.5,12|8,0:0|0:0,0:0:0:0:
492,115,107008,1,8,1:2:0:0:
365,112,107398,6,0,B|351:57|351:57|365:-14,1,115,6|8,3:1|0:0,0:0:0:0:
264,102,108177,2,0,B|277:157|277:157|266:215,1,115,2|8,0:0|0:0,0:0:0:0:
320,234,108761,2,0,P|326:296|214:324,1,172.5,2|8,0:0|0:0,0:0:0:0:
125,309,109735,2,0,B|68:310,2,57.5,2|2|12,0:0|0:0|0:0,0:0:0:0:
175,278,110320,1,2,0:0:0:0:
175,278,110515,6,0,B|172:136,1,115,2|8,3:2|0:0,0:0:0:0:
139,55,111294,2,0,P|131:21|124:-13,2,57.5,0|0|8,3:0|3:0|0:0,0:0:0:0:
243,103,112073,1,2,3:1:0:0:
316,14,112463,1,10,0:0:0:0:
358,134,112852,2,0,P|366:168|373:202,2,57.5,2|0|10,3:1|3:0|0:0,0:0:0:0:
316,14,113632,6,0,B|373:23|373:23|450:4,1,115,6|8,3:1|0:0,0:0:0:0:
477,112,114411,2,0,B|420:103|420:103|343:122,1,115,2|8,0:0|0:0,0:0:0:0:
338,168,114995,2,0,P|269:212|196:173,1,172.5,2|8,0:0|0:0,0:0:0:0:
180,59,115969,2,0,P|190:32|203:6,2,57.5,2|2|12,0:0|0:0|0:0,0:0:0:0:
144,105,116554,1,2,0:0:0:0:
144,105,116748,6,0,B|85:116|85:116|16:92,1,115,2|8,3:2|0:0,0:0:0:0:
22,212,117528,2,0,P|11:238|-1:264,2,57.5,0|0|8,3:0|3:0|0:0,0:0:0:0:
117,147,118307,1,2,3:1:0:0:
149,257,118696,1,10,0:0:0:0:
230,175,119086,2,0,P|242:149|253:122,2,57.5,2|0|10,3:1|3:0|0:0,0:0:0:0:
242,289,119865,6,0,P|296:311|366:322,1,115,6|8,3:1|0:0,0:0:0:0:
438,245,120645,2,0,P|384:223|314:212,1,115,2|8,0:0|0:0,0:0:0:0:
297,164,121229,2,0,B|323:112|323:112|317:51,1,115,2|0,0:0|0:0,0:0:0:0:
280,11,121813,1,8,0:0:0:0:
166,29,122203,2,0,L|91:20,2,57.5,2|2|12,0:0|0:0|0:0,0:0:0:0:
201,81,122787,1,2,0:0:0:0:
201,81,122982,6,0,B|175:133|175:133|181:194,1,115,2|8,3:2|0:0,0:0:0:0:
256,279,123761,2,0,P|289:286|331:288,2,57.5,0|0|8,3:0|3:0|0:0,0:0:0:0:
181,190,124541,1,2,3:1:0:0:
145,298,124930,1,10,0:0:0:0:
55,225,125320,2,0,P|22:218|-20:216,2,57.5,2|0|10,3:1|3:0|0:0,0:0:0:0:
145,298,126099,6,0,P|167:257|182:186,1,115,6|8,3:1|0:0,0:0:0:0:
295,170,126878,2,0,P|273:211|258:282,1,115,2|8,0:0|0:0,0:0:0:0:
269,334,127463,2,0,B|322:355|322:355|386:346,1,115,2|0,0:0|0:0,0:0:0:0:
433,327,128047,1,8,0:0:0:0:
458,214,128437,2,0,L|462:156,2,57.5,2|2|12,0:0|0:0|0:0,0:0:0:0:
496,264,129021,1,2,0:0:0:0:
496,264,129216,6,0,B|443:243|443:243|379:252,1,115,2|8,3:2|0:0,0:0:0:0:
273,276,129995,2,0,L|268:333,2,57.5,0|0|8,3:0|3:0|0:0,0:0:0:0:
220,173,130774,1,2,3:1:0:0:
161,272,131164,1,10,0:0:0:0:
54,227,131554,2,0,P|50:196|49:169,1,57.5,2|0,3:1|3:0,0:0:0:0:
5,134,131943,1,10,0:0:0:0:
109,84,132333,6,0,P|108:55|104:26,2,57.5,2|8|0,3:1|0:0|3:0,0:0:0:0:
165,95,132917,2,0,B|221:79|221:79|289:92,1,115,2|8,3:2|0:0,0:0:0:0:
355,173,133696,1,8,0:0:0:0:
355,173,133891,2,0,P|386:167|415:159,1,57.5,0|8,3:0|0:0,0:0:0:0:
460,190,134281,2,0,P|454:221|446:250,1,57.5,8|8,0:0|0:0,0:0:0:0:
459,302,134670,1,8,3:1:0:0:
352,346,135060,2,0,P|323:340|295:333,1,57.5,8|8,0:0|0:0,0:0:0:0:
257,290,135450,6,0,L|269:223,2,57.5,0|0|8,1:0|1:0|1:2,0:0:0:0:
209,322,136034,2,0,B|125:335|125:335|34:299,1,172.5,2|8,1:2|0:0,0:0:0:0:
108,207,137008,2,0,L|191:220,2,57.5,0|2|8,1:0|1:2|0:0,0:0:0:0:
88,93,137787,2,0,L|31:84,2,57.5,0|2|8,1:0|1:2|0:0,0:0:0:0:
201,72,138567,6,0,P|198:103|192:128,2,57.5,0|0|10,1:0|1:0|1:2,0:0:0:0:
247,38,139151,2,0,P|324:64|420:42,1,172.5,2|8,1:2|0:0,0:0:0:0:
484,135,140125,2,0,L|479:203,2,57.5,0|2|8,1:0|1:2|0:0,0:0:0:0:
370,156,140904,2,0,L|365:224,1,57.5,0|0,1:0|1:0,0:0:0:0:
328,259,141294,1,8,0:0:0:0:
271,359,141683,6,0,P|310:379|336:383,2,57.5,0|0|8,1:0|1:0|1:2,0:0:0:0:
232,315,142268,2,0,L|46:333,1,172.5,2|8,1:2|0:0,0:0:0:0:
52,216,143242,2,0,P|13:196|-13:192,2,57.5,0|2|8,1:0|1:2|0:0,0:0:0:0:
163,186,144021,2,0,P|202:206|228:210,2,57.5,0|2|8,1:0|1:2|0:0,0:0:0:0:
95,92,144800,6,0,L|90:21,2,57.5,0|0|10,1:0|1:0|1:2,0:0:0:0:
55,134,145385,2,0,P|29:221|99:269,1,172.5,2|8,1:2|0:0,0:0:0:0:
199,263,146359,2,0,P|210:229|217:195,1,57.5,0|2,1:0|1:2,0:0:0:0:
217,150,146748,1,8,0:0:0:0:
328,178,147138,2,0,P|317:212|310:246,1,57.5,0|8,1:0|1:0,0:0:0:0:
343,282,147528,2,0,P|377:293|411:300,1,57.5,0|0,1:0|3:0,0:0:0:0:
452,316,147917,6,0,P|476:264|491:192,1,115,4|10,1:0|0:2,0:0:0:0:
462,169,148502,1,0,1:0:0:0:
462,169,148696,2,0,L|472:110,2,57.5,2|0|10,3:2|3:0|0:0,0:0:0:0:
358,117,149476,2,0,B|306:96|306:96|238:107,1,115,2|10,3:2|1:2,0:0:0:0:
199,84,150060,1,0,0:0:0:0:
199,84,150255,2,0,B|208:142|208:142|187:194,1,115,2|10,3:2|1:2,0:0:0:0:
108,278,151034,5,0,1:0:0:0:
39,185,151424,2,0,L|46:118,1,57.5,10|2,0:0|1:2,0:0:0:0:
21,75,151813,2,0,L|28:8,2,57.5,0|2|10,3:0|3:2|0:0,0:0:0:0:
136,83,152593,2,0,L|210:86,1,57.5,0|2,3:0|0:0,0:0:0:0:
240,52,152982,1,10,1:2:0:0:
338,112,153372,2,0,P|370:111|398:104,2,57.5,0|0|8,1:0|1:0|1:2,0:0:0:0:
254,191,154151,5,0,1:0:0:0:
357,241,154541,2,0,L|363:299,1,57.5,10|0,0:2|1:0,0:0:0:0:
396,345,154930,2,0,P|455:355|504:316,1,115,2|10,3:2|0:0,0:0:0:0:
508,271,155515,1,0,0:0:0:0:
508,271,155709,1,2,3:2:0:0:
450,171,156099,1,10,1:2:0:0:
357,241,156489,2,0,P|329:245|299:247,2,57.5,2|0|10,3:2|3:0|1:2,0:0:0:0:
450,171,157268,6,0,P|453:125|415:57,1,115,4|10,1:2|0:0,0:0:0:0:
371,38,157852,2,0,B|308:27|308:27|246:51,1,115,2|2,1:2|1:2,0:0:0:0:
149,35,158632,1,2,1:2:0:0:
149,35,158826,2,0,L|158:111,1,57.5,0|2,3:0|0:0,0:0:0:0:
116,134,159216,1,10,0:2:0:0:
116,134,159411,2,0,P|115:190|142:240,1,115,2|2,1:2|1:2,0:0:0:0:
184,266,159995,1,14,0:2:0:0:
133,369,160385,5,4,3:0:0:0:
15,242,160969,2,0,B|21:183|21:183|-3:113,2,115,8|0|0,0:0|3:0|1:0,0:0:0:0:
41,293,161943,1,4,3:0:0:0:
212,273,162528,2,0,B|206:332|206:332|230:402,2,115,8|0|0,0:0|3:0|1:0,0:0:0:0:
186,222,163502,1,4,3:0:0:0:
357,208,164086,2,0,B|363:149|363:149|339:79,1,115,8|0,0:0|3:0,0:0:0:0:
239,64,164865,1,0,1:0:0:0:
239,64,165060,2,0,L|231:2,2,57.5,4|0|2,3:0|0:0|3:2,0:0:0:0:
178,164,165839,2,0,L|185:221,1,57.5,2|0,0:0|3:0,0:0:0:0:
239,241,166229,2,0,L|246:298,1,57.5,2|0,0:0|1:0,0:0:0:0:
214,346,166619,5,4,3:0:0:0:
41,349,167203,2,0,P|32:299|86:257,1,115,8|2,0:0|3:2,0:0:0:0:
130,276,167787,1,0,0:0:0:0:
239,241,168177,2,0,L|301:233,2,57.5,4|2|0,3:0|1:2|3:0,0:0:0:0:
176,144,168956,2,0,L|118:151,2,57.5,2|0|2,0:0|3:0|0:0,0:0:0:0:
211,99,169541,1,8,1:2:0:0:
211,99,169735,5,4,3:0:0:0:
299,25,170125,1,4,3:0:0:0:
411,49,170515,1,4,3:0:0:0:
485,143,170904,1,4,3:0:0:0:
485,143,171099,2,0,B|475:197|475:197|500:270,1,115,2|10,0:0|0:0,0:0:0:0:
472,306,171683,2,0,P|443:322|413:332,1,57.5,10|0,0:0|3:0,0:0:0:0:
375,292,172073,2,0,P|348:301|323:316,1,57.5,12|8,0:0|0:0,0:0:0:0:
291,364,172463,1,8,1:2:0:0:
179,335,172852,6,0,B|122:323|122:323|49:340,1,115,6|8,3:1|0:0,0:0:0:0:
104,226,173632,2,0,B|161:238|161:238|234:221,1,115,2|8,0:0|0:0,0:0:0:0:
266,197,174216,2,0,P|305:134|250:54,1,172.5,2|8,0:0|0:0,0:0:0:0:
150,17,175190,2,0,L|78:10,2,57.5,2|2|12,0:0|0:0|0:0,0:0:0:0:
171,76,175774,1,2,0:0:0:0:
171,76,175969,6,0,B|159:133|159:133|176:206,1,115,2|8,3:2|0:0,0:0:0:0:
255,267,176748,2,0,L|327:274,2,57.5,0|0|8,3:0|3:0|0:0,0:0:0:0:
163,337,177528,1,2,3:1:0:0:
49,320,177917,1,10,0:0:0:0:
21,208,178307,2,0,L|26:150,1,57.5,2|0,3:1|3:0,0:0:0:0:
57,102,178696,1,10,0:0:0:0:
171,76,179086,6,0,P|211:70|291:91,1,115,6|8,3:1|0:0,0:0:0:0:
340,186,179865,2,0,P|300:192|220:171,1,115,2|8,0:0|0:0,0:0:0:0:
171,188,180450,2,0,P|185:249|160:372,1,172.5,2|8,0:0|0:0,0:0:0:0:
281,342,181424,2,0,L|282:283,2,57.5,2|2|12,0:0|0:0|0:0,0:0:0:0:
336,371,182008,1,2,0:0:0:0:
336,371,182203,6,0,B|391:356|391:356|462:376,1,115,2|8,3:2|0:0,0:0:0:0:
506,273,182982,2,0,L|504:215,2,57.5,0|0|8,3:0|3:0|0:0,0:0:0:0:
393,249,183761,1,2,3:1:0:0:
346,143,184151,1,10,0:0:0:0:
370,30,184541,2,0,P|331:20|303:20,1,57.5,2|0,3:1|3:0,0:0:0:0:
264,49,184930,1,10,0:0:0:0:
199,144,185320,6,0,P|164:138|104:76,1,115,6|8,3:1|0:0,0:0:0:0:
43,181,186099,2,0,P|78:187|138:249,1,115,2|8,0:0|0:0,0:0:0:0:
167,286,186683,2,0,L|302:278,1,115,2|0,0:0|0:0,0:0:0:0:
330,310,187268,1,8,0:0:0:0:
408,225,187658,2,0,L|476:220,2,57.5,2|2|12,0:0|0:0|0:0,0:0:0:0:
354,204,188242,1,2,0:0:0:0:
354,204,188437,6,0,B|336:145|336:145|354:86,1,115,2|8,3:2|0:0,0:0:0:0:
266,16,189216,2,0,L|197:11,2,57.5,0|0|8,3:0|3:0|0:0,0:0:0:0:
223,122,189995,1,2,3:1:0:0:
252,233,190385,1,10,0:0:0:0:
208,341,190774,1,2,3:1:0:0:
208,341,190969,2,0,L|139:336,1,57.5,0|10,3:0|0:0,0:0:0:0:
49,281,191554,6,0,P|28:226|58:157,1,115,6|8,3:1|0:0,0:0:0:0:
155,150,192333,2,0,P|170:95|149:42,1,115,2|8,0:0|0:0,0:0:0:0:
108,2,192917,2,0,B|69:20|69:20|49:96,1,115,2|0,0:0|0:0,0:0:0:0:
3,122,193502,1,8,0:0:0:0:
59,224,193891,2,0,L|48:285,2,57.5,2|2|12,0:0|0:0|0:0,0:0:0:0:
108,205,194476,1,2,0:0:0:0:
108,205,194670,6,0,B|147:223|147:223|167:299,1,115,2|8,3:2|0:0,0:0:0:0:
274,328,195450,2,0,L|284:271,2,57.5,0|0|8,3:0|3:0|0:0,0:0:0:0:
376,381,196229,1,2,3:1:0:0:
435,282,196619,1,10,0:0:0:0:
391,175,197008,2,0,L|401:118,1,57.5,2|0,3:1|3:0,0:0:0:0:
370,69,197398,1,10,0:0:0:0:
255,70,197787,6,0,P|223:39|205:17,2,57.5,2|8|0,3:1|0:0|3:0,0:0:0:0:
255,127,198372,1,2,3:2:0:0:
223,237,198761,1,8,0:0:0:0:
112,252,199151,1,8,0:0:0:0:
112,252,199346,6,0,P|81:251|39:244,1,57.5,2|8,3:1|0:0,0:0:0:0:
33,193,199735,1,10,0:0:0:0:
92,94,200125,2,0,P|120:94|149:98,1,57.5,10|8,3:1|0:0,0:0:0:0:
197,131,200515,2,0,P|225:130|254:126,1,57.5,10|8,0:0|0:0,0:0:0:0:
305,163,200904,6,0,B|314:191|314:191|315:226,2,57.5,4|2|0,3:0|3:1|3:0,0:0:0:0:
335,107,201489,2,0,B|344:79|344:79|345:44,2,57.5,12|2|8,0:0|3:2|3:1,0:0:0:0:
397,216,202268,2,0,P|447:220|529:216,1,115,4|0,0:3|3:0,0:0:0:0:
510,154,202852,1,8,0:0:0:0:
444,45,203242,1,12,0:0:0:0:
335,107,203632,1,8,0:0:0:0:
207,163,204021,6,0,B|198:191|198:191|197:226,2,57.5,4|2|0,3:0|3:1|3:0,0:0:0:0:
177,107,204606,2,0,B|168:79|168:79|167:44,2,57.5,12|2|8,0:0|3:2|3:1,0:0:0:0:
115,216,205385,2,0,P|65:220|-17:216,1,115,4|0,0:3|3:0,0:0:0:0:
2,154,205969,2,0,L|8:96,1,57.5,8|0,0:0|3:0,0:0:0:0:
59,59,206359,1,12,0:0:0:0:
177,107,206749,1,8,0:0:0:0:
115,216,207138,6,0,L|125:285,1,57.5,4|2,3:0|3:1,0:0:0:0:
171,313,207528,1,2,3:1:0:0:
255,219,207917,2,0,B|275:191|275:191|356:169,1,115,2|0,3:1|3:0,0:0:0:0:
397,216,208502,2,0,L|387:285,1,57.5,4|0,0:3|0:0,0:0:0:0:
341,313,208892,1,0,3:0:0:0:
341,313,209086,1,8,0:0:0:0:
255,219,209476,1,12,0:0:0:0:
171,313,209865,1,8,0:0:0:0:
113,200,210255,6,0,P|90:185|56:167,1,57.5,4|2,3:0|3:1,0:0:0:0:
0,165,210645,1,0,3:0:0:0:
40,45,211034,2,0,P|63:60|97:78,1,57.5,2|8,3:2|3:1,0:0:0:0:
147,111,211424,1,0,3:0:0:0:
147,111,211619,2,0,P|178:63|190:7,1,115,12|2,0:3|3:1,0:0:0:0:
321,7,212398,1,10,3:1:0:0:
321,7,212593,2,0,P|329:44|349:75,1,57.5,12|2,0:0|3:1,0:0:0:0:
369,116,212982,2,0,P|405:107|436:87,1,57.5,8|0,0:0|3:0,0:0:0:0:
477,131,213372,6,0,L|498:194,1,57.5,12|2,3:0|3:1,0:0:0:0:
491,252,213761,1,0,3:0:0:0:
491,252,213956,2,0,L|507:306,2,57.5,12|2|8,0:0|3:2|3:1,0:0:0:0:
370,216,214735,2,0,P|310:226|248:230,1,115,4|0,0:3|3:0,0:0:0:0:
226,285,215320,1,8,0:0:0:0:
157,178,215709,2,0,P|145:121|145:64,1,115,12|8,0:0|0:0,0:0:0:0:
35,131,216489,6,0,L|14:194,1,57.5,4|2,3:0|3:1,0:0:0:0:
21,252,216878,1,0,3:0:0:0:
21,252,217073,2,0,L|4:306,2,57.5,12|2|8,0:0|3:2|3:1,0:0:0:0:
142,216,217852,2,0,P|202:226|264:230,1,115,4|2,0:3|3:1,0:0:0:0:
375,181,218632,1,2,3:1:0:0:
375,181,218826,2,0,P|381:147|381:112,1,57.5,12|2,0:0|3:1,0:0:0:0:
367,62,219216,1,10,0:0:0:0:
493,50,219606,6,0,B|469:102|469:102|486:174,1,115,4|8,3:1|0:0,0:0:0:0:
495,220,220190,2,0,P|462:267|408:312,1,115,0|0,3:0|0:0,0:0:0:0:
361,324,220774,1,8,0:0:0:0:
361,324,220969,2,0,L|244:309,1,115,2|0,0:0|0:0,0:0:0:0:
125,275,221748,1,0,3:0:0:0:
212,183,222138,1,0,0:0:0:0:
212,183,222333,2,0,L|205:115,1,57.5,10|0,0:0|0:0,0:0:0:0:
167,75,222722,6,0,P|181:48|200:23,2,57.5,2|0|8,3:1|0:0|0:0,0:0:0:0:
110,103,223307,2,0,P|76:92|39:74,2,57.5,2|2|2,3:1|0:0|0:0,0:0:0:0:
212,183,224086,2,0,L|344:173,1,115,2|0,0:0|3:0,0:0:0:0:
369,127,224670,2,0,P|416:133|471:195,1,115,10|2,0:0|0:0,0:0:0:0:
484,243,225255,1,2,0:2:0:0:
484,243,225450,2,0,L|466:312,1,57.5,10|2,0:0|0:2,0:0:0:0:
417,334,225839,5,4,3:1:0:0:
306,283,226229,1,8,0:0:0:0:
306,283,226424,2,0,L|191:291,1,115,0|2,3:0|0:2,0:0:0:0:
144,334,227008,1,8,0:0:0:0:
63,236,227398,2,0,L|56:160,1,57.5,2|0,3:2|0:0,0:0:0:0:
117,158,227787,2,0,L|110:82,1,57.5,8|2,0:0|3:0,0:0:0:0:
168,71,228177,2,0,L|161:-5,2,57.5,2|0|8,0:2|0:0|0:0,0:0:0:0:
220,186,228956,5,4,3:0:0:0:
333,130,229346,1,4,3:0:0:0:
444,200,229735,1,4,3:0:0:0:
444,200,229930,2,0,P|476:138|482:74,1,115,2|2,0:2|0:2,0:0:0:0:
387,18,230709,5,8,0:0:0:0:
387,18,230904,1,8,0:0:0:0:
333,130,231294,2,0,L|341:191,1,57.5,8|8,0:0|0:0,0:0:0:0:
399,210,231683,2,0,P|396:238|391:271,1,57.5,8|8,0:0|0:0,0:0:0:0:
353,317,232073,5,4,0:0:0:0:
86,198,244541,6,0,P|114:203|143:207,2,57.5,2|0|0,3:2|0:0|0:0,0:0:0:0:
68,149,245125,1,2,0:1:0:0:
334,41,246099,2,0,P|316:64|298:85,2,57.5,0|0|0,3:0|0:0|0:0,0:0:0:0:
386,50,246683,1,2,0:1:0:0:
346,334,247658,2,0,P|335:308|326:281,2,57.5,0|0|0,3:0|0:0|0:0,0:0:0:0:
312,375,248242,1,2,0:1:0:0:
210,253,249216,1,2,3:2:0:0:
193,146,249606,1,0,0:0:0:0:
300,129,249995,1,6,3:2:0:0:
317,236,250385,1,0,0:0:0:0:
412,172,250774,6,0,P|441:175|469:180,2,57.5,2|0|0,3:2|0:0|0:0,0:0:0:0:
354,174,251358,1,2,0:1:0:0:
160,66,252333,2,0,P|148:40|139:13,2,57.5,0|0|0,3:0|0:0|0:0,0:0:0:0:
191,116,252917,1,2,0:1:0:0:
195,337,253891,2,0,P|178:360|159:382,2,57.5,0|0|0,3:0|0:0|0:0,0:0:0:0:
222,285,254475,1,2,0:1:0:0:
300,129,255450,1,2,3:1:0:0:
317,236,255840,1,2,0:0:0:0:
210,253,256229,1,2,3:1:0:0:
193,146,256619,1,2,0:0:0:0:
300,129,257008,6,0,P|330:125|365:126,1,57.5,6|8,3:2|0:0,0:0:0:0:
411,157,257398,1,0,3:0:0:0:
411,157,257593,1,0,3:0:0:0:
472,254,257982,1,8,0:0:0:0:
415,356,258372,1,8,0:0:0:0:
415,356,258567,6,0,P|385:360|350:359,1,57.5,6|0,3:2|3:0,0:0:0:0:
311,324,258957,1,10,0:0:0:0:
208,273,259346,2,0,L|150:276,2,57.5,2|8|2,3:2|0:0|3:2,0:0:0:0:
304,209,260125,6,0,P|321:172|328:144,1,57.5,6|8,3:2|0:0,0:0:0:0:
318,103,260515,1,0,3:0:0:0:
318,103,260709,1,0,3:0:0:0:
207,72,261099,1,8,0:0:0:0:
161,179,261489,1,8,0:0:0:0:
161,179,261683,6,0,P|144:216|137:244,1,57.5,6|0,3:2|3:0,0:0:0:0:
147,285,262073,1,10,0:0:0:0:
254,326,262463,2,0,P|245:353|232:379,2,57.5,2|8|2,3:2|0:0|3:2,0:0:0:0:
147,285,263242,6,0,P|117:280|79:269,1,57.5,6|8,3:2|0:0,0:0:0:0:
58,232,263632,1,0,3:0:0:0:
58,232,263826,1,0,3:0:0:0:
47,116,264216,1,8,0:0:0:0:
129,35,264606,1,8,0:0:0:0:
129,35,264800,6,0,P|159:40|197:51,1,57.5,6|8,3:2|0:0,0:0:0:0:
229,84,265190,1,10,0:0:0:0:
299,175,265580,2,0,L|370:164,1,57.5,10|8,3:2|0:0,0:0:0:0:
378,113,265969,2,0,P|410:115|449:124,1,57.5,10|8,0:0|0:0,0:0:0:0:
482,162,266359,5,12,1:3:0:0:
482,162,266554,2,0,P|487:240|446:283,1,115,2|0,3:1|3:0,0:0:0:0:
417,291,267138,1,4,3:0:0:0:
417,291,267333,1,2,3:1:0:0:
307,325,267722,2,0,L|301:388,2,57.5,0|6|2,3:1|3:0|3:1,0:0:0:0:
216,253,268502,2,0,L|221:195,1,57.5,2|6,3:1|3:0,0:0:0:0:
194,145,268891,1,2,3:0:0:0:
194,145,269086,2,0,L|199:87,1,57.5,8|2,0:0|3:1,0:0:0:0:
154,51,269476,5,4,1:3:0:0:
154,51,269670,2,0,B|98:31|98:31|24:47,1,115,2|0,3:1|3:0,0:0:0:0:
7,88,270255,1,4,3:0:0:0:
7,88,270450,1,2,3:1:0:0:
56,191,270839,2,0,L|123:197,2,57.5,0|6|2,3:1|3:0|3:1,0:0:0:0:
58,306,271619,2,0,L|0:300,2,57.5,2|6|6,3:1|3:0|3:0,0:0:0:0:
96,348,272203,2,0,L|153:353,1,57.5,8|2,0:0|3:1,0:0:0:0:
210,334,272593,5,12,1:3:0:0:
210,334,272787,2,0,P|224:278|208:219,1,115,2|0,3:1|3:0,0:0:0:0:
195,172,273372,1,4,3:0:0:0:
195,172,273567,1,2,3:1:0:0:
301,127,273956,2,0,L|326:196,2,57.5,0|6|2,3:1|3:0|3:1,0:0:0:0:
389,53,274735,2,0,L|364:-16,2,57.5,2|6|2,3:1|3:0|3:0,0:0:0:0:
494,100,275515,6,0,L|512:154,1,57.5,2|4,3:1|1:3,0:0:0:0:
495,209,275904,2,0,P|456:233|385:229,1,115,2|0,3:1|3:0,0:0:0:0:
346,199,276489,1,4,3:0:0:0:
346,199,276683,1,2,3:1:0:0:
236,234,277073,2,0,L|254:288,1,57.5,0|6,3:1|3:0,0:0:0:0:
230,342,277463,1,2,3:1:0:0:
230,342,277658,1,8,0:0:0:0:
119,312,278047,2,0,L|100:257,1,57.5,2|2,3:1|3:1,0:0:0:0:
58,217,278437,2,0,P|62:174|72:142,1,57.5,8|10,3:1|0:0,0:0:0:0:
93,109,278826,5,12,1:3:0:0:
93,109,279021,2,0,P|141:99|203:151,1,115,0|0,3:1|3:0,0:0:0:0:
245,170,279606,1,4,3:0:0:0:
245,170,279801,2,0,B|287:128|287:128|299:60,1,115,2|2,3:1|3:1,0:0:0:0:
286,21,280385,1,4,3:0:0:0:
286,21,280580,1,2,3:1:0:0:
400,17,280969,2,0,L|414:91,1,57.5,2|6,3:1|3:0,0:0:0:0:
381,123,281359,1,2,3:0:0:0:
483,175,281748,6,0,L|469:249,1,57.5,0|4,0:0|1:3,0:0:0:0:
508,276,282138,2,0,P|486:324|415:337,1,115,0|0,3:1|3:0,0:0:0:0:
386,312,282722,1,4,3:0:0:0:
386,312,282917,2,0,B|344:270|344:270|276:258,1,115,2|2,3:1|3:1,0:0:0:0:
239,286,283502,1,6,3:0:0:0:
239,286,283696,1,2,3:1:0:0:
131,327,284086,2,0,L|122:400,2,57.5,2|6|6,3:1|3:0|3:0,0:0:0:0:
99,278,284670,2,0,L|106:220,1,57.5,8|2,0:0|3:1,0:0:0:0:
146,179,285060,5,12,1:3:0:0:
146,179,285255,2,0,P|129:131|68:105,1,115,0|0,3:1|3:0,0:0:0:0:
21,121,285839,1,4,3:0:0:0:
21,121,286034,2,0,B|-10:170|-10:170|2:243,1,115,0|2,3:1|3:1,0:0:0:0:
32,267,286619,1,6,3:0:0:0:
32,267,286813,1,2,3:1:0:0:
131,327,287203,2,0,L|194:317,1,57.5,2|6,3:1|3:0,0:0:0:0:
226,274,287593,1,2,3:0:0:0:
340,274,287982,6,0,P|351:246|356:213,2,57.5,2|4|2,3:1|1:3|3:1,0:0:0:0:
271,181,288761,2,0,P|276:152|286:126,1,57.5,2|0,0:0|3:0,0:0:0:0:
347,117,289151,1,10,0:0:0:0:
347,117,289346,2,0,P|357:90|362:62,1,57.5,8|10,0:0|0:0,0:0:0:0:
342,8,289735,2,0,L|396:23,2,57.5,12|10|8,3:1|3:1|0:0,0:0:0:0:
239,60,290515,2,0,L|184:44,1,57.5,0|10,3:0|0:1,0:0:0:0:
148,90,290904,2,0,L|93:74,1,57.5,8|10,0:0|0:0,0:0:0:0:
43,104,291294,5,4,0:0:0:0:
256,192,291391,12,6,295969,0:0:0:0:
