osu file format v14

[General]
AudioFilename: audio.mp3
AudioLeadIn: 0
PreviewTime: 20125
Countdown: 0
SampleSet: Normal
StackLeniency: 0.8
Mode: 0
LetterboxInBreaks: 0
WidescreenStoryboard: 1

[Editor]
Bookmarks: 7658,19833,20125,32593,45060,57528,69995,82463,94930,107398,135450,160385,172852,200904,225839,232073,244541,257008,266359,291294
DistanceSpacing: 1.5
BeatDivisor: 4
GridSize: 8
TimelineZoom: 2.6

[Metadata]
Title:Fuyuukan UFO
TitleUnicode:浮遊感UFO
Artist:Tsukino Mito
ArtistUnicode:月ノ美兎
Creator:Renumi
Version:Extra
Source:
Tags:indie japanese j-pop dream pop shoegaze NARASAKI vtuber 月の兎はヴァーチュアルの夢をみる Moon Rabbits Dream About Virtual VVLC-1790 2021
BeatmapID:4553212
BeatmapSetID:2159510

[Difficulty]
HPDrainRate:6
CircleSize:4
OverallDifficulty:8.6
ApproachRate:9
SliderMultiplier:1.4
SliderTickRate:1

[Events]
//Background and Video events
0,0,"bg.jpg",0,0
//Break Periods
2,232273,243941
//Storyboard Layer 0 (Background)
//Storyboard Layer 1 (Fail)
//Storyboard Layer 2 (Pass)
//Storyboard Layer 3 (Foreground)
//Storyboard Layer 4 (Overlay)
//Storyboard Sound Samples

[TimingPoints]
6879,389.61038961039,4,1,1,70,1,0
7658,389.61038961039,4,1,1,70,1,0
20125,-83.3333333333333,4,1,2,90,0,1
32593,-83.3333333333333,4,2,1,80,0,0
32982,-100,4,2,1,75,0,0
57528,-83.3333333333333,4,1,2,90,0,1
63761,-83.3333333333333,4,1,3,90,0,1
63956,-83.3333333333333,4,1,2,90,0,1
69995,-83.3333333333333,4,2,1,80,0,0
70385,-100,4,2,1,75,0,0
94930,-125,4,2,3,70,0,0
104281,-125,4,2,3,75,0,0
107398,-83.3333333333333,4,1,1,80,0,0
135450,-100,4,2,1,80,0,0
135839,-100,4,2,1,60,0,0
147917,-100,4,2,1,75,0,0
160385,-125,4,2,3,70,0,0
169735,-83.3333333333333,4,2,3,75,0,0
171489,-83.3333333333333,4,1,1,75,0,0
172852,-83.3333333333333,4,1,1,80,0,0
200904,-83.3333333333333,4,1,2,100,0,1
202268,-83.3333333333333,4,1,3,100,0,1
202463,-83.3333333333333,4,1,2,100,0,1
205385,-83.3333333333333,4,1,3,100,0,1
205580,-83.3333333333333,4,1,2,100,0,1
208502,-83.3333333333333,4,1,3,100,0,1
208696,-83.3333333333333,4,1,2,100,0,1
214735,-83.3333333333333,4,1,3,100,0,1
214930,-83.3333333333333,4,1,2,100,0,1
219606,-83.3333333333333,4,1,1,90,0,1
228956,-83.3333333333333,4,1,3,90,0,1
230515,-83.3333333333333,4,1,1,90,0,1
232073,-83.3333333333333,4,2,1,90,0,0
244541,-125,4,2,1,70,0,0
257008,-100,4,2,1,80,0,0
266359,-83.3333333333333,4,1,2,90,0,1
278826,-83.3333333333333,4,1,2,100,0,1
291294,-285.714285714286,4,2,1,90,0,0
292852,-285.714285714286,4,2,1,70,0,0
294411,-285.714285714286,4,2,1,50,0,0
295969,-285.714285714286,4,2,1,30,0,0

[Colours]
Combo1 : 79,151,240
Combo2 : 173,255,95
Combo3 : 255,88,100
Combo4 : 255,94,55

[HitObjects]
37,187,6879,5,0,1:0:0:0:
69,173,6976,1,0,1:0:0:0:
103,179,7074,1,0,1:0:0:0:
120,209,7171,1,0,1:0:0:0:
148,230,7269,1,8,0:0:0:0:
182,231,7366,1,8,0:0:0:0:
213,215,7463,1,0,1:0:0:0:
243,141,7658,6,0,P|244:104|253:57,1,70,2|0,3:0|0:0,0:0:0:0:
376,169,8047,2,0,P|375:206|366:253,1,70,8|0,0:0|3:0,0:0:0:0:
233,186,8437,2,0,P|234:149|243:102,1,70,2|0,0:3|0:0,0:0:0:0:
396,208,8826,2,0,P|395:245|386:292,1,70,8|0,0:0|3:0,0:0:0:0:
198,275,9216,6,0,P|146:275|106:265,1,70,2|8,0:3|0:3,0:0:0:0:
173,134,9606,2,0,P|173:82|183:42,1,70,8|0,0:0|3:0,0:0:0:0:
314,109,9995,2,0,P|366:109|406:119,1,70,2|8,0:3|0:3,0:0:0:0:
338,249,10385,2,0,P|340:284|335:319,1,70,8|0,0:0|3:0,0:0:0:0:
405,195,10774,6,0,L|493:202,1,70,2|0,3:0|0:0,0:0:0:0:
337,39,11164,2,0,L|267:33,1,70,8|0,0:0|3:0,0:0:0:0:
372,170,11554,2,0,L|460:177,1,70,2|0,0:3|0:0,0:0:0:0:
304,14,11944,2,0,L|234:8,1,70,8|0,0:0|3:0,0:0:0:0:
172,133,12333,6,0,P|170:99|175:64,1,70,2|8,0:3|0:3,0:0:0:0:
313,109,12723,2,0,P|348:107|383:112,1,70,8|0,0:0|3:0,0:0:0:0:
338,249,13112,2,0,P|340:283|335:318,1,70,2|8,0:3|0:3,0:0:0:0:
198,274,13502,2,0,P|163:276|128:271,1,70,8|2,0:0|3:1,0:0:0:0:
18,155,13891,6,0,P|83:153|177:169,1,140,2|8,3:0|0:0,0:0:0:0:
260,231,14476,1,0,3:0:0:0:
260,231,14670,1,2,0:3:0:0:
259,133,14865,1,2,0:0:0:0:
163,271,15060,1,8,0:0:0:0:
330,285,15255,1,2,3:1:0:0:
361,138,15450,6,0,P|369:93|365:47,1,70,2|8,0:3|0:3,0:0:0:0:
151,246,15839,2,0,P|143:291|147:337,1,70,8|0,0:0|3:0,0:0:0:0:
361,138,16229,1,2,0:3:0:0:
146,119,16424,1,2,0:0:0:0:
309,260,16619,1,8,0:0:0:0:
261,51,16813,1,2,3:1:0:0:
177,250,17008,6,0,P|112:247|23:238,1,140,4|0,3:1|0:0,0:0:0:0:
257,170,17593,2,0,P|278:220|269:317,1,140,2|8,0:0|0:2,0:0:0:0:
80,136,18177,1,8,0:2:0:0:
162,56,18372,1,8,0:2:0:0:
159,337,18567,5,6,1:2:0:0:
359,212,18761,1,8,0:2:0:0:
266,107,18956,1,10,0:2:0:0:
266,107,19346,1,10,0:2:0:0:
240,136,19443,1,8,0:0:0:0:
235,174,19541,1,8,0:0:0:0:
241,211,19638,1,8,0:0:0:0:
257,245,19735,1,10,0:2:0:0:
251,283,19833,1,8,0:0:0:0:
230,315,19930,1,8,0:0:0:0:
193,328,20028,1,8,0:0:0:0:
148,317,20125,5,12,1:3:0:0:
85,186,20320,2,0,P|92:149|99:98,1,83.9999974365235,2|8,3:1|0:0,0:0:0:0:
372,170,20709,1,0,3:0:0:0:
164,233,20904,1,4,3:0:0:0:
290,31,21099,2,0,P|282:67|276:119,1,83.9999974365235,2|8,3:1|0:0,0:0:0:0:
343,308,21489,5,0,3:1:0:0:
397,88,21683,1,6,3:0:0:0:
477,234,21878,2,0,P|399:215|366:197,1,83.9999974365235,2|8,3:1|0:0,0:0:0:0:
184,78,22268,1,2,3:1:0:0:
238,298,22462,1,6,3:0:0:0:
317,152,22657,2,0,P|239:171|206:189,1,83.9999974365235,2|8,3:0|0:0,0:0:0:0:
41,297,23047,5,2,3:1:0:0:
72,96,23242,1,4,1:3:0:0:
188,270,23437,2,0,P|210:308|258:353,1,83.9999974365235,2|8,3:1|0:0,0:0:0:0:
428,312,23826,1,0,3:0:0:0:
324,91,24021,1,4,3:0:0:0:
479,182,24216,2,0,P|437:212|395:225,1,83.9999974365235,2|8,3:1|0:0,0:0:0:0:
130,148,24606,1,0,3:1:0:0:
130,148,24703,1,8,0:1:0:0:
130,148,24800,6,0,P|142:209|120:345,1,167.999994873047,6|8,3:0|0:0,0:0:0:0:
239,384,25385,1,2,3:1:0:0:
269,110,25580,1,6,3:0:0:0:
312,246,25774,1,6,3:0:0:0:
102,236,25969,1,8,0:0:0:0:
125,41,26164,1,2,3:1:0:0:
219,302,26359,5,12,1:3:0:0:
358,168,26554,2,0,L|464:183,1,83.9999974365235,2|8,3:1|0:0,0:0:0:0:
342,307,26943,1,0,3:0:0:0:
313,26,27138,1,4,3:0:0:0:
232,182,27333,2,0,P|192:193|145:196,1,83.9999974365235,2|8,3:1|0:0,0:0:0:0:
333,12,27722,5,0,3:1:0:0:
129,87,27917,1,6,3:0:0:0:
358,168,28112,2,0,P|364:210|369:279,1,83.9999974365235,2|8,3:1|0:0,0:0:0:0:
257,338,28502,1,2,3:1:0:0:
461,263,28697,1,6,3:0:0:0:
232,182,28892,2,0,P|225:139|221:71,1,83.9999974365235,2|8,3:0|0:0,0:0:0:0:
171,271,29281,5,2,3:1:0:0:
317,72,29476,1,4,1:3:0:0:
344,319,29670,2,0,P|385:346|432:364,1,83.9999974365235,2|8,3:1|0:0,0:0:0:0:
123,166,30060,1,0,3:0:0:0:
388,184,30255,1,4,3:0:0:0:
168,319,30450,2,0,P|127:346|80:364,1,83.9999974365235,2|8,3:1|0:0,0:0:0:0:
198,84,30839,5,0,3:1:0:0:
263,318,31034,1,6,3:0:0:0:
325,142,31229,2,0,P|335:81|338:30,1,83.9999974365235,2|8,3:1|0:0,0:0:0:0:
370,304,31619,5,2,0:0:0:0:
55,133,31813,2,0,L|69:198,1,41.9999987182618,4|8,3:0|0:0,0:0:0:0:
174,208,32008,2,0,L|167:261,1,41.9999987182618,2|8,3:1|0:0,0:0:0:0:
74,342,32203,2,0,L|126:365,1,41.9999987182618,8|8,3:1|0:0,0:0:0:0:
280,329,32398,2,0,L|241:312,1,41.9999987182618,10|2,0:0|0:3,0:0:0:0:
137,275,32593,6,0,P|127:206|199:148,1,167.999994873047,4|10,1:0|0:2,0:0:0:0:
294,208,33177,2,0,P|305:164|311:129,1,70,0|2,1:0|3:2,0:0:0:0:
258,43,33567,1,0,3:0:0:0:
391,85,33761,1,10,0:0:0:0:
344,4,33956,1,0,0:0:0:0:
309,139,34151,1,2,3:2:0:0:
309,139,34345,1,0,0:0:0:0:
382,210,34541,2,0,P|426:232|460:240,1,70,10|0,1:2|0:0,0:0:0:0:
290,244,34930,1,2,3:2:0:0:
290,244,35125,1,0,3:0:0:0:
309,139,35320,2,0,P|265:117|231:109,1,70,10|0,1:2|0:0,0:0:0:0:
148,192,35709,6,0,P|158:121|149:54,1,140,0|10,1:0|0:0,0:0:0:0:
57,155,36294,2,0,L|67:247,1,70,2|0,1:2|3:0,0:0:0:0:
205,297,36683,1,2,3:2:0:0:
39,317,36878,1,10,0:0:0:0:
146,237,37073,1,2,0:0:0:0:
109,359,37268,1,0,3:0:0:0:
109,359,37463,1,2,0:0:0:0:
231,349,37658,2,0,P|241:304|241:266,1,70,10|2,1:2|0:0,0:0:0:0:
255,149,38047,1,0,1:0:0:0:
344,204,38242,1,0,1:0:0:0:
347,100,38437,1,8,1:2:0:0:
258,45,38632,1,4,0:2:0:0:
347,100,38826,6,0,P|408:108|502:101,2,140,0|10|2,1:0|0:2|3:2,0:0:0:0:
264,48,39800,1,0,3:0:0:0:
347,100,39995,2,0,P|348:135|345:170,1,70,10|0,0:0|0:0,0:0:0:0:
257,221,40385,1,2,3:2:0:0:
257,221,40580,1,0,3:0:0:0:
165,99,40774,2,0,P|164:134|169:168,1,70,10|0,1:2|0:0,0:0:0:0:
121,260,41164,1,2,3:2:0:0:
121,260,41359,1,0,3:0:0:0:
221,307,41554,2,0,P|255:310|316:311,1,70,10|0,1:2|0:0,0:0:0:0:
290,311,41943,6,0,P|299:245|285:162,1,140,0|10,1:0|0:0,0:0:0:0:
292,63,42528,1,2,1:2:0:0:
436,171,42722,1,0,3:0:0:0:
446,66,42917,1,2,3:2:0:0:
370,109,43112,1,10,0:0:0:0:
512,128,43307,1,2,0:0:0:0:
397,261,43502,1,0,3:0:0:0:
321,207,43696,1,2,0:0:0:0:
236,238,43891,2,0,L|156:229,1,70,10|2,1:2|0:0,0:0:0:0:
14,115,44281,1,0,1:0:0:0:
78,275,44476,1,0,1:0:0:0:
117,95,44670,1,8,0:2:0:0:
11,223,44865,1,4,1:2:0:0:
211,162,45060,6,0,P|232:102|231:24,1,140,4|10,1:0|0:2,0:0:0:0:
231,26,45645,1,0,1:0:0:0:
325,103,45839,1,2,3:2:0:0:
339,204,46034,1,0,3:0:0:0:
440,190,46229,1,10,0:0:0:0:
426,89,46424,1,0,0:0:0:0:
339,204,46619,2,0,P|348:234|350:281,1,70,2|0,3:2|0:0,0:0:0:0:
173,180,47008,2,0,P|164:150|162:103,1,70,10|0,1:2|0:0,0:0:0:0:
317,243,47398,2,0,P|326:273|328:320,1,70,2|0,3:2|3:0,0:0:0:0:
151,219,47787,2,0,P|142:189|140:142,1,70,10|0,1:2|0:0,0:0:0:0:
250,43,48177,6,0,P|261:107|268:201,1,140,0|10,1:0|0:0,0:0:0:0:
216,282,48761,2,0,P|148:302|75:269,1,140,2|2,1:2|3:2,0:0:0:0:
58,146,49346,1,10,0:0:0:0:
3,222,49541,1,2,0:0:0:0:
124,213,49735,2,0,P|169:208|221:198,1,70,0|2,3:0|0:0,0:0:0:0:
294,56,50125,2,0,P|249:61|197:71,1,70,10|2,1:2|0:0,0:0:0:0:
419,178,50515,1,0,1:0:0:0:
266,167,50709,1,0,1:0:0:0:
330,90,50904,1,8,1:2:0:0:
326,265,51099,1,4,0:2:0:0:
419,178,51294,5,0,1:0:0:0:
427,186,51683,1,10,0:2:0:0:
427,186,51878,1,0,1:0:0:0:
427,186,52073,2,0,P|423:253|444:335,1,140,2|10,3:2|0:0,0:0:0:0:
357,384,52658,1,0,0:0:0:0:
226,271,52852,1,2,3:2:0:0:
226,271,53047,1,0,3:0:0:0:
251,369,53242,1,10,1:2:0:0:
284,197,53437,1,0,0:0:0:0:
120,230,53632,1,2,3:2:0:0:
120,230,53826,1,0,3:0:0:0:
210,293,54021,1,10,1:2:0:0:
202,128,54216,1,0,0:0:0:0:
379,135,54411,6,0,P|435:142|533:144,1,140,4|10,1:2|0:0,0:0:0:0:
369,35,54995,1,2,1:2:0:0:
210,218,55190,1,0,3:0:0:0:
315,247,55385,1,2,1:2:0:0:
311,130,55580,1,10,0:0:0:0:
207,91,55774,1,2,1:2:0:0:
110,205,55969,2,0,P|58:213|13:215,1,70,0|2,3:0|0:0,0:0:0:0:
67,100,56359,1,10,0:2:0:0:
208,217,56554,2,0,P|216:273|213:352,1,105,2|0,1:2|0:0,0:0:0:0:
194,349,56943,1,2,1:2:0:0:
327,284,57138,1,14,0:2:0:0:
328,318,57235,1,8,0:0:0:0:
329,353,57332,1,0,3:0:0:0:
452,384,57528,5,12,1:3:0:0:
367,171,57722,2,0,P|381:146|428:108,1,83.9999974365235,2|8,3:1|0:0,0:0:0:0:
389,305,58112,1,0,3:0:0:0:
133,191,58307,1,4,3:0:0:0:
263,261,58502,2,0,P|274:207|281:151,1,83.9999974365235,2|8,3:1|0:0,0:0:0:0:
65,295,58891,5,0,3:1:0:0:
65,295,58989,1,8,0:1:0:0:
65,295,59086,1,6,3:0:0:0:
82,134,59281,2,0,B|42:128|42:128|-16:141,1,83.9999974365235,2|8,3:1|0:0,0:0:0:0:
192,77,59670,1,2,3:1:0:0:
192,77,59768,1,2,0:3:0:0:
192,77,59865,1,6,3:0:0:0:
145,213,60060,2,0,B|186:220|186:220|227:209,1,83.9999974365235,2|8,3:0|0:0,0:0:0:0:
446,155,60450,5,2,3:1:0:0:
186,96,60645,1,4,1:3:0:0:
370,0,60839,2,0,L|380:100,1,83.9999974365235,2|8,3:1|0:0,0:0:0:0:
488,269,61229,1,0,3:0:0:0:
227,209,61424,1,4,3:0:0:0:
365,297,61619,2,0,P|384:222|384:186,1,83.9999974365235,2|8,3:1|0:0,0:0:0:0:
242,22,62008,5,0,3:1:0:0:
242,22,62106,1,8,0:1:0:0:
242,22,62203,1,6,3:0:0:0:
192,119,62398,2,0,L|108:114,1,83.9999974365235,2|8,3:1|0:0,0:0:0:0:
341,26,62787,1,2,3:1:0:0:
323,213,62982,1,6,3:0:0:0:
508,90,63177,1,6,3:0:0:0:
285,104,63372,1,12,0:0:0:0:
232,384,63567,1,2,3:1:0:0:
31,88,63761,5,12,1:3:0:0:
74,220,63956,2,0,P|116:222|193:204,1,83.9999974365235,2|8,3:1|0:0,0:0:0:0:
389,103,64346,1,0,3:0:0:0:
306,311,64541,1,4,3:0:0:0:
240,70,64735,2,0,P|244:139|254:189,1,83.9999974365235,2|8,3:1|0:0,0:0:0:0:
480,219,65125,5,0,3:1:0:0:
480,219,65222,1,8,0:1:0:0:
480,219,65320,1,6,3:0:0:0:
349,223,65515,2,0,P|375:177|389:135,1,83.9999974365235,2|8,3:1|0:0,0:0:0:0:
203,317,65904,1,2,3:1:0:0:
203,317,66002,1,2,0:3:0:0:
203,317,66099,1,6,3:0:0:0:
163,161,66294,2,0,P|137:207|123:249,1,83.9999974365235,2|8,3:0|0:0,0:0:0:0:
317,93,66683,5,2,3:1:0:0:
358,321,66878,1,4,1:3:0:0:
168,142,67073,2,0,P|113:130|61:117,1,83.9999974365235,2|8,3:1|0:0,0:0:0:0:
421,145,67463,1,0,3:0:0:0:
200,281,67658,1,4,3:0:0:0:
430,252,67852,2,0,P|485:240|537:227,1,83.9999974365235,2|8,3:1|0:0,0:0:0:0:
281,46,68242,5,0,3:1:0:0:
317,286,68437,1,6,3:0:0:0:
102,223,68632,2,0,B|86:263|86:263|93:342,1,83.9999974365235,2|8,3:1|0:0,0:0:0:0:
55,31,69021,5,2,0:0:0:0:
286,145,69216,2,0,L|296:197,1,41.9999987182618,4|8,3:0|0:0,0:0:0:0:
398,271,69411,2,0,L|390:229,1,41.9999987182618,2|8,3:1|0:0,0:0:0:0:
488,134,69606,1,8,3:1:0:0:
488,134,69703,1,8,0:0:0:0:
488,134,69800,2,0,L|446:141,1,41.9999987182618,10|2,0:0|0:3,0:0:0:0:
322,161,69995,6,0,P|296:236|354:323,1,167.999994873047,4|10,1:0|0:2,0:0:0:0:
213,332,70580,2,0,L|202:236,2,70,0|2|0,1:0|3:2|3:0,0:0:0:0:
113,342,71164,1,10,0:0:0:0:
88,219,71359,1,0,0:0:0:0:
9,303,71554,1,2,3:2:0:0:
9,303,71748,1,0,0:0:0:0:
88,219,71943,2,0,P|96:169|97:135,1,70,10|2,1:2|0:0,0:0:0:0:
234,141,72333,1,2,3:2:0:0:
234,141,72528,1,0,3:0:0:0:
159,77,72722,1,10,1:2:0:0:
96,149,72917,1,0,0:0:0:0:
301,210,73112,6,0,P|313:144|310:61,1,140,0|10,1:0|0:0,0:0:0:0:
423,28,73696,2,0,L|437:118,1,70,2|0,1:2|3:0,0:0:0:0:
410,253,74086,1,2,3:2:0:0:
493,163,74281,1,10,0:0:0:0:
387,167,74476,1,2,0:0:0:0:
507,266,74670,1,0,3:0:0:0:
507,266,74865,1,2,0:0:0:0:
406,338,75060,2,0,P|389:308|377:275,1,70,10|2,1:2|0:0,0:0:0:0:
273,369,75450,1,0,1:0:0:0:
268,227,75645,1,0,1:0:0:0:
126,232,75839,1,8,1:2:0:0:
131,374,76034,1,4,0:2:0:0:
200,298,76229,6,0,P|200:231|194:143,2,140,0|10|2,1:0|0:2|3:2,0:0:0:0:
127,364,77203,1,0,3:0:0:0:
69,297,77398,2,0,L|-17:302,1,70,10|0,0:0|0:0,0:0:0:0:
131,140,77787,1,2,3:2:0:0:
131,140,77982,1,0,3:0:0:0:
115,223,78177,1,10,1:2:0:0:
76,61,78372,1,0,0:0:0:0:
185,83,78567,1,2,3:2:0:0:
185,83,78761,1,0,3:0:0:0:
264,14,78956,1,10,1:2:0:0:
281,206,79152,1,0,0:0:0:0:
252,126,79346,6,0,P|306:126|413:129,1,140,0|10,1:0|0:0,0:0:0:0:
485,162,79930,2,0,L|485:79,1,70,2|0,1:2|3:0,0:0:0:0:
392,230,80320,1,2,3:2:0:0:
314,309,80515,1,10,0:0:0:0:
392,230,80709,1,2,0:0:0:0:
339,125,80904,1,0,3:0:0:0:
485,162,81099,1,2,0:0:0:0:
419,70,81294,1,10,1:2:0:0:
419,70,81683,1,0,1:0:0:0:
387,209,81878,1,0,1:0:0:0:
248,177,82073,1,8,0:2:0:0:
280,38,82268,1,4,1:2:0:0:
133,143,82463,6,0,P|125:197|127:313,1,140,4|10,1:0|0:2,0:0:0:0:
123,282,83047,1,0,1:0:0:0:
295,250,83242,1,2,3:2:0:0:
228,376,83437,1,0,3:0:0:0:
315,342,83632,1,10,0:0:0:0:
208,286,83826,1,0,0:0:0:0:
315,342,84021,2,0,P|366:349|403:352,1,70,2|0,3:2|0:0,0:0:0:0:
480,233,84411,2,0,P|429:226|392:223,1,70,10|0,1:2|0:0,0:0:0:0:
347,322,84800,2,0,P|398:329|435:332,1,70,2|0,3:2|3:0,0:0:0:0:
512,213,85190,2,0,P|461:206|424:203,1,70,10|0,1:2|0:0,0:0:0:0:
325,238,85580,6,0,P|258:233|180:225,1,140,0|10,1:0|0:0,0:0:0:0:
73,280,86164,2,0,B|56:211|56:211|86:135,1,140,2|2,1:2|3:2,0:0:0:0:
156,12,86748,1,10,0:0:0:0:
50,57,86943,1,2,0:0:0:0:
172,132,87138,1,0,3:0:0:0:
172,132,87528,2,0,L|242:135,1,70,10|2,1:2|0:0,0:0:0:0:
399,161,87917,1,0,1:0:0:0:
241,211,88112,1,0,1:0:0:0:
332,273,88307,1,8,1:2:0:0:
296,87,88502,1,4,0:2:0:0:
448,97,88696,6,0,P|448:175|451:250,1,140,0|10,1:0|0:2,0:0:0:0:
414,340,89281,1,0,1:0:0:0:
332,273,89476,2,0,P|292:276|248:286,1,70,2|0,3:2|3:0,0:0:0:0:
154,274,89865,1,10,0:0:0:0:
206,184,90060,1,0,0:0:0:0:
107,42,90255,1,2,3:2:0:0:
107,42,90450,1,0,3:0:0:0:
23,147,90645,1,10,1:2:0:0:
114,134,90839,1,0,0:0:0:0:
267,117,91034,1,2,3:2:0:0:
267,117,91229,1,0,3:0:0:0:
183,222,91424,1,10,1:2:0:0:
274,209,91618,1,0,0:0:0:0:
427,192,91813,6,0,P|428:125|407:41,1,140,4|10,1:2|0:0,0:0:0:0:
412,54,92398,1,2,1:2:0:0:
356,237,92593,1,0,3:0:0:0:
418,316,92787,1,2,1:2:0:0:
512,242,92982,1,10,0:0:0:0:
455,119,93177,1,2,1:2:0:0:
314,153,93372,2,0,P|281:157|231:161,1,70,0|2,3:0|0:0,0:0:0:0:
152,68,93761,1,10,0:2:0:0:
36,144,93956,2,0,P|35:207|55:271,1,105,2|0,1:2|0:0,0:0:0:0:
67,281,94346,1,2,1:2:0:0:
177,293,94541,1,14,0:2:0:0:
182,327,94638,1,8,0:0:0:0:
188,361,94735,1,0,3:0:0:0:
312,371,94930,5,4,3:0:0:0:
312,371,95320,1,0,3:0:0:0:
428,255,95515,1,8,0:0:0:0:
268,209,95904,1,0,3:0:0:0:
312,371,96294,1,0,1:0:0:0:
359,217,96489,2,0,P|371:171|368:89,1,112,4|0,3:0|3:0,0:0:0:0:
279,98,97073,2,0,P|266:152|267:208,2,112,8|0|0,0:0|3:0|1:0,0:0:0:0:
153,227,98047,2,0,P|100:227|39:223,1,112,4|0,3:0|3:0,0:0:0:0:
154,143,98632,2,0,P|207:143|268:147,1,112,8|0,0:0|3:0,0:0:0:0:
475,141,99411,1,0,1:0:0:0:
359,178,99606,2,0,L|362:120,1,56,4|0,3:0|0:0,0:0:0:0:
474,225,99995,1,2,3:2:0:0:
474,225,100385,1,2,0:0:0:0:
462,307,100580,1,0,3:0:0:0:
371,295,100774,1,2,0:0:0:0:
385,213,100969,1,0,1:0:0:0:
269,148,101164,5,4,3:0:0:0:
269,148,101554,1,0,3:0:0:0:
277,315,101748,1,8,0:0:0:0:
135,233,102138,1,2,3:2:0:0:
269,148,102528,1,2,1:2:0:0:
191,287,102722,1,4,3:0:0:0:
197,384,102917,1,2,1:2:0:0:
294,378,103112,1,0,3:0:0:0:
288,280,103307,1,10,0:0:0:0:
191,287,103502,2,0,P|160:284|120:276,1,56,2|0,0:0|3:0,0:0:0:0:
393,100,103891,2,0,P|424:103|464:111,1,56,2|8,0:0|1:2,0:0:0:0:
448,107,104183,1,8,0:0:0:0:
448,107,104281,5,4,3:0:0:0:
341,384,104670,1,4,3:0:0:0:
64,277,105060,1,4,3:0:0:0:
171,0,105450,1,4,3:0:0:0:
113,222,105645,1,2,0:0:0:0:
171,0,105839,1,4,3:0:0:0:
355,236,106034,1,10,0:0:0:0:
156,147,106229,1,10,0:0:0:0:
300,92,106424,1,0,3:0:0:0:
211,291,106619,1,12,0:0:0:0:
256,192,106813,1,8,0:0:0:0:
256,192,106911,1,8,0:0:0:0:
256,192,107008,1,8,1:2:0:0:
256,192,107106,1,8,0:0:0:0:
256,192,107203,1,8,0:0:0:0:
256,192,107300,1,8,0:0:0:0:
256,192,107398,6,0,P|263:263|251:372,1,167.999994873047,6|8,3:1|0:0,0:0:0:0:
350,212,107982,1,2,0:2:0:0:
177,292,108177,2,0,P|147:262|122:214,1,83.9999974365235,2|2,0:0|0:2,0:0:0:0:
360,313,108567,1,8,0:0:0:0:
240,234,108761,2,0,P|177:242|159:333,1,167.999994873047,2|0,0:0|0:0,0:0:0:0:
372,339,109346,2,0,P|382:280|385:222,1,83.9999974365235,8|2,0:0|0:2,0:0:0:0:
252,75,109735,1,2,0:0:0:0:
455,161,109930,1,2,0:0:0:0:
283,162,110125,1,12,0:0:0:0:
415,18,110320,1,2,0:0:0:0:
389,235,110515,5,2,3:2:0:0:
293,225,110709,1,0,0:0:0:0:
303,129,110904,1,8,0:0:0:0:
399,139,111099,1,2,0:0:0:0:
340,309,111294,1,0,3:0:0:0:
222,172,111489,1,0,3:0:0:0:
341,55,111683,1,8,0:0:0:0:
341,55,112073,2,0,P|405:49|486:33,1,125.999996154785,2|0,3:1|0:0,0:0:0:0:
498,76,112463,2,0,L|513:161,1,83.9999974365235,10|0,0:0|0:0,0:0:0:0:
440,284,112852,2,0,L|324:301,1,83.9999974365235,2|0,3:1|3:0,0:0:0:0:
255,214,113242,2,0,P|246:169|240:129,1,83.9999974365235,10|0,0:0|0:0,0:0:0:0:
61,130,113632,6,0,B|34:244|87:183|60:316,1,167.999994873047,6|8,3:1|0:0,0:0:0:0:
177,142,114216,1,2,0:2:0:0:
250,282,114411,2,0,P|236:340|225:364,1,83.9999974365235,2|2,0:0|0:2,0:0:0:0:
74,245,114800,1,8,0:0:0:0:
259,363,114995,2,0,P|226:315|290:228,1,167.999994873047,2|0,0:0|0:0,0:0:0:0:
422,285,115580,1,8,0:0:0:0:
422,285,115969,1,2,0:0:0:0:
295,293,116164,1,2,0:0:0:0:
346,163,116359,1,12,0:0:0:0:
491,226,116554,1,2,0:0:0:0:
260,189,116748,5,2,3:2:0:0:
267,86,116943,1,0,0:0:0:0:
369,94,117138,1,8,0:0:0:0:
362,196,117333,1,2,0:0:0:0:
196,133,117528,1,0,3:0:0:0:
319,25,117722,1,0,3:0:0:0:
459,111,117917,1,8,0:0:0:0:
459,111,118307,2,0,B|451:153|451:153|473:212,1,83.9999974365235,2|0,3:1|0:0,0:0:0:0:
302,301,118696,2,0,B|341:288|341:288|387:298,1,83.9999974365235,10|0,0:0|0:0,0:0:0:0:
253,77,119086,2,0,B|266:118|266:118|262:176,1,83.9999974365235,2|0,3:1|3:0,0:0:0:0:
79,252,119475,2,0,B|66:211|66:211|70:153,1,83.9999974365235,10|0,0:0|0:0,0:0:0:0:
297,276,119865,6,0,P|275:326|165:315,1,167.999994873047,6|8,3:1|0:0,0:0:0:0:
208,198,120450,1,2,0:2:0:0:
361,202,120645,2,0,P|401:217|458:220,1,83.9999974365235,2|2,0:0|0:2,0:0:0:0:
266,88,121034,1,8,0:0:0:0:
415,314,121229,2,0,P|462:258|400:165,1,167.999994873047,2|0,0:0|0:0,0:0:0:0:
338,111,121813,1,8,0:0:0:0:
370,235,122008,1,2,0:2:0:0:
426,63,122203,1,2,0:0:0:0:
271,178,122398,1,2,0:0:0:0:
481,155,122593,1,12,0:0:0:0:
298,22,122787,1,2,0:0:0:0:
364,206,122982,5,2,3:2:0:0:
307,299,123177,1,0,0:0:0:0:
214,242,123372,1,8,0:0:0:0:
271,149,123567,1,2,0:0:0:0:
390,299,123761,1,0,3:0:0:0:
182,338,123956,1,0,3:0:0:0:
177,126,124151,1,8,0:0:0:0:
177,126,124541,2,0,P|128:113|36:121,1,125.999996154785,2|0,3:1|0:0,0:0:0:0:
12,129,124930,2,0,L|4:225,1,83.9999974365235,10|0,0:0|0:0,0:0:0:0:
113,320,125320,2,0,P|148:329|214:323,1,83.9999974365235,2|0,3:1|3:0,0:0:0:0:
295,225,125709,2,0,L|303:129,1,83.9999974365235,10|0,0:0|0:0,0:0:0:0:
503,194,126099,5,6,3:1:0:0:
503,194,126489,1,8,0:0:0:0:
433,123,126683,1,2,0:2:0:0:
428,281,126878,2,0,P|470:289|533:299,1,83.9999974365235,2|2,0:0|0:2,0:0:0:0:
301,302,127268,1,8,0:0:0:0:
383,348,127463,2,0,P|436:294|409:193,1,167.999994873047,2|0,0:0|0:0,0:0:0:0:
321,167,128047,2,0,P|279:159|216:149,1,83.9999974365235,8|2,0:0|0:2,0:0:0:0:
206,321,128437,1,2,0:0:0:0:
312,248,128632,1,2,0:0:0:0:
148,228,128826,1,12,0:0:0:0:
317,376,129021,1,2,0:0:0:0:
259,84,129216,5,2,3:2:0:0:
243,188,129411,1,0,0:0:0:0:
347,204,129606,1,8,0:0:0:0:
363,100,129800,1,2,0:0:0:0:
298,277,129995,1,0,3:0:0:0:
431,170,130190,1,0,3:0:0:0:
318,8,130385,1,8,0:0:0:0:
318,8,130774,2,0,P|358:13|431:12,1,83.9999974365235,2|0,3:1|0:0,0:0:0:0:
492,4,131164,2,0,L|485:87,1,83.9999974365235,10|0,0:0|0:0,0:0:0:0:
328,194,131554,2,0,P|341:152|331:105,1,83.9999974365235,2|0,3:1|3:0,0:0:0:0:
118,136,131943,2,0,L|230:145,1,83.9999974365235,10|0,0:0|0:0,0:0:0:0:
321,299,132333,5,2,3:1:0:0:
328,194,132528,1,8,0:0:0:0:
182,269,132722,1,0,3:0:0:0:
223,355,132917,1,2,3:2:0:0:
394,254,133307,1,8,0:0:0:0:
221,157,133696,1,8,0:0:0:0:
286,252,133891,5,0,3:0:0:0:
182,92,134086,1,8,0:0:0:0:
314,120,134281,1,8,0:0:0:0:
154,224,134476,1,8,0:0:0:0:
286,252,134670,1,8,3:1:0:0:
94,262,134865,1,8,0:0:0:0:
185,161,135060,1,8,0:0:0:0:
195,352,135255,1,8,0:0:0:0:
286,252,135450,5,0,1:0:0:0:
357,313,135645,1,0,1:0:0:0:
286,252,135839,1,8,1:2:0:0:
357,313,136034,2,0,P|353:344|347:367,2,35,2|0|0,1:2|0:0|0:0,0:0:0:0:
452,276,136424,2,0,P|456:205|458:126,1,140,2|2,0:0|0:0,0:0:0:0:
365,27,137008,1,0,1:0:0:0:
365,117,137203,1,2,1:2:0:0:
365,27,137398,1,8,0:0:0:0:
365,27,137593,1,2,0:0:0:0:
288,59,137787,1,0,1:0:0:0:
288,148,137982,1,2,1:2:0:0:
288,59,138177,1,8,0:0:0:0:
288,59,138372,1,2,0:0:0:0:
191,113,138567,5,0,1:0:0:0:
106,150,138761,1,0,1:0:0:0:
191,113,138956,1,10,1:2:0:0:
106,150,139151,1,2,1:2:0:0:
119,69,139346,1,0,0:0:0:0:
119,69,139541,1,2,0:0:0:0:
175,206,139735,1,8,0:0:0:0:
175,206,139930,1,2,0:0:0:0:
25,180,140125,6,0,P|26:218|32:258,1,70,0|2,1:0|1:2,0:0:0:0:
141,339,140515,2,0,P|140:301|134:261,1,70,8|2,0:0|0:0,0:0:0:0:
242,215,140904,1,0,1:0:0:0:
242,215,141002,1,0,3:0:0:0:
242,215,141099,1,0,1:0:0:0:
242,215,141196,1,0,3:0:0:0:
242,215,141294,2,0,L|249:293,1,70,8|4,0:0|0:0,0:0:0:0:
448,265,141683,5,0,1:0:0:0:
468,144,141878,1,0,1:0:0:0:
448,265,142073,1,8,1:2:0:0:
468,144,142268,2,0,L|474:86,2,35,2|0|0,1:2|0:0|0:0,0:0:0:0:
377,195,142658,1,2,0:0:0:0:
289,178,142852,1,8,0:0:0:0:
306,90,143046,1,2,0:0:0:0:
174,66,143242,1,0,1:0:0:0:
188,150,143437,1,2,1:2:0:0:
174,66,143632,1,8,0:0:0:0:
174,66,143826,1,2,0:0:0:0:
85,143,144021,1,0,1:0:0:0:
99,227,144216,1,2,1:2:0:0:
85,143,144411,1,8,0:0:0:0:
85,143,144605,1,2,0:0:0:0:
22,309,144800,5,0,1:0:0:0:
143,294,144995,1,0,1:0:0:0:
22,309,145190,1,10,1:2:0:0:
143,294,145385,1,2,1:2:0:0:
242,361,145580,2,0,P|278:362|330:351,1,70,0|2,0:0|0:0,0:0:0:0:
278,210,145969,2,0,P|242:209|190:220,1,70,8|2,0:0|0:0,0:0:0:0:
386,278,146359,1,0,1:0:0:0:
371,178,146554,1,2,1:2:0:0:
386,278,146748,1,8,0:0:0:0:
496,256,147138,5,0,1:0:0:0:
476,223,147235,1,8,0:0:0:0:
464,185,147333,1,8,1:0:0:0:
469,146,147430,1,8,0:0:0:0:
488,112,147528,1,0,1:0:0:0:
495,74,147625,1,0,3:0:0:0:
488,36,147722,1,0,3:0:0:0:
249,18,147917,6,0,P|185:32|109:9,1,140,4|10,1:0|0:2,0:0:0:0:
60,77,148502,1,0,1:0:0:0:
122,132,148696,2,0,P|127:185|122:218,1,70,2|0,3:2|3:0,0:0:0:0:
238,298,149086,2,0,P|233:245|238:212,1,70,10|0,0:0|0:0,0:0:0:0:
356,154,149476,1,2,3:2:0:0:
356,154,149670,1,0,0:0:0:0:
363,258,149865,1,10,1:2:0:0:
467,251,150060,1,0,0:0:0:0:
411,76,150255,1,2,3:2:0:0:
411,76,150449,1,0,3:0:0:0:
404,180,150644,1,10,1:2:0:0:
300,163,150839,1,0,0:0:0:0:
314,64,151034,5,0,1:0:0:0:
314,64,151424,1,10,0:0:0:0:
190,89,151619,1,2,1:2:0:0:
219,241,151813,1,0,3:0:0:0:
219,241,152008,1,2,3:2:0:0:
111,147,152203,1,10,0:0:0:0:
111,147,152398,1,2,0:0:0:0:
110,294,152593,2,0,P|147:341|170:359,1,70,0|2,3:0|0:0,0:0:0:0:
320,369,152982,2,0,P|283:322|260:304,1,70,10|2,1:2|0:0,0:0:0:0:
191,222,153372,1,0,1:0:0:0:
334,150,153567,1,0,1:0:0:0:
288,245,153761,1,8,1:2:0:0:
242,113,153956,1,4,0:2:0:0:
368,32,154151,5,0,1:0:0:0:
376,40,154541,1,10,0:2:0:0:
376,40,154735,1,0,1:0:0:0:
376,40,154930,2,0,P|383:108|398:188,1,140,2|10,3:2|0:0,0:0:0:0:
454,251,155515,1,0,0:0:0:0:
288,368,155709,1,2,3:2:0:0:
288,368,155904,1,0,3:0:0:0:
317,182,156099,1,10,1:2:0:0:
354,308,156294,1,0,0:0:0:0:
179,316,156489,1,2,3:2:0:0:
179,316,156684,1,0,3:0:0:0:
208,130,156879,1,10,1:2:0:0:
245,256,157074,1,0,0:0:0:0:
138,190,157268,6,0,P|51:174|-4:174,1,140,4|10,1:2|0:0,0:0:0:0:
0,174,157852,1,2,1:2:0:0:
156,297,158047,1,0,3:0:0:0:
245,256,158242,1,2,1:2:0:0:
236,157,158437,1,10,0:0:0:0:
362,165,158632,1,2,1:2:0:0:
339,323,158826,2,0,P|371:335|412:341,1,70,0|2,3:0|0:0,0:0:0:0:
453,233,159216,1,10,0:2:0:0:
245,256,159411,2,0,P|226:193|216:126,1,105,2|0,1:2|0:0,0:0:0:0:
235,117,159800,1,2,1:2:0:0:
121,153,159995,1,14,0:2:0:0:
116,118,160092,1,8,0:0:0:0:
113,83,160189,1,0,3:0:0:0:
11,46,160385,5,4,3:0:0:0:
11,46,160774,1,0,3:0:0:0:
121,153,160969,1,8,0:0:0:0:
172,10,161359,1,0,3:0:0:0:
11,46,161748,1,0,1:0:0:0:
194,94,161943,2,0,P|210:148|204:224,1,112,4|0,3:0|3:0,0:0:0:0:
135,262,162528,2,0,P|119:208|125:132,2,112,8|0|0,0:0|3:0|1:0,0:0:0:0:
326,316,163502,2,0,L|296:191,1,112,4|0,3:0|3:0,0:0:0:0:
353,120,164086,1,8,0:0:0:0:
509,182,164476,1,0,3:0:0:0:
469,12,164865,1,0,1:0:0:0:
469,12,165060,2,0,P|465:41|461:83,1,56,4|0,3:0|0:0,0:0:0:0:
414,137,165450,1,2,3:2:0:0:
414,137,165839,2,0,L|419:167,1,28,2|0,0:0|0:0,0:0:0:0:
465,224,166034,1,0,3:0:0:0:
463,237,166131,1,0,0:0:0:0:
461,251,166228,1,2,0:0:0:0:
459,265,166326,1,0,0:0:0:0:
456,279,166423,1,0,1:0:0:0:
365,356,166619,6,0,B|316:336|316:336|241:345,1,112,4|0,3:0|3:0,0:0:0:0:
138,367,167203,1,8,0:0:0:0:
138,367,167593,2,0,P|143:340|146:303,1,56,2|0,3:2|0:0,0:0:0:0:
50,302,167982,1,2,1:2:0:0:
133,202,168177,1,4,3:0:0:0:
215,236,168372,1,2,1:2:0:0:
249,154,168567,1,0,3:0:0:0:
167,120,168761,1,10,0:0:0:0:
249,154,168956,1,2,0:0:0:0:
311,224,169151,1,0,3:0:0:0:
398,200,169346,1,2,0:0:0:0:
333,130,169541,1,8,1:2:0:0:
317,374,169735,5,4,3:0:0:0:
74,253,170125,1,4,3:0:0:0:
195,10,170515,1,4,3:0:0:0:
438,131,170904,1,4,3:0:0:0:
292,206,171099,2,0,B|254:191|254:191|196:197,1,83.9999974365235,2|4,0:0|3:0,0:0:0:0:
293,80,171489,1,10,0:0:0:0:
472,251,171683,2,0,B|485:212|485:212|468:163,1,83.9999974365235,10|0,0:0|3:0,0:0:0:0:
272,298,172073,1,12,0:0:0:0:
179,54,172268,1,8,0:0:0:0:
179,54,172365,1,8,0:0:0:0:
179,54,172463,1,8,1:2:0:0:
179,54,172560,1,8,0:0:0:0:
179,54,172658,1,8,0:0:0:0:
179,54,172755,1,0,0:0:0:0:
179,54,172852,6,0,B|211:173|152:100|189:248,1,167.999994873047,6|8,3:1|0:0,0:0:0:0:
236,328,173437,1,2,0:2:0:0:
340,217,173632,2,0,P|357:170|364:133,1,83.9999974365235,2|2,0:0|0:2,0:0:0:0:
149,316,174021,1,8,0:0:0:0:
350,285,174216,2,0,P|347:180|281:138,1,167.999994873047,2|0,0:0|0:0,0:0:0:0:
94,173,174800,1,8,0:0:0:0:
94,173,175190,1,2,0:0:0:0:
185,62,175385,1,2,0:0:0:0:
244,284,175580,1,12,0:0:0:0:
355,83,175774,1,2,0:0:0:0:
352,379,175969,5,2,3:2:0:0:
452,364,176164,1,0,0:0:0:0:
437,264,176359,1,8,0:0:0:0:
337,279,176554,1,2,0:0:0:0:
511,304,176748,1,0,3:0:0:0:
365,161,176943,1,0,3:0:0:0:
237,323,177138,1,8,0:0:0:0:
237,323,177528,2,0,P|184:304|149:276,1,83.9999974365235,2|0,3:1|0:0,0:0:0:0:
107,88,177917,2,0,L|90:198,1,83.9999974365235,10|0,0:0|0:0,0:0:0:0:
202,196,178307,1,2,3:1:0:0:
57,262,178502,1,0,3:0:0:0:
280,244,178696,2,0,P|315:234|364:210,1,83.9999974365235,10|0,0:0|0:0,0:0:0:0:
492,80,179086,6,0,L|303:70,1,167.999994873047,6|8,3:1|0:0,0:0:0:0:
132,21,179670,1,2,0:2:0:0:
189,187,179865,2,0,P|211:160|252:85,1,83.9999974365235,2|2,0:0|0:2,0:0:0:0:
11,121,180255,1,8,0:0:0:0:
190,223,180450,2,0,P|196:151|103:102,1,167.999994873047,2|0,0:0|0:0,0:0:0:0:
95,362,181034,1,8,0:0:0:0:
95,362,181424,1,2,0:0:0:0:
230,384,181619,1,2,0:0:0:0:
249,143,181813,1,12,0:0:0:0:
128,211,182008,1,2,0:0:0:0:
389,315,182203,5,2,3:2:0:0:
392,216,182398,1,0,0:0:0:0:
293,213,182593,1,8,0:0:0:0:
290,312,182787,1,2,0:0:0:0:
343,145,182982,1,0,3:0:0:0:
464,344,183177,1,0,3:0:0:0:
512,113,183372,1,8,0:0:0:0:
512,113,183761,2,0,P|460:81|433:48,1,83.9999974365235,2|0,3:1|0:0,0:0:0:0:
210,103,184151,2,0,P|262:135|289:168,1,83.9999974365235,10|0,0:0|0:0,0:0:0:0:
326,271,184541,1,2,3:1:0:0:
333,37,184735,1,0,3:0:0:0:
206,253,184930,2,0,P|201:293|185:356,1,83.9999974365235,10|0,0:0|0:0,0:0:0:0:
26,88,185320,6,0,P|104:70|166:138,1,167.999994873047,6|8,3:1|0:0,0:0:0:0:
308,121,185904,1,2,0:2:0:0:
167,247,186099,2,0,P|136:272|81:293,1,83.9999974365235,2|2,0:0|0:2,0:0:0:0:
288,220,186489,1,8,0:0:0:0:
33,237,186683,2,0,P|91:292|170:274,1,167.999994873047,2|0,0:0|0:0,0:0:0:0:
294,132,187268,1,8,0:0:0:0:
190,155,187463,1,2,0:2:0:0:
352,310,187658,1,2,0:0:0:0:
390,164,187852,1,2,0:0:0:0:
406,378,188047,1,12,0:0:0:0:
308,212,188242,1,2,0:0:0:0:
109,346,188437,5,2,3:2:0:0:
207,362,188632,1,0,0:0:0:0:
223,264,188826,1,8,0:0:0:0:
125,248,189021,1,2,0:0:0:0:
291,321,189216,1,0,3:0:0:0:
245,110,189411,1,0,3:0:0:0:
47,192,189606,1,8,0:0:0:0:
47,192,189995,2,0,L|37:91,1,83.9999974365235,2|0,3:1|0:0,0:0:0:0:
290,136,190385,2,0,P|249:146|201:146,1,83.9999974365235,10|0,0:0|0:0,0:0:0:0:
109,43,190774,1,2,3:1:0:0:
142,271,190969,2,0,P|183:261|231:261,1,83.9999974365235,0|10,3:0|0:0,0:0:0:0:
422,338,191359,1,0,0:0:0:0:
422,338,191456,1,0,0:0:0:0:
422,338,191554,6,0,P|428:291|407:167,1,167.999994873047,6|8,3:1|0:0,0:0:0:0:
512,195,192138,1,2,0:2:0:0:
301,170,192333,2,0,P|317:208|342:250,1,83.9999974365235,2|2,0:0|0:2,0:0:0:0:
364,42,192722,1,8,0:0:0:0:
444,265,192917,2,0,P|352:284|279:234,1,167.999994873047,2|0,0:0|0:0,0:0:0:0:
213,90,193502,1,8,0:0:0:0:
213,90,193891,1,2,0:0:0:0:
184,269,194086,1,2,0:0:0:0:
301,170,194281,1,12,0:0:0:0:
122,192,194476,1,2,0:0:0:0:
146,4,194670,5,2,3:2:0:0:
151,106,194865,1,0,0:0:0:0:
49,111,195060,1,8,0:0:0:0:
44,9,195255,1,2,0:0:0:0:
106,174,195450,1,0,3:0:0:0:
260,27,195645,1,0,3:0:0:0:
300,232,195839,1,8,0:0:0:0:
300,232,196229,2,0,P|350:266|395:286,1,83.9999974365235,2|0,3:1|0:0,0:0:0:0:
250,120,196619,2,0,P|239:79|230:24,1,83.9999974365235,10|0,0:0|0:0,0:0:0:0:
399,55,197008,1,2,3:1:0:0:
395,176,197203,1,0,3:0:0:0:
200,205,197398,2,0,P|150:239|105:259,1,83.9999974365235,10|0,0:0|0:0,0:0:0:0:
114,86,197787,5,2,3:1:0:0:
217,91,197982,1,8,0:0:0:0:
295,156,198177,1,0,3:0:0:0:
295,260,198372,1,2,3:2:0:0:
347,50,198761,1,8,0:0:0:0:
501,204,199151,1,8,0:0:0:0:
377,159,199346,5,2,3:1:0:0:
239,351,199541,1,8,0:0:0:0:
404,324,199735,1,10,0:0:0:0:
212,186,199930,1,8,0:0:0:0:
377,159,200125,1,10,3:1:0:0:
141,135,200320,1,8,0:0:0:0:
247,264,200514,1,10,0:0:0:0:
271,29,200709,1,8,0:0:0:0:
141,242,200904,5,4,3:0:0:0:
95,27,201099,1,2,3:1:0:0:
141,242,201294,1,0,3:0:0:0:
371,242,201489,1,12,0:0:0:0:
416,27,201684,1,2,3:2:0:0:
371,242,201879,1,8,3:1:0:0:
256,0,202073,1,0,3:0:0:0:
256,120,202268,2,0,B|240:208|280:192|256:312,1,167.999994873047,4|0,0:3|3:0,0:0:0:0:
260,286,202755,1,0,3:0:0:0:
260,286,202852,1,8,0:0:0:0:
256,384,203047,1,0,3:0:0:0:
112,128,203242,2,0,P|56:120|8:128,1,83.9999974365235,12|0,0:0|3:0,0:0:0:0:
400,256,203632,2,0,P|456:264|504:256,1,83.9999974365235,8|0,0:0|3:0,0:0:0:0:
472,72,204021,5,4,3:0:0:0:
288,72,204216,1,2,3:1:0:0:
472,72,204411,1,0,3:0:0:0:
472,312,204606,1,12,0:0:0:0:
288,312,204801,1,2,3:2:0:0:
472,312,204996,1,8,3:1:0:0:
496,192,205190,1,0,3:0:0:0:
384,192,205385,2,0,B|288:208|320:168|208:192,1,167.999994873047,4|0,0:3|3:0,0:0:0:0:
184,216,205872,1,0,3:0:0:0:
152,192,205969,1,8,0:0:0:0:
112,216,206067,1,0,0:0:0:0:
72,200,206164,1,0,3:0:0:0:
56,160,206261,1,0,0:0:0:0:
72,120,206359,2,0,B|89:80|89:80|84:20,1,83.9999974365235,12|0,0:0|3:0,0:0:0:0:
440,264,206748,2,0,B|423:304|423:304|428:364,1,83.9999974365235,8|0,0:0|3:0,0:0:0:0:
158,339,207138,5,4,3:0:0:0:
336,352,207333,1,2,3:1:0:0:
158,339,207528,2,0,L|65:333,1,83.9999974365235,2|12,3:1|0:0,0:0:0:0:
158,45,207917,1,2,3:1:0:0:
336,32,208112,1,10,3:1:0:0:
158,45,208307,1,0,3:0:0:0:
255,319,208502,2,0,B|239:223|279:255|255:143,1,167.999994873047,4|0,0:3|3:0,0:0:0:0:
258,153,208989,1,0,3:0:0:0:
258,153,209086,1,8,0:0:0:0:
256,24,209281,1,0,3:0:0:0:
368,192,209476,2,0,P|408:208|472:208,1,83.9999974365235,12|0,0:0|3:0,0:0:0:0:
144,192,209865,2,0,P|104:176|40:176,1,83.9999974365235,8|0,0:0|3:0,0:0:0:0:
120,325,210255,5,4,3:0:0:0:
120,325,210352,1,8,0:0:0:0:
120,325,210450,1,2,3:1:0:0:
208,8,210645,2,0,L|221:109,1,83.9999974365235,0|12,3:0|0:0,0:0:0:0:
392,325,211034,1,2,3:2:0:0:
392,325,211131,1,8,0:0:0:0:
392,325,211229,1,8,3:1:0:0:
287,7,211424,1,0,3:0:0:0:
80,256,211619,1,12,0:3:0:0:
264,192,211813,1,8,0:0:0:0:
296,160,211911,1,8,0:0:0:0:
336,160,212008,1,2,3:1:0:0:
368,184,212106,1,0,3:0:0:0:
408,192,212203,1,0,0:0:0:0:
448,176,212300,1,0,0:0:0:0:
474,143,212398,2,0,P|480:123|484:93,1,41.9999987182618,10|8,3:1|3:1,0:0:0:0:
288,97,212593,2,0,P|311:118|336:135,1,41.9999987182618,12|8,0:0|0:0,0:0:0:0:
351,268,212787,2,0,P|378:264|409:258,1,41.9999987182618,2|0,3:1|3:0,0:0:0:0:
512,264,212982,2,0,P|511:283|507:305,3,41.9999987182618,8|0|0|0,0:0|0:0|3:0|0:0,0:0:0:0:
476,342,213372,5,12,3:0:0:0:
454,43,213567,1,2,3:1:0:0:
367,213,213761,1,0,3:0:0:0:
258,62,213956,1,12,0:0:0:0:
244,334,214151,1,2,3:2:0:0:
133,201,214345,1,8,3:1:0:0:
96,368,214541,1,0,3:0:0:0:
12,222,214735,2,0,P|13:135|21:15,1,167.999994873047,4|0,0:3|3:0,0:0:0:0:
18,55,215222,1,2,3:0:0:0:
18,55,215320,1,8,0:0:0:0:
255,55,215515,1,0,3:0:0:0:
480,59,215709,2,0,L|487:161,1,83.9999974365235,12|0,0:0|3:0,0:0:0:0:
485,142,216002,1,2,0:3:0:0:
485,142,216099,1,8,0:0:0:0:
500,294,216294,1,0,3:0:0:0:
49,357,216489,5,4,3:0:0:0:
96,54,216683,1,2,3:1:0:0:
159,216,216878,1,0,3:0:0:0:
235,4,217073,1,12,0:0:0:0:
216,328,217268,1,2,3:2:0:0:
280,200,217463,1,8,3:1:0:0:
328,384,217658,1,0,3:0:0:0:
453,161,217852,1,4,0:3:0:0:
130,36,218047,5,8,0:0:0:0:
130,36,218145,1,8,0:0:0:0:
130,36,218243,1,2,3:1:0:0:
130,36,218340,1,0,3:0:0:0:
130,36,218438,1,8,0:0:0:0:
183,379,218632,1,2,3:1:0:0:
407,207,218826,2,0,B|421:166|421:166|414:117,1,83.9999974365235,12|2,0:0|3:1,0:0:0:0:
75,93,219216,2,0,P|58:187|63:237,1,125.999996154785,10|0,0:0|3:0,0:0:0:0:
60,217,219606,6,0,L|43:388,1,167.999994873047,4|8,3:1|0:0,0:0:0:0:
174,276,220190,1,0,3:0:0:0:
174,276,220385,1,0,0:0:0:0:
253,382,220580,1,0,0:0:0:0:
266,203,220774,1,8,0:0:0:0:
332,303,220969,2,0,B|405:332|405:332|510:302,1,167.999994873047,2|0,0:0|0:0,0:0:0:0:
372,175,221554,1,8,0:0:0:0:
303,122,221748,2,0,B|230:93|230:93|125:123,1,167.999994873047,0|0,3:0|0:0,0:0:0:0:
34,221,222333,5,10,0:0:0:0:
61,319,222528,1,0,0:0:0:0:
158,292,222722,1,2,3:1:0:0:
132,195,222917,1,0,0:0:0:0:
34,221,223112,1,8,0:0:0:0:
132,246,223307,1,2,3:1:0:0:
157,149,223501,1,2,0:0:0:0:
60,123,223696,2,0,P|22:105|-33:95,1,83.9999974365235,2|8,0:0|0:0,0:0:0:0:
188,62,224086,2,0,P|259:90|360:102,1,167.999994873047,2|0,0:0|3:0,0:0:0:0:
460,129,224670,2,0,P|480:204|355:200,1,209.999993591309,10|0,0:0|0:0,0:0:0:0:
343,205,225255,1,2,0:2:0:0:
242,72,225450,1,10,0:0:0:0:
241,315,225645,1,2,0:2:0:0:
169,221,225839,6,0,P|81:216|-7:213,1,167.999994873047,4|8,3:1|0:0,0:0:0:0:
103,310,226424,1,0,3:0:0:0:
103,310,226619,1,0,0:0:0:0:
137,119,226813,1,2,0:2:0:0:
82,203,227008,1,8,0:0:0:0:
175,233,227203,1,2,0:2:0:0:
234,148,227398,2,0,P|226:94|206:52,1,83.9999974365235,2|0,3:2|0:0,0:0:0:0:
340,232,227787,2,0,P|348:286|368:328,1,83.9999974365235,8|2,0:0|3:0,0:0:0:0:
421,124,228177,1,2,0:2:0:0:
324,121,228372,1,0,0:0:0:0:
381,33,228567,1,8,0:0:0:0:
469,37,228761,1,2,0:2:0:0:
434,286,228956,5,4,3:0:0:0:
162,370,229346,1,4,3:0:0:0:
78,98,229735,1,4,3:0:0:0:
350,14,230125,1,4,3:0:0:0:
145,30,230320,1,2,0:2:0:0:
350,14,230515,1,4,1:2:0:0:
301,271,230710,5,8,0:0:0:0:
121,166,230904,1,8,0:0:0:0:
391,195,231099,1,0,3:0:0:0:
125,274,231294,5,8,0:0:0:0:
389,108,231489,1,8,0:0:0:0:
173,57,231683,1,8,0:0:0:0:
339,322,231878,1,8,0:0:0:0:
256,192,232073,5,4,0:0:0:0:
71,191,244541,6,0,L|63:123,1,56,2|0,3:2|0:0,0:0:0:0:
93,56,244930,1,0,0:0:0:0:
176,68,245125,2,0,L|191:251,1,168,2|0,0:1|0:0,0:0:0:0:
188,235,246099,1,0,3:0:0:0:
167,153,246294,1,0,0:0:0:0:
251,178,246489,1,0,0:0:0:0:
309,235,246683,2,0,P|398:253|489:256,1,168,2|0,0:1|0:0,0:0:0:0:
474,256,247658,1,0,3:0:0:0:
386,281,247852,1,0,0:0:0:0:
439,346,248047,1,0,0:0:0:0:
512,380,248242,2,0,P|429:362|346:357,1,168,2|0,0:1|0:0,0:0:0:0:
315,102,249216,5,2,3:2:0:0:
148,76,249606,1,0,0:0:0:0:
122,243,249995,1,6,3:2:0:0:
289,269,250385,1,0,0:0:0:0:
462,87,250774,6,0,L|392:80,1,56,2|0,3:2|0:0,0:0:0:0:
347,141,251164,1,0,0:0:0:0:
284,84,251359,2,0,P|283:161|265:258,1,168,2|0,0:1|0:0,0:0:0:0:
267,250,252333,1,0,3:0:0:0:
190,284,252528,1,0,0:0:0:0:
118,240,252722,1,0,0:0:0:0:
191,198,252917,2,0,P|107:188|22:201,1,168,2|0,0:1|0:0,0:0:0:0:
24,200,253891,1,0,3:0:0:0:
101,234,254086,1,0,0:0:0:0:
173,190,254280,1,0,0:0:0:0:
100,148,254475,2,0,P|184:138|269:151,1,168,2|0,0:1|0:0,0:0:0:0:
419,349,255450,5,2,3:1:0:0:
98,355,255839,1,2,0:0:0:0:
93,34,256229,1,2,3:1:0:0:
414,29,256619,1,2,0:0:0:0:
256,192,257008,5,6,3:2:0:0:
210,106,257203,1,8,0:0:0:0:
296,60,257398,1,0,3:0:0:0:
342,146,257593,1,0,3:0:0:0:
252,289,257982,1,8,0:0:0:0:
173,140,258372,1,8,0:0:0:0:
256,192,258567,5,6,3:2:0:0:
252,291,258761,1,0,3:0:0:0:
349,293,258956,1,10,0:0:0:0:
352,196,259151,1,0,0:0:0:0:
256,192,259346,1,2,3:2:0:0:
108,189,259541,1,8,0:0:0:0:
113,47,259735,1,2,3:2:0:0:
259,50,259930,1,0,0:0:0:0:
256,192,260125,5,6,3:2:0:0:
165,226,260320,1,8,0:0:0:0:
132,137,260515,1,0,3:0:0:0:
222,104,260709,1,0,3:0:0:0:
348,210,261099,1,8,0:0:0:0:
193,267,261489,1,8,0:0:0:0:
256,192,261683,5,6,3:2:0:0:
266,293,261878,1,0,3:0:0:0:
367,283,262073,1,10,0:0:0:0:
357,182,262267,1,0,0:0:0:0:
256,192,262463,1,2,3:2:0:0:
131,204,262658,1,8,0:0:0:0:
119,79,262852,1,2,3:2:0:0:
244,73,263047,1,0,0:0:0:0:
256,192,263242,5,6,3:2:0:0:
168,115,263437,1,8,0:0:0:0:
278,78,263632,1,0,3:0:0:0:
365,154,263826,1,0,3:0:0:0:
234,306,264216,1,8,0:0:0:0:
168,115,264606,1,8,0:0:0:0:
256,192,264800,5,6,3:2:0:0:
474,175,264995,1,8,0:0:0:0:
357,74,265190,1,10,0:0:0:0:
373,293,265385,1,8,0:0:0:0:
256,192,265580,1,10,3:2:0:0:
379,373,265775,1,8,0:0:0:0:
408,220,265970,1,10,0:0:0:0:
227,344,266165,1,8,0:0:0:0:
194,1,266359,5,12,1:3:0:0:
105,209,266554,2,0,P|59:206|9:200,1,83.9999974365235,2|8,3:1|0:0,0:0:0:0:
295,194,266943,1,0,3:0:0:0:
295,194,267041,1,2,0:3:0:0:
295,194,267138,1,4,3:0:0:0:
209,311,267333,2,0,P|186:256|176:200,1,83.9999974365235,2|8,3:1|0:0,0:0:0:0:
332,333,267722,5,0,3:1:0:0:
346,64,267917,1,6,3:0:0:0:
428,222,268112,2,0,P|476:246|520:260,1,83.9999974365235,2|8,3:1|0:0,0:0:0:0:
276,141,268502,1,2,3:1:0:0:
460,95,268696,1,6,3:0:0:0:
365,277,268891,1,2,3:0:0:0:
183,182,269086,1,8,0:0:0:0:
278,0,269281,1,2,3:1:0:0:
241,324,269476,5,4,1:3:0:0:
82,292,269670,2,0,P|74:255|85:187,1,83.9999974365235,2|8,3:1|0:0,0:0:0:0:
374,210,270060,1,0,3:0:0:0:
374,210,270158,1,2,0:3:0:0:
374,210,270255,1,4,3:0:0:0:
288,71,270450,2,0,L|285:154,1,83.9999974365235,2|8,3:1|0:0,0:0:0:0:
402,314,270839,5,0,3:1:0:0:
372,62,271034,1,6,3:0:0:0:
218,273,271229,2,0,B|224:317|224:317|212:357,1,83.9999974365235,2|8,3:1|0:0,0:0:0:0:
131,167,271619,1,2,3:1:0:0:
462,345,271813,1,6,3:0:0:0:
300,332,272008,1,6,3:0:0:0:
313,170,272203,1,8,0:0:0:0:
475,183,272398,1,2,3:1:0:0:
191,25,272593,5,12,1:3:0:0:
107,199,272787,2,0,P|48:225|8:228,1,83.9999974365235,2|8,3:1|0:0,0:0:0:0:
286,143,273177,1,0,3:0:0:0:
286,143,273274,1,2,0:3:0:0:
286,143,273372,1,4,3:0:0:0:
158,19,273567,2,0,P|160:61|175:114,1,83.9999974365235,2|8,3:1|0:0,0:0:0:0:
412,60,273956,5,0,3:1:0:0:
161,273,274151,1,6,3:0:0:0:
360,192,274346,2,0,P|393:188|466:210,1,83.9999974365235,2|8,3:1|0:0,0:0:0:0:
155,108,274735,1,2,3:1:0:0:
287,311,274930,1,6,3:0:0:0:
430,86,275125,2,0,P|470:95|512:91,1,83.9999974365235,2|8,3:0|0:0,0:0:0:0:
213,258,275515,5,2,3:1:0:0:
220,266,275612,1,2,0:3:0:0:
220,266,275709,1,4,1:3:0:0:
209,123,275904,1,2,3:1:0:0:
338,186,276099,1,8,0:0:0:0:
157,198,276294,1,0,3:0:0:0:
157,198,276391,1,2,0:3:0:0:
157,198,276488,1,4,3:0:0:0:
311,273,276683,1,2,3:1:0:0:
299,103,276878,1,8,0:0:0:0:
203,298,277073,1,0,3:1:0:0:
204,298,277170,1,8,0:1:0:0:
204,298,277267,1,6,3:0:0:0:
189,93,277463,1,2,3:1:0:0:
393,79,277658,1,8,0:0:0:0:
408,283,277853,1,2,0:0:0:0:
298,188,278047,1,2,3:1:0:0:
298,188,278145,1,8,0:0:0:0:
298,188,278242,1,2,3:1:0:0:
298,188,278339,1,8,0:0:0:0:
298,188,278437,1,8,3:1:0:0:
298,188,278534,1,8,0:0:0:0:
298,188,278632,1,10,0:0:0:0:
298,188,278729,1,2,0:3:0:0:
298,188,278826,6,0,L|316:255,1,41.9999987182618,12|0,1:3|0:0,0:0:0:0:
264,350,279021,2,0,P|279:310|289:265,1,83.9999974365235,0|10,3:1|0:0,0:0:0:0:
109,156,279411,2,0,P|121:178|134:202,1,41.9999987182618,0|2,3:0|0:3,0:0:0:0:
185,295,279606,2,0,P|156:296|140:295,1,41.9999987182618,4|0,3:0|0:0,0:0:0:0:
22,252,279800,2,0,P|63:267|115:271,1,83.9999974365235,2|10,3:1|0:0,0:0:0:0:
224,157,280190,6,0,P|207:211|194:233,1,41.9999987182618,2|8,3:1|0:1,0:0:0:0:
202,115,280385,1,4,3:0:0:0:
342,107,280580,2,0,P|333:64|338:5,1,83.9999974365235,2|8,3:1|0:0,0:0:0:0:
431,291,280969,2,0,P|455:303|473:305,1,41.9999987182618,2|2,3:1|0:3,0:0:0:0:
408,256,281164,1,6,3:0:0:0:
511,145,281359,1,2,3:0:0:0:
267,64,281554,1,8,0:0:0:0:
423,34,281748,1,0,0:0:0:0:
324,198,281943,6,0,P|325:222|334:257,1,41.9999987182618,4|0,1:3|0:0,0:0:0:0:
291,367,282138,2,0,P|303:327|306:281,1,83.9999974365235,0|10,3:1|0:0,0:0:0:0:
227,116,282528,2,0,P|205:127|182:143,1,41.9999987182618,0|2,3:0|0:3,0:0:0:0:
85,221,282722,2,0,P|122:235|144:240,1,41.9999987182618,4|0,3:0|0:0,0:0:0:0:
218,304,282917,2,0,P|189:251|159:221,1,83.9999974365235,2|8,3:1|0:0,0:0:0:0:
102,63,283307,6,0,P|93:87|84:128,1,41.9999987182618,2|8,3:1|0:1,0:0:0:0:
147,38,283502,1,6,3:0:0:0:
0,225,283696,2,0,P|19:188|27:143,1,83.9999974365235,2|8,3:1|0:0,0:0:0:0:
182,117,284086,1,2,3:1:0:0:
342,343,284281,1,6,3:0:0:0:
160,376,284476,1,6,3:0:0:0:
127,194,284670,1,8,0:0:0:0:
309,161,284865,1,2,3:1:0:0:
76,276,285060,6,0,P|44:221|42:215,1,41.9999987182618,12|0,1:3|0:0,0:0:0:0:
11,96,285255,2,0,P|7:129|-8:213,1,83.9999974365235,0|10,3:1|0:0,0:0:0:0:
100,179,285645,2,0,P|95:161|74:123,1,41.9999987182618,0|2,3:0|0:3,0:0:0:0:
218,77,285839,2,0,P|209:96|203:116,1,41.9999987182618,4|0,3:0|0:0,0:0:0:0:
180,188,286034,2,0,P|185:232|207:293,1,83.9999974365235,0|10,3:1|0:0,0:0:0:0:
274,310,286424,2,0,P|286:273|290:244,1,41.9999987182618,2|8,3:1|0:1,0:0:0:0:
264,190,286619,1,6,3:0:0:0:
361,247,286813,2,0,P|346:205|336:143,1,83.9999974365235,2|8,3:1|0:0,0:0:0:0:
397,67,287203,2,0,L|387:118,1,41.9999987182618,2|2,3:1|0:3,0:0:0:0:
309,92,287398,1,6,3:0:0:0:
420,182,287593,2,0,P|474:193|510:197,1,83.9999974365235,2|8,3:0|0:0,0:0:0:0:
512,113,287982,1,2,3:1:0:0:
395,310,288177,5,4,1:3:0:0:
319,281,288372,1,2,3:1:0:0:
246,318,288761,1,2,0:0:0:0:
173,281,288956,1,0,3:0:0:0:
97,310,289151,1,10,0:0:0:0:
120,85,289346,1,8,0:0:0:0:
351,64,289541,1,10,0:0:0:0:
246,318,289735,5,12,3:1:0:0:
206,52,289930,1,10,3:1:0:0:
472,12,290125,2,0,B|486:54|486:54|476:122,1,83.9999974365235,8|0,0:0|0:0,0:0:0:0:
33,297,290515,1,0,3:0:0:0:
66,294,290612,1,8,0:0:0:0:
100,292,290709,1,10,0:1:0:0:
133,291,290807,1,8,0:0:0:0:
167,290,290904,1,8,0:0:0:0:
200,289,291002,1,8,0:0:0:0:
234,289,291099,1,10,0:0:0:0:
268,289,291196,1,8,0:0:0:0:
301,289,291294,2,6,P|407:297|504:310,3,195.999994018555,4|4|4|6,0:0|0:0|0:0|0:0,0:0:0:0:
