osu file format v14

[General]
AudioFilename: audio.mp3
AudioLeadIn: 0
PreviewTime: 20125
Countdown: 0
SampleSet: Soft
StackLeniency: 0.8
Mode: 0
LetterboxInBreaks: 0
WidescreenStoryboard: 1

[Editor]
Bookmarks: 7658,19833,20125,32593,45060,57528,69995,82463,94930,107398,135450,160385,172852,200904,225839,232073,244541,257008,266359,291294
DistanceSpacing: 1.5
BeatDivisor: 4
GridSize: 8
TimelineZoom: 1.2

[Metadata]
Title:Fuyuukan UFO
TitleUnicode:浮遊感UFO
Artist:Tsukino Mito
ArtistUnicode:月ノ美兎
Creator:Renumi
Version:Easy
Source:
Tags:indie japanese j-pop dream pop shoegaze NARASAKI vtuber 月の兎はヴァーチュアルの夢をみる Moon Rabbits Dream About Virtual VVLC-1790 2021
BeatmapID:4553211
BeatmapSetID:2159510

[Difficulty]
HPDrainRate:3
CircleSize:3
OverallDifficulty:4
ApproachRate:4
SliderMultiplier:1
SliderTickRate:1

[Events]
//Background and Video events
0,0,"bg.jpg",0,0
//Break Periods
2,232273,243221
//Storyboard Layer 0 (Background)
//Storyboard Layer 1 (Fail)
//Storyboard Layer 2 (Pass)
//Storyboard Layer 3 (Foreground)
//Storyboard Layer 4 (Overlay)
//Storyboard Sound Samples

[TimingPoints]
6879,389.61038961039,4,1,1,70,1,0
7658,389.61038961039,4,1,1,70,1,0
20125,-100,4,1,2,90,0,1
32593,-100,4,2,1,80,0,0
32982,-100,4,2,1,75,0,0
57528,-100,4,1,2,90,0,1
63761,-100,4,1,3,90,0,1
63956,-100,4,1,2,90,0,1
69995,-100,4,2,1,80,0,0
70385,-100,4,2,1,75,0,0
94930,-100,4,2,3,70,0,0
104281,-100,4,2,3,75,0,0
107398,-100,4,1,1,80,0,0
135450,-100,4,2,1,80,0,0
135839,-100,4,2,1,60,0,0
147917,-100,4,2,1,75,0,0
160385,-100,4,2,3,70,0,0
169735,-100,4,2,3,75,0,0
171489,-100,4,1,1,75,0,0
172852,-100,4,1,1,80,0,0
200904,-100,4,1,2,100,0,1
202268,-100,4,1,3,100,0,1
202463,-100,4,1,2,100,0,1
205385,-100,4,1,3,100,0,1
205580,-100,4,1,2,100,0,1
208502,-100,4,1,3,100,0,1
208696,-100,4,1,2,100,0,1
214735,-100,4,1,3,100,0,1
214930,-100,4,1,2,100,0,1
219606,-100,4,1,1,90,0,1
228956,-100,4,1,3,90,0,1
230515,-100,4,1,1,90,0,1
232073,-100,4,2,1,90,0,0
244541,-100,4,2,1,70,0,0
257008,-100,4,2,1,80,0,0
266359,-100,4,1,2,90,0,1
278826,-100,4,1,2,100,0,1
291294,-100,4,2,1,90,0,0
295969,-100,4,2,1,30,0,0

[Colours]
Combo1 : 79,151,240
Combo2 : 173,255,95
Combo3 : 255,88,100
Combo4 : 255,94,55

[HitObjects]
72,8,7658,5,2,3:0:0:0:
88,104,8047,1,8,0:0:0:0:
72,200,8437,1,2,0:3:0:0:
88,296,8826,1,8,0:0:0:0:
168,360,9216,2,0,B|208:336|208:336|272:344,1,100,2|8,0:3|0:0,0:0:0:0:
360,356,9995,2,0,B|412:362|412:362|452:338,1,100,2|8,0:3|0:0,0:0:0:0:
464,240,10774,5,2,3:0:0:0:
368,256,11163,1,8,0:0:0:0:
272,240,11553,1,2,0:3:0:0:
176,256,11942,1,8,0:0:0:0:
80,248,12333,2,0,B|64:200|64:200|80:144,1,100,2|8,0:3|0:0,0:0:0:0:
168,112,13112,2,0,B|181:64|181:64|165:16,1,100,2|8,0:3|0:0,0:0:0:0:
264,0,13891,6,0,B|296:72|296:72|280:112|280:112|312:192,1,200,2|2,3:0|0:3,0:0:0:0:
376,258,15060,1,8,0:0:0:0:
462,208,15450,2,0,P|478:169|486:112,1,100,2|8,0:3|0:0,0:0:0:0:
439,23,16229,2,0,P|400:7|343:-1,1,100,2|8,0:3|0:0,0:0:0:0:
267,64,17008,6,0,P|264:140|259:232,2,150,4|2|8,3:1|0:0|0:2,0:0:0:0:
184,6,18567,1,6,1:2:0:0:
90,40,18956,1,10,0:2:0:0:
54,133,19346,1,10,0:2:0:0:
93,224,19735,1,10,0:2:0:0:
174,282,20125,6,0,P|229:278|293:265,1,100,12|8,1:3|0:0,0:0:0:0:
308,176,20904,2,0,P|363:180|427:193,1,100,4|8,3:0|0:0,0:0:0:0:
485,250,21683,2,0,P|506:152|485:40,1,200,6|6,3:0|3:0,0:0:0:0:
293,87,23242,6,0,B|280:137|280:137|297:188,1,100,4|8,1:3|0:0,0:0:0:0:
385,238,24021,2,0,B|400:283|400:283|387:333,1,100,4|8,3:0|0:0,0:0:0:0:
287,327,24800,2,0,P|252:311|175:310,1,100,6|8,3:0|0:0,0:0:0:0:
101,352,25580,1,6,3:0:0:0:
41,272,25969,1,8,0:0:0:0:
121,212,26359,6,0,B|135:165|135:165|123:105,1,100,12|8,1:3|0:0,0:0:0:0:
176,29,27138,2,0,B|223:43|223:43|283:31,1,100,4|8,3:0|0:0,0:0:0:0:
315,123,27917,2,0,B|449:156|391:107|512:132,1,200,6|6,3:0|3:0,0:0:0:0:
487,330,29476,6,0,L|387:335,1,100,4|8,1:3|0:0,0:0:0:0:
307,275,30255,2,0,L|207:280,1,100,4|8,3:0|0:0,0:0:0:0:
122,334,31034,2,0,B|105:291|105:291|115:233,1,100,6|8,3:0|0:0,0:0:0:0:
165,152,31813,1,4,3:0:0:0:
117,64,32203,1,8,3:1:0:0:
19,87,32593,6,0,L|27:256,2,150,4|0|10,1:0|1:0|0:0,0:0:0:0:
117,64,34151,2,0,B|167:71|167:71|215:60,1,100,2|10,3:2|1:2,0:0:0:0:
306,20,34930,2,0,B|354:9|354:9|404:16,1,100,2|10,3:2|1:2,0:0:0:0:
476,85,35709,6,0,P|505:161|473:232,2,150,0|2|10,1:0|1:2|0:0,0:0:0:0:
376,100,37268,2,0,L|370:202,1,100,0|10,3:0|1:2,0:0:0:0:
327,290,38047,1,0,1:0:0:0:
244,233,38437,1,8,1:2:0:0:
165,294,38826,6,0,B|93:313|93:313|11:282,2,150,0|0|10,1:0|1:0|0:0,0:0:0:0:
244,233,40385,2,0,P|223:190|180:157,1,100,2|10,3:2|1:2,0:0:0:0:
91,200,41164,2,0,P|51:169|29:125,1,100,2|10,3:2|1:2,0:0:0:0:
44,26,41943,6,0,B|116:7|116:7|186:33,2,150,0|2|10,1:0|1:2|0:0,0:0:0:0:
29,125,43502,1,0,3:0:0:0:
213,202,44281,1,0,1:0:0:0:
274,123,44670,1,8,0:2:0:0:
373,135,45060,6,0,P|406:184|379:325,1,200,4|2,1:0|3:2,0:0:0:0:
306,381,46229,1,10,0:0:0:0:
213,343,46619,2,0,P|176:309|169:251,1,100,2|10,3:2|1:2,0:0:0:0:
249,204,47398,2,0,P|240:155|203:122,1,100,2|10,3:2|1:2,0:0:0:0:
168,29,48177,6,0,B|91:66|91:66|-28:26,1,200,0|2,1:0|1:2,0:0:0:0:
7,126,49346,1,10,0:0:0:0:
53,214,49735,2,0,L|157:217,1,100,0|10,3:0|1:2,0:0:0:0:
252,226,50515,1,0,1:0:0:0:
275,323,50904,1,8,1:2:0:0:
373,340,51294,6,0,P|418:336|450:203,1,200,0|2,1:0|3:2,0:0:0:0:
383,133,52463,1,10,0:0:0:0:
283,133,52852,2,0,P|266:83|273:34,1,100,2|10,3:2|1:2,0:0:0:0:
371,37,53632,2,0,P|388:87|381:136,1,100,2|10,3:2|1:2,0:0:0:0:
322,213,54411,6,0,B|294:282|294:282|309:369,1,150,4|2,1:2|1:2,0:0:0:0:
208,376,55385,2,0,P|159:355|116:317,1,100,2|2,1:2|1:2,0:0:0:0:
55,251,56164,1,2,0:0:0:0:
136,192,56554,2,0,P|189:167|246:83,1,150,2|14,1:2|0:2,0:0:0:0:
328,44,57528,6,0,L|437:38,1,100,12|8,1:3|0:0,0:0:0:0:
464,131,58307,2,0,L|364:136,1,100,4|8,3:0|0:0,0:0:0:0:
282,194,59086,2,0,B|253:291|253:291|303:397,1,200,6|6,3:0|3:0,0:0:0:0:
100,335,60645,6,0,P|89:285|108:218,1,100,4|8,1:3|0:0,0:0:0:0:
182,184,61424,2,0,P|190:135|179:86,1,100,4|8,3:0|0:0,0:0:0:0:
114,11,62203,2,0,B|66:23|66:23|8:8,1,100,6|8,3:0|0:0,0:0:0:0:
2,109,62982,1,6,3:0:0:0:
96,142,63372,1,12,0:0:0:0:
179,86,63761,6,0,L|282:83,1,100,12|8,1:3|0:0,0:0:0:0:
337,164,64541,2,0,L|436:161,1,100,4|8,3:0|0:0,0:0:0:0:
480,251,65320,2,0,B|388:286|388:286|288:248,1,200,6|6,3:0|3:0,0:0:0:0:
115,157,66878,6,0,P|102:129|90:61,1,100,4|8,1:3|0:0,0:0:0:0:
188,40,67658,2,0,P|201:68|213:136,1,100,4|8,3:0|0:0,0:0:0:0:
174,228,68437,1,6,3:0:0:0:
180,327,68826,1,8,0:0:0:0:
275,355,69216,1,4,3:0:0:0:
346,285,69606,1,8,3:1:0:0:
437,324,69995,5,4,1:0:0:0:
496,180,70580,2,0,P|491:125|400:82,1,150,0|10,1:0|0:0,0:0:0:0:
317,103,71554,2,0,L|204:93,1,100,2|10,3:2|1:2,0:0:0:0:
149,20,72333,2,0,B|103:36|103:36|49:28,1,100,2|10,3:2|1:2,0:0:0:0:
4,117,73112,5,0,1:0:0:0:
18,266,73696,2,0,P|84:299|151:255,1,150,2|10,1:2|0:0,0:0:0:0:
192,176,74670,2,0,P|195:136|194:73,1,100,0|10,3:0|1:2,0:0:0:0:
274,15,75450,1,0,1:0:0:0:
371,0,75839,1,8,1:2:0:0:
435,76,76229,5,0,1:0:0:0:
333,179,76813,2,0,B|313:258|313:258|344:337,1,150,0|10,1:0|0:0,0:0:0:0:
437,334,77787,2,0,P|468:308|496:244,1,100,2|10,3:2|1:2,0:0:0:0:
461,160,78567,2,0,P|424:193|403:238,1,100,2|10,3:2|1:2,0:0:0:0:
338,320,79346,5,0,1:0:0:0:
233,241,79930,2,0,B|177:231|177:231|146:245|146:245|69:235,1,150,2|10,1:2|0:0,0:0:0:0:
33,153,80904,2,0,P|16:106|4:40,2,100,0|10|0,3:0|1:2|1:0,0:0:0:0:
87,237,82073,1,8,0:2:0:0:
165,174,82463,6,0,P|259:208|324:127,1,200,4|2,1:0|3:2,0:0:0:0:
309,44,83632,1,10,0:0:0:0:
405,20,84021,2,0,L|417:119,1,100,2|10,3:2|1:2,0:0:0:0:
498,171,84800,2,0,P|494:219|486:270,1,100,2|10,3:2|1:2,0:0:0:0:
386,284,85580,6,0,P|332:287|299:153,1,200,0|2,1:0|1:2,0:0:0:0:
311,73,86748,1,10,0:0:0:0:
217,102,87138,2,0,P|169:102|116:93,1,100,0|10,3:0|1:2,0:0:0:0:
37,152,87917,1,0,1:0:0:0:
34,252,88307,1,8,1:2:0:0:
97,329,88696,6,0,L|316:336,1,200,0|2,1:0|3:2,0:0:0:0:
386,284,89865,1,10,0:0:0:0:
393,184,90255,2,0,P|360:157|299:143,1,100,2|10,3:2|1:2,0:0:0:0:
242,220,91034,2,0,P|193:209|154:178,1,100,2|10,3:2|1:2,0:0:0:0:
145,79,91813,6,0,P|175:41|276:53,1,150,4|2,1:2|1:2,0:0:0:0:
305,142,92787,1,2,1:2:0:0:
400,111,93177,1,2,1:2:0:0:
484,164,93567,2,0,L|492:273,1,100,2|2,0:0|1:2,0:0:0:0:
372,355,94541,1,14,0:2:0:0:
345,274,94930,6,0,B|320:207|320:207|343:126,1,150,4|8,3:0|0:0,0:0:0:0:
213,21,96099,1,2,0:0:0:0:
166,109,96489,2,0,B|191:176|191:176|168:257,1,150,4|8,3:0|0:0,0:0:0:0:
56,349,97658,1,2,0:0:0:0:
13,258,98047,2,0,P|8:206|99:187,1,150,4|8,3:0|0:0,0:0:0:0:
238,183,99216,1,2,0:0:0:0:
312,249,99606,2,0,P|371:249|421:235,1,100,4|2,3:0|3:2,0:0:0:0:
464,154,100385,2,0,P|464:95|450:45,1,100,2|2,0:0|0:0,0:0:0:0:
358,24,101164,6,0,L|195:31,1,150,4|8,3:0|0:0,0:0:0:0:
114,148,102333,1,0,0:0:0:0:
185,217,102722,2,0,L|304:211,1,100,4|0,3:0|3:0,0:0:0:0:
249,306,103502,2,0,L|149:310,1,100,2|2,0:0|0:0,0:0:0:0:
55,275,104281,5,4,3:0:0:0:
32,177,104670,1,4,3:0:0:0:
91,96,105060,1,4,3:0:0:0:
189,114,105450,2,0,P|236:89|309:9,2,150,4|10|12,3:0|0:0|0:0,0:0:0:0:
91,96,107008,1,8,1:2:0:0:
51,187,107398,6,0,P|52:234|66:296,1,100,6|8,3:1|0:0,0:0:0:0:
142,346,108177,1,2,0:0:0:0:
270,269,108761,2,0,B|241:177|299:224|251:101,1,150,2|8,0:0|0:0,0:0:0:0:
283,25,109735,2,0,P|316:42|381:63,1,100,2|12,0:0|0:0,0:0:0:0:
474,82,110515,5,2,3:2:0:0:
453,179,110904,1,8,0:0:0:0:
473,276,111294,1,0,3:0:0:0:
273,292,112073,1,2,3:1:0:0:
178,322,112463,1,10,0:0:0:0:
199,225,112852,1,2,3:1:0:0:
179,128,113242,1,10,0:0:0:0:
124,44,113632,6,0,P|73:34|21:38,1,100,6|8,3:1|0:0,0:0:0:0:
28,137,114411,1,2,0:0:0:0:
179,128,114995,2,0,P|187:181|171:294,1,150,2|8,0:0|0:0,0:0:0:0:
223,364,115969,2,0,P|273:357|325:343,1,100,2|12,0:0|0:0,0:0:0:0:
406,292,116748,5,2,3:2:0:0:
481,226,117138,1,8,0:0:0:0:
510,130,117528,1,0,3:0:0:0:
352,7,118307,1,2,3:1:0:0:
277,73,118697,1,10,0:0:0:0:
248,169,119087,1,2,3:1:0:0:
148,179,119476,1,10,0:0:0:0:
126,276,119865,6,0,P|68:274|27:250,1,100,6|8,3:1|0:0,0:0:0:0:
0,157,120645,2,0,P|5:79|27:2,2,150,2|2|8,0:0|0:0|0:0,0:0:0:0:
32,254,122203,2,0,P|31:303|17:352,1,100,2|12,0:0|0:0,0:0:0:0:
113,379,122982,5,2,3:2:0:0:
202,334,123372,1,8,0:0:0:0:
290,380,123761,1,0,3:0:0:0:
405,216,124541,1,2,3:1:0:0:
309,189,124930,1,10,0:0:0:0:
220,234,125320,1,2,3:1:0:0:
132,188,125709,1,10,0:0:0:0:
60,118,126099,6,0,P|51:61|56:10,1,100,6|8,3:1|0:0,0:0:0:0:
150,44,126878,2,0,L|156:201,2,150,2|2|8,0:0|0:0|0:0,0:0:0:0:
246,14,128437,2,0,P|298:16|365:6,1,100,2|12,0:0|0:0,0:0:0:0:
445,21,129216,5,2,3:2:0:0:
416,117,129606,1,8,0:0:0:0:
466,203,129995,1,0,3:0:0:0:
339,357,130774,1,2,3:1:0:0:
300,264,131164,1,10,0:0:0:0:
314,164,131554,1,2,3:1:0:0:
260,79,131943,1,10,0:0:0:0:
166,43,132333,6,0,P|124:32|18:84,1,150,2|2,3:1|3:2,0:0:0:0:
16,169,133307,1,8,0:0:0:0:
114,151,133696,1,8,0:0:0:0:
174,230,134086,2,0,P|216:241|322:189,1,150,8|8,0:0|3:1,0:0:0:0:
346,108,135060,1,8,0:0:0:0:
445,102,135450,5,0,1:0:0:0:
501,184,135839,2,0,P|494:250|449:388,1,200,8|8,1:2|0:0,0:0:0:0:
358,365,137008,1,0,1:0:0:0:
256,192,137787,1,0,1:0:0:0:
154,365,138567,5,0,1:0:0:0:
57,377,138956,2,0,P|24:282|11:184,1,200,10|8,1:2|0:0,0:0:0:0:
76,107,140125,1,0,1:0:0:0:
256,192,140904,2,0,B|303:205|303:205|365:188,1,100,0|8,1:0|0:0,0:0:0:0:
416,114,141683,5,0,1:0:0:0:
376,21,142073,2,0,B|246:62|326:-6|163:35,1,200,8|8,1:2|0:0,0:0:0:0:
135,120,143242,1,0,1:0:0:0:
328,192,144021,1,0,1:0:0:0:
135,264,144800,5,0,1:0:0:0:
180,353,145190,2,0,B|326:390|246:322|376:363,1,200,10|8,1:2|0:0,0:0:0:0:
465,319,146359,1,0,1:0:0:0:
406,141,147138,1,0,1:0:0:0:
323,198,147528,1,0,1:0:0:0:
230,160,147917,6,0,P|218:111|227:-7,1,150,4|0,1:0|1:0,0:0:0:0:
71,12,149086,1,10,0:0:0:0:
97,108,149476,2,0,P|49:120|-1:117,1,100,2|10,3:2|1:2,0:0:0:0:
2,217,150255,2,0,P|50:204|100:207,1,100,2|10,3:2|1:2,0:0:0:0:
200,208,151034,6,0,L|212:370,1,150,0|2,1:0|1:2,0:0:0:0:
360,343,152203,1,10,0:0:0:0:
440,283,152593,2,0,P|451:240|455:165,1,100,0|10,3:0|1:2,0:0:0:0:
392,106,153372,1,0,1:0:0:0:
299,143,153761,1,8,1:2:0:0:
225,75,154151,6,0,B|157:50|157:50|70:67,1,150,0|0,1:0|1:0,0:0:0:0:
16,200,155320,1,10,0:0:0:0:
115,200,155709,2,0,P|140:255|141:306,1,100,2|10,3:2|1:2,0:0:0:0:
80,372,156489,2,0,P|55:317|54:266,1,100,2|10,3:2|1:2,0:0:0:0:
115,200,157268,6,0,B|183:225|183:225|259:210,1,150,4|2,1:2|1:2,0:0:0:0:
346,160,158242,1,2,1:2:0:0:
432,210,158632,1,2,1:2:0:0:
500,136,159021,1,2,0:0:0:0:
466,41,159411,2,0,L|298:27,1,150,2|14,1:2|0:2,0:0:0:0:
228,75,160385,6,0,L|57:67,1,150,4|8,3:0|0:0,0:0:0:0:
68,217,161554,1,2,0:0:0:0:
163,186,161943,2,0,L|312:193,1,150,4|8,3:0|0:0,0:0:0:0:
410,307,163112,1,2,0:0:0:0:
478,234,163502,2,0,P|500:169|477:87,1,150,4|8,3:0|0:0,0:0:0:0:
330,79,164670,1,2,0:0:0:0:
261,151,165060,2,0,L|261:257,1,100,4|2,3:0|3:2,0:0:0:0:
271,350,165839,2,0,P|213:356|157:341,1,100,2|2,0:0|0:0,0:0:0:0:
141,251,166619,6,0,B|71:229|71:229|-8:251,1,150,4|8,3:0|0:0,0:0:0:0:
1,99,167787,1,0,0:0:0:0:
84,43,168177,2,0,B|132:58|132:58|188:43,1,100,4|0,3:0|3:0,0:0:0:0:
277,23,168956,2,0,L|270:138,1,100,2|2,0:0|0:0,0:0:0:0:
330,203,169735,5,4,3:0:0:0:
396,277,170125,1,4,3:0:0:0:
489,240,170515,1,4,3:0:0:0:
447,149,170904,2,0,B|436:73|436:73|477:3,2,150,4|10|12,3:0|0:0|0:0,0:0:0:0:
287,270,172852,6,0,L|278:171,1,100,6|8,3:1|0:0,0:0:0:0:
188,124,173632,1,2,0:0:0:0:
49,181,174216,2,0,B|39:277|75:220|56:351,1,150,2|8,0:0|0:0,0:0:0:0:
146,377,175190,2,0,P|185:314|197:277,1,100,2|12,0:0|0:0,0:0:0:0:
209,191,175969,5,2,3:2:0:0:
291,248,176359,1,8,0:0:0:0:
382,208,176748,1,0,3:0:0:0:
251,55,177528,1,2,3:1:0:0:
167,0,177918,1,10,0:0:0:0:
84,47,178307,1,2,3:1:0:0:
167,101,178696,1,10,0:0:0:0:
251,55,179086,6,0,B|303:51|303:51|355:72,1,100,6|8,3:1|0:0,0:0:0:0:
407,148,179865,1,2,0:0:0:0:
333,275,180450,2,0,P|277:299|203:254,1,150,2|8,0:0|0:0,0:0:0:0:
155,170,181424,2,0,L|51:164,1,100,2|12,0:0|0:0,0:0:0:0:
41,55,182203,5,2,3:2:0:0:
140,61,182593,1,8,0:0:0:0:
239,67,182982,1,0,3:0:0:0:
181,258,183761,1,2,3:1:0:0:
280,264,184150,1,10,0:0:0:0:
379,270,184540,1,2,3:1:0:0:
478,276,184930,1,10,0:0:0:0:
493,177,185320,6,0,B|479:127|479:127|493:77,1,100,6|8,3:1|0:0,0:0:0:0:
404,32,186099,2,0,P|329:37|247:24,2,150,2|2|8,0:0|0:0|0:0,0:0:0:0:
491,80,187658,2,0,L|495:183,1,100,2|12,0:0|0:0,0:0:0:0:
473,277,188437,5,2,3:2:0:0:
387,329,188826,1,8,0:0:0:0:
298,283,189216,1,0,3:0:0:0:
310,83,189995,1,2,3:1:0:0:
221,37,190385,1,10,0:0:0:0:
135,89,190774,2,0,L|145:202,1,100,2|10,3:1|0:0,0:0:0:0:
103,280,191554,6,0,P|51:285|0:286,1,100,6|8,3:1|0:0,0:0:0:0:
9,186,192333,2,0,P|11:125|-2:33,2,150,2|2|8,0:0|0:0|0:0,0:0:0:0:
3,286,193891,2,0,P|53:284|103:279,1,100,2|12,0:0|0:0,0:0:0:0:
189,229,194670,5,2,3:2:0:0:
285,255,195060,1,8,0:0:0:0:
327,345,195450,1,0,3:0:0:0:
508,260,196229,1,2,3:1:0:0:
412,234,196619,1,10,0:0:0:0:
370,144,197009,1,2,3:1:0:0:
401,49,197398,1,10,0:0:0:0:
301,44,197787,6,0,B|227:62|227:62|134:36,1,150,2|2,3:1|3:2,0:0:0:0:
56,26,198761,2,0,L|67:178,1,150,8|2,0:0|3:1,0:0:0:0:
7,256,199735,1,10,0:0:0:0:
78,326,200125,1,10,3:1:0:0:
166,280,200515,1,10,0:0:0:0:
254,325,200904,5,4,3:0:0:0:
374,235,201489,2,0,B|423:222|423:222|484:233,1,100,12|8,0:0|3:1,0:0:0:0:
489,332,202268,2,0,P|416:352|337:324,1,150,4|8,0:3|0:0,0:0:0:0:
256,288,203242,1,12,0:0:0:0:
256,192,203632,1,8,0:0:0:0:
256,96,204021,5,4,3:0:0:0:
138,149,204606,2,0,B|89:162|89:162|28:151,1,100,12|8,0:0|3:1,0:0:0:0:
23,52,205385,2,0,P|96:32|175:60,1,150,4|8,0:3|0:0,0:0:0:0:
256,88,206359,1,12,0:0:0:0:
256,192,206748,1,8,0:0:0:0:
256,288,207138,6,0,P|305:296|357:293,1,100,4|2,3:0|3:1,0:0:0:0:
438,238,207917,2,0,P|448:162|444:72,1,150,2|4,3:1|0:3,0:0:0:0:
378,15,208891,1,0,3:0:0:0:
256,96,209476,1,12,0:0:0:0:
256,192,209865,1,8,0:0:0:0:
256,288,210255,6,0,P|207:296|155:293,1,100,4|0,3:0|3:0,0:0:0:0:
74,238,211034,2,0,P|64:162|68:72,1,150,2|12,3:2|0:3,0:0:0:0:
116,2,212008,1,2,3:1:0:0:
211,33,212398,2,0,P|221:109|217:199,1,150,10|8,3:1|0:0,0:0:0:0:
162,264,213372,5,12,3:0:0:0:
312,336,213956,2,0,B|359:324|359:324|413:336,1,100,12|8,0:0|3:1,0:0:0:0:
508,324,214735,2,0,P|506:241|456:192,1,150,4|8,0:3|0:0,0:0:0:0:
360,192,215709,1,12,0:0:0:0:
256,192,216099,1,8,0:0:0:0:
152,192,216489,5,4,3:0:0:0:
200,48,217073,2,0,B|153:60|153:60|99:48,1,100,12|8,0:0|3:1,0:0:0:0:
4,60,217852,2,0,P|6:143|56:192,1,150,4|8,0:3|0:0,0:0:0:0:
152,192,218826,1,12,0:0:0:0:
256,192,219216,1,10,0:0:0:0:
360,192,219606,5,4,3:1:0:0:
401,336,220190,2,0,P|355:345|291:333,1,100,0|0,3:0|0:0,0:0:0:0:
241,258,220969,2,0,P|241:196|246:102,1,150,2|8,0:0|0:0,0:0:0:0:
146,91,221943,1,0,0:0:0:0:
71,23,222333,1,10,0:0:0:0:
3,96,222722,6,0,P|22:145|54:187,1,100,2|8,3:1|0:0,0:0:0:0:
120,254,223502,2,0,P|192:246|282:243,2,150,2|2|10,0:0|0:0|0:0,0:0:0:0:
22,278,225060,1,2,0:0:0:0:
50,182,225450,1,10,0:0:0:0:
3,96,225839,6,0,B|129:82|81:119|209:86,1,200,4|0,3:1|0:0,0:0:0:0:
278,23,227008,1,8,0:0:0:0:
357,84,227398,2,0,P|418:89|471:87,1,100,2|8,3:2|0:0,0:0:0:0:
508,173,228177,2,0,P|473:223|448:270,1,100,2|8,0:2|0:0,0:0:0:0:
355,259,228956,5,4,3:0:0:0:
308,170,229346,1,4,3:0:0:0:
220,216,229735,1,4,3:0:0:0:
266,305,230125,2,0,P|211:356|127:345,2,150,4|8|8,3:0|0:0|0:0,0:0:0:0:
220,216,231683,1,8,0:0:0:0:
239,117,232073,5,4,0:0:0:0:
187,306,244541,5,2,3:2:0:0:
187,306,245320,1,0,0:0:0:0:
142,123,246099,1,0,3:0:0:0:
142,123,246878,1,0,0:0:0:0:
325,78,247658,1,0,3:0:0:0:
325,78,248437,1,0,0:0:0:0:
370,261,249216,1,2,3:2:0:0:
370,261,249995,1,6,3:2:0:0:
182,194,250774,5,2,3:2:0:0:
249,5,251554,1,2,3:2:0:0:
437,72,252333,1,0,3:0:0:0:
370,261,253112,1,2,3:2:0:0:
182,194,253891,1,0,3:0:0:0:
249,5,254671,1,2,3:2:0:0:
437,72,255450,2,0,P|434:124|417:177,1,100,2|2,3:1|0:0,0:0:0:0:
370,261,256229,2,0,P|355:308|353:358,1,100,2|2,3:1|0:0,0:0:0:0:
258,384,257008,5,6,3:2:0:0:
171,333,257398,2,0,B|102:309|102:309|17:321,1,150,0|8,3:0|0:0,0:0:0:0:
13,170,258567,2,0,L|27:59,1,100,6|10,3:2|0:0,0:0:0:0:
124,59,259346,2,0,L|111:158,1,100,2|2,3:2|3:2,0:0:0:0:
170,238,260125,5,6,3:2:0:0:
262,275,260515,2,0,P|282:214|276:113,1,150,0|8,3:0|0:0,0:0:0:0:
383,20,261683,2,0,L|487:27,1,100,6|10,3:2|0:0,0:0:0:0:
510,123,262463,2,0,L|503:227,1,100,2|2,3:2|3:2,0:0:0:0:
425,285,263242,5,6,3:2:0:0:
330,249,263632,2,0,P|290:209|250:109,1,150,0|8,3:0|0:0,0:0:0:0:
120,53,264800,1,6,3:2:0:0:
72,141,265190,1,10,0:0:0:0:
132,220,265580,1,10,3:2:0:0:
91,311,265969,1,10,0:0:0:0:
175,364,266359,6,0,B|226:371|226:371|287:346,1,100,12|8,1:3|0:0,0:0:0:0:
293,255,267138,2,0,B|337:236|337:236|388:243,1,100,4|8,3:0|0:0,0:0:0:0:
484,214,267917,2,0,P|503:114|467:13,1,200,6|6,3:0|3:0,0:0:0:0:
374,8,269086,1,8,0:0:0:0:
324,96,269476,6,0,L|213:82,1,100,4|8,1:3|0:0,0:0:0:0:
154,155,270255,2,0,P|143:201|141:254,1,100,4|8,3:0|0:0,0:0:0:0:
205,332,271034,2,0,L|304:344,1,100,6|8,3:0|0:0,0:0:0:0:
393,294,271813,1,6,3:0:0:0:
322,229,272203,1,8,0:0:0:0:
216,215,272593,6,0,P|218:145|341:103,1,200,12|4,1:3|3:0,0:0:0:0:
401,160,273761,1,8,0:0:0:0:
412,259,274151,2,0,B|459:275|459:275|516:265,1,100,6|8,3:0|0:0,0:0:0:0:
497,167,274930,2,0,B|450:151|450:151|393:161,1,100,6|8,3:0|0:0,0:0:0:0:
322,229,275709,6,0,P|230:203|213:110,1,200,4|4,1:3|3:0,0:0:0:0:
150,32,276878,1,8,0:0:0:0:
53,58,277268,2,0,P|22:97|-2:149,1,100,6|8,3:0|0:0,0:0:0:0:
12,242,278047,1,2,3:1:0:0:
76,318,278437,1,8,3:1:0:0:
175,313,278826,6,0,P|206:274|230:222,1,100,12|10,1:3|0:0,0:0:0:0:
312,175,279606,2,0,P|356:200|413:214,1,100,4|10,3:0|0:0,0:0:0:0:
483,152,280385,1,4,3:0:0:0:
492,52,280774,1,8,0:0:0:0:
399,12,281164,2,0,B|380:60|380:60|390:111,1,100,6|8,3:0|0:0,0:0:0:0:
312,175,281943,6,0,P|261:160|210:157,1,100,4|10,1:3|0:0,0:0:0:0:
240,253,282722,2,0,P|291:268|342:271,1,100,4|8,3:0|0:0,0:0:0:0:
298,363,283502,1,6,3:0:0:0:
198,368,283891,1,8,0:0:0:0:
117,308,284281,2,0,P|66:293|15:290,1,100,6|8,3:0|0:0,0:0:0:0:
42,192,285060,6,0,B|58:144|58:144|50:87,1,100,12|10,1:3|0:0,0:0:0:0:
160,55,285839,2,0,B|144:103|144:103|152:160,1,100,4|10,3:0|0:0,0:0:0:0:
211,231,286619,1,6,3:0:0:0:
298,182,287008,1,8,0:0:0:0:
372,248,287398,2,0,P|421:261|472:263,1,100,6|8,3:0|0:0,0:0:0:0:
512,169,288177,5,4,1:3:0:0:
319,114,288956,1,0,3:0:0:0:
256,192,289346,1,8,0:0:0:0:
160,163,289735,2,0,B|109:157|109:157|46:191,1,100,12|8,3:1|0:0,0:0:0:0:
103,273,290515,1,0,3:0:0:0:
202,283,290904,1,8,0:0:0:0:
256,192,291294,5,4,0:0:0:0:
256,192,291391,12,6,295969,0:0:0:0:
