osu file format v14

[General]
AudioFilename: audio.mp3
AudioLeadIn: 0
PreviewTime: 74102
Countdown: 1
SampleSet: Soft
StackLeniency: 0.5
Mode: 0
LetterboxInBreaks: 0
WidescreenStoryboard: 0

[Editor]
DistanceSpacing: 1
BeatDivisor: 4
GridSize: 16
TimelineZoom: 2.599999

[Metadata]
Title:Watashi, Idol Sengen
TitleUnicode:私、アイドル宣⾔
Artist:Tsukino
ArtistUnicode:月乃
Creator:yuituri
Version:Ichiban no idol ni naru tame ni!
Source:
Tags:
BeatmapID:2134721
BeatmapSetID:1020215

[Difficulty]
HPDrainRate:6
CircleSize:4
OverallDifficulty:9
ApproachRate:9.3
SliderMultiplier:1.4
SliderTickRate:1

[Events]
//Background and Video events
0,0,"loli idol tenka chan.png",0,0
//Break Periods
//Storyboard Layer 0 (Background)
//Storyboard Layer 1 (Fail)
//Storyboard Layer 2 (Pass)
//Storyboard Layer 3 (Foreground)
//Storyboard Layer 4 (Overlay)
//Storyboard Sound Samples

[TimingPoints]
16603,333.333333333333,4,2,0,50,1,0
16603,-71.4285714285714,4,2,0,50,0,0
26936,-62.5,4,2,0,50,0,0
27269,-83.3333333333333,4,2,0,50,0,0
37936,-100,4,2,0,50,0,0
53936,-90.9090909090909,4,2,0,50,0,0
61769,-125,4,2,0,50,0,0
64269,-250,4,2,0,50,0,0
64602,-100,4,2,0,50,0,0
69269,-76.9230769230769,4,2,0,50,0,0
70769,-90.9090909090909,4,2,0,50,0,0
75269,-71.4285714285714,4,2,0,50,0,0
101602,-62.5,4,2,0,50,0,0
101936,-71.4285714285714,4,2,0,50,0,0

[Colours]
Combo1 : 255,128,192
Combo2 : 128,0,255
Combo3 : 128,128,255

[HitObjects]
0,107,16603,6,0,B|39:67|39:67|156:95,1,146.999995513916
147,106,16936,2,0,P|145:155|119:202,1,97.9999970092774
258,291,17269,2,0,P|248:238|230:195,2,97.9999970092774
63,132,17769,1,0,0:0:0:0:
236,106,17936,1,0,0:0:0:0:
40,215,18103,1,0,0:0:0:0:
318,159,18269,1,0,0:0:0:0:
159,33,18436,1,0,0:0:0:0:
159,33,18603,6,0,L|150:137,1,97.9999970092774
239,295,18936,2,0,L|230:191,1,97.9999970092774
17,145,19269,2,0,P|-12:209|10:300,1,146.999995513916
17,294,19603,2,0,P|62:297|125:294,1,97.9999970092774
250,190,19936,2,0,P|204:193|142:190,2,97.9999970092774
186,355,20436,1,0,0:0:0:0:
203,116,20603,1,0,0:0:0:0:
366,250,20769,1,0,0:0:0:0:
138,207,20936,1,0,0:0:0:0:
471,229,21103,5,0,0:0:0:0:
476,277,21186,1,0,0:0:0:0:
481,326,21269,1,0,0:0:0:0:
352,378,21436,1,0,0:0:0:0:
242,286,21603,1,0,0:0:0:0:
267,145,21769,1,0,0:0:0:0:
402,97,21936,5,0,0:0:0:0:
215,46,22269,1,0,0:0:0:0:
328,28,22436,1,0,0:0:0:0:
328,28,22769,1,0,0:0:0:0:
328,28,23103,1,0,0:0:0:0:
191,84,23269,5,0,0:0:0:0:
202,56,23436,1,0,0:0:0:0:
63,109,23603,5,0,0:0:0:0:
108,225,23770,1,0,0:0:0:0:
108,225,24103,6,0,P|133:234|165:234,1,48.9999985046387
283,203,24269,1,0,0:0:0:0:
283,203,24436,1,0,0:0:0:0:
258,83,24603,2,0,L|240:292,1,195.999994018555
358,172,25103,2,0,P|404:153|460:152,1,97.9999970092774
155,235,25436,2,0,P|109:216|53:215,1,97.9999970092774
41,231,25686,1,0,0:0:0:0:
41,231,25769,5,0,0:0:0:0:
41,231,26103,1,0,0:0:0:0:
255,287,26269,1,0,0:0:0:0:
0,300,26436,1,0,0:0:0:0:
171,138,26603,1,0,0:0:0:0:
265,295,26936,6,0,P|276:240|281:301,1,168
311,308,27269,2,0,B|276:337|276:337|183:321,1,125.999996154785
181,306,27603,1,0,0:0:0:0:
299,144,27769,1,0,0:0:0:0:
299,144,28103,2,0,L|208:119,1,83.9999974365235
319,267,28436,2,0,L|410:242,1,83.9999974365235
187,226,28769,1,0,0:0:0:0:
285,41,28936,1,0,0:0:0:0:
312,160,29103,1,0,0:0:0:0:
103,159,29269,5,0,0:0:0:0:
362,90,29436,1,0,0:0:0:0:
153,87,29603,5,0,0:0:0:0:
399,164,29770,1,0,0:0:0:0:
207,170,29936,6,0,L|218:317,1,125.999996154785
234,310,30269,1,0,0:0:0:0:
53,369,30436,1,0,0:0:0:0:
53,369,30769,2,0,P|62:326|70:279,1,83.9999974365235
170,100,31103,2,0,P|179:142|187:190,1,83.9999974365235
41,13,31436,1,0,0:0:0:0:
0,205,31603,1,0,0:0:0:0:
254,125,31769,1,0,0:0:0:0:
43,111,31936,5,0,0:0:0:0:
146,348,32103,1,0,0:0:0:0:
141,142,32269,5,0,0:0:0:0:
38,379,32436,1,0,0:0:0:0:
159,133,32603,2,0,P|219:158|274:203,1,125.999996154785
273,216,32936,1,0,0:0:0:0:
392,384,33103,1,0,0:0:0:0:
392,384,33436,2,0,B|404:336|382:285|368:319|347:270|357:225,1,167.999994873047
472,121,33936,2,0,P|452:173|466:250,1,125.999996154785
484,251,34269,1,0,0:0:0:0:
253,184,34436,1,0,0:0:0:0:
253,184,34769,2,0,P|216:242|257:334,1,167.999994873047
256,92,35269,5,0,0:0:0:0:
256,92,35603,1,0,0:0:0:0:
297,92,35686,1,0,0:0:0:0:
330,117,35769,1,0,0:0:0:0:
364,140,35853,1,0,0:0:0:0:
406,139,35936,1,0,0:0:0:0:
503,17,36103,2,0,P|462:18|407:34,1,83.9999974365235
503,271,36436,2,0,B|503:233|488:210|488:210|488:171|519:137|519:137|513:118|501:107|501:107|494:133|484:146,1,209.999993591309
478,148,36936,5,0,0:0:0:0:
474,189,37019,1,0,0:0:0:0:
471,231,37102,1,0,0:0:0:0:
468,273,37186,1,0,0:0:0:0:
465,315,37269,5,0,0:0:0:0:
443,293,37352,1,0,0:0:0:0:
415,280,37435,1,0,0:0:0:0:
383,277,37519,1,0,0:0:0:0:
353,284,37603,5,0,0:0:0:0:
336,296,37686,1,0,0:0:0:0:
316,302,37769,1,0,0:0:0:0:
295,302,37853,1,0,0:0:0:0:
273,294,37936,2,0,L|263:209,1,70
256,128,38269,1,0,0:0:0:0:
256,128,38603,6,0,P|223:117|186:117,1,70
335,73,38936,2,0,P|368:62|405:62,1,70
256,13,39269,1,0,0:0:0:0:
256,13,39602,1,0,0:0:0:0:
116,159,39936,6,0,L|107:79,1,70
202,268,40269,2,0,L|211:188,1,70
116,377,40602,2,0,P|147:363|187:364,1,70
277,323,40936,2,0,P|308:337|348:336,1,70
455,251,41269,2,0,P|424:237|384:238,1,70
294,197,41603,2,0,P|263:211|223:210,1,70
32,161,41936,6,0,L|143:177,1,105
159,162,42269,2,0,P|148:200|146:241,1,70
336,295,42602,2,0,L|225:311,1,105
209,296,42935,2,0,P|219:334|222:375,1,70
282,181,43269,6,0,L|386:191,1,105
405,178,43602,1,0,0:0:0:0:
345,60,43769,1,0,0:0:0:0:
345,60,43936,2,0,L|275:49,1,70
443,19,44269,2,0,L|512:8,1,70
493,212,44602,6,0,B|507:171|507:171|475:91,1,105
465,107,44936,1,0,0:0:0:0:
426,265,45102,1,0,0:0:0:0:
296,166,45269,2,0,L|374:180,1,70
512,262,45602,2,0,L|395:285,1,105
396,295,45936,6,0,P|395:366|449:366,1,140
321,253,46436,2,0,L|252:269,2,70
134,338,46936,2,0,P|176:342|247:365,1,105
255,352,47269,2,0,P|288:292|240:252,1,140
77,250,47769,1,0,0:0:0:0:
111,241,47852,1,0,0:0:0:0:
150,235,47936,2,0,P|162:202|167:157,1,70
64,264,48269,2,0,P|76:296|81:342,1,70
72,162,48602,6,0,B|60:122|60:122|85:49,1,105
102,54,48936,1,0,0:0:0:0:
102,54,49102,1,0,0:0:0:0:
227,120,49269,2,0,L|151:131,1,70
289,26,49602,2,0,L|365:37,1,70
469,138,49936,2,0,P|486:87|465:26,1,105
456,31,50269,1,0,0:0:0:0:
456,31,50436,1,0,0:0:0:0:
298,153,50602,5,0,0:0:0:0:
495,219,50769,1,0,0:0:0:0:
383,111,50936,1,0,0:0:0:0:
323,271,51102,1,0,0:0:0:0:
472,302,51269,6,0,L|396:310,1,70
237,361,51602,2,0,L|313:369,1,70
464,318,51936,2,0,L|388:326,1,70
229,377,52269,2,0,L|305:385,1,70
302,189,52602,2,0,B|316:227|316:227|289:309,1,105
279,298,52936,1,0,0:0:0:0:
279,298,53102,1,0,0:0:0:0:
232,135,53269,5,0,0:0:0:0:
174,293,53436,1,0,0:0:0:0:
212,150,53602,1,0,0:0:0:0:
170,269,53769,1,0,0:0:0:0:
106,80,53936,6,0,P|109:117|106:168,1,77.0000023498536
43,277,54269,2,0,B|75:259|75:259|113:277|172:281,1,115.50000352478
170,269,54602,2,0,P|190:304|196:358,1,77.0000023498536
16,381,54936,2,0,L|31:260,1,115.50000352478
16,250,55269,2,0,P|62:237|94:212,1,77.0000023498536
57,65,55602,2,0,L|94:54,1,38.5000011749268
33,81,55769,2,0,P|21:122|28:166,2,77.0000023498536
216,126,56269,2,0,L|139:145,1,77.0000023498536
260,24,56602,6,0,L|380:41,1,115.50000352478
391,48,56936,1,0,0:0:0:0:
369,135,57019,1,0,0:0:0:0:
424,207,57102,1,0,0:0:0:0:
351,125,57186,1,0,0:0:0:0:
323,227,57269,1,0,0:0:0:0:
323,227,57602,5,0,0:0:0:0:
256,191,57686,1,0,0:0:0:0:
254,267,57769,1,0,0:0:0:0:
315,309,57852,1,0,0:0:0:0:
390,285,57936,1,0,0:0:0:0:
390,285,58269,5,0,0:0:0:0:
402,201,58380,1,0,0:0:0:0:
351,133,58491,1,0,0:0:0:0:
427,174,58602,1,0,0:0:0:0:
457,258,58714,1,0,0:0:0:0:
385,302,58825,1,0,0:0:0:0:
310,296,58936,1,0,0:0:0:0:
398,319,59047,1,0,0:0:0:0:
294,274,59158,1,0,0:0:0:0:
320,378,59269,5,0,0:0:0:0:
306,355,59602,1,0,0:0:0:0:
293,333,59936,1,0,0:0:0:0:
280,311,60269,1,0,0:0:0:0:
212,230,60436,6,0,L|207:275,1,38.5000011749268
131,321,60602,5,0,0:0:0:0:
153,334,60935,1,0,0:0:0:0:
175,347,61269,1,0,0:0:0:0:
197,360,61602,1,0,0:0:0:0:
112,315,61769,5,0,0:0:0:0:
84,320,61852,1,0,0:0:0:0:
58,327,61936,2,0,P|57:277|42:227,1,84
0,178,62352,1,0,0:0:0:0:
0,178,62435,2,0,L|93:165,1,84
180,237,62852,1,0,0:0:0:0:
180,237,62935,2,0,L|119:230,1,56
209,152,63269,2,0,P|179:115|159:157,2,112
209,152,64269,6,0,L|262:158,1,42
266,148,64602,2,0,B|300:108|300:108|275:2,1,140
346,174,65102,5,0,0:0:0:0:
372,40,65269,1,0,0:0:0:0:
436,206,65436,1,0,0:0:0:0:
465,21,65602,1,0,0:0:0:0:
299,108,65769,1,0,0:0:0:0:
495,116,65936,6,0,P|458:112|414:115,1,70
367,251,66269,1,0,0:0:0:0:
294,31,66436,1,0,0:0:0:0:
262,179,66602,1,0,0:0:0:0:
349,95,66769,1,0,0:0:0:0:
367,251,66936,2,0,L|358:173,1,70
275,277,67269,6,0,P|241:268|204:268,1,70
344,335,67602,1,0,0:0:0:0:
232,349,67769,1,0,0:0:0:0:
367,251,67936,2,0,P|401:242|438:242,1,70
512,355,68269,2,0,P|478:346|441:346,1,70
287,265,68602,2,0,L|274:197,1,70
373,97,68936,2,0,L|359:165,1,70
279,0,69269,6,0,B|239:34|239:34|141:24,1,136.499993751526
139,44,69602,2,0,P|175:105|170:178,1,136.499993751526
154,190,69936,2,0,B|189:181|235:192|206:203|249:212|286:196,1,136.499993751526
302,185,70269,1,0,0:0:0:0:
191,268,70436,1,0,0:0:0:0:
125,59,70602,1,0,0:0:0:0:
0,58,70769,2,0,B|51:53|51:53|96:80|96:80|155:78,1,154.000004699707
21,216,71269,6,0,P|22:178|38:126,1,77.0000023498536
112,281,71602,1,0,0:0:0:0:
21,372,71769,1,0,0:0:0:0:
108,196,71936,1,0,0:0:0:0:
199,287,72102,2,0,B|223:320|271:322|271:322|301:293|344:293,1,154.000004699707
236,153,72602,6,0,P|246:192|252:238,1,77.0000023498536
401,384,72936,2,0,P|403:347|417:299,1,77.0000023498536
161,369,73269,1,0,0:0:0:0:
323,178,73436,1,0,0:0:0:0:
482,365,73602,1,0,0:0:0:0:
217,305,73769,1,0,0:0:0:0:
217,305,75269,6,0,L|201:203,1,97.9999970092774
94,384,75602,2,0,L|110:282,1,97.9999970092774
295,253,75936,1,0,0:0:0:0:
22,340,76102,1,0,0:0:0:0:
228,384,76269,1,0,0:0:0:0:
120,202,76436,6,0,P|166:185|222:202,1,97.9999970092774
39,323,76769,1,0,0:0:0:0:
169,108,76936,1,0,0:0:0:0:
173,274,77102,1,0,0:0:0:0:
84,76,77269,1,0,0:0:0:0:
27,306,77436,1,0,0:0:0:0:
225,181,77602,1,0,0:0:0:0:
0,100,77769,1,0,0:0:0:0:
280,91,77936,6,0,P|232:87|183:91,1,97.9999970092774
25,0,78269,2,0,P|73:-4|122:0,1,97.9999970092774
239,168,78602,1,0,0:0:0:0:
70,78,78769,1,0,0:0:0:0:
88,241,78936,1,0,0:0:0:0:
137,18,79102,6,0,B|160:52|160:52|146:129,1,97.9999970092774
76,261,79436,1,0,0:0:0:0:
84,64,79602,1,0,0:0:0:0:
164,290,79769,1,0,0:0:0:0:
225,6,79936,1,0,0:0:0:0:
70,78,80102,1,0,0:0:0:0:
248,88,80269,1,0,0:0:0:0:
19,6,80436,1,0,0:0:0:0:
270,78,80602,6,0,P|319:65|368:65,1,97.9999970092774
227,213,80936,1,0,0:0:0:0:
426,247,81102,1,0,0:0:0:0:
212,232,81269,2,0,L|202:336,1,97.9999970092774
329,146,81602,2,0,L|339:250,1,97.9999970092774
492,357,81936,6,0,P|442:344|394:344,1,97.9999970092774
497,178,82269,1,0,0:0:0:0:
311,135,82436,1,0,0:0:0:0:
512,52,82602,2,0,L|453:64,1,48.9999985046387
245,16,82769,2,0,L|304:28,1,48.9999985046387
395,262,82936,2,0,B|384:222|392:178|406:204|409:161|395:110,1,146.999995513916
324,152,83269,6,0,P|307:195|305:260,1,97.9999970092774
198,43,83602,2,0,P|215:86|217:151,1,97.9999970092774
204,154,83852,1,0,0:0:0:0:
204,154,83936,1,0,0:0:0:0:
75,2,84102,1,0,0:0:0:0:
75,2,84186,1,0,0:0:0:0:
75,2,84269,1,0,0:0:0:0:
2,209,84436,2,0,B|17:168|17:168|-5:109|-5:109|2:52,1,146.999995513916
72,99,84769,5,0,0:0:0:0:
324,33,84936,1,0,0:0:0:0:
93,88,85102,1,0,0:0:0:0:
384,110,85269,2,0,L|415:104,7,24.4999992523194
365,122,85602,1,0,0:0:0:0:
408,142,85685,1,0,0:0:0:0:
426,187,85768,1,0,0:0:0:0:
410,232,85851,1,0,0:0:0:0:
373,258,85936,5,0,0:0:0:0:
318,9,86102,1,0,0:0:0:0:
296,292,86269,5,0,0:0:0:0:
397,30,86435,1,0,0:0:0:0:
370,339,86602,5,0,0:0:0:0:
339,91,86769,1,0,0:0:0:0:
456,312,86936,5,0,0:0:0:0:
468,264,87019,1,0,0:0:0:0:
480,217,87102,1,0,0:0:0:0:
360,99,87269,2,0,P|351:152|365:204,1,97.9999970092774
246,0,87602,2,0,P|254:52|240:102,1,97.9999970092774
91,166,87936,5,0,0:0:0:0:
375,207,88102,1,0,0:0:0:0:
35,234,88269,5,0,0:0:0:0:
261,97,88435,1,0,0:0:0:0:
79,320,88602,5,0,0:0:0:0:
123,32,88769,1,0,0:0:0:0:
170,357,88936,5,0,0:0:0:0:
8,94,89102,2,0,B|-36:131|-36:131|-41:169|-26:201|-26:201|7:221|19:248,1,195.999994018555
344,56,89602,5,0,0:0:0:0:
170,207,89769,2,0,L|181:158,1,48.9999985046387
304,345,89935,1,0,0:0:0:0:
21,250,90102,5,0,0:0:0:0:
135,357,90269,1,0,0:0:0:0:
187,197,90436,1,0,0:0:0:0:
3,379,90602,1,0,0:0:0:0:
48,157,90769,1,0,0:0:0:0:
225,384,90936,1,0,0:0:0:0:
140,96,91102,1,0,0:0:0:0:
20,361,91269,6,0,P|66:347|122:348,1,97.9999970092774
307,384,91602,5,0,0:0:0:0:
256,132,91769,2,0,L|271:202,1,48.9999985046387
395,364,91936,5,0,0:0:0:0:
469,120,92102,1,0,0:0:0:0:
463,384,92269,5,0,0:0:0:0:
389,140,92435,1,0,0:0:0:0:
186,242,92602,6,0,L|236:249,1,48.9999985046387
512,293,92769,1,0,0:0:0:0:
140,340,92936,6,0,L|190:323,1,48.9999985046387
434,249,93103,1,0,0:0:0:0:
96,262,93269,5,0,0:0:0:0:
449,335,93436,2,0,L|380:321,1,48.9999985046387
49,330,93602,6,0,P|12:272|50:190,1,146.999995513916
28,182,93936,1,0,0:0:0:0:
125,22,94102,1,0,0:0:0:0:
114,69,94185,1,0,0:0:0:0:
112,118,94268,1,0,0:0:0:0:
241,232,94436,1,0,0:0:0:0:
403,178,94602,1,0,0:0:0:0:
443,14,94769,1,0,0:0:0:0:
395,26,94852,1,0,0:0:0:0:
346,29,94935,1,0,0:0:0:0:
211,41,95102,6,0,P|271:74|275:151,1,146.999995513916
262,159,95436,1,0,0:0:0:0:
415,193,95602,1,0,0:0:0:0:
226,244,95769,1,0,0:0:0:0:
470,267,95936,1,0,0:0:0:0:
422,276,96019,1,0,0:0:0:0:
388,310,96102,1,0,0:0:0:0:
349,337,96185,1,0,0:0:0:0:
300,340,96269,1,0,0:0:0:0:
300,340,96602,5,0,0:0:0:0:
207,357,96769,1,0,0:0:0:0:
315,354,96936,1,0,0:0:0:0:
187,342,97102,1,0,0:0:0:0:
326,250,97436,1,0,0:0:0:0:
326,250,97769,1,0,0:0:0:0:
284,141,97936,6,0,P|304:185|302:244,1,97.9999970092774
411,83,98269,1,0,0:0:0:0:
411,83,98436,2,0,P|391:127|393:186,1,97.9999970092774
223,208,98769,5,0,0:0:0:0:
283,27,98936,1,0,0:0:0:0:
471,159,99102,1,0,0:0:0:0:
186,82,99269,5,0,0:0:0:0:
186,82,99602,1,0,0:0:0:0:
235,192,99769,1,0,0:0:0:0:
235,192,100102,1,0,0:0:0:0:
108,184,100269,1,0,0:0:0:0:
253,211,100436,5,0,0:0:0:0:
253,211,100769,1,0,0:0:0:0:
22,236,100936,1,0,0:0:0:0:
312,283,101102,1,0,0:0:0:0:
196,58,101269,1,0,0:0:0:0:
196,58,101602,6,0,P|215:4|223:67,1,168
245,74,101936,2,0,P|211:147|246:199,1,146.999995513916
265,189,102269,1,0,0:0:0:0:
102,120,102436,1,0,0:0:0:0:
102,120,102769,2,0,L|120:224,1,97.9999970092774
15,348,103102,2,0,L|33:244,1,97.9999970092774
114,384,103436,1,0,0:0:0:0:
189,164,103602,1,0,0:0:0:0:
27,169,103769,1,0,0:0:0:0:
280,221,103936,5,0,0:0:0:0:
60,89,104102,1,0,0:0:0:0:
326,101,104269,5,0,0:0:0:0:
106,233,104435,1,0,0:0:0:0:
359,314,104602,6,0,B|395:278|395:278|380:167,1,146.999995513916
400,165,104936,1,0,0:0:0:0:
506,330,105102,1,0,0:0:0:0:
506,330,105436,2,0,P|458:338|416:381,1,97.9999970092774
260,260,105769,2,0,P|308:268|350:311,1,97.9999970092774
498,178,106102,1,0,0:0:0:0:
274,247,106269,1,0,0:0:0:0:
414,265,106436,1,0,0:0:0:0:
421,94,106602,5,0,0:0:0:0:
491,345,106769,1,0,0:0:0:0:
497,39,106936,5,0,0:0:0:0:
409,354,107103,1,0,0:0:0:0:
492,125,107269,6,0,L|342:138,1,146.999995513916
330,153,107602,1,0,0:0:0:0:
217,0,107769,1,0,0:0:0:0:
217,0,108102,2,0,B|242:58|242:58|204:119|204:119|231:185,1,195.999994018555
145,51,108602,2,0,B|99:30|55:50|55:50|13:13,1,146.999995513916
0,21,108936,1,0,0:0:0:0:
42,197,109102,1,0,0:0:0:0:
42,197,109436,2,0,B|94:187|140:224|111:239|158:270|219:253,1,195.999994018555
55,287,109936,6,0,L|38:387,1,97.9999970092774
193,171,110269,1,0,0:0:0:0:
194,343,110436,1,0,0:0:0:0:
241,349,110519,1,0,0:0:0:0:
284,326,110602,1,0,0:0:0:0:
304,282,110685,1,0,0:0:0:0:
295,235,110769,1,0,0:0:0:0:
404,378,110936,1,0,0:0:0:0:
404,378,111019,1,0,0:0:0:0:
404,378,111102,6,0,B|403:344|423:324|423:324|418:280|394:248|394:248|406:221|403:174,1,195.999994018555
512,126,111602,1,0,0:0:0:0:
487,122,111685,1,0,0:0:0:0:
463,118,111768,1,0,0:0:0:0:
402,30,111936,5,0,0:0:0:0:
293,65,112102,1,0,0:0:0:0:
325,198,112269,5,0,0:0:0:0:
216,163,112436,1,0,0:0:0:0:
166,39,112602,5,0,0:0:0:0:
166,39,112936,2,0,P|160:68|150:93,1,48.9999985046387
252,219,113102,2,0,P|229:199|213:178,1,48.9999985046387
53,203,113269,2,0,P|80:193|107:189,1,48.9999985046387
