osu file format v14

[General]
AudioFilename: audio.mp3
AudioLeadIn: 0
PreviewTime: 86599
Countdown: 0
SampleSet: Soft
StackLeniency: 0.7
Mode: 0
LetterboxInBreaks: 0
WidescreenStoryboard: 0

[Editor]
DistanceSpacing: 0.9
BeatDivisor: 4
GridSize: 32
TimelineZoom: 1.2

[Metadata]
Title:Swing by
TitleUnicode:Swing by
Artist:Tsukino
ArtistUnicode:月乃
Creator:yzyxwx
Version:A love story spanning 384,400 kilometers.
Source:LUNARiA -Virtualized Moonchild-
Tags:Key LUNARiA visual novel ed ending theme
BeatmapID:4532192
BeatmapSetID:2151121

[Difficulty]
HPDrainRate:4
CircleSize:4
OverallDifficulty:8
ApproachRate:9
SliderMultiplier:1.4
SliderTickRate:1

[Events]
//Background and Video events
0,0,"bg.png",0,0
//Break Periods
2,75505,86352
//Storyboard Layer 0 (Background)
//Storyboard Layer 1 (Fail)
//Storyboard Layer 2 (Pass)
//Storyboard Layer 3 (Foreground)
//Storyboard Layer 4 (Overlay)
//Storyboard Sound Samples

[TimingPoints]
481,352.941176470588,4,2,0,100,1,0
35776,-142.857142857143,4,2,0,100,0,0
36834,-200,4,2,0,100,0,0
38245,-100,4,2,0,100,0,1
47069,-200,4,2,0,100,0,0
49893,-100,4,2,0,100,0,0
61186,-100,4,2,0,100,0,1
72480,-100,4,2,0,100,0,0
120128,-100,4,2,0,100,0,1
128951,-200,4,2,0,100,0,0
133187,-142.857142857143,4,2,0,100,0,0
138834,-100,4,2,0,100,0,0
155775,-100,4,2,0,100,0,1
178363,-100,4,2,0,100,0,0
198834,-142.857142857143,4,2,0,100,0,0
219305,-333.333333333333,4,2,0,100,0,0

[HitObjects]
185,246,19187,6,0,P|258:247|305:169,1,140
239,106,19893,1,0,0:0:0:0:
368,329,20776,5,0,0:0:0:0:
424,272,20952,1,0,0:0:0:0:
142,273,21834,5,0,0:0:0:0:
78,233,22011,2,0,P|116:164|178:178,1,140
27,122,22717,1,0,0:0:0:0:
273,100,23070,1,0,0:0:0:0:
112,245,23423,5,0,0:0:0:0:
153,198,23599,2,0,L|228:256,1,70
190,73,24128,1,0,0:0:0:0:
230,219,24481,1,0,0:0:0:0:
379,249,24834,6,0,L|319:205,1,70
186,126,25187,1,0,0:0:0:0:
177,282,25717,1,0,0:0:0:0:
205,266,25805,1,0,0:0:0:0:
240,270,25893,1,0,0:0:0:0:
335,97,26246,1,0,0:0:0:0:
415,267,26599,2,0,L|458:328,1,70
494,149,26952,1,0,0:0:0:0:
136,284,27658,6,0,L|40:260,1,70
144,226,28011,2,0,L|235:189,1,70
142,169,28364,2,0,L|63:131,1,70
246,225,28717,1,0,0:0:0:0:
347,276,28893,2,0,L|426:313,1,70
228,236,29246,2,0,L|207:308,1,70
392,185,29599,2,0,L|331:219,1,70
228,236,29952,5,0,0:0:0:0:
137,215,30128,1,0,0:0:0:0:
56,159,30305,1,0,0:0:0:0:
25,69,30481,1,0,0:0:0:0:
285,143,30834,5,0,0:0:0:0:
330,44,31011,1,0,0:0:0:0:
363,123,31187,2,0,L|277:87,1,70
223,174,31540,2,0,L|214:249,1,70
173,83,31893,2,0,L|112:50,1,70
140,317,32599,6,0,L|207:270,1,70
439,178,33305,6,0,L|401:109,1,70
382,246,33834,5,0,0:0:0:0:
284,124,34011,1,0,0:0:0:0:
235,272,34187,1,0,0:0:0:0:
338,156,34364,1,0,0:0:0:0:
289,304,34540,1,0,0:0:0:0:
194,189,34717,1,0,0:0:0:0:
165,322,35070,5,0,0:0:0:0:
337,271,35246,2,0,P|272:249|245:183,1,140
119,44,35776,2,0,P|139:151|97:240,1,195.999994018555
226,152,36834,6,0,P|292:168|348:130,1,140
331,313,37893,5,0,0:0:0:0:
374,297,38070,1,0,0:0:0:0:
405,258,38246,2,0,P|435:189|426:113,1,140
220,109,38952,1,0,0:0:0:0:
293,219,39128,1,0,0:0:0:0:
209,314,39305,1,0,0:0:0:0:
8,217,40011,6,0,P|32:148|106:126,1,140
195,236,40540,1,0,0:0:0:0:
232,96,40717,1,0,0:0:0:0:
295,267,41246,5,0,0:0:0:0:
295,267,41334,1,0,0:0:0:0:
295,267,41423,2,0,P|364:256|409:184,1,140
285,83,41952,1,0,0:0:0:0:
226,231,42128,1,0,0:0:0:0:
416,335,42658,6,0,L|352:287,1,70
377,144,43187,5,0,0:0:0:0:
432,246,43364,1,0,0:0:0:0:
260,199,43540,1,0,0:0:0:0:
326,303,43717,1,0,0:0:0:0:
302,106,43893,5,0,0:0:0:0:
219,272,44070,1,0,0:0:0:0:
222,142,44423,5,0,0:0:0:0:
284,328,44599,1,0,0:0:0:0:
292,250,44776,5,0,0:0:0:0:
333,247,44864,1,0,0:0:0:0:
369,234,44952,2,0,L|368:155,1,70
216,278,45305,2,0,L|167:216,1,70
454,249,45834,5,0,0:0:0:0:
193,295,46011,1,0,0:0:0:0:
429,308,46364,5,0,0:0:0:0:
220,233,46540,1,0,0:0:0:0:
323,344,46893,5,0,0:0:0:0:
392,126,47070,2,0,P|334:104|357:148,1,140
228,115,49893,6,0,L|77:41,2,140
291,178,51305,6,0,L|419:102,2,140
218,235,52717,6,0,L|86:162,2,140
293,305,54128,6,0,L|439:241,2,140
299,150,55011,1,0,0:0:0:0:
335,307,55187,1,0,0:0:0:0:
89,277,55540,5,0,0:0:0:0:
153,103,55717,1,0,0:0:0:0:
237,267,55893,1,0,0:0:0:0:
50,178,56070,1,0,0:0:0:0:
248,147,56246,1,0,0:0:0:0:
169,300,56423,1,0,0:0:0:0:
55,86,56599,1,0,0:0:0:0:
284,156,56776,1,0,0:0:0:0:
68,278,56952,1,0,0:0:0:0:
183,76,57128,1,0,0:0:0:0:
203,292,57305,2,0,P|279:274|319:215,1,140
252,330,58011,5,0,0:0:0:0:
116,120,58187,1,0,0:0:0:0:
371,189,58717,5,0,0:0:0:0:
153,262,58893,1,0,0:0:0:0:
333,304,59423,5,0,0:0:0:0:
410,113,59599,1,0,0:0:0:0:
55,180,60128,5,0,0:0:0:0:
202,308,60305,2,0,L|257:240,1,70
289,191,60569,1,0,0:0:0:0:
307,165,60658,1,0,0:0:0:0:
331,140,60746,1,0,0:0:0:0:
362,124,60834,1,0,0:0:0:0:
397,118,60922,1,0,0:0:0:0:
431,122,61010,1,0,0:0:0:0:
463,137,61099,1,0,0:0:0:0:
481,165,61187,6,0,P|440:230|373:261,1,140
314,283,61717,1,0,0:0:0:0:
148,189,61893,1,0,0:0:0:0:
234,352,62070,1,0,0:0:0:0:
261,180,62246,1,0,0:0:0:0:
141,299,62423,1,0,0:0:0:0:
276,281,62599,6,0,P|256:205|191:168,1,140
146,115,63128,1,0,0:0:0:0:
203,272,63305,1,0,0:0:0:0:
258,114,63481,1,0,0:0:0:0:
108,205,63658,1,0,0:0:0:0:
298,211,63834,1,0,0:0:0:0:
381,279,64011,6,0,P|328:231|345:142,1,140
385,90,64540,1,0,0:0:0:0:
280,225,64717,1,0,0:0:0:0:
438,186,64893,1,0,0:0:0:0:
274,119,65070,1,0,0:0:0:0:
365,263,65246,1,0,0:0:0:0:
212,332,65423,6,0,P|217:270|143:210,1,140
132,185,65952,1,0,0:0:0:0:
231,106,66128,1,0,0:0:0:0:
260,87,66216,1,0,0:0:0:0:
293,76,66304,1,0,0:0:0:0:
328,75,66392,1,0,0:0:0:0:
362,83,66480,1,0,0:0:0:0:
272,214,66658,5,0,0:0:0:0:
357,297,66834,2,0,L|400:241,1,70
205,117,67187,1,0,0:0:0:0:
145,310,67364,1,0,0:0:0:0:
128,114,67540,1,0,0:0:0:0:
211,302,67717,1,0,0:0:0:0:
61,249,67893,1,0,0:0:0:0:
291,175,68070,1,0,0:0:0:0:
85,185,68246,1,0,0:0:0:0:
264,236,68423,1,0,0:0:0:0:
56,308,68599,1,0,0:0:0:0:
220,152,68776,1,0,0:0:0:0:
213,331,68952,6,0,P|217:270|179:187,1,140
151,87,69658,6,0,L|165:2,3,70
369,181,70364,2,0,L|357:255,3,70
166,122,71070,5,0,0:0:0:0:
274,297,71246,1,0,0:0:0:0:
230,128,71423,1,0,0:0:0:0:
222,326,71599,1,0,0:0:0:0:
32,272,71776,5,0,0:0:0:0:
55,246,71864,1,0,0:0:0:0:
82,224,71952,1,0,0:0:0:0:
113,206,72040,1,0,0:0:0:0:
145,193,72128,1,0,0:0:0:0:
179,185,72217,1,0,0:0:0:0:
214,183,72305,1,0,0:0:0:0:
249,185,72393,1,0,0:0:0:0:
283,193,72481,1,0,0:0:0:0:
256,192,72658,12,0,75305,0:0:0:0:
17,312,86952,6,0,P|93:320|154:257,1,140
232,89,87658,2,0,P|244:178|214:219,1,140
356,218,88364,1,0,0:0:0:0:
231,329,88717,2,0,P|171:298|118:232,1,140
149,176,89246,1,0,0:0:0:0:
360,70,89599,5,0,0:0:0:0:
419,136,89776,1,0,0:0:0:0:
414,287,90128,2,0,P|345:319|284:289,1,140
201,268,90834,5,0,0:0:0:0:
102,261,91011,1,0,0:0:0:0:
152,239,91187,2,0,L|159:146,3,70
291,79,91893,1,0,0:0:0:0:
219,243,92070,1,0,0:0:0:0:
393,173,92246,6,0,L|311:153,1,70
100,145,92599,2,0,L|131:218,1,70
274,345,92952,2,0,L|273:257,1,70
264,98,93305,2,0,L|414:82,2,140
295,335,94187,5,0,0:0:0:0:
295,335,94276,1,0,0:0:0:0:
295,335,94364,2,0,L|295:256,1,70
141,249,94717,2,0,L|75:196,1,70
251,209,95070,2,0,L|234:132,1,70
68,117,95423,5,0,0:0:0:0:
154,96,95599,1,0,0:0:0:0:
235,140,95776,2,0,P|311:142|372:94,1,140
420,232,96481,1,0,0:0:0:0:
330,315,96658,2,0,L|252:262,1,70
346,144,97011,1,0,0:0:0:0:
139,90,97364,5,0,0:0:0:0:
114,216,97717,2,0,L|41:242,3,70
155,94,98599,1,0,0:0:0:0:
351,297,98952,6,0,P|361:223|336:145,1,140
264,84,99658,1,0,0:0:0:0:
74,243,100364,1,0,0:0:0:0:
365,298,101070,1,0,0:0:0:0:
203,229,101599,5,0,0:0:0:0:
288,121,101776,1,0,0:0:0:0:
147,109,101952,1,0,0:0:0:0:
203,229,102128,1,0,0:0:0:0:
288,121,102305,1,0,0:0:0:0:
147,109,102481,1,0,0:0:0:0:
484,275,103011,5,0,0:0:0:0:
142,318,103364,5,0,0:0:0:0:
244,105,103540,1,0,0:0:0:0:
143,134,103893,5,0,0:0:0:0:
225,320,104070,1,0,0:0:0:0:
303,121,104246,1,0,0:0:0:0:
162,309,104423,1,0,0:0:0:0:
183,95,104599,1,0,0:0:0:0:
274,330,104776,1,0,0:0:0:0:
252,95,104952,1,0,0:0:0:0:
345,291,105128,1,0,0:0:0:0:
148,172,105305,1,0,0:0:0:0:
296,337,105481,1,0,0:0:0:0:
311,91,105658,1,0,0:0:0:0:
467,178,106011,5,0,0:0:0:0:
142,305,106540,1,0,0:0:0:0:
227,166,106717,1,0,0:0:0:0:
236,328,106893,1,0,0:0:0:0:
132,212,107070,1,0,0:0:0:0:
289,250,107246,1,0,0:0:0:0:
430,150,107423,1,0,0:0:0:0:
278,68,107599,1,0,0:0:0:0:
4,239,107952,5,0,0:0:0:0:
134,131,108128,1,0,0:0:0:0:
172,233,108305,1,0,0:0:0:0:
32,123,108481,1,0,0:0:0:0:
93,298,108658,1,0,0:0:0:0:
256,194,109011,5,0,0:0:0:0:
280,161,109099,1,0,0:0:0:0:
289,121,109187,1,0,0:0:0:0:
367,334,109364,1,0,0:0:0:0:
393,125,109540,1,0,0:0:0:0:
256,301,109717,1,0,0:0:0:0:
54,315,110246,6,0,L|18:235,1,70
279,321,110599,2,0,L|255:248,1,70
146,289,110952,2,0,L|165:220,1,70
385,301,111305,2,0,L|406:228,1,70
377,39,111658,6,0,L|360:119,1,70
169,42,112011,2,0,L|147:116,1,70
269,78,112364,2,0,L|285:166,1,70
54,104,112717,2,0,L|67:177,1,70
231,159,113070,5,0,0:0:0:0:
355,235,113246,1,0,0:0:0:0:
340,88,113423,1,0,0:0:0:0:
268,268,113599,1,0,0:0:0:0:
276,70,113776,1,0,0:0:0:0:
335,305,113952,1,0,0:0:0:0:
402,127,114128,1,0,0:0:0:0:
185,275,114305,1,0,0:0:0:0:
175,100,114481,1,0,0:0:0:0:
394,304,114658,1,0,0:0:0:0:
129,213,114834,1,0,0:0:0:0:
449,195,115011,1,0,0:0:0:0:
412,73,115187,1,0,0:0:0:0:
230,314,115364,1,0,0:0:0:0:
187,113,115540,1,0,0:0:0:0:
396,305,115717,1,0,0:0:0:0:
375,147,115893,5,0,0:0:0:0:
67,83,116070,1,0,0:0:0:0:
108,309,116423,5,0,0:0:0:0:
260,96,116599,1,0,0:0:0:0:
383,157,116952,5,0,0:0:0:0:
82,205,117128,1,0,0:0:0:0:
186,67,117481,5,0,0:0:0:0:
340,304,117658,1,0,0:0:0:0:
374,202,118011,6,0,P|305:227|225:202,1,140
130,67,118717,1,0,0:0:0:0:
59,208,118893,1,0,0:0:0:0:
196,307,119070,1,0,0:0:0:0:
335,216,119246,1,0,0:0:0:0:
276,73,119423,1,0,0:0:0:0:
292,205,119599,5,0,0:0:0:0:
266,229,119687,1,0,0:0:0:0:
237,248,119775,1,0,0:0:0:0:
204,261,119863,1,0,0:0:0:0:
170,268,119951,1,0,0:0:0:0:
135,269,120040,1,0,0:0:0:0:
107,258,120128,6,0,P|77:189|86:113,1,140
292,109,120834,1,0,0:0:0:0:
219,219,121010,1,0,0:0:0:0:
303,314,121187,1,0,0:0:0:0:
504,217,121893,6,0,P|480:148|406:126,1,140
317,236,122422,1,0,0:0:0:0:
280,96,122599,1,0,0:0:0:0:
217,267,123128,5,0,0:0:0:0:
217,267,123216,1,0,0:0:0:0:
217,267,123305,2,0,P|148:256|103:184,1,140
227,83,123834,1,0,0:0:0:0:
286,231,124010,1,0,0:0:0:0:
96,335,124540,6,0,L|160:287,1,70
135,144,125069,5,0,0:0:0:0:
80,246,125246,1,0,0:0:0:0:
252,199,125422,1,0,0:0:0:0:
186,303,125599,1,0,0:0:0:0:
210,106,125775,5,0,0:0:0:0:
293,272,125952,1,0,0:0:0:0:
290,142,126305,5,0,0:0:0:0:
228,328,126481,1,0,0:0:0:0:
220,250,126658,5,0,0:0:0:0:
179,247,126746,1,0,0:0:0:0:
143,234,126834,2,0,L|144:155,1,70
296,278,127187,2,0,L|345:216,1,70
58,249,127716,5,0,0:0:0:0:
319,295,127893,1,0,0:0:0:0:
83,308,128246,5,0,0:0:0:0:
292,233,128422,1,0,0:0:0:0:
189,344,128775,5,0,0:0:0:0:
120,126,128952,2,0,P|181:122|155:148,1,140
256,192,129833,12,0,131775,0:0:0:0:
79,190,133187,6,0,P|116:96|201:37,1,195.999994018555
454,178,134599,2,0,P|400:94|321:43,1,195.999994018555
187,338,136011,2,0,P|101:294|52:200,1,195.999994018555
320,336,137423,2,0,P|406:290|440:184,1,195.999994018555
216,199,138834,5,0,0:0:0:0:
279,140,139011,1,0,0:0:0:0:
360,170,139187,1,0,0:0:0:0:
380,254,139364,1,0,0:0:0:0:
306,306,139540,1,0,0:0:0:0:
232,275,139717,1,0,0:0:0:0:
190,140,139893,1,0,0:0:0:0:
353,103,140070,1,0,0:0:0:0:
331,299,140246,1,0,0:0:0:0:
185,195,140423,1,0,0:0:0:0:
321,88,140599,1,0,0:0:0:0:
452,224,140776,1,0,0:0:0:0:
232,275,140952,1,0,0:0:0:0:
31,295,141305,5,0,0:0:0:0:
143,66,141481,1,0,0:0:0:0:
249,352,142011,5,0,0:0:0:0:
48,167,142187,1,0,0:0:0:0:
165,323,142717,5,0,0:0:0:0:
444,227,142893,1,0,0:0:0:0:
320,90,143423,5,0,0:0:0:0:
398,296,143599,2,0,P|336:335|269:321,1,140
238,311,144040,1,0,0:0:0:0:
203,291,144128,1,0,0:0:0:0:
176,269,144216,1,0,0:0:0:0:
159,238,144304,1,0,0:0:0:0:
153,204,144392,1,0,0:0:0:0:
353,144,144658,6,0,L|295:79,1,70
156,123,145011,2,0,L|107:183,1,70
246,297,145364,2,0,L|318:265,1,70
214,81,145717,1,0,0:0:0:0:
260,278,145893,1,0,0:0:0:0:
275,109,146070,1,0,0:0:0:0:
194,297,146246,1,0,0:0:0:0:
107,155,146423,2,0,P|63:209|0:234,1,140
218,261,146952,1,0,0:0:0:0:
159,240,147481,6,0,L|217:305,1,70
356,261,147834,2,0,L|405:201,1,70
266,87,148187,2,0,L|194:119,1,70
269,276,148540,5,0,0:0:0:0:
105,219,148717,1,0,0:0:0:0:
273,178,148893,1,0,0:0:0:0:
173,301,149070,1,0,0:0:0:0:
178,131,149246,1,0,0:0:0:0:
356,96,149599,5,0,0:0:0:0:
412,220,149776,1,0,0:0:0:0:
496,105,149952,1,0,0:0:0:0:
232,297,150305,5,0,0:0:0:0:
131,191,150481,1,0,0:0:0:0:
100,335,150658,1,0,0:0:0:0:
383,323,151011,5,0,0:0:0:0:
443,203,151187,1,0,0:0:0:0:
483,315,151364,1,0,0:0:0:0:
358,215,151540,2,0,L|290:167,1,70
201,45,151893,1,0,0:0:0:0:
125,186,152070,1,0,0:0:0:0:
126,291,152599,5,0,0:0:0:0:
250,66,152776,1,0,0:0:0:0:
369,327,153305,5,0,0:0:0:0:
165,142,153481,1,0,0:0:0:0:
312,84,154011,5,0,0:0:0:0:
45,229,154187,1,0,0:0:0:0:
237,78,154717,5,0,0:0:0:0:
174,352,154893,1,0,0:0:0:0:
247,287,155070,5,0,0:0:0:0:
278,301,155158,1,0,0:0:0:0:
312,308,155246,1,0,0:0:0:0:
347,306,155334,1,0,0:0:0:0:
380,295,155422,1,0,0:0:0:0:
410,276,155511,1,0,0:0:0:0:
433,250,155599,1,0,0:0:0:0:
450,219,155687,1,0,0:0:0:0:
459,192,155776,6,0,P|470:132|430:59,1,140
198,283,156305,1,0,0:0:0:0:
364,189,156481,1,0,0:0:0:0:
278,352,156658,1,0,0:0:0:0:
254,163,156834,1,0,0:0:0:0:
381,298,157011,1,0,0:0:0:0:
236,281,157187,6,0,P|256:205|321:168,1,140
375,104,157716,1,0,0:0:0:0:
309,272,157893,1,0,0:0:0:0:
248,102,158069,1,0,0:0:0:0:
404,205,158246,1,0,0:0:0:0:
214,211,158422,1,0,0:0:0:0:
131,279,158599,6,0,P|184:231|167:142,1,140
127,90,159128,1,0,0:0:0:0:
232,225,159305,1,0,0:0:0:0:
74,186,159481,1,0,0:0:0:0:
238,119,159658,1,0,0:0:0:0:
147,263,159834,1,0,0:0:0:0:
300,332,160011,6,0,P|295:270|369:210,1,140
380,185,160540,1,0,0:0:0:0:
281,106,160716,1,0,0:0:0:0:
252,87,160804,1,0,0:0:0:0:
219,76,160892,1,0,0:0:0:0:
184,75,160980,1,0,0:0:0:0:
150,83,161068,1,0,0:0:0:0:
240,214,161246,5,0,0:0:0:0:
155,297,161422,2,0,L|112:241,1,70
307,117,161775,1,0,0:0:0:0:
351,326,161952,1,0,0:0:0:0:
384,114,162128,1,0,0:0:0:0:
288,327,162305,1,0,0:0:0:0:
487,251,162481,1,0,0:0:0:0:
203,165,162658,1,0,0:0:0:0:
473,183,162834,1,0,0:0:0:0:
224,235,163011,1,0,0:0:0:0:
456,308,163187,1,0,0:0:0:0:
257,129,163364,1,0,0:0:0:0:
299,331,163540,6,0,P|295:270|333:187,1,140
361,87,164246,6,0,L|347:2,3,70
143,181,164952,2,0,L|155:255,3,70
346,122,165658,5,0,0:0:0:0:
227,330,165834,1,0,0:0:0:0:
282,128,166011,1,0,0:0:0:0:
292,350,166187,1,0,0:0:0:0:
480,272,166364,5,0,0:0:0:0:
457,246,166452,1,0,0:0:0:0:
430,224,166540,1,0,0:0:0:0:
399,206,166628,1,0,0:0:0:0:
367,193,166716,1,0,0:0:0:0:
333,185,166805,1,0,0:0:0:0:
298,183,166893,1,0,0:0:0:0:
263,185,166981,1,0,0:0:0:0:
229,193,167070,2,0,P|167:222|116:275,1,140
421,273,167599,6,0,L|381:193,1,70
200,223,167952,2,0,L|208:292,1,70
4,244,168305,2,0,L|59:173,1,70
131,6,168658,2,0,L|156:83,1,70
316,127,169011,2,0,L|352:67,1,70
457,190,169364,1,0,0:0:0:0:
325,296,169540,1,0,0:0:0:0:
210,171,169717,1,0,0:0:0:0:
0,245,169893,6,0,P|74:260|125:204,1,140
331,255,170599,2,0,P|314:191|370:119,1,140
201,143,171305,2,0,P|135:123|98:65,1,140
337,163,172011,5,0,0:0:0:0:
404,296,172187,1,0,0:0:0:0:
407,179,172364,1,0,0:0:0:0:
328,282,172540,1,0,0:0:0:0:
179,164,172717,1,0,0:0:0:0:
230,288,172893,1,0,0:0:0:0:
127,153,173070,1,0,0:0:0:0:
271,276,173246,1,0,0:0:0:0:
74,191,173423,1,0,0:0:0:0:
321,231,173599,1,0,0:0:0:0:
199,332,173776,1,0,0:0:0:0:
158,94,173952,1,0,0:0:0:0:
141,319,174128,1,0,0:0:0:0:
214,90,174305,1,0,0:0:0:0:
168,324,174481,1,0,0:0:0:0:
184,81,174658,1,0,0:0:0:0:
332,286,174834,6,0,P|347:217|311:143,1,140
139,119,175540,2,0,L|70:109,3,70
312,256,176246,2,0,L|382:267,3,70
379,216,176952,5,0,0:0:0:0:
104,145,177128,1,0,0:0:0:0:
238,319,177305,1,0,0:0:0:0:
277,60,177481,1,0,0:0:0:0:
314,272,177658,5,0,0:0:0:0:
348,265,177746,1,0,0:0:0:0:
381,254,177834,1,0,0:0:0:0:
412,238,177922,1,0,0:0:0:0:
440,217,178010,1,0,0:0:0:0:
465,192,178099,1,0,0:0:0:0:
486,164,178187,1,0,0:0:0:0:
502,133,178275,1,0,0:0:0:0:
511,106,178364,6,0,P|405:80|295:109,1,210
93,254,179423,2,0,P|190:280|290:241,1,210
253,198,180481,5,0,0:0:0:0:
471,282,180834,2,0,P|441:175|385:93,1,210
110,192,181893,1,0,0:0:0:0:
191,298,182070,1,0,0:0:0:0:
220,261,182158,1,0,0:0:0:0:
261,247,182246,1,0,0:0:0:0:
393,143,182423,1,0,0:0:0:0:
339,332,182599,1,0,0:0:0:0:
340,131,182776,1,0,0:0:0:0:
388,322,182952,1,0,0:0:0:0:
39,278,183305,5,0,0:0:0:0:
123,235,183481,1,0,0:0:0:0:
41,184,183658,1,0,0:0:0:0:
124,140,183834,1,0,0:0:0:0:
42,89,184011,1,0,0:0:0:0:
346,102,184364,5,0,0:0:0:0:
430,162,184540,1,0,0:0:0:0:
347,191,184717,1,0,0:0:0:0:
430,249,184893,1,0,0:0:0:0:
349,281,185070,1,0,0:0:0:0:
225,194,185246,1,0,0:0:0:0:
346,102,185423,1,0,0:0:0:0:
386,245,185776,6,0,P|342:309|268:332,1,140
267,87,186481,1,0,0:0:0:0:
176,304,186834,1,0,0:0:0:0:
58,83,187187,1,0,0:0:0:0:
341,248,187540,6,0,P|392:202|427:132,1,140
165,56,188246,2,0,P|114:101|87:170,1,140
209,266,188776,1,0,0:0:0:0:
55,249,188952,1,0,0:0:0:0:
181,169,189129,1,0,0:0:0:0:
130,309,189305,1,0,0:0:0:0:
252,124,189658,5,0,0:0:0:0:
294,251,189834,1,0,0:0:0:0:
328,125,190011,1,0,0:0:0:0:
370,252,190187,1,0,0:0:0:0:
404,126,190364,1,0,0:0:0:0:
442,251,190540,1,0,0:0:0:0:
477,125,190717,1,0,0:0:0:0:
227,303,191070,6,0,L|181:237,1,70
100,336,191423,2,0,L|56:268,1,70
74,97,191776,2,0,L|114:169,1,70
186,56,192128,2,0,L|229:133,1,70
177,292,192481,6,0,P|250:300|332:248,1,140
379,93,193187,2,0,P|302:77|243:108,1,140
91,129,193717,1,0,0:0:0:0:
241,189,193893,1,0,0:0:0:0:
160,52,194070,1,0,0:0:0:0:
147,208,194246,1,0,0:0:0:0:
405,342,194599,5,0,0:0:0:0:
278,300,194775,1,0,0:0:0:0:
404,266,194952,1,0,0:0:0:0:
277,224,195128,1,0,0:0:0:0:
403,190,195305,1,0,0:0:0:0:
278,152,195481,1,0,0:0:0:0:
404,117,195658,1,0,0:0:0:0:
44,94,196011,6,0,L|90:160,1,70
171,61,196364,2,0,L|215:129,1,70
197,300,196717,2,0,L|157:228,1,70
84,348,197069,2,0,L|41:271,1,70
248,142,197422,5,0,0:0:0:0:
420,274,197598,1,0,0:0:0:0:
406,104,197775,1,0,0:0:0:0:
297,279,197951,1,0,0:0:0:0:
269,86,198128,5,0,0:0:0:0:
473,214,198304,1,0,0:0:0:0:
263,258,198481,1,0,0:0:0:0:
446,108,198657,1,0,0:0:0:0:
182,90,198834,6,0,P|266:49|380:46,1,195.999994018555
321,287,201658,2,0,P|226:312|120:297,1,195.999994018555
94,286,204481,2,0,P|96:173|141:93,1,195.999994018555
436,89,207305,2,0,P|440:187|400:280,1,195.999994018555
197,101,210128,6,0,P|281:60|395:57,1,195.999994018555
273,272,212952,2,0,P|178:297|72:282,1,195.999994018555
135,216,215775,2,0,P|137:103|182:23,1,195.999994018555
441,157,218069,6,0,L|397:204,1,48.9999985046387
337,268,218422,1,0,0:0:0:0:
305,134,218599,2,0,P|255:136|208:179,1,97.9999970092774
143,296,219305,2,0,P|102:190|127:51,1,251.999992309571
256,192,221599,12,0,224599,0:0:0:0:
