osu file format v14

[General]
AudioFilename: audio.mp3
AudioLeadIn: 0
PreviewTime: 64351
Countdown: 0
SampleSet: Soft
StackLeniency: 0.7
Mode: 0
LetterboxInBreaks: 0
EpilepsyWarning: 1
WidescreenStoryboard: 1

[Editor]
Bookmarks: 96998,107586,149939,153468,225821
DistanceSpacing: 1
BeatDivisor: 4
GridSize: 8
TimelineZoom: 1

[Metadata]
Title:Prism no Ohimesama
TitleUnicode:プリズムのお姫様
Artist:Tsukino
ArtistUnicode:月乃
Creator:Left
Version:Normal
Source:LUNARiA -Virtualized Moonchild-
Tags:ルナリア Opening OP2 Kinetic Novel Visual Japanese pop Key るなきゅん LUNAR-Q T-BIT Heilia Kaguya_Sama
BeatmapID:3446640
BeatmapSetID:1684135

[Difficulty]
HPDrainRate:4
CircleSize:2.7
OverallDifficulty:4
ApproachRate:5
SliderMultiplier:1.1
SliderTickRate:1

[Events]
//Background and Video events
0,0,"bgt.jpg",0,0
//Break Periods
2,97198,106386
2,150138,152268
2,178374,180503
//Storyboard Layer 0 (Background)
Sprite,Background,Centre,"SB\a.jpg",320,240 F,0,228909,,0,1 F,0,228909,235527,1 S,0,228909,235527,0.7,0.64 F,0,235527,,1,0
Sprite,Background,Centre,"SB\b.jpg",320,240 F,0,233762,235527,0,1 S,0,233762,241703,0.7,0.64 F,0,235527,241703,1 F,0,241703,,1,0
Sprite,Background,Centre,"SB\c.jpg",320,240 F,0,239939,241703,0,1 S,0,239939,247880,0.7,0.64 F,0,241703,247880,1 F,0,247880,,1,0
Sprite,Background,Centre,"SB\d.jpg",320,240 F,0,246115,247880,0,1 S,0,246115,254056,0.7,0.64 F,0,247880,254056,1 F,0,254056,,1,0
Sprite,Background,Centre,"SB\lyr\end1.png",320,240 F,0,235306,235527,0,1 S,0,235306,237953,0.5 F,0,235527,237733,1 F,0,237733,237953,1,0
Sprite,Background,Centre,"SB\lyr\end2.png",320,240 F,0,237953,238174,0,1 S,0,237953,242365,0.5 F,0,238174,242145,1 F,0,242145,242365,1,0
Sprite,Background,Centre,"SB\lyr\end3.png",320,240 F,0,242365,242586,0,1 S,0,242365,245012,0.5 F,0,242586,244792,1 F,0,244792,245012,1,0
Sprite,Background,Centre,"SB\lyr\end4.png",320,240 F,0,245012,245233,0,1 S,0,245012,250527,0.5 F,0,245233,250306,1 F,0,250306,250527,1,0
//Storyboard Layer 1 (Fail)
//Storyboard Layer 2 (Pass)
//Storyboard Layer 3 (Foreground)
//Storyboard Layer 4 (Overlay)
//Storyboard Sound Samples

[TimingPoints]
1704,441.176470588235,4,2,7,60,1,0
5233,-100,4,2,7,65,0,0
6998,-100,4,2,7,70,0,0
8762,-100,4,2,7,75,0,0
10527,-100,4,2,7,80,0,0
22384,-100,4,2,7,60,0,0
36998,-100,4,2,7,70,0,0
51336,-100,4,2,7,50,0,0
57071,-100,4,2,7,60,0,0
57512,-100,4,2,7,70,0,0
58174,-100,4,2,7,75,0,0
61703,-100,4,2,7,80,0,0
63468,-100,4,2,7,60,0,0
63909,-100,4,2,7,80,0,0
65233,-100,4,2,7,85,0,1
95233,-100,4,2,7,85,0,0
107586,-100,4,2,7,60,0,0
121924,-100,4,2,7,50,0,0
122145,-100,4,2,7,60,0,0
122365,-100,4,2,7,70,0,0
135821,-100,4,2,7,50,0,0
141556,-100,4,2,7,60,0,0
142218,-100,4,2,7,70,0,0
145086,-100,4,2,7,75,0,0
145748,-100,4,2,7,80,0,0
146520,-100,4,2,7,50,0,0
153468,-100,4,2,7,60,0,0
160527,-100,4,2,7,50,0,0
160968,-100,4,2,7,75,0,0
171115,-100,4,2,7,80,0,0
172659,-100,4,2,7,85,0,0
175086,-100,4,2,7,60,0,0
187659,-100,4,2,7,75,0,0
188101,-100,4,2,7,85,0,0
188762,-100,4,2,7,93,0,1
225821,-100,4,2,7,93,0,0

[Colours]
Combo1 : 255,169,83
Combo2 : 255,239,123
Combo3 : 104,255,255
Combo4 : 145,70,255
Combo5 : 255,34,183
Combo6 : 130,130,130
Combo7 : 168,168,168
Combo8 : 217,217,217

[HitObjects]
148,364,1704,85,4,0:0:0:0:
256,343,2145,2,0,P|260:280|280:112,1,220,2|2,0:0|0:0,0:0:0:0:
305,17,3468,2,0,P|201:43|172:149,2,220,0|0|6,0:0|0:0|0:0,0:0:0:0:
383,94,5674,5,0,0:0:0:0:
454,177,6115,2,0,P|449:221|445:301,1,110,2|0,0:0|0:0,0:0:0:0:
452,341,6777,1,0,0:0:0:0:
452,341,6998,2,0,P|356:303|279:288,1,165,4|4,3:2|0:3,0:0:0:0:
248,318,7880,2,0,P|152:280|75:265,1,165,4|4,3:2|0:3,0:0:0:0:
45,297,8762,21,2,3:1:0:0:
18,190,9203,1,2,3:1:0:0:
74,95,9645,1,2,3:1:0:0:
74,95,9865,2,0,P|65:52|61:23,2,55,2|8|4,3:1|0:0|0:3,0:0:0:0:
116,130,10527,6,0,P|191:124|250:125,1,110,4|8,3:1|0:0,0:0:0:0:
296,39,11409,2,0,P|349:47|373:51,1,55,0|2,3:0|0:0,0:0:0:0:
389,86,11851,1,8,0:0:0:0:
494,56,12292,2,0,P|493:110|469:159,1,110,4|8,3:2|0:0,0:0:0:0:
366,197,13174,2,0,P|342:246|341:300,1,110,0|8,3:0|0:0,0:0:0:0:
363,351,13836,1,4,0:3:0:0:
363,351,14056,102,0,P|453:362|491:369,2,110,4|8|4,3:1|0:0|3:2,0:0:0:0:
253,363,15380,1,8,0:0:0:0:
147,331,15821,2,0,P|139:281|135:259,1,55,2|2,3:2|0:1,0:0:0:0:
162,227,16262,2,0,P|157:199|153:172,1,55,10|0,0:1|3:0,0:0:0:0:
169,119,16703,2,0,P|113:126|55:127,1,110,2|14,3:1|0:1,0:0:0:0:
23,23,17586,6,0,P|127:18|210:4,2,165,4|4|2,3:2|3:2|3:2,0:0:0:0:
6,75,19130,1,4,3:2:0:0:
84,152,19571,1,8,0:0:0:0:
84,152,19792,2,0,P|80:205|77:231,1,55,10|4,0:0|3:1,0:0:0:0:
183,242,20453,1,0,3:2:0:0:
183,242,20674,2,0,P|187:158|193:110,1,110,12|0,0:0|0:0,0:0:0:0:
501,22,22439,85,2,0:0:0:0:
462,125,22880,6,0,P|391:112|224:98,1,220,4|0,3:2|0:0,0:0:0:0:
189,105,23983,1,0,3:0:0:0:
189,105,24203,1,2,0:0:0:0:
120,191,24645,2,0,P|80:111|103:39,2,165,0|0|2,3:0|3:0|0:0,0:0:0:0:
210,253,26409,102,0,P|295:237|393:330,1,220,0|0,3:0|0:0,0:0:0:0:
496,291,27733,2,0,P|498:246|501:221,1,55,2|0,0:0|0:0,0:0:0:0:
507,181,28174,2,0,P|428:169|378:160,1,110,0|2,3:0|0:0,0:0:0:0:
336,72,29056,2,0,P|281:62|227:54,1,110,0|2,0:0|0:1,0:0:0:0:
172,62,29718,1,2,3:1:0:0:
172,62,29939,6,0,P|111:121|147:254,1,220,4|0,3:2|0:0,0:0:0:0:
184,268,31042,1,0,3:0:0:0:
184,268,31262,1,2,0:0:0:0:
281,318,31703,2,0,P|186:327|106:367,2,165,0|0|2,3:0|3:0|0:0,0:0:0:0:
388,342,33468,101,0,3:0:0:0:
414,235,33909,1,2,0:0:0:0:
360,138,34351,2,0,P|350:95|347:77,1,55,0|0,0:0|3:0,0:0:0:0:
341,29,34792,2,0,P|295:22|264:20,1,55,2|0,0:0|0:0,0:0:0:0:
239,49,35233,6,2,P|162:49|73:257,1,330,0|4,3:0|3:1,0:1:0:0:
140,334,36998,5,4,3:2:0:0:
223,262,37439,2,0,P|265:265|287:266,1,55,8|2,0:0|0:0,0:0:0:0:
317,304,37880,1,0,3:0:0:0:
412,358,38321,2,0,P|423:309|430:280,1,55,8|2,0:0|0:0,0:0:0:0:
413,250,38762,1,4,3:2:0:0:
482,164,39203,2,0,P|472:92|470:41,2,110,8|0|8,0:0|3:0|0:0,0:0:0:0:
413,250,40527,101,4,3:2:0:0:
343,164,40968,2,0,P|310:159|276:151,1,55,8|2,0:0|0:0,0:0:0:0:
241,182,41409,1,0,3:0:0:0:
209,76,41851,2,0,P|176:71|142:63,1,55,8|2,0:0|0:0,0:0:0:0:
107,94,42292,1,0,3:0:0:0:
6,139,42733,2,0,P|21:221|24:270,1,110,8|0,0:0|3:0,0:0:0:0:
66,281,43395,1,0,0:0:0:0:
66,281,43615,2,0,P|61:330|55:359,1,55,8|4,0:0|0:3,0:0:0:0:
101,372,44056,1,4,3:1:0:0:
208,349,44498,6,0,P|227:260|140:153,1,220,10|10,0:2|0:2,0:0:0:0:
47,144,45821,2,0,P|126:55|229:78,1,220,0|0,3:0|3:0,0:0:0:0:
267,166,47145,1,8,0:0:0:0:
156,160,47586,102,0,P|293:278|348:87,1,440,4|4,3:2|3:2,0:0:0:0:
265,33,49792,2,0,P|225:36|202:37,1,55,8|0,0:0|0:0,0:0:0:0:
164,67,50233,2,0,P|136:68|109:70,1,55,0|2,3:0|0:0,0:0:0:0:
58,48,50674,1,2,3:2:0:0:
37,155,51115,69,6,3:2:0:0:
440,330,52880,1,2,0:0:0:0:
37,155,54645,5,2,0:0:0:0:
440,330,56409,1,2,0:0:0:0:
440,330,56630,2,0,P|432:284|427:256,1,55
463,231,57071,2,0,P|449:157|445:114,1,110,2|2,0:0|0:0,0:0:0:0:
398,94,57733,1,8,0:0:0:0:
347,191,58174,22,0,P|294:171|226:176,1,110,4|0,3:1|0:0,0:0:0:0:
192,196,58836,2,0,P|137:196|86:176,1,110,4|2,3:2|0:0,0:0:0:0:
51,134,59498,1,0,0:0:0:0:
51,134,59718,1,4,3:2:0:0:
87,30,60159,1,0,3:0:0:0:
87,30,60380,2,0,P|140:29|209:22,2,110,2|2|8,0:0|0:0|0:0,0:0:0:0:
51,134,61703,5,4,3:1:0:0:
96,234,62145,1,8,0:0:0:0:
54,335,62586,2,0,P|104:341|128:345,1,55,10|10,0:1|0:1,0:0:0:0:
158,317,63027,2,0,P|185:320|212:323,1,55,10|10,0:1|0:1,0:0:0:0:
430,357,64130,69,8,0:0:0:0:
430,357,64351,2,0,P|421:298|417:247,1,110,4|14,0:3|0:0,0:0:0:0:
434,139,65233,54,0,P|379:130|319:117,1,110,4|8,3:1|0:0,0:0:0:0:
289,77,65895,1,2,0:0:0:0:
289,77,66115,2,0,P|235:65|180:56,1,110,4|8,3:2|0:0,0:0:0:0:
131,81,66777,1,2,0:0:0:0:
131,81,66998,2,0,P|107:126|121:206,2,110,4|8|4,3:1|0:0|3:2,0:0:0:0:
211,156,68321,2,0,P|218:202|222:226,1,55,12|0,0:0|0:0,0:0:0:0:
189,256,68762,5,4,3:1:0:0:
133,350,69203,2,0,P|72:341|14:339,2,110,8|0|8,0:0|3:0|0:2,0:0:0:0:
242,360,70527,2,0,P|277:264|403:249,1,220,4|4,3:2|3:2,0:0:0:0:
486,279,71851,2,0,P|493:237|492:199,1,55,8|4,0:0|0:3,0:0:0:0:
470,174,72292,101,4,3:1:0:0:
505,70,72733,1,8,0:0:0:0:
418,2,73174,2,0,P|356:12|306:16,1,110,0|8,3:0|0:0,0:0:0:0:
278,61,73836,1,2,0:0:0:0:
278,61,74056,2,0,P|223:65|168:74,2,110,4|8|0,3:2|0:2|3:2,0:0:0:0:
331,157,75380,1,12,0:2:0:0:
308,264,75821,6,0,P|253:273|198:277,1,110,4|8,3:1|0:0,0:0:0:0:
140,184,76703,1,4,3:2:0:0:
94,83,77145,2,0,P|140:77|173:71,1,55,12|0,0:0|0:0,0:0:0:0:
197,99,77586,1,4,3:1:0:0:
295,147,78027,2,0,P|322:142|349:139,1,55,4|0,0:3|3:0,0:0:0:0:
385,97,78468,1,6,3:1:0:0:
446,187,78909,1,10,0:1:0:0:
416,293,79351,1,6,3:1:0:0:
309,319,79792,102,0,P|179:288|70:278,1,220,12|8,0:2|0:0,0:0:0:0:
22,194,81115,2,0,P|30:136|33:81,1,110,4|12,3:2|0:0,0:0:0:0:
141,65,81998,2,0,P|133:123|130:178,1,110,4|12,3:1|0:2,0:0:0:0:
164,216,82659,1,2,0:0:0:0:
164,216,82880,5,4,3:1:0:0:
200,319,83321,2,0,P|138:325|72:342,2,110,8|0|8,0:0|3:0|0:0,0:0:0:0:
245,287,84424,1,2,0:0:0:0:
245,287,84645,1,4,3:1:0:0:
349,321,85086,2,0,P|353:277|353:252,1,55,8|0,0:1|0:0,0:0:0:0:
332,215,85527,2,0,P|333:187|336:160,1,55,4|0,3:2|0:0,0:0:0:0:
365,113,85968,2,0,P|368:85|369:58,1,55,8|8,0:0|0:3,0:0:0:0:
338,12,86409,102,0,P|257:32|218:163,1,220,4|0,3:1|3:0,0:0:0:0:
258,252,87733,2,0,P|218:258|187:259,1,55,8|2,0:0|0:0,0:0:0:0:
170,302,88174,2,0,P|97:303|44:314,2,110,4|8|4,3:1|0:1|3:2,0:0:0:0:
270,346,89498,1,8,0:1:0:0:
363,288,89939,6,0,P|380:169|298:105,2,220,4|4|4,3:2|3:1|3:2,0:0:0:0:
315,316,91924,1,0,0:0:0:0:
315,316,92145,2,0,P|266:307|241:304,1,55,8|0,0:0|3:0,0:0:0:0:
219,269,92586,1,4,3:1:0:0:
126,328,93027,1,12,0:0:0:0:
35,265,93468,102,0,P|26:189|18:146,1,110,4|8,3:1|0:0,0:0:0:0:
50,110,94130,1,2,0:0:0:0:
50,110,94351,2,0,P|126:101|169:93,1,110,4|8,3:2|0:3,0:0:0:0:
198,133,95012,1,4,0:3:0:0:
198,133,95233,1,4,3:1:0:0:
461,53,96336,5,2,0:0:0:0:
461,53,96556,2,0,P|455:98|451:125,1,55,8|4,0:0|0:3,0:0:0:0:
413,146,96998,1,4,3:1:0:0:
42,257,107586,22,0,P|49:112|209:113,1,330,0|2,3:0|0:0,0:0:0:0:
131,190,109351,2,0,P|231:218|315:129,1,220,0|2,3:0|0:0,0:0:0:0:
434,37,110895,1,2,0:0:0:0:
434,37,111115,6,0,P|412:148|415:274,1,220,0|0,3:0|0:0,0:0:0:0:
279,352,112659,1,0,0:0:0:0:
279,352,112880,2,0,P|301:241|298:115,1,220,0|2,3:0|0:0,0:0:0:0:
259,32,114203,1,0,0:0:0:0:
157,73,114645,22,0,P|85:64|40:61,2,110,4|2|0,3:2|0:2|0:0,0:0:0:0:
195,112,115748,1,0,3:0:0:0:
195,112,115968,1,2,0:0:0:0:
276,185,116409,2,0,P|302:125|295:60,2,110,2|2|0,3:2|0:0|0:0,0:0:0:0:
230,215,117512,1,0,0:0:0:0:
230,215,117733,2,0,P|182:209|163:207,1,55,2|0,0:0|3:0,0:0:0:0:
125,232,118174,5,2,3:2:0:0:
155,337,118615,2,0,P|215:325|269:322,1,110,2|0,0:0|0:0,0:0:0:0:
346,249,119498,1,2,0:0:0:0:
454,268,119939,102,2,P|429:177|235:231,1,330,2|4,3:1|3:2,0:1:0:0:
140,257,121703,6,0,P|134:215|129:195,1,55,0|0,3:2|3:0,0:0:0:0:
90,164,122145,2,0,P|84:137|81:109,1,55,8|0,0:0|3:0,0:0:0:0:
103,59,122586,1,4,3:1:0:0:
210,83,123027,1,8,0:2:0:0:
314,47,123468,2,0,P|403:33|444:30,2,110,0|8|0,3:2|0:2|3:0,0:0:0:0:
284,93,124571,1,2,0:1:0:0:
284,93,124792,1,10,0:1:0:0:
381,144,125233,102,0,P|399:218|410:257,1,110,4|8,3:2|0:2,0:0:0:0:
317,312,126115,2,0,P|299:238|288:199,1,110,0|8,3:2|0:2,0:0:0:0:
240,181,126777,1,0,0:0:0:0:
240,181,126998,1,4,3:2:0:0:
202,284,127439,2,0,P|136:292|77:309,2,110,8|4|14,0:2|3:2|0:1,0:0:0:0:
305,321,128762,1,4,3:1:0:0:
398,263,129203,6,0,P|413:185|301:99,1,220,8|8,0:0|0:0,0:0:0:0:
223,39,130527,2,0,P|213:144|297:208,1,220,0|0,3:0|3:0,0:0:0:0:
352,204,131630,1,0,0:0:0:0:
352,204,131851,1,8,0:0:0:0:
313,100,132292,102,0,P|426:122|385:308,1,330,6|8,3:2|0:0,0:0:0:0:
307,352,134056,2,0,P|263:348|233:350,1,55,4|2,3:2|0:0,0:0:0:0:
212,310,134498,2,0,P|184:309|157:306,1,55,8|2,0:0|0:0,0:0:0:0:
116,343,134939,2,0,P|88:339|61:339,1,55,0|0,3:0|0:0,0:0:0:0:
22,300,135380,1,8,0:0:0:0:
39,191,135821,69,4,0:0:0:0:
461,68,137586,1,2,0:0:0:0:
39,191,139351,5,2,0:0:0:0:
461,68,141115,2,0,P|457:116|456:136,1,55,2|0,0:0|0:0,0:0:0:0:
414,158,141556,2,0,P|412:185|409:212,2,55,2|2|4,0:0|0:0|0:3,0:0:0:0:
365,132,142218,1,0,3:0:0:0:
365,132,142439,1,12,0:0:0:0:
299,43,142880,22,0,P|240:67|177:65,1,110,4|2,3:1|0:0,0:0:0:0:
143,46,143542,2,0,P|88:49|38:71,1,110,4|2,3:2|0:0,0:0:0:0:
12,119,144203,1,8,0:0:0:0:
114,160,144645,2,0,P|106:221|94:281,1,110,8|0,0:0|3:0,0:0:0:0:
204,290,145527,2,0,P|212:229|224:169,1,110,0|8,0:0|0:0,0:0:0:0:
201,130,146189,1,10,0:0:0:0:
201,130,146409,6,0,P|364:40|198:275,1,880,4|2,0:0|0:0,0:0:0:0:
80,338,153468,54,0,P|91:261|93:207,1,110,4|2,3:2|3:2,0:0:0:0:
201,212,154351,2,0,P|190:289|188:343,1,110,2|2,3:2|3:2,0:0:0:0:
288,365,155233,2,0,P|291:310|300:255,1,110,4|2,3:2|3:2,0:0:0:0:
410,265,156115,1,2,3:2:0:0:
489,189,156556,1,2,3:2:0:0:
474,79,156998,6,0,P|371:72|247:48,2,220,4|0|6,3:2|3:0|3:2,0:0:0:0:
503,125,158983,85,8,0:3:0:0:
503,125,159203,2,0,P|494:175|490:197,1,55,4|8,0:3|0:3,0:0:0:0:
399,237,159865,5,8,0:3:0:0:
399,237,160085,2,0,P|394:264|389:291,1,55,4|0,0:3|3:0,0:0:0:0:
420,336,160527,5,4,3:2:0:0:
315,370,160968,22,0,P|239:353|81:338,1,220,12|8,0:1|0:0,0:0:0:0:
43,242,162292,2,0,P|53:166|56:114,1,110,0|8,3:0|0:0,0:0:0:0:
164,118,163174,2,0,P|165:76|168:45,1,55,4|0,3:2|0:0,0:0:0:0:
209,28,163615,1,8,0:0:0:0:
275,115,164056,6,0,P|352:108|410:109,2,110,4|8|4,3:1|0:0|3:2,0:0:0:0:
242,159,165159,1,0,0:0:0:0:
242,159,165380,1,8,0:0:0:0:
244,268,165821,2,0,P|345:284|425:196,1,220,4|6,3:1|3:2,0:0:0:0:
384,107,167145,1,8,0:3:0:0:
384,107,167365,1,4,0:3:0:0:
384,107,167586,102,0,P|283:91|203:179,1,220,4|0,3:1|3:2,0:0:0:0:
173,273,168909,1,8,0:0:0:0:
173,273,169130,1,2,0:0:0:0:
173,273,169351,2,0,P|164:183|130:34,2,220,4|0|4,3:2|3:0|3:2,0:0:0:0:
267,329,171556,5,8,0:2:0:0:
362,273,171998,2,0,P|367:223|372:199,1,55,0|2,3:0|0:0,0:0:0:0:
336,172,172439,1,8,0:0:0:0:
336,172,172659,2,0,P|343:117|347:46,1,110,4|0,3:1|3:0,0:0:0:0:
392,32,173321,1,8,0:0:0:0:
439,131,173762,1,4,3:2:0:0:
367,218,174203,1,12,0:1:0:0:
260,190,174645,101,4,3:1:0:0:
256,192,174865,12,0,178174,3:2:0:0:
78,290,181703,69,0,3:2:0:0:
181,327,182145,2,0,P|188:228|205:104,1,220,8|8,0:0|0:0,0:0:0:0:
314,108,183468,2,0,P|368:103|437:92,2,110,0|8|2,3:2|0:0|0:0,0:0:0:0:
263,85,184571,1,0,3:0:0:0:
263,85,184792,1,10,0:0:0:0:
169,26,185233,6,0,P|97:82|269:291,1,440,4|0,3:2|3:0,0:0:0:0:
361,261,187439,102,0,P|366:296|368:322,2,55,0|8|8,3:0|0:0|0:0,0:0:0:0:
329,215,188101,1,2,0:0:0:0:
329,215,188321,1,12,0:0:0:0:
404,135,188762,70,0,P|337:124|275:106,1,110,4|8,3:1|0:0,0:0:0:0:
264,67,189424,1,2,0:0:0:0:
264,67,189645,2,0,P|210:53|156:45,1,110,4|8,3:2|0:0,0:0:0:0:
103,58,190306,1,2,0:0:0:0:
103,58,190527,2,0,P|68:113|74:171,2,110,4|8|4,3:2|0:2|3:1,0:0:0:0:
174,142,191851,2,0,P|180:187|185:212,1,55,14|2,0:0|0:0,0:0:0:0:
149,241,192292,5,4,3:1:0:0:
218,326,192733,2,0,P|265:331|289:336,1,55,8|2,0:0|0:0,0:0:0:0:
318,301,193174,2,0,P|345:305|372:307,1,55,0|2,3:0|0:0,0:0:0:0:
416,341,193615,1,8,0:0:0:0:
462,241,194056,2,0,P|448:154|322:99,1,220,4|4,3:2|3:2,0:0:0:0:
238,143,195380,2,0,P|230:102|227:74,1,55,8|4,0:0|0:3,0:0:0:0:
253,39,195821,101,4,3:1:0:0:
145,15,196262,1,8,0:0:0:0:
67,93,196703,2,0,P|80:161|85:203,1,110,4|8,3:2|0:0,0:0:0:0:
124,239,197365,1,2,0:0:0:0:
124,239,197586,2,0,P|131:293|141:347,2,110,4|8|4,3:1|0:0|3:2,0:0:0:0:
211,171,198909,1,8,0:0:0:0:
292,245,199351,6,0,P|343:251|365:254,1,55,4|2,3:1|0:0,0:0:0:0:
390,218,199792,2,0,P|417:221|444:224,1,55,10|2,0:0|0:0,0:0:0:0:
481,265,200233,1,6,3:2:0:0:
407,347,200674,1,12,0:0:0:0:
346,251,201115,102,0,P|339:205|334:180,1,55,4|8,3:2|0:0,0:0:0:0:
365,149,201556,2,0,P|360:121|356:94,1,55,4|0,0:3|3:0,0:0:0:0:
315,57,201998,1,6,3:1:0:0:
220,114,202439,1,10,0:1:0:0:
113,88,202880,1,6,3:1:0:0:
33,163,203321,6,0,P|51:257|63:349,1,165,12|2,0:1|0:0,0:0:0:0:
108,353,204203,1,8,0:0:0:0:
207,304,204645,2,0,P|254:310|335:329,1,110,4|8,3:2|0:0,0:0:0:0:
334,214,205527,2,0,P|287:208|206:189,1,110,4|12,3:1|0:0,0:0:0:0:
192,150,206189,1,2,0:0:0:0:
192,150,206409,101,4,3:1:0:0:
114,71,206851,2,0,P|91:113|94:196,2,110,8|4|10,0:0|3:2|0:0,0:0:0:0:
160,42,207953,1,2,0:0:0:0:
160,42,208174,1,4,3:1:0:0:
192,150,208615,2,0,P|238:145|263:139,1,55,10|2,0:0|0:0,0:0:0:0:
294,169,209056,2,0,P|321:164|348:162,1,55,4|0,3:2|0:0,0:0:0:0:
390,126,209498,2,0,P|436:121|461:115,1,55,8|4,0:3|0:3,0:0:0:0:
490,149,209939,5,4,3:2:0:0:
464,255,210380,1,8,0:0:0:0:
437,361,210821,2,0,P|372:348|309:345,1,110,4|8,3:2|0:2,0:0:0:0:
273,351,211483,1,2,0:0:0:0:
273,351,211703,1,4,3:1:0:0:
164,367,212145,2,0,P|179:286|302:241,1,220,8|8,0:2|0:2,0:0:0:0:
316,131,213468,102,0,P|417:104|449:3,2,220,4|4|4,3:2|3:1|3:2,0:0:0:0:
266,107,215453,1,0,0:0:0:0:
266,107,215674,2,0,P|218:111|193:115,1,55,8|0,0:0|3:0,0:0:0:0:
165,81,216115,2,0,P|137:84|110:85,1,55,4|0,3:1|0:0,0:0:0:0:
73,126,216556,1,8,0:0:0:0:
97,233,216998,6,0,P|164:236|217:243,1,110,4|8,3:1|0:0,0:0:0:0:
310,277,217880,2,0,P|364:283|419:285,1,110,4|8,3:2|0:0,0:0:0:0:
474,190,218762,2,0,P|442:106|306:73,1,220,4|4,3:2|3:2,0:0:0:0:
231,124,220086,1,8,0:0:0:0:
140,61,220527,102,0,P|123:113|131:176,1,110,4|8,3:1|0:0,0:0:0:0:
160,211,221189,1,2,0:0:0:0:
160,211,221409,2,0,P|165:265|148:317,1,110,4|10,3:2|0:0,0:0:0:0:
109,357,222071,1,2,0:0:0:0:
109,357,222292,2,0,P|231:325|350:326,1,220,4|4,3:1|3:2,0:0:0:0:
431,346,223615,1,10,0:0:0:0:
456,239,224056,6,0,P|465:163|473:120,1,110,4|8,3:1|0:0,0:0:0:0:
441,84,224718,1,2,0:0:0:0:
441,84,224939,2,0,P|365:75|322:67,1,110,4|8,3:1|0:0,0:0:0:0:
293,107,225600,1,4,0:3:0:0:
293,107,225821,101,4,3:1:0:0:
