osu file format v14

[General]
AudioFilename: audio.mp3
AudioLeadIn: 0
PreviewTime: 64351
Countdown: 0
SampleSet: Soft
StackLeniency: 0.6
Mode: 0
LetterboxInBreaks: 0
EpilepsyWarning: 1
WidescreenStoryboard: 1

[Editor]
Bookmarks: 96998,107586,149939,153468,225821
DistanceSpacing: 1.1
BeatDivisor: 4
GridSize: 32
TimelineZoom: 1

[Metadata]
Title:Prism no Ohimesama
TitleUnicode:プリズムのお姫様
Artist:Tsukino
ArtistUnicode:月乃
Creator:Left
Version:Left_Sama's Insane
Source:LUNARiA -Virtualized Moonchild-
Tags:ルナリア Opening OP2 Kinetic Novel Visual Japanese pop Key るなきゅん LUNAR-Q T-BIT Heilia Kaguya_Sama
BeatmapID:3491951
BeatmapSetID:1684135

[Difficulty]
HPDrainRate:6
CircleSize:3.7
OverallDifficulty:6.8
ApproachRate:7.5
SliderMultiplier:1.65
SliderTickRate:1

[Events]
//Background and Video events
0,0,"bgt.jpg",0,0
//Break Periods
2,97198,106761
2,150138,152643
//Storyboard Layer 0 (Background)
Sprite,Background,Centre,"SB\a.jpg",320,240 F,0,228909,,0,1 F,0,228909,235527,1 S,0,228909,235527,0.7,0.64 F,0,235527,,1,0
Sprite,Background,Centre,"SB\b.jpg",320,240 F,0,233762,235527,0,1 S,0,233762,241703,0.7,0.64 F,0,235527,241703,1 F,0,241703,,1,0
Sprite,Background,Centre,"SB\c.jpg",320,240 F,0,239939,241703,0,1 S,0,239939,247880,0.7,0.64 F,0,241703,247880,1 F,0,247880,,1,0
Sprite,Background,Centre,"SB\d.jpg",320,240 F,0,246115,247880,0,1 S,0,246115,254056,0.7,0.64 F,0,247880,254056,1 F,0,254056,,1,0
Sprite,Background,Centre,"SB\lyr\end1.png",320,240 F,0,235306,235527,0,1 S,0,235306,237953,0.5 F,0,235527,237733,1 F,0,237733,237953,1,0
Sprite,Background,Centre,"SB\lyr\end2.png",320,240 F,0,237953,238174,0,1 S,0,237953,242365,0.5 F,0,238174,242145,1 F,0,242145,242365,1,0
Sprite,Background,Centre,"SB\lyr\end3.png",320,240 F,0,242365,242586,0,1 S,0,242365,245012,0.5 F,0,242586,244792,1 F,0,244792,245012,1,0
Sprite,Background,Centre,"SB\lyr\end4.png",320,240 F,0,245012,245233,0,1 S,0,245012,250527,0.5 F,0,245233,250306,1 F,0,250306,250527,1,0
//Storyboard Layer 1 (Fail)
//Storyboard Layer 2 (Pass)
//Storyboard Layer 3 (Foreground)
//Storyboard Layer 4 (Overlay)
//Storyboard Sound Samples

[TimingPoints]
1704,441.176470588235,4,2,7,60,1,0
1704,-125,4,2,7,60,0,0
5233,-125,4,2,7,65,0,0
6998,-99.9999999999999,4,2,7,70,0,0
8762,-99.9999999999999,4,2,7,75,0,0
10527,-83.3333333333333,4,2,7,80,0,0
22384,-83.3333333333333,4,2,7,60,0,0
22880,-125,4,2,7,60,0,0
36887,-125,4,2,7,5,0,0
36998,-100,4,2,7,70,0,0
51115,-142.857142857143,4,2,7,70,0,0
51336,-142.857142857143,4,2,7,50,0,0
57071,-142.857142857143,4,2,7,60,0,0
57512,-142.857142857143,4,2,7,70,0,0
57733,-100,4,2,7,70,0,0
57843,-100,4,2,7,5,0,0
57953,-100,4,2,7,70,0,0
58064,-100,4,2,7,5,0,0
58174,-100,4,2,7,75,0,0
61593,-100,4,2,7,5,0,0
61703,-100,4,2,7,80,0,0
63468,-100,4,2,7,60,0,0
63909,-100,4,2,7,80,0,0
65233,-83.3333333333333,4,2,7,85,0,1
95233,-83.3333333333333,4,2,7,85,0,0
107586,-1000,4,2,7,60,0,0
114645,-125,4,2,7,60,0,0
121262,-200,4,2,7,60,0,0
121924,-200,4,2,7,50,0,0
122034,-200,4,2,7,5,0,0
122145,-111.111111111111,4,2,7,60,0,0
122255,-111.111111111111,4,2,7,5,0,0
122365,-71.4285714285714,4,2,7,70,0,0
122476,-71.4285714285714,4,2,7,5,0,0
122586,-100,4,2,7,70,0,0
135821,-142.857142857143,4,2,7,50,0,0
141556,-142.857142857143,4,2,7,60,0,0
141998,-100,4,2,7,60,0,0
142218,-100,4,2,7,70,0,0
143542,-80,4,2,7,70,0,0
144203,-66.6666666666667,4,2,7,70,0,0
145086,-66.6666666666667,4,2,7,75,0,0
145748,-66.6666666666667,4,2,7,80,0,0
146409,-142.857142857143,4,2,7,80,0,0
146520,-142.857142857143,4,2,7,50,0,0
153468,-142.857142857143,4,2,7,60,0,0
154792,-100,4,2,7,60,0,0
158652,-100,4,2,7,5,0,0
158762,-100,4,2,7,60,0,0
158873,-100,4,2,7,5,0,0
158983,-100,4,2,7,60,0,0
159093,-100,4,2,7,5,0,0
159203,-100,4,2,7,60,0,0
159314,-100,4,2,7,5,0,0
159424,-100,4,2,7,60,0,0
160086,-83.3333333333333,4,2,7,60,0,0
160527,-83.3333333333333,4,2,7,50,0,0
160968,-66.6666666666667,4,2,7,75,0,0
161630,-83.3333333333333,4,2,7,75,0,0
164718,-71.4285714285714,4,2,7,75,0,0
165821,-62.5,4,2,7,75,0,0
166703,-83.3333333333333,4,2,7,75,0,0
171115,-83.3333333333333,4,2,7,80,0,0
172659,-83.3333333333333,4,2,7,85,0,0
173762,-71.4285714285714,4,2,7,85,0,0
174203,-62.5,4,2,7,85,0,0
175086,-62.5,4,2,7,60,0,0
178174,-142.857142857143,4,2,7,60,0,0
185233,-400,4,2,7,60,0,0
187439,-100,4,2,7,60,0,0
187659,-100,4,2,7,75,0,0
188101,-133.333333333333,4,2,7,85,0,0
188652,-133.333333333333,4,2,7,5,0,0
188762,-71.4285714285714,4,2,7,93,0,1
191851,-62.5,4,2,7,93,0,1
192733,-71.4285714285714,4,2,7,93,0,1
193174,-62.5,4,2,7,93,0,1
193836,-71.4285714285714,4,2,7,93,0,1
225821,-71.4285714285714,4,2,7,93,0,0

[Colours]
Combo1 : 255,169,83
Combo2 : 255,239,123
Combo3 : 104,255,255
Combo4 : 145,70,255
Combo5 : 255,34,183
Combo6 : 130,130,130
Combo7 : 168,168,168
Combo8 : 217,217,217

[HitObjects]
42,358,1704,86,0,L|24:250,1,99,4|0,0:0|0:0,0:0:0:0:
25,260,2365,1,2,0:0:0:0:
154,319,3468,6,0,L|136:211,1,99,2|0,0:0|0:0,0:0:0:0:
137,221,4129,1,2,0:0:0:0:
260,129,5233,22,0,B|376:158|306:211|428:239,1,198,6|0,0:0|0:0,0:0:0:0:
512,211,6115,2,0,B|396:240|466:293|344:321,1,198,2|0,0:0|0:0,0:0:0:0:
219,301,6998,6,0,P|196:201|169:125,1,165,4|8,3:2|0:3,0:0:0:0:
130,332,7659,1,4,0:3:0:0:
130,332,7880,2,0,P|102:251|84:170,1,165,4|8,3:2|0:3,0:0:0:0:
85,173,8431,1,8,0:3:0:0:
85,173,8542,1,4,0:3:0:0:
188,39,8762,101,2,3:1:0:0:
289,132,9203,5,2,3:1:0:0:
376,95,9424,1,2,0:0:0:0:
376,95,9534,1,2,0:0:0:0:
376,95,9645,101,2,3:1:0:0:
446,146,9865,1,2,3:1:0:0:
447,237,10086,1,8,0:0:0:0:
447,237,10196,1,8,0:0:0:0:
447,237,10306,1,4,0:3:0:0:
315,328,10527,6,0,L|287:120,1,197.99999395752,4|8,3:1|0:0,0:0:0:0:
137,256,11189,1,0,0:0:0:0:
224,291,11409,2,0,L|208:175,1,98.9999969787599,0|2,3:0|0:0,0:0:0:0:
132,138,11740,1,2,3:2:0:0:
132,138,11851,2,0,L|147:22,1,98.9999969787599,8|0,0:0|0:0,0:0:0:0:
301,32,12292,102,0,L|288:131,1,98.9999969787599,4|2,3:2|0:0,0:0:0:0:
385,67,12623,1,2,3:2:0:0:
385,67,12733,2,0,L|376:141,1,49.4999984893799,8|0,0:0|0:0,0:0:0:0:
348,202,12953,2,0,L|342:251,1,49.4999984893799,0|0,3:0|0:0,0:0:0:0:
422,291,13174,6,0,L|435:192,1,98.9999969787599,0|2,3:0|0:0,0:0:0:0:
469,104,13505,1,2,0:0:0:0:
469,104,13615,2,0,P|407:97|363:140,1,98.9999969787599,8|4,0:0|0:3,0:0:0:0:
263,216,14056,102,0,B|142:184|199:272|55:232,1,197.99999395752,4|8,3:1|0:0,0:0:0:0:
226,299,14718,1,0,0:0:0:0:
114,151,14939,2,0,L|127:52,1,98.9999969787599,4|2,3:2|0:0,0:0:0:0:
214,65,15270,1,2,0:0:0:0:
214,65,15380,2,0,L|200:163,1,98.9999969787599,8|0,0:0|0:0,0:0:0:0:
73,236,15821,5,2,3:2:0:0:
226,299,16042,1,2,0:1:0:0:
56,339,16262,2,0,P|46:286|69:240,1,98.9999969787599,10|0,0:1|3:0,0:0:0:0:
200,163,16703,2,0,L|298:176,1,98.9999969787599,2|8,3:1|0:3,0:0:0:0:
362,241,17034,1,0,0:0:0:0:
362,241,17145,2,0,P|390:193|370:128,1,98.9999969787599,14|8,0:1|0:0,0:0:0:0:
322,88,17476,1,8,0:3:0:0:
322,88,17586,102,0,L|123:63,1,197.99999395752,4|8,3:2|0:0,0:0:0:0:
297,175,18248,2,0,L|101:151,1,197.99999395752,4|8,3:2|0:2,0:0:0:0:
272,262,18909,1,2,3:2:0:0:
272,262,19020,1,2,0:0:0:0:
272,262,19130,6,0,L|75:237,1,197.99999395752,4|8,3:2|0:0,0:0:0:0:
297,175,19792,1,10,0:0:0:0:
167,297,20012,1,4,3:1:0:0:
67,152,20233,102,0,P|44:144|24:130,3,49.4999984893799,0|2|0|2,0:0|0:0|3:2|0:0,0:0:0:0:
121,221,20674,2,0,P|99:232|75:237,3,49.4999984893799,12|0|2|0,0:0|0:0|0:0|0:0,0:0:0:0:
161,140,21115,1,0,0:0:0:0:
330,323,22880,102,0,L|317:175,1,132,4|2,3:2|0:0,0:0:0:0:
240,227,23542,1,0,0:0:0:0:
240,227,23983,1,0,3:0:0:0:
204,148,24204,2,0,L|112:156,1,66,2|0,0:0|0:0,0:0:0:0:
108,238,24645,6,0,L|256:225,1,132,0|2,3:0|0:0,0:0:0:0:
204,148,25307,1,0,3:0:0:0:
204,148,25748,1,0,3:0:0:0:
282,112,25969,2,0,L|273:20,1,66,2|0,0:0|3:0,0:0:0:0:
192,16,26409,102,0,L|205:164,1,132,0|2,3:0|0:0,0:0:0:0:
282,112,27071,1,0,0:0:0:0:
282,112,27512,1,0,3:0:0:0:
328,191,27733,2,0,L|419:182,1,66,2|0,0:0|0:0,0:0:0:0:
413,100,28174,6,0,L|265:113,1,132,0|2,3:0|0:0,0:0:0:0:
328,191,28836,1,0,0:0:0:0:
328,191,29277,101,2,0:1:0:0:
199,118,29498,2,0,L|207:209,1,66,2|2,0:1|3:1,0:0:0:0:
42,229,29939,6,0,P|96:266|161:254,1,132,4|2,3:2|0:0,0:0:0:0:
205,184,30601,1,0,0:0:0:0:
205,184,31042,1,0,3:0:0:0:
139,121,31262,2,0,P|116:153|116:189,1,66,2|0,0:0|0:0,0:0:0:0:
158,258,31703,102,0,P|212:221|277:233,1,132,0|2,3:0|0:0,0:0:0:0:
321,303,32365,1,0,3:0:0:0:
321,303,32806,1,0,0:0:0:0:
255,366,33026,2,0,P|232:334|232:298,1,66,2|0,0:0|3:0,0:0:0:0:
274,231,33468,6,0,P|328:268|393:256,1,132,4|2,3:2|0:0,0:0:0:0:
437,186,34130,1,0,0:2:0:0:
437,186,34571,1,0,3:0:0:0:
371,123,34791,2,0,P|348:155|348:191,1,66,2|0,0:0|0:0,0:0:0:0:
483,266,35233,101,0,3:0:0:0:
255,188,36336,5,2,3:2:0:0:
164,144,36556,2,0,L|178:264,1,99,4|0,3:1|0:0,0:0:0:0:
178,255,36998,5,4,3:2:0:0:
127,329,37218,1,2,0:0:0:0:
264,269,37439,1,8,0:0:0:0:
264,269,37659,2,0,L|250:149,1,82.5,2|0,0:0|3:0,0:0:0:0:
164,144,38101,101,2,0:0:0:0:
27,204,38322,1,8,0:0:0:0:
27,204,38542,2,0,L|41:324,1,82.5,2|4,0:0|3:2,0:0:0:0:
127,329,38983,5,2,0:0:0:0:
264,269,39204,1,8,0:0:0:0:
264,269,39424,2,0,L|250:149,1,82.5,2|0,0:0|3:0,0:0:0:0:
164,144,39865,101,0,0:0:0:0:
164,144,39976,1,2,3:2:0:0:
164,144,40086,1,8,0:0:0:0:
264,29,40306,1,0,0:0:0:0:
326,96,40527,5,4,3:2:0:0:
410,97,40748,1,2,0:0:0:0:
298,205,40968,1,8,0:0:0:0:
298,205,41189,2,0,P|345:250|380:250,1,82.5,2|0,0:0|3:0,0:0:0:0:
375,172,41630,101,2,0:0:0:0:
484,63,41850,1,8,0:0:0:0:
484,63,42071,2,0,P|436:17|401:17,1,82.5,2|0,0:0|3:0,0:0:0:0:
410,97,42512,5,2,0:0:0:0:
298,205,42732,1,8,0:0:0:0:
298,205,42953,2,0,P|345:250|380:250,1,82.5,2|0,0:0|3:0,0:0:0:0:
503,220,43395,101,0,0:0:0:0:
503,220,43505,1,2,3:2:0:0:
503,220,43615,1,8,0:0:0:0:
375,172,43836,1,4,0:3:0:0:
465,309,44056,6,0,B|410:310|373:330|411:365|311:371,1,165,4|10,3:1|0:2,0:0:0:0:
163,302,44718,1,0,0:0:0:0:
228,363,44939,2,0,P|250:313|240:267,1,82.5,2|0,3:2|0:0,0:0:0:0:
191,218,45380,1,10,0:2:0:0:
191,218,45601,1,2,0:0:0:0:
144,384,45821,101,0,3:0:0:0:
79,324,46042,2,0,P|79:283|99:248,1,82.5,2|8,0:0|0:0,0:0:0:0:
15,216,46483,2,0,L|190:195,1,165,2|0,0:0|0:0,0:0:0:0:
178,196,47034,1,2,3:2:0:0:
178,196,47145,1,8,0:0:0:0:
83,118,47365,1,2,0:0:0:0:
206,40,47586,6,0,L|186:203,3,165,4|8|0|8,3:2|0:0|3:0|0:0,0:0:0:0:
346,179,49351,101,4,3:2:0:0:
361,92,49571,2,0,P|297:104|277:124,1,82.5,2|8,0:0|0:0,0:0:0:0:
332,263,50012,2,0,P|396:251|416:231,1,82.5,0|0,0:0|3:0,0:0:0:0:
407,240,50343,1,8,0:0:0:0:
407,240,50453,1,2,0:0:0:0:
447,149,50674,1,2,3:2:0:0:
361,92,50895,1,2,3:2:0:0:
260,202,51115,70,0,L|185:211,1,57.7499982376099,6|0,3:2|0:0,0:0:0:0:
150,269,51556,2,0,L|75:278,1,57.7499982376099,2|0,0:2|0:0,0:0:0:0:
27,226,52659,5,2,0:0:0:0:
92,275,52880,2,0,L|150:269,1,57.7499982376099,2|0,0:0|0:0,0:0:0:0:
202,208,53321,2,0,L|260:202,1,57.7499982376099,2|0,0:0|0:0,0:0:0:0:
313,134,54424,101,0,0:0:0:0:
260,202,54645,2,0,L|202:208,1,57.7499982376099,2|0,0:0|0:0,0:0:0:0:
150,269,55086,2,0,L|92:275,1,57.7499982376099,2|0,0:0|0:0,0:0:0:0:
95,166,56409,5,2,0:0:0:0:
83,146,56630,101,0,0:0:0:0:
81,121,56851,101,0,0:0:0:0:
91,91,57071,21,2,0:0:0:0:
118,61,57292,101,0,0:0:0:0:
163,45,57512,101,2,0:0:0:0:
233,122,57733,22,0,L|274:125,1,41.25,8|0,0:0|0:0,0:0:0:0:
352,132,57953,2,0,L|393:135,1,41.25,0|0,3:0|0:0,0:0:0:0:
505,165,58174,22,0,B|394:205|490:233|346:274,1,165,4|0,3:1|0:0,0:0:0:0:
230,256,58836,2,0,B|342:296|245:324|390:365,1,165,4|2,3:2|0:0,0:0:0:0:
445,328,59498,1,0,0:0:0:0:
393,176,59718,6,0,B|349:166|337:119|337:119|346:166|309:208,1,165,4|0,3:2|3:0,0:0:0:0:
380,263,60380,1,2,0:0:0:0:
380,263,60601,1,0,3:0:0:0:
249,136,61042,1,0,3:0:0:0:
166,181,61262,2,0,B|145:144|145:144|169:35,1,123.75,8|0,0:0|0:0,0:0:0:0:
169,50,61703,102,0,P|211:37|249:57,1,82.5,4|0,3:1|0:0,0:0:0:0:
154,195,62145,2,0,P|112:208|74:188,1,82.5,8|0,0:0|0:0,0:0:0:0:
68,47,62586,5,10,0:1:0:0:
241,134,62806,1,10,0:1:0:0:
67,199,63027,1,10,0:1:0:0:
253,147,63248,1,10,0:1:0:0:
475,273,64130,102,0,L|365:255,1,82.5,8|4,0:0|0:3,0:0:0:0:
302,348,64571,5,2,0:0:0:0:
316,304,64791,1,14,0:0:0:0:
294,264,65012,1,0,0:0:0:0:
218,315,65233,6,0,L|323:302,1,98.9999969787599,4|0,3:1|0:0,0:0:0:0:
298,175,65674,2,0,L|192:187,1,98.9999969787599,8|2,0:0|0:0,0:0:0:0:
121,252,66115,2,0,P|80:293|14:279,1,98.9999969787599,4|0,3:2|0:0,0:0:0:0:
32,286,66446,1,0,3:0:0:0:
24,277,66556,1,8,0:0:0:0:
70,158,66777,1,2,0:0:0:0:
199,186,66998,6,0,P|226:232|216:291,1,98.9999969787599,4|2,3:1|0:0,0:0:0:0:
144,342,67439,2,0,P|117:296|127:237,1,98.9999969787599,8|0,0:0|0:0,0:0:0:0:
221,288,67880,1,4,3:2:0:0:
238,384,68101,1,2,0:2:0:0:
238,384,68211,1,0,0:0:0:0:
238,384,68321,1,12,0:0:0:0:
311,328,68542,1,0,0:0:0:0:
441,363,68762,102,0,P|462:315|356:255,1,197.99999395752,4|8,3:1|0:0,0:0:0:0:
205,173,69424,1,2,0:0:0:0:
235,288,69645,1,0,3:0:0:0:
312,157,69865,1,2,0:2:0:0:
312,157,69976,1,0,3:0:0:0:
312,157,70086,2,0,L|295:37,1,98.9999969787599,8|2,0:2|0:0,0:0:0:0:
155,34,70527,5,4,3:2:0:0:
205,173,70748,1,0,0:0:0:0:
34,104,70968,2,0,L|132:117,1,98.9999969787599,8|2,0:0|3:2,0:0:0:0:
105,268,71409,1,4,3:2:0:0:
71,190,71630,1,2,0:2:0:0:
193,262,71851,1,8,0:0:0:0:
63,341,72071,1,4,0:3:0:0:
162,353,72292,102,0,B|280:376|221:312|357:333,1,197.99999395752,4|8,3:1|0:0,0:0:0:0:
505,313,72953,1,0,0:0:0:0:
436,377,73174,2,0,L|422:278,1,98.9999969787599,0|0,3:0|0:0,0:0:0:0:
420,266,73505,1,2,0:0:0:0:
418,253,73615,1,8,0:0:0:0:
488,144,73836,1,2,0:0:0:0:
332,98,74056,5,4,3:2:0:0:
396,167,74277,1,0,0:0:0:0:
474,45,74498,1,8,0:2:0:0:
474,45,74718,2,0,L|487:143,1,98.9999969787599,0|4,3:0|3:2,0:0:0:0:
374,253,75159,1,0,3:0:0:0:
374,253,75270,1,2,3:2:0:0:
374,253,75380,1,12,0:2:0:0:
342,84,75601,1,0,0:0:0:0:
276,213,75821,102,0,B|235:239|235:239|70:216,1,197.99999395752,4|8,3:1|0:0,0:0:0:0:
167,70,76483,1,2,0:0:0:0:
215,157,76703,2,0,L|116:143,1,98.9999969787599,4|0,3:2|0:0,0:0:0:0:
105,142,77034,1,0,0:0:0:0:
94,140,77145,1,12,0:2:0:0:
6,239,77365,1,0,0:0:0:0:
115,304,77586,6,0,L|213:317,1,98.9999969787599,0|8,3:0|0:0,0:0:0:0:
229,311,77917,1,8,0:3:0:0:
242,305,78027,2,0,L|248:244,2,49.4999984893799,4|8|0,0:3|0:3|3:0,0:0:0:0:
325,197,78468,101,6,3:1:0:0:
325,197,78909,5,10,0:1:0:0:
325,197,79351,101,6,3:1:0:0:
367,116,79792,6,0,P|313:106|264:134,1,98.9999969787599,12|2,0:2|0:0,0:0:0:0:
169,188,80233,2,0,P|123:206|76:195,1,98.9999969787599,0|2,3:0|0:0,0:0:0:0:
68,187,80564,1,0,3:0:0:0:
60,177,80674,2,0,L|73:71,1,98.9999969787599,8|2,0:0|0:0,0:0:0:0:
208,21,81115,101,4,3:2:0:0:
157,98,81336,1,2,0:0:0:0:
274,123,81556,2,0,L|286:221,1,98.9999969787599,12|2,0:0|0:0,0:0:0:0:
235,350,81998,1,4,3:1:0:0:
350,285,82218,1,2,0:0:0:0:
350,285,82328,1,2,0:0:0:0:
350,285,82439,1,12,0:2:0:0:
204,233,82659,1,2,0:0:0:0:
409,228,82880,6,0,P|436:284|345:366,1,197.99999395752,4|8,3:1|0:0,0:0:0:0:
286,221,83542,1,2,0:0:0:0:
153,308,83762,1,0,3:0:0:0:
185,149,83983,1,0,0:0:0:0:
185,149,84093,1,2,0:0:0:0:
185,149,84203,1,8,0:0:0:0:
204,233,84424,1,2,0:0:0:0:
28,236,84645,101,4,3:1:0:0:
140,302,84865,1,0,0:0:0:0:
41,356,85086,2,0,L|29:258,1,98.9999969787599,8|0,0:1|0:0,0:0:0:0:
95,139,85527,1,4,3:2:0:0:
175,170,85748,1,0,0:0:0:0:
77,120,85968,1,8,0:0:0:0:
204,64,86189,1,8,0:3:0:0:
123,240,86409,6,0,B|154:272|208:267|240:235|240:235|271:202|316:217,1,197.99999395752,4|8,3:1|0:0,0:0:0:0:
410,270,87071,1,2,0:0:0:0:
410,270,87181,1,0,0:0:0:0:
410,270,87292,2,0,L|396:377,1,98.9999969787599,0|2,3:0|0:0,0:0:0:0:
332,296,87733,101,8,0:0:0:0:
289,133,87953,2,0,P|354:147|383:185,1,98.9999969787599,2|4,0:0|3:1,0:0:0:0:
231,262,88395,2,0,P|268:293|316:298,1,98.9999969787599,2|8,0:0|0:2,0:0:0:0:
398,366,88836,6,0,L|374:159,1,197.99999395752,2|2,3:2|0:0,0:0:0:0:
372,157,89387,1,2,3:2:0:0:
371,145,89498,1,10,0:0:0:0:
492,111,89718,1,2,0:0:0:0:
377,54,89939,102,0,B|240:75|340:128|195:148,1,197.99999395752,4|8,3:2|0:0,0:0:0:0:
96,58,90601,1,0,0:0:0:0:
186,148,90821,2,0,L|201:283,1,98.9999969787599,4|0,3:1|0:0,0:0:0:0:
200,259,91152,1,0,0:0:0:0:
202,271,91262,1,8,0:0:0:0:
137,340,91483,6,0,P|106:295|115:236,1,98.9999969787599,2|4,0:0|3:2,0:0:0:0:
284,304,91924,1,0,0:0:0:0:
259,203,92145,2,0,P|290:248|281:307,1,98.9999969787599,8|0,0:0|3:0,0:0:0:0:
166,174,92586,2,0,L|177:59,1,98.9999969787599,4|0,3:1|0:0,0:0:0:0:
177,65,92917,1,0,0:0:0:0:
178,56,93027,1,12,0:0:0:0:
67,157,93248,1,4,0:3:0:0:
241,224,93468,102,0,B|203:267|212:320|212:320|185:269|125:257,1,197.99999395752,4|8,3:1|0:0,0:0:0:0:
166,174,94130,1,2,0:0:0:0:
323,259,94351,2,0,P|330:210|311:165,1,98.9999969787599,4|2,3:2|0:0,0:0:0:0:
203,92,94792,1,8,0:3:0:0:
247,219,95012,1,4,0:3:0:0:
382,81,95233,5,4,3:1:0:0:
440,175,96556,101,8,0:0:0:0:
440,175,96667,1,8,0:0:0:0:
440,175,96777,1,4,0:3:0:0:
497,85,96998,1,4,3:1:0:0:
30,215,107586,38,0,P|37:171|38:157,1,57.75,0|0,3:0|0:0,0:0:0:0:
201,46,109351,2,0,P|199:60|197:72,1,24.75,0|2,3:0|0:0,0:0:0:0:
268,185,110233,1,2,0:0:0:0:
345,147,110453,2,0,P|346:138|349:130,1,16.5,0|2,0:0|0:0,0:0:0:0:
511,31,111115,6,0,P|482:28|453:23,1,57.75,0|0,3:0|0:0,0:0:0:0:
324,127,112880,2,0,P|338:128|350:131,1,24.75,0|0,3:0|3:0,0:0:0:0:
512,227,113762,1,2,0:0:0:0:
457,292,113983,2,0,P|448:290|440:288,1,16.5,0|2,0:0|0:0,0:0:0:0:
361,232,114645,6,0,P|348:284|344:318,1,66,4|0,3:2|0:0,0:0:0:0:
450,192,115086,2,0,P|458:160|464:127,2,66,2|0|0,0:2|0:0|0:0,0:0:0:0:
370,139,115748,1,0,3:0:0:0:
281,175,115968,2,0,P|224:160|195:151,1,66,2|0,0:0|0:0,0:0:0:0:
75,30,116409,6,0,P|82:108|85:183,1,132,2|2,3:2|0:0,0:0:0:0:
226,288,117071,2,0,P|220:222|217:157,1,132,2|0,3:2|0:0,0:0:0:0:
24,309,117733,1,2,0:0:0:0:
102,370,117953,1,0,3:0:0:0:
102,370,118174,2,0,P|149:362|194:360,1,66,2|0,3:2|0:0,0:0:0:0:
226,288,118615,2,0,P|258:284|291:278,2,66,2|0|0,0:0|0:0|0:2,0:0:0:0:
356,353,119277,101,2,3:2:0:0:
386,262,119498,1,2,0:0:0:0:
324,189,119718,1,0,0:0:0:0:
364,101,119939,1,0,3:0:0:0:
364,101,121042,5,0,3:0:0:0:
512,37,121262,2,0,P|501:93|497:136,1,82.5,4|0,3:2|3:2,0:0:0:0:
433,179,121924,6,0,P|400:172|396:171,1,20.625,0|0,3:0|0:0,0:0:0:0:
364,101,122145,102,0,P|336:98|299:91,1,37.1249988670349,8|0,0:0|0:0,0:0:0:0:
253,192,122365,6,0,P|206:183|162:179,1,57.7499982376099,0|0,3:0|0:0,0:0:0:0:
158,23,122586,102,0,P|95:14|47:4,1,82.5,4|0,3:1|0:0,0:0:0:0:
31,129,123027,2,0,P|94:138|142:148,1,82.5,8|0,0:2|0:0,0:0:0:0:
127,263,123468,2,0,P|64:254|16:244,1,82.5,0|0,3:2|0:0,0:0:0:0:
0,369,123909,2,0,P|63:378|111:388,1,82.5,8|0,0:2|0:0,0:0:0:0:
166,361,124351,5,0,3:0:0:0:
269,265,124571,1,2,0:1:0:0:
269,265,124681,1,0,0:0:0:0:
269,265,124792,1,10,0:1:0:0:
393,331,125012,1,2,0:1:0:0:
485,230,125233,102,0,P|493:170|499:142,1,82.5,4|0,3:2|0:0,0:0:0:0:
380,78,125674,2,0,P|372:138|366:166,1,82.5,8|0,0:2|0:0,0:0:0:0:
238,191,126115,2,0,P|246:131|252:103,1,82.5,0|0,3:2|0:0,0:0:0:0:
133,39,126556,2,0,P|125:99|119:127,1,82.5,8|0,0:2|0:0,0:0:0:0:
31,267,126998,2,0,P|91:259|119:253,1,82.5,4|0,3:2|0:0,0:0:0:0:
183,372,127439,2,0,P|123:380|95:386,1,82.5,8|0,0:2|0:0,0:0:0:0:
23,364,127880,5,4,3:2:0:0:
112,254,128101,1,2,3:1:0:0:
112,254,128211,1,0,0:0:0:0:
112,254,128321,1,14,0:1:0:0:
243,309,128542,1,2,0:1:0:0:
83,154,128762,101,4,3:1:0:0:
83,154,129203,1,8,0:0:0:0:
83,154,129645,1,0,3:0:0:0:
83,154,130086,1,8,0:0:0:0:
168,107,130306,2,0,P|175:66|183:26,1,82.5,2|0,0:0|3:0,0:0:0:0:
231,181,130748,2,0,P|224:222|216:262,1,82.5,2|8,0:0|0:0,0:0:0:0:
311,133,131189,1,2,0:0:0:0:
392,179,131409,2,0,P|441:172|498:168,1,82.5,0|0,3:0|0:0,0:0:0:0:
473,169,131740,1,2,3:2:0:0:
473,169,131851,1,8,0:0:0:0:
512,77,132071,5,2,0:0:0:0:
409,38,132292,2,0,P|413:61|418:94,3,41.25,6|2|2|2,3:2|0:0|0:0|0:0,0:0:0:0:
465,144,132733,2,0,P|468:164|471:184,3,41.25,10|2|2|2,0:0|0:0|0:0|0:0,0:0:0:0:
449,262,133174,2,0,P|452:282|455:302,3,41.25,2|2|2|2,3:2|0:0|0:0|0:0,0:0:0:0:
506,367,133615,1,8,0:0:0:0:
357,299,133836,101,0,0:0:0:0:
357,299,133946,1,0,0:0:0:0:
357,299,134056,1,4,3:2:0:0:
275,355,134277,2,0,P|234:360|193:368,1,82.5,2|8,0:0|0:0,0:0:0:0:
104,337,134718,1,2,0:0:0:0:
174,150,134939,1,0,3:0:0:0:
174,150,135049,1,8,0:0:0:0:
174,150,135159,2,0,P|168:109|160:68,1,82.5,0|8,0:0|0:0,0:0:0:0:
10,40,135601,69,2,0:0:0:0:
10,40,135711,1,2,0:0:0:0:
10,40,135821,2,0,P|42:45|70:48,1,57.7499982376099,4|0,0:0|0:0,0:0:0:0:
160,68,136262,1,2,0:0:0:0:
235,9,136483,1,2,0:0:0:0:
502,344,137365,1,2,0:0:0:0:
502,344,137586,2,0,P|470:339|442:336,1,57.7499982376099,2|0,0:0|0:0,0:0:0:0:
352,316,138027,1,2,0:0:0:0:
277,375,138248,1,2,0:0:0:0:
384,36,139130,5,2,0:0:0:0:
384,36,139351,1,2,0:0:0:0:
409,151,139571,1,0,0:0:0:0:
498,85,139792,2,0,P|504:43|510:19,1,57.7499982376099,2|2,0:0|0:0,0:0:0:0:
128,348,141115,1,2,0:0:0:0:
103,233,141335,1,0,0:0:0:0:
14,299,141556,2,0,P|8:341|2:365,1,57.7499982376099,2|2,0:0|0:0,0:0:0:0:
220,271,141998,102,0,P|226:229|236:177,1,82.5,4|0,0:3|3:0,0:0:0:0:
233,189,142328,1,0,3:0:0:0:
233,189,142439,1,12,0:0:0:0:
272,35,142659,1,0,3:0:0:0:
112,82,142880,38,0,P|77:115|89:246,1,165,4|2,3:1|0:0,0:0:0:0:
286,296,143542,6,0,P|267:217|132:181,1,206.25,4|2,3:2|0:0,0:0:0:0:
0,355,144203,101,8,0:0:0:0:
89,375,144424,2,0,P|94:374|170:244,1,123.750004720688,4|8,3:1|0:0,0:0:0:0:
160,198,144865,1,2,0:0:0:0:
216,79,145086,6,0,P|330:74|395:202,2,247.500009441376,0|0|8,3:0|3:0|0:0,0:0:0:0:
187,323,146189,101,10,0:0:0:0:
187,323,146299,1,2,0:0:0:0:
187,323,146409,2,0,P|400:83|128:252,1,923.999971801759,4|2,0:0|0:0,0:0:0:0:
41,317,153468,69,4,3:2:0:0:
160,210,153909,1,2,3:2:0:0:
41,317,154351,1,2,3:2:0:0:
160,210,154792,2,0,P|168:261|178:305,1,82.5,2|0,3:2|0:0,0:0:0:0:
41,317,155233,2,0,P|33:266|23:222,1,82.5,4|0,3:2|0:0,0:0:0:0:
160,210,155674,1,2,3:2:0:0:
258,235,155895,1,0,0:0:0:0:
338,174,156115,2,0,P|378:169|439:155,1,82.5,2|0,3:2|0:0,0:0:0:0:
388,15,156556,2,0,P|348:20|287:34,1,82.5,2|0,3:2|0:0,0:0:0:0:
168,192,156998,6,0,P|106:160|71:66,1,165,4|2,3:2|3:2,0:0:0:0:
202,0,157659,2,0,P|186:62|179:95,1,82.5,0|0,0:0|3:0,0:0:0:0:
324,215,158101,2,0,P|340:153|347:120,1,82.5,2|0,0:0|3:0,0:0:0:0:
270,84,158542,102,0,P|261:117|257:137,1,41.25,2|0,0:0|0:0,0:0:0:0:
171,210,158762,2,0,P|180:177|184:157,1,41.25,6|0,3:2|0:0,0:0:0:0:
263,218,158983,102,0,P|254:251|250:271,1,41.25,8|0,0:3|0:0,0:0:0:0:
164,344,159203,2,0,P|173:311|177:291,1,41.25,4|0,0:3|0:0,0:0:0:0:
259,356,159424,6,0,P|309:348|372:346,1,82.5,8|0,0:3|0:0,0:0:0:0:
340,345,159755,1,0,3:0:0:0:
340,345,159865,1,8,0:3:0:0:
479,229,160086,6,0,P|486:162|492:123,1,98.9999969787599,4|0,0:3|3:0,0:0:0:0:
336,15,160527,1,4,3:2:0:0:
336,15,160968,22,0,P|226:20|175:182,1,247.500009441376,12|0,0:1|3:0,0:0:0:0:
199,236,161630,1,2,0:0:0:0:
199,236,161740,1,2,0:0:0:0:
199,236,161851,2,0,P|141:228|75:223,1,98.9999969787599,8|2,0:0|0:0,0:0:0:0:
262,148,162292,2,0,P|320:156|386:161,1,98.9999969787599,4|2,3:2|0:0,0:0:0:0:
289,356,162733,1,8,0:2:0:0:
289,356,163174,6,0,P|296:298|306:247,1,98.9999969787599,4|0,3:2|0:0,0:0:0:0:
162,130,163615,2,0,P|170:81|176:32,1,98.9999969787599,8|2,0:0|0:0,0:0:0:0:
411,20,164056,102,0,P|330:16|274:119,1,197.99999395752,4|10,3:1|0:0,0:0:0:0:
50,143,164718,5,2,0:0:0:0:
50,143,164828,1,2,0:0:0:0:
50,143,164939,2,0,P|123:124|223:243,1,230.99999295044,4|10,3:1|0:0,0:0:0:0:
300,372,165601,101,2,0:0:0:0:
300,372,165711,1,2,0:0:0:0:
300,372,165821,2,0,P|314:269|479:220,1,264,4|8,3:1|0:0,0:0:0:0:
449,210,166703,6,0,P|457:156|462:101,1,98.9999969787599,6|2,3:2|0:2,0:0:0:0:
378,44,167145,1,8,0:3:0:0:
360,144,167365,1,4,0:3:0:0:
277,83,167586,2,0,P|184:98|67:101,1,197.99999395752,4|8,3:1|0:0,0:0:0:0:
0,368,168468,2,0,P|93:353|210:350,1,197.99999395752,0|8,3:2|0:2,0:0:0:0:
415,345,169130,1,2,0:0:0:0:
485,275,169351,102,0,P|474:195|333:165,1,197.99999395752,4|8,3:2|0:0,0:0:0:0:
280,227,170012,1,0,0:0:0:0:
280,227,170123,1,2,0:0:0:0:
280,227,170233,2,0,P|268:166|257:110,1,98.9999969787599,0|0,3:0|0:0,0:0:0:0:
356,51,170674,2,0,P|368:112|379:168,1,98.9999969787599,8|0,0:0|0:0,0:0:0:0:
335,311,171115,5,4,3:2:0:0:
190,254,171336,1,2,0:0:0:0:
131,382,171556,1,8,0:2:0:0:
281,236,171777,101,2,0:0:0:0:
281,236,171887,1,2,0:0:0:0:
281,236,171998,1,0,3:0:0:0:
143,142,172218,5,2,0:0:0:0:
248,319,172439,1,8,0:0:0:0:
436,212,172659,1,4,3:1:0:0:
436,212,173101,101,0,3:0:0:0:
482,130,173321,2,0,P|470:67|466:21,1,98.9999969787599,8|0,0:0|0:0,0:0:0:0:
328,327,173762,6,0,P|319:257|308:198,1,115.49999647522,4|8,3:2|0:3,0:0:0:0:
109,140,174203,102,0,P|86:17|80:-49,1,132,12|0,0:1|0:0,0:0:0:0:
0,310,174645,5,4,3:1:0:0:
256,192,174755,12,8,177733,0:0:0:0:
369,360,178174,37,0,3:2:0:0:
461,300,178615,22,0,P|467:238|470:220,1,57.7499982376099,8|0,0:0|0:0,0:0:0:0:
369,360,179277,85,0,3:2:0:0:
461,300,179498,22,0,P|467:238|470:220,1,57.7499982376099,8|0,0:0|0:0,0:0:0:0:
369,360,179939,85,0,3:2:0:0:
461,300,180380,22,0,P|467:238|470:220,1,57.7499982376099,8|0,0:0|0:0,0:0:0:0:
369,360,181042,85,0,3:2:0:0:
461,300,181262,22,0,P|467:238|470:220,1,57.7499982376099,8|2,0:0|0:0,0:0:0:0:
477,136,181703,1,0,3:2:0:0:
477,136,182145,102,0,P|386:130|275:39,1,230.99999295044,8|8,0:0|0:0,0:0:0:0:
145,116,183468,1,0,3:2:0:0:
206,261,183909,2,0,P|294:281|358:343,1,173.24999471283,8|0,0:0|3:0,0:0:0:0:
120,308,184792,2,0,P|115:274|109:240,1,57.7499982376099,10|2,0:0|0:0,0:0:0:0:
169,174,185233,6,0,B|154:102|153:101|144:3,1,165,4|0,3:2|3:0,0:0:0:0:
144,10,187439,1,0,3:0:0:0:
43,152,187659,22,0,P|112:141|150:139,1,82.5,8|8,0:0|0:0,0:0:0:0:
300,248,188101,5,2,0:0:0:0:
300,248,188211,1,2,0:0:0:0:
300,248,188321,2,0,P|231:259|190:263,1,92.812503540516,12|0,0:0|0:0,0:0:0:0:
208,261,188762,6,0,P|166:171|276:95,1,230.99999295044,4|8,3:1|0:0,0:0:0:0:
438,243,189424,2,0,P|442:185|451:128,1,115.49999647522,2|4,0:0|3:2,0:0:0:0:
357,44,189865,1,2,0:0:0:0:
357,44,189976,1,2,3:2:0:0:
357,44,190086,2,0,P|352:101|343:158,1,115.49999647522,8|2,0:0|0:0,0:0:0:0:
320,256,190527,1,4,3:2:0:0:
244,182,190748,5,2,0:2:0:0:
418,225,190968,1,8,0:2:0:0:
353,367,191189,1,2,3:2:0:0:
353,367,191299,1,0,0:0:0:0:
353,367,191409,2,0,P|269:346|207:341,1,115.49999647522,4|0,3:1|0:0,0:0:0:0:
101,254,191851,102,0,P|90:180|71:98,1,132,14|2,0:2|0:0,0:0:0:0:
177,1,192292,1,4,3:1:0:0:
353,367,192733,6,0,P|269:346|207:341,1,115.49999647522,8|2,0:0|0:0,0:0:0:0:
101,254,193174,102,0,P|90:180|71:98,1,132,0|2,3:0|0:0,0:0:0:0:
177,1,193615,1,8,0:0:0:0:
263,62,193836,5,0,0:0:0:0:
263,62,193946,1,2,0:0:0:0:
263,62,194056,2,0,P|333:50|384:48,1,115.49999647522,4|2,3:2|0:0,0:0:0:0:
215,239,194498,2,0,P|145:251|94:253,1,115.49999647522,8|2,0:0|3:2,0:0:0:0:
401,282,194939,101,4,3:2:0:0:
424,174,195159,1,2,0:2:0:0:
296,315,195380,1,8,0:0:0:0:
480,365,195601,1,4,0:3:0:0:
481,88,195821,6,0,P|381:79|327:210,1,230.99999295044,4|8,3:1|0:0,0:0:0:0:
180,285,196483,1,2,0:0:0:0:
180,285,196593,1,0,0:0:0:0:
180,285,196703,1,4,3:2:0:0:
58,156,196924,1,0,0:0:0:0:
58,156,197034,1,0,0:0:0:0:
58,156,197145,2,0,P|66:89|70:35,1,115.49999647522,8|2,0:0|0:0,0:0:0:0:
162,104,197586,101,4,3:1:0:0:
285,3,197806,1,0,0:0:0:0:
383,134,198027,2,0,P|455:120|550:112,1,115.49999647522,8|0,0:0|3:2,0:0:0:0:
364,335,198468,2,0,P|292:349|197:357,1,115.49999647522,4|2,3:2|0:0,0:0:0:0:
215,247,198909,1,8,0:0:0:0:
480,348,199130,5,2,0:0:0:0:
480,348,199240,1,2,0:0:0:0:
480,348,199351,2,0,P|416:240|297:240,1,230.99999295044,4|10,3:1|0:0,0:0:0:0:
75,362,200012,1,2,0:0:0:0:
75,362,200123,1,0,0:0:0:0:
75,362,200233,2,0,P|86:278|90:229,1,115.49999647522,6|2,3:2|0:0,0:0:0:0:
218,92,200674,2,0,P|207:176|203:225,1,115.49999647522,12|2,0:0|0:0,0:0:0:0:
204,206,201005,1,0,0:0:0:0:
204,206,201115,1,0,3:0:0:0:
0,110,201336,101,8,0:0:0:0:
13,54,201446,1,8,0:3:0:0:
54,14,201556,1,4,0:3:0:0:
110,2,201666,1,8,0:3:0:0:
164,21,201777,2,0,P|170:51|179:95,1,57.7499982376099,0|0,3:0|3:0,0:0:0:0:
230,338,201998,5,6,3:1:0:0:
230,338,202439,1,10,0:1:0:0:
230,338,202880,1,6,3:1:0:0:
483,31,203321,101,12,0:1:0:0:
385,102,203542,1,2,0:0:0:0:
492,152,203762,5,0,3:0:0:0:
394,223,203983,1,2,0:0:0:0:
501,274,204203,101,8,0:0:0:0:
403,345,204424,1,2,0:0:0:0:
403,345,204534,1,2,0:0:0:0:
403,345,204645,2,0,P|324:331|269:327,1,115.49999647522,4|2,3:2|0:0,0:0:0:0:
181,326,205086,1,8,0:0:0:0:
52,140,205306,1,2,3:2:0:0:
52,140,205417,1,2,0:0:0:0:
52,140,205527,2,0,P|63:74|69:12,1,115.49999647522,4|2,3:1|0:0,0:0:0:0:
173,7,205968,5,12,0:0:0:0:
228,202,206189,1,2,0:0:0:0:
390,88,206409,2,0,P|447:82|518:67,1,115.49999647522,4|0,3:1|0:0,0:0:0:0:
281,91,206851,101,8,0:0:0:0:
452,181,207071,1,2,0:0:0:0:
342,184,207292,2,0,P|285:190|214:205,1,115.49999647522,4|2,3:2|0:0,0:0:0:0:
227,201,207623,1,2,3:2:0:0:
227,201,207733,1,8,0:0:0:0:
283,376,207953,1,2,0:0:0:0:
434,295,208174,6,0,P|440:245|461:140,1,115.49999647522,4|0,3:1|0:0,0:0:0:0:
231,16,208615,2,0,P|225:66|204:171,1,115.49999647522,10|2,0:0|0:0,0:0:0:0:
183,251,209056,2,0,P|233:257|338:278,1,115.49999647522,4|0,3:2|0:0,0:0:0:0:
472,60,209497,2,0,P|422:54|317:33,1,115.49999647522,8|4,0:3|0:3,0:0:0:0:
271,24,209828,1,0,0:0:0:0:
271,24,209939,102,0,P|191:35|127:190,1,230.99999295044,4|8,3:2|0:0,0:0:0:0:
148,336,210601,1,2,0:0:0:0:
148,336,210711,1,2,0:0:0:0:
148,336,210821,2,0,P|229:326|282:326,1,115.49999647522,4|2,3:2|0:0,0:0:0:0:
374,342,211262,1,10,0:0:0:0:
424,245,211483,5,2,0:0:0:0:
424,245,211593,1,2,0:0:0:0:
424,245,211703,1,4,3:1:0:0:
256,168,211924,1,2,0:0:0:0:
398,57,212145,2,0,P|455:54|512:46,1,115.49999647522,8|0,0:0|3:0,0:0:0:0:
362,155,212586,101,4,3:2:0:0:
157,114,212806,1,0,0:0:0:0:
157,114,212917,1,0,3:0:0:0:
157,114,213027,2,0,P|151:46|138:-18,1,115.49999647522,8|2,0:0|0:0,0:0:0:0:
0,335,213468,6,0,P|45:255|216:226,1,230.99999295044,4|8,3:2|0:0,0:0:0:0:
512,49,214351,2,0,P|467:129|296:158,1,230.99999295044,4|8,3:1|0:0,0:0:0:0:
229,91,215012,1,2,0:0:0:0:
229,91,215123,1,0,0:0:0:0:
229,91,215233,1,4,3:2:0:0:
283,293,215453,1,0,0:0:0:0:
283,293,215564,1,0,0:0:0:0:
283,293,215674,1,8,0:0:0:0:
255,189,215895,101,0,3:0:0:0:
137,326,216115,2,0,P|153:249|162:180,1,115.49999647522,4|0,3:1|0:0,0:0:0:0:
375,58,216556,2,0,P|359:135|350:204,1,115.49999647522,8|4,0:0|0:3,0:0:0:0:
29,59,216998,6,0,P|153:84|270:94,1,230.99999295044,4|8,3:1|0:0,0:0:0:0:
255,189,217659,1,2,0:0:0:0:
483,325,217880,2,0,P|359:300|242:290,1,230.99999295044,4|8,3:2|0:0,0:0:0:0:
255,189,218542,101,2,0:0:0:0:
255,189,218652,1,0,0:0:0:0:
255,189,218762,2,0,P|321:179|378:168,1,115.49999647522,4|0,3:2|0:0,0:0:0:0:
255,189,219203,2,0,P|189:199|132:210,1,115.49999647522,8|2,0:0|3:2,0:0:0:0:
174,88,219645,2,0,P|240:78|297:67,1,115.49999647522,4|0,3:2|0:0,0:0:0:0:
338,296,220086,2,0,P|272:306|215:317,1,115.49999647522,8|2,0:0|0:0,0:0:0:0:
105,377,220527,5,4,3:1:0:0:
116,335,220637,1,2,0:0:0:0:
126,293,220747,1,2,0:0:0:0:
134,250,220857,1,2,0:0:0:0:
140,207,220968,1,8,0:0:0:0:
255,189,221189,1,2,0:0:0:0:
371,176,221409,1,4,3:2:0:0:
377,133,221520,1,2,0:0:0:0:
385,90,221630,1,2,0:0:0:0:
395,48,221740,1,2,3:2:0:0:
407,7,221850,1,10,0:0:0:0:
504,58,222071,101,2,0:0:0:0:
504,58,222181,1,0,0:0:0:0:
504,58,222292,2,0,P|487:133|482:183,1,115.49999647522,4|2,3:1|0:0,0:0:0:0:
372,290,222733,1,8,0:0:0:0:
316,137,222953,1,0,3:0:0:0:
196,247,223174,1,4,3:2:0:0:
140,94,223395,1,2,0:0:0:0:
29,212,223615,2,0,P|21:269|8:326,1,115.49999647522,10|4,0:0|0:3,0:0:0:0:
212,342,224056,5,4,3:1:0:0:
408,154,224277,1,2,0:0:0:0:
408,154,224387,1,2,0:0:0:0:
408,154,224498,1,8,0:0:0:0:
147,78,224718,1,2,0:0:0:0:
103,229,224939,101,4,3:1:0:0:
364,305,225160,1,2,0:0:0:0:
364,305,225270,1,2,0:0:0:0:
364,305,225381,1,8,0:0:0:0:
299,41,225601,1,4,0:3:0:0:
255,191,225821,5,4,3:1:0:0:
