osu file format v14

[General]
AudioFilename: audio.mp3
AudioLeadIn: 0
PreviewTime: 64351
Countdown: 0
SampleSet: Soft
StackLeniency: 0.2
Mode: 0
LetterboxInBreaks: 0
EpilepsyWarning: 1
WidescreenStoryboard: 1

[Editor]
Bookmarks: 88395,96998,107586,149939,153468,193174,215674,225821
DistanceSpacing: 1
BeatDivisor: 4
GridSize: 16
TimelineZoom: 3.099999

[Metadata]
Title:Prism no Ohimesama
TitleUnicode:プリズムのお姫様
Artist:Tsukino
ArtistUnicode:月乃
Creator:Left
Version:Heilia's Another
Source:LUNARiA -Virtualized Moonchild-
Tags:ルナリア Opening OP2 Kinetic Novel Visual Japanese pop Key るなきゅん LUNAR-Q T-BIT Heilia Kaguya_Sama
BeatmapID:3491030
BeatmapSetID:1684135

[Difficulty]
HPDrainRate:6
CircleSize:3.7
OverallDifficulty:8
ApproachRate:8.1
SliderMultiplier:1.8
SliderTickRate:1

[Events]
//Background and Video events
0,0,"bgt.jpg",0,0
//Break Periods
2,22880,29205
2,107586,113911
2,150139,152493
//Storyboard Layer 0 (Background)
Sprite,Background,Centre,"SB\a.jpg",320,240 F,0,228909,,0,1 F,0,228909,235527,1 S,0,228909,235527,0.7,0.64 F,0,235527,,1,0
Sprite,Background,Centre,"SB\b.jpg",320,240 F,0,233762,235527,0,1 S,0,233762,241703,0.7,0.64 F,0,235527,241703,1 F,0,241703,,1,0
Sprite,Background,Centre,"SB\c.jpg",320,240 F,0,239939,241703,0,1 S,0,239939,247880,0.7,0.64 F,0,241703,247880,1 F,0,247880,,1,0
Sprite,Background,Centre,"SB\d.jpg",320,240 F,0,246115,247880,0,1 S,0,246115,254056,0.7,0.64 F,0,247880,254056,1 F,0,254056,,1,0
Sprite,Background,Centre,"SB\lyr\end1.png",320,240 F,0,235306,235527,0,1 S,0,235306,237953,0.5 F,0,235527,237733,1 F,0,237733,237953,1,0
Sprite,Background,Centre,"SB\lyr\end2.png",320,240 F,0,237953,238174,0,1 S,0,237953,242365,0.5 F,0,238174,242145,1 F,0,242145,242365,1,0
Sprite,Background,Centre,"SB\lyr\end3.png",320,240 F,0,242365,242586,0,1 S,0,242365,245012,0.5 F,0,242586,244792,1 F,0,244792,245012,1,0
Sprite,Background,Centre,"SB\lyr\end4.png",320,240 F,0,245012,245233,0,1 S,0,245012,250527,0.5 F,0,245233,250306,1 F,0,250306,250527,1,0
//Storyboard Layer 1 (Fail)
//Storyboard Layer 2 (Pass)
//Storyboard Layer 3 (Foreground)
//Storyboard Layer 4 (Overlay)
//Storyboard Sound Samples

[TimingPoints]
1704,441.176470588235,4,2,7,60,1,0
1704,-100,4,2,7,60,0,0
5123,-100,4,2,7,60,0,0
5233,-100,4,2,7,65,0,0
6998,-100,4,2,7,70,0,0
7273,-100,4,2,7,70,0,0
7384,-100,4,2,7,70,0,0
8211,-100,4,2,7,70,0,0
8321,-100,4,2,7,70,0,0
8762,-100,4,2,7,75,0,0
8873,-100,4,2,7,75,0,0
9203,-100,4,2,7,75,0,0
9314,-100,4,2,7,75,0,0
9424,-100,4,2,7,75,0,0
9755,-100,4,2,7,75,0,0
9865,-100,4,2,7,75,0,0
9976,-100,4,2,7,75,0,0
10086,-100,4,2,7,75,0,0
10527,-100,4,2,7,80,0,0
12292,-76.9230769230769,4,2,7,80,0,0
21115,-76.9230769230769,4,2,7,80,0,0
21998,-76.9230769230769,4,2,7,80,0,0
22384,-76.9230769230769,4,2,7,60,0,0
29939,-100,4,2,7,60,0,0
30601,-100,4,2,7,60,0,0
31097,-100,4,2,7,60,0,0
31262,-100,4,2,7,60,0,0
31924,-100,4,2,7,60,0,0
32862,-100,4,2,7,60,0,0
33027,-100,4,2,7,60,0,0
33689,-100,4,2,7,60,0,0
34351,-100,4,2,7,60,0,0
36998,-100,4,2,7,70,0,0
49571,-117.647058823529,4,2,7,70,0,0
50012,-76.9230769230769,4,2,7,70,0,0
51336,-76.9230769230769,4,2,7,50,0,0
57071,-76.9230769230769,4,2,7,60,0,0
57512,-200,4,2,7,70,0,0
58174,-100,4,2,7,75,0,0
60049,-100,4,2,7,75,0,0
60159,-100,4,2,7,75,0,0
61703,-100,4,2,7,80,0,0
62034,-100,4,2,7,80,0,0
62145,-100,4,2,7,80,0,0
62476,-100,4,2,7,80,0,0
62586,-50,4,2,7,80,0,0
62696,-50,4,2,7,80,0,0
62806,-50,4,2,7,80,0,0
62917,-50,4,2,7,80,0,0
63027,-50,4,2,7,80,0,0
63137,-50,4,2,7,80,0,0
63248,-50,4,2,7,80,0,0
63358,-50,4,2,7,80,0,0
63468,-50,4,2,7,60,0,0
63909,-50,4,2,7,80,0,0
64240,-50,4,2,7,80,0,0
64351,-66.6666666666667,4,2,7,80,0,0
64461,-66.6666666666667,4,2,7,80,0,0
64571,-66.6666666666667,4,2,7,80,0,0
65123,-66.6666666666667,4,2,7,80,0,0
65233,-66.6666666666667,4,2,7,85,0,0
66115,-66.6666666666667,4,2,7,85,0,0
70527,-43.4782608695652,4,2,7,85,0,0
72733,-66.6666666666667,4,2,7,85,0,0
79351,-133.333333333333,4,2,7,85,0,0
79792,-66.6666666666667,4,2,7,85,0,0
84645,-43.4782608695652,4,2,7,85,0,0
87292,-66.6666666666667,4,2,7,85,0,0
96998,-66.6666666666667,4,2,7,80,0,0
100527,-76.9230769230769,4,2,7,80,0,0
107586,-76.9230769230769,4,2,7,80,0,0
114645,-100,4,2,7,60,0,0
121924,-100,4,2,7,50,0,0
122145,-100,4,2,7,60,0,0
122365,-100,4,2,7,70,0,0
134277,-117.647058823529,4,2,7,70,0,0
134718,-76.9230769230769,4,2,7,70,0,0
135821,-76.9230769230769,4,2,7,50,0,0
141556,-76.9230769230769,4,2,7,60,0,0
141777,-76.9230769230769,4,2,7,60,0,0
142218,-200,4,2,7,70,0,0
142880,-100,4,2,7,70,0,0
145086,-100,4,2,7,75,0,0
145748,-100,4,2,7,80,0,0
146520,-100,4,2,7,50,0,0
153468,-100,4,2,7,60,0,0
160527,-100,4,2,7,50,0,0
160968,-86.9565217391304,4,2,7,75,0,0
171115,-86.9565217391304,4,2,7,80,0,0
172659,-86.9565217391304,4,2,7,85,0,0
175086,-86.9565217391304,4,2,7,60,0,0
181703,-100,4,2,7,60,0,0
185233,-100,4,2,7,60,0,0
187659,-100,4,2,7,75,0,0
188101,-100,4,2,7,85,0,0
188762,-100,4,2,7,93,0,0
189645,-66.6666666666667,4,2,7,93,0,0
193836,-100,4,2,7,93,0,0
194056,-43.4782608695652,4,2,7,93,0,0
196483,-66.6666666666667,4,2,7,93,0,0
207953,-100,4,2,7,93,0,0
208174,-43.4782608695652,4,2,7,93,0,0
210821,-66.6666666666667,4,2,7,93,0,0
219645,-76.9230769230769,4,2,7,93,0,0

[Colours]
Combo1 : 255,169,83
Combo2 : 255,239,123
Combo3 : 104,255,255
Combo4 : 145,70,255
Combo5 : 255,34,183
Combo6 : 130,130,130
Combo7 : 168,168,168
Combo8 : 217,217,217

[HitObjects]
399,51,1704,85,6,0:0:0:0:
493,33,1924,1,2,0:0:0:0:
493,33,2034,1,2,0:0:0:0:
511,127,2255,1,2,0:0:0:0:
511,127,2365,1,2,0:0:0:0:
113,51,3468,5,2,0:0:0:0:
19,33,3688,1,2,0:0:0:0:
19,33,3798,1,2,0:0:0:0:
1,127,4019,1,2,0:0:0:0:
1,127,4129,1,2,0:0:0:0:
325,221,4792,102,0,P|314:281|306:376,1,135,2|0,0:0|0:0,0:0:0:0:
354,293,5233,37,6,0:0:0:0:
118,226,6115,5,2,0:0:0:0:
295,56,6998,101,4,3:2:0:0:
209,11,7439,6,0,L|222:98,1,45,8|0,0:3|0:0,0:0:0:0:
379,75,7659,2,0,L|372:30,1,45,4|0,0:3|0:0,0:0:0:0:
295,56,7880,101,4,3:2:0:0:
209,11,8321,6,0,L|215:55,1,45,8|8,0:3|0:3,0:0:0:0:
379,75,8541,2,0,L|372:30,1,45,4|0,0:3|3:0,0:0:0:0:
295,56,8762,101,2,3:1:0:0:
295,56,9203,1,2,3:1:0:0:
250,125,9424,6,0,L|222:133,2,30,2|0|2,0:0|0:0|0:0,0:0:0:0:
295,56,9645,102,0,L|280:178,1,90,2|2,3:1|3:1,0:0:0:0:
234,0,10086,5,8,0:0:0:0:
205,83,10196,1,8,0:0:0:0:
147,17,10306,2,0,L|48:31,1,90,4|4,0:3|3:1,0:0:0:0:
49,286,10748,101,2,0:0:0:0:
86,309,10858,1,2,0:0:0:0:
130,307,10968,1,8,0:0:0:0:
164,280,11078,1,0,0:0:0:0:
176,237,11189,1,0,0:0:0:0:
161,196,11299,1,0,0:0:0:0:
120,168,11409,5,0,3:0:0:0:
103,117,11520,1,0,0:0:0:0:
154,100,11630,1,2,0:0:0:0:
205,83,11741,1,2,3:2:0:0:
222,134,11851,1,8,0:0:0:0:
314,310,12071,101,0,0:0:0:0:
314,310,12181,1,0,0:0:0:0:
314,310,12292,2,0,P|378:316|456:334,1,116.999994644165,4|2,3:2|0:0,0:0:0:0:
490,263,12623,1,2,3:2:0:0:
493,253,12733,2,0,P|464:247|435:244,1,58.4999973220826,8|0,0:0|0:0,0:0:0:0:
362,152,12953,2,0,P|390:157|419:160,1,58.4999973220826,0|0,3:0|0:0,0:0:0:0:
511,177,13174,6,0,L|274:231,1,233.999989288331,4|8,3:0|0:0,0:0:0:0:
39,19,13836,101,4,0:3:0:0:
39,19,13946,1,0,0:0:0:0:
39,19,14056,2,0,P|87:41|82:103,1,116.999994644165,4|2,3:1|0:0,0:0:0:0:
45,166,14387,1,2,0:0:0:0:
51,175,14498,2,0,L|119:183,2,58.4999973220826,8|0|0,0:0|0:0|0:0,0:0:0:0:
39,19,14939,6,0,P|87:41|82:103,1,116.999994644165,4|2,3:2|0:0,0:0:0:0:
45,166,15269,1,2,0:0:0:0:
51,175,15380,2,0,L|119:183,2,58.4999973220826,8|0|0,0:0|0:0|0:0,0:0:0:0:
75,347,15821,101,2,3:2:0:0:
122,366,15931,1,2,0:0:0:0:
165,335,16042,1,2,0:1:0:0:
201,207,16262,5,10,0:1:0:0:
248,188,16372,1,2,0:0:0:0:
291,219,16483,1,2,3:0:0:0:
352,342,16703,101,2,3:1:0:0:
388,377,16813,1,2,0:0:0:0:
441,384,16923,1,10,0:3:0:0:
488,360,17034,1,2,0:0:0:0:
511,313,17144,1,14,0:1:0:0:
501,261,17254,1,2,0:0:0:0:
464,223,17365,2,0,P|455:272|444:308,1,58.4999973220826,8|8,0:0|0:3,0:0:0:0:
352,342,17586,5,4,3:2:0:0:
345,284,17696,1,2,0:0:0:0:
338,226,17806,1,2,0:0:0:0:
331,167,17917,1,2,0:0:0:0:
324,109,18027,1,8,0:0:0:0:
253,327,18248,101,4,3:2:0:0:
247,281,18358,1,2,0:0:0:0:
241,235,18468,1,2,0:0:0:0:
236,188,18579,1,2,0:0:0:0:
230,142,18689,1,8,0:2:0:0:
158,292,18909,5,2,3:2:0:0:
152,246,19019,1,2,0:0:0:0:
146,200,19129,1,4,3:2:0:0:
68,282,19571,101,8,0:0:0:0:
65,258,19681,1,2,0:0:0:0:
62,235,19792,2,0,P|101:226|143:222,1,58.4999973220826,10|0,0:0|0:0,0:0:0:0:
167,31,20012,2,0,P|128:40|86:44,1,58.4999973220826,4|0,3:1|0:0,0:0:0:0:
106,121,20233,5,0,0:0:0:0:
107,126,20343,1,2,0:0:0:0:
108,131,20453,1,0,3:2:0:0:
109,136,20564,1,2,0:0:0:0:
110,141,20674,2,0,L|190:151,2,58.4999973220826,12|0|2,0:0|0:0|0:0,0:0:0:0:
256,192,21115,12,2,22439,0:0:0:0:
286,87,29939,86,0,P|292:127|294:186,1,90,4|0,3:2|0:0,0:0:0:0:
303,184,30270,1,2,0:0:0:0:
303,184,30380,2,0,L|370:197,1,45,2|0,0:0|0:0,0:0:0:0:
444,216,30601,5,2,0:0:0:0:
444,216,30711,1,2,0:0:0:0:
444,216,30821,1,2,0:0:0:0:
412,347,31042,1,0,3:0:0:0:
281,315,31262,1,2,0:0:0:0:
359,258,31483,101,2,0:0:0:0:
359,258,31593,1,2,0:0:0:0:
359,258,31703,2,0,L|174:283,1,180,0|2,3:0|0:0,0:0:0:0:
66,94,32365,5,0,3:0:0:0:
66,94,32476,1,2,0:0:0:0:
66,94,32586,1,2,0:0:0:0:
97,223,32806,1,0,0:0:0:0:
227,192,33027,1,2,0:0:0:0:
152,132,33248,102,0,L|159:76,1,45,0|0,3:0|0:0,0:0:0:0:
94,23,33468,5,4,3:2:0:0:
100,35,33578,2,0,P|171:29|264:9,1,135,2|2,0:0|0:0,0:0:0:0:
395,36,34130,101,2,0:2:0:0:
395,36,34240,1,2,0:0:0:0:
395,36,34351,1,2,0:0:0:0:
357,155,34571,1,0,3:0:0:0:
476,193,34792,1,2,0:0:0:0:
437,111,35012,5,2,0:0:0:0:
437,111,35123,1,2,0:0:0:0:
437,111,35233,1,0,3:0:0:0:
256,192,35343,12,4,36556,3:1:0:0:
151,264,36998,5,4,3:2:0:0:
144,224,37218,102,0,L|132:160,1,45,2|2,0:0|0:0,0:0:0:0:
188,277,37439,6,0,L|248:298,1,45,8|0,0:0|0:0,0:0:0:0:
120,289,37659,102,0,L|70:330,1,45,2|0,0:0|0:0,0:0:0:0:
151,264,37880,5,0,3:0:0:0:
141,212,38100,102,0,L|126:130,1,45,2|2,0:0|0:0,0:0:0:0:
199,281,38321,6,0,L|277:309,1,45,8|0,0:0|0:0,0:0:0:0:
111,297,38541,102,0,L|47:350,1,45,2|0,0:0|0:0,0:0:0:0:
151,264,38762,5,4,3:2:0:0:
139,197,38983,102,0,L|124:113,1,45,2|2,0:0|0:0,0:0:0:0:
214,287,39204,6,0,L|297:317,1,45,8|0,0:0|0:0,0:0:0:0:
99,307,39424,102,0,L|32:363,1,45,2|0,0:0|0:0,0:0:0:0:
151,264,39645,5,0,3:0:0:0:
157,281,39865,101,2,0:0:0:0:
136,253,39975,1,2,3:2:0:0:
169,263,40085,1,10,0:0:0:0:
136,274,40196,1,2,0:0:0:0:
157,246,40306,1,2,0:0:0:0:
352,152,40527,5,4,3:2:0:0:
359,112,40747,102,0,L|370:48,1,45,2|2,0:0|0:0,0:0:0:0:
315,165,40968,6,0,L|254:186,1,45,8|0,0:0|0:0,0:0:0:0:
383,177,41188,102,0,L|432:218,1,45,2|0,0:0|0:0,0:0:0:0:
352,152,41409,5,0,3:0:0:0:
362,100,41629,102,0,L|376:18,1,45,2|2,0:0|0:0,0:0:0:0:
304,169,41850,6,0,L|225:197,1,45,8|0,0:0|0:0,0:0:0:0:
392,185,42070,102,0,L|455:238,1,45,2|0,0:0|0:0,0:0:0:0:
352,152,42291,5,0,3:0:0:0:
364,85,42512,102,0,L|378:1,1,45,2|2,0:0|0:0,0:0:0:0:
289,175,42733,6,0,L|205:205,1,45,8|0,0:0|0:0,0:0:0:0:
404,195,42953,102,0,L|470:251,1,45,2|0,0:0|0:0,0:0:0:0:
352,152,43174,5,0,3:0:0:0:
346,169,43394,101,2,0:0:0:0:
367,141,43504,1,2,3:2:0:0:
334,151,43614,1,10,0:0:0:0:
367,162,43725,1,2,0:0:0:0:
346,134,43835,1,6,0:3:0:0:
447,37,44056,5,6,3:1:0:0:
455,52,44166,1,2,0:0:0:0:
455,68,44276,1,2,0:0:0:0:
448,82,44386,1,2,0:0:0:0:
436,93,44497,1,10,0:2:0:0:
370,51,44718,101,2,0:0:0:0:
370,51,44828,1,2,0:0:0:0:
370,51,44939,2,0,P|291:31|211:23,1,135,2|0,3:2|0:0,0:0:0:0:
245,41,45380,2,0,P|206:48|186:59,2,45,10|0|2,0:2|0:0|0:0,0:0:0:0:
91,130,45821,5,2,3:0:0:0:
83,145,45931,1,2,0:0:0:0:
83,161,46041,1,2,0:0:0:0:
90,175,46151,1,2,0:0:0:0:
102,186,46262,1,10,0:0:0:0:
179,151,46483,101,2,0:0:0:0:
179,151,46593,1,2,0:0:0:0:
179,151,46704,2,0,P|159:230|151:310,1,135,0|2,3:0|3:2,0:0:0:0:
169,276,47145,2,0,P|176:315|187:335,2,45,8|0|2,0:0|0:0|0:0,0:0:0:0:
425,278,47586,5,6,3:2:0:0:
433,263,47696,1,2,0:0:0:0:
433,247,47806,1,2,0:2:0:0:
426,233,47916,1,2,0:0:0:0:
414,222,48027,1,10,0:0:0:0:
343,268,48248,101,2,0:2:0:0:
343,268,48358,1,2,0:0:0:0:
343,268,48468,1,0,3:0:0:0:
308,355,48689,2,0,P|363:342|423:339,1,90,2|8,0:2|0:0,0:0:0:0:
491,205,49130,5,2,0:2:0:0:
491,205,49240,1,2,0:0:0:0:
491,205,49351,1,4,3:2:0:0:
407,146,49571,102,0,P|398:182|394:233,1,76.5000014591217,2|8,0:0|0:0,0:0:0:0:
324,110,50012,6,0,P|318:167|307:226,1,116.999994644165,0|0,0:0|3:0,0:0:0:0:
307,225,50343,1,8,0:0:0:0:
307,225,50453,1,2,0:0:0:0:
220,105,50674,101,2,3:2:0:0:
412,69,50895,1,2,3:2:0:0:
324,110,51115,69,6,3:2:0:0:
324,110,51556,1,2,0:2:0:0:
324,110,51777,1,2,0:0:0:0:
324,110,52218,1,2,0:0:0:0:
358,308,52659,5,2,0:0:0:0:
358,308,52770,1,2,0:0:0:0:
358,308,52880,1,2,0:0:0:0:
358,308,53321,1,2,0:0:0:0:
358,308,53542,1,2,0:0:0:0:
358,308,53762,1,2,0:0:0:0:
358,308,53983,1,2,0:0:0:0:
358,308,54203,1,2,0:0:0:0:
358,308,54424,1,2,0:0:0:0:
123,345,54645,101,2,0:0:0:0:
123,345,55086,1,2,0:0:0:0:
123,345,55307,1,2,0:0:0:0:
123,345,56409,5,2,0:0:0:0:
61,257,56630,101,2,0:0:0:0:
105,160,56851,5,2,0:0:0:0:
211,150,57071,101,2,0:0:0:0:
273,237,57292,5,2,0:0:0:0:
229,335,57512,86,0,L|221:382,1,45,2|8,0:0|0:0,0:0:0:0:
167,248,57953,69,2,3:0:0:0:
167,248,58064,1,2,0:0:0:0:
167,248,58174,2,0,L|134:22,1,225,4|0,3:1|0:0,0:0:0:0:
275,83,58836,102,0,L|257:199,1,90,4|0,3:2|0:0,0:0:0:0:
261,171,59277,1,2,0:0:0:0:
40,162,59718,6,0,L|509:107,1,450,4|2,3:2|0:0,0:0:0:0:
292,160,61042,101,0,3:0:0:0:
340,280,61262,2,0,P|301:271|217:271,1,90,8|0,0:0|0:0,0:0:0:0:
168,276,61593,5,0,0:0:0:0:
168,276,61703,2,0,P|177:237|177:153,1,90,4|0,3:1|0:0,0:0:0:0:
172,104,62145,2,0,P|211:113|295:113,1,90,8|0,0:0|0:0,0:0:0:0:
344,108,62586,102,0,P|335:147|335:231,1,90,10|0,0:1|0:0,0:0:0:0:
340,280,62806,6,0,P|301:271|217:271,1,90,10|0,0:1|0:0,0:0:0:0:
168,276,63027,102,0,P|177:237|177:153,1,90,10|0,0:1|0:0,0:0:0:0:
172,104,63248,6,0,P|211:113|295:113,1,90,10|0,0:1|0:0,0:0:0:0:
360,297,64130,101,8,0:0:0:0:
296,247,64351,2,0,P|278:269|289:323,1,67.5000025749208,4|0,0:3|0:0,0:0:0:0:
371,384,64571,5,0,0:0:0:0:
371,384,64681,1,0,0:0:0:0:
371,384,64792,2,0,P|441:357|515:352,1,135.000005149842,14|0,0:0|0:0,0:0:0:0:
408,67,65233,5,4,3:1:0:0:
408,67,65453,5,2,0:0:0:0:
424,113,65564,1,2,0:0:0:0:
392,151,65674,1,10,0:0:0:0:
343,142,65784,1,2,0:0:0:0:
327,96,65895,1,2,0:0:0:0:
359,58,66005,1,2,0:0:0:0:
376,105,66115,102,0,L|353:267,1,135.000005149842,4|0,3:2|0:0,0:0:0:0:
362,334,66446,1,0,3:0:0:0:
371,320,66556,6,0,L|437:310,1,67.5000025749208,8|0,0:0|0:0,0:0:0:0:
291,249,66777,2,0,L|357:239,1,67.5000025749208,2|0,0:0|0:0,0:0:0:0:
271,380,66998,2,0,L|337:370,1,67.5000025749208,4|0,3:1|0:0,0:0:0:0:
191,155,67218,101,2,0:0:0:0:
175,177,67328,1,2,0:0:0:0:
180,204,67439,1,10,0:0:0:0:
321,229,67659,5,2,0:0:0:0:
337,207,67769,1,2,0:0:0:0:
332,180,67880,1,6,3:2:0:0:
117,121,68101,101,2,0:2:0:0:
89,159,68211,1,2,0:0:0:0:
98,206,68322,1,14,0:0:0:0:
395,263,68542,5,2,0:0:0:0:
423,225,68652,1,2,0:0:0:0:
414,178,68762,1,6,3:1:0:0:
256,192,69093,101,2,0:0:0:0:
266,185,69203,2,0,L|251:93,1,67.5000025749208,8|0,0:0|0:0,0:0:0:0:
346,217,69424,2,0,L|335:283,1,67.5000025749208,2|0,0:0|0:0,0:0:0:0:
175,199,69645,6,0,L|160:107,1,67.5000025749208,0|0,3:0|0:0,0:0:0:0:
435,231,69865,1,2,0:2:0:0:
435,231,69976,1,0,3:0:0:0:
435,231,70086,2,0,L|424:297,1,67.5000025749208,8|0,0:2|0:0,0:0:0:0:
260,384,70306,102,0,L|249:317,1,67.5000025749208,2|2,0:0|0:0,0:0:0:0:
345,353,70527,6,0,P|246:340|131:334,1,207.000003948212,4|0,3:2|0:0,0:0:0:0:
167,31,70968,102,0,P|266:44|381:50,1,207.000003948212,12|2,0:0|3:2,0:0:0:0:
316,131,71299,1,0,0:0:0:0:
305,122,71409,6,0,P|255:129|150:131,1,103.500001974106,4|0,3:2|0:0,0:0:0:0:
207,262,71630,2,0,P|257:255|362:253,1,103.500001974106,2|0,0:2|3:0,0:0:0:0:
136,203,71851,101,8,0:0:0:0:
376,181,72071,1,4,0:3:0:0:
256,192,72292,5,4,3:1:0:0:
370,102,72512,101,2,0:0:0:0:
342,101,72622,1,2,0:0:0:0:
322,121,72733,1,10,0:0:0:0:
376,181,72953,6,0,P|415:171|455:182,1,67.5000025749208,0|2,0:0|0:0,0:0:0:0:
414,255,73174,2,0,P|350:277|292:311,1,135.000005149842,0|0,3:0|0:0,0:0:0:0:
186,92,73615,102,0,P|161:69|148:38,1,67.5000025749208,8|0,0:0|0:0,0:0:0:0:
230,21,73836,2,0,P|281:66|340:99,1,135.000005149842,2|4,0:0|3:2,0:0:0:0:
205,301,74277,6,0,P|196:334|176:360,1,67.5000025749208,0|2,0:0|3:2,0:0:0:0:
120,298,74498,2,0,P|133:231|133:164,1,135.000005149842,8|0,0:2|3:0,0:0:0:0:
54,182,74828,1,2,0:0:0:0:
42,183,74939,2,0,P|29:150|6:123,1,67.5000025749208,4|0,3:2|0:0,0:0:0:0:
99,24,75159,101,0,3:0:0:0:
78,67,75269,1,2,3:2:0:0:
103,109,75379,1,12,0:2:0:0:
152,110,75489,1,0,0:0:0:0:
179,70,75600,1,0,0:0:0:0:
370,92,75821,5,4,3:1:0:0:
364,176,76042,101,2,0:0:0:0:
336,177,76152,1,2,0:0:0:0:
316,157,76263,1,10,0:0:0:0:
460,172,76483,6,0,P|442:192|444:242,1,67.5000025749208,2|0,0:0|0:0,0:0:0:0:
512,258,76703,2,0,P|425:288|370:313,1,135.000005149842,4|0,3:2|0:0,0:0:0:0:
385,305,77034,1,0,0:0:0:0:
385,305,77145,1,12,0:2:0:0:
256,192,77365,101,2,0:0:0:0:
256,192,77476,1,2,0:0:0:0:
256,192,77586,1,2,3:0:0:0:
164,333,77806,5,10,0:0:0:0:
218,344,77917,1,10,0:3:0:0:
271,355,78027,1,6,0:3:0:0:
348,51,78248,101,2,3:0:0:0:
294,40,78359,1,2,3:0:0:0:
241,29,78469,1,6,3:1:0:0:
241,29,78909,5,10,0:1:0:0:
241,29,79351,101,6,3:1:0:0:
256,192,79792,5,12,0:2:0:0:
294,266,80012,101,2,0:0:0:0:
272,282,80122,1,0,0:0:0:0:
245,277,80233,1,0,3:0:0:0:
218,118,80453,5,2,0:0:0:0:
240,102,80563,1,0,3:0:0:0:
267,107,80674,1,8,0:0:0:0:
291,336,80895,101,2,0:0:0:0:
291,336,81005,1,2,0:0:0:0:
291,336,81115,2,0,P|296:264|306:196,1,135.000005149842,4|2,3:2|0:0,0:0:0:0:
221,48,81446,5,2,0:0:0:0:
221,48,81556,2,0,P|216:120|206:188,1,135.000005149842,12|2,0:0|0:0,0:0:0:0:
207,182,81887,1,2,0:0:0:0:
207,182,81998,1,4,3:1:0:0:
395,121,82218,101,2,0:0:0:0:
423,159,82328,1,2,0:0:0:0:
414,206,82439,1,12,0:2:0:0:
117,263,82659,5,2,0:0:0:0:
89,225,82769,1,2,0:0:0:0:
98,178,82880,1,4,3:1:0:0:
256,192,83211,101,0,0:0:0:0:
246,185,83321,2,0,L|261:93,1,67.5000025749208,8|0,0:0|0:0,0:0:0:0:
245,51,83542,2,0,L|256:117,1,67.5000025749208,2|0,0:0|0:0,0:0:0:0:
336,197,83763,6,0,L|351:105,1,67.5000025749208,0|0,3:0|0:0,0:0:0:0:
166,68,83983,1,2,0:0:0:0:
166,68,84094,1,2,0:0:0:0:
166,68,84204,2,0,L|177:134,1,67.5000025749208,8|0,0:0|0:0,0:0:0:0:
398,75,84424,101,2,0:0:0:0:
398,75,84534,1,2,0:0:0:0:
398,75,84645,2,0,P|403:178|417:281,1,207.000003948212,4|0,3:1|0:0,0:0:0:0:
113,308,85086,6,0,P|108:205|95:103,1,207.000003948212,12|0,0:1|0:0,0:0:0:0:
191,134,85417,1,2,0:0:0:0:
186,143,85527,102,0,P|193:193|195:298,1,103.500001974106,4|0,3:2|0:0,0:0:0:0:
326,241,85748,2,0,P|319:191|317:86,1,103.500001974106,0|2,0:0|0:0,0:0:0:0:
273,49,85968,5,8,0:0:0:0:
239,335,86189,1,8,0:3:0:0:
256,192,86410,101,4,3:1:0:0:
253,281,86630,5,0,0:0:0:0:
225,282,86740,1,2,0:0:0:0:
205,262,86851,1,8,0:0:0:0:
384,61,87071,101,2,0:0:0:0:
384,61,87181,1,2,0:0:0:0:
384,61,87292,2,0,P|361:186|356:243,1,135.000005149842,0|2,3:0|0:0,0:0:0:0:
128,323,87733,5,10,0:0:0:0:
128,323,87843,1,2,0:0:0:0:
128,323,87954,2,0,P|151:198|156:141,1,135.000005149842,2|4,0:0|3:1,0:0:0:0:
125,64,88395,101,2,0:0:0:0:
125,64,88505,1,2,0:0:0:0:
125,64,88616,2,0,P|250:87|307:92,1,135.000005149842,8|2,0:2|3:2,0:0:0:0:
387,320,89056,5,2,3:0:0:0:
387,320,89166,1,2,0:0:0:0:
387,320,89277,2,0,P|262:297|205:292,1,135.000005149842,2|10,0:0|0:0,0:0:0:0:
254,296,89608,1,2,0:0:0:0:
299,304,89718,1,2,0:0:0:0:
337,275,89828,1,2,0:0:0:0:
346,229,89939,1,4,3:2:0:0:
256,192,90159,101,0,0:0:0:0:
256,192,90270,1,0,0:0:0:0:
256,192,90380,1,8,0:0:0:0:
155,58,90601,5,0,0:0:0:0:
155,58,90711,1,0,0:0:0:0:
155,58,90821,2,0,P|256:80|348:82,1,135.000005149842,4|0,3:1|0:0,0:0:0:0:
287,82,91152,1,2,0:0:0:0:
287,82,91262,1,10,0:0:0:0:
224,301,91483,101,2,0:0:0:0:
224,301,91593,1,2,0:0:0:0:
224,301,91703,1,6,3:2:0:0:
419,177,91924,5,2,0:0:0:0:
408,230,92034,1,2,0:0:0:0:
397,284,92145,1,10,0:0:0:0:
93,207,92366,101,2,3:0:0:0:
104,154,92476,1,2,0:0:0:0:
115,100,92587,1,6,3:1:0:0:
115,100,93027,1,12,0:0:0:0:
115,100,93469,5,4,3:1:0:0:
256,192,93578,12,4,95233,3:1:0:0:
257,134,96998,37,4,3:1:0:0:
257,134,97218,1,2,0:0:0:0:
172,86,97439,5,10,0:0:0:0:
155,114,97549,1,2,0:0:0:0:
126,131,97659,1,2,0:0:0:0:
93,132,97769,1,2,0:0:0:0:
62,117,97880,1,0,3:0:0:0:
0,191,98101,101,2,0:0:0:0:
62,265,98321,5,10,0:0:0:0:
93,250,98432,1,2,0:0:0:0:
126,251,98542,1,2,0:0:0:0:
155,268,98652,1,2,0:0:0:0:
172,296,98762,1,6,3:2:0:0:
257,248,98983,101,0,0:0:0:0:
340,296,99204,5,10,0:0:0:0:
357,268,99314,1,2,0:0:0:0:
386,251,99424,1,0,3:0:0:0:
419,250,99534,1,2,0:0:0:0:
450,265,99645,1,4,3:0:0:0:
512,191,99865,101,0,0:0:0:0:
450,117,100086,5,2,0:0:0:0:
419,132,100197,1,2,0:0:0:0:
386,131,100307,1,4,0:3:0:0:
357,114,100417,1,2,0:0:0:0:
340,86,100527,102,0,P|295:123|327:197,1,116.999994644165,4|0,3:1|0:0,0:0:0:0:
348,240,100858,1,2,0:0:0:0:
342,249,100969,2,0,L|274:257,2,58.4999973220826,8|0|0,0:0|0:0|0:0,0:0:0:0:
340,86,101409,6,0,P|295:123|327:197,1,116.999994644165,4|2,3:2|0:0,0:0:0:0:
348,240,101740,1,2,0:0:0:0:
342,249,101851,2,0,L|274:257,2,58.4999973220826,8|0|0,0:0|0:0|0:0,0:0:0:0:
194,358,102292,101,2,3:2:0:0:
213,311,102402,1,2,0:0:0:0:
182,268,102513,1,2,0:1:0:0:
55,223,102733,5,10,0:1:0:0:
36,176,102843,1,2,0:0:0:0:
67,133,102954,1,2,3:0:0:0:
256,159,103174,101,2,3:1:0:0:
291,123,103284,1,2,0:0:0:0:
298,70,103394,1,10,0:3:0:0:
274,23,103505,1,2,0:0:0:0:
227,0,103615,1,14,0:1:0:0:
175,10,103725,1,2,0:0:0:0:
137,47,103836,2,0,P|186:56|222:67,1,58.4999973220826,8|8,0:0|0:3,0:0:0:0:
407,76,104056,6,0,P|410:187|416:225,1,116.999994644165,4|2,3:2|0:0,0:0:0:0:
410,192,104387,1,2,0:0:0:0:
410,192,104498,1,8,0:0:0:0:
279,381,104718,102,0,P|182:328|146:314,1,116.999994644165,4|2,3:2|0:0,0:0:0:0:
176,325,105049,1,2,0:0:0:0:
176,325,105160,1,8,0:2:0:0:
80,117,105379,5,2,3:2:0:0:
80,117,105490,1,2,0:0:0:0:
80,117,105601,2,0,P|174:60|204:36,1,116.999994644165,4|0,3:2|0:0,0:0:0:0:
174,157,106042,102,0,P|218:131|232:119,1,58.4999973220826,8|2,0:0|0:0,0:0:0:0:
266,279,106262,6,0,P|222:255|205:248,1,58.4999973220826,10|0,0:0|0:0,0:0:0:0:
326,138,106483,102,0,P|327:189|330:207,1,58.4999973220826,4|0,3:1|0:0,0:0:0:0:
256,192,106924,5,0,3:2:0:0:
256,192,107034,1,2,0:0:0:0:
256,192,107145,1,12,0:0:0:0:
0,249,114645,118,0,P|12:206|19:162,1,90,4|0,3:2|0:0,0:0:0:0:
124,230,115086,1,2,0:2:0:0:
95,360,115527,5,0,0:0:0:0:
95,360,115637,1,0,0:0:0:0:
95,360,115748,2,0,P|139:348|183:342,1,90,0|2,3:0|0:0,0:0:0:0:
256,240,116189,1,0,0:0:0:0:
329,342,116409,102,0,P|373:348|417:360,1,90,2|0,3:2|0:0,0:0:0:0:
388,230,116851,1,2,0:0:0:0:
512,249,117071,6,0,P|500:206|493:162,1,90,2|0,3:2|0:0,0:0:0:0:
384,73,117512,1,2,0:0:0:0:
384,73,117623,1,2,0:0:0:0:
384,73,117733,1,2,0:0:0:0:
256,112,117953,101,0,3:0:0:0:
128,73,118174,1,2,3:2:0:0:
128,73,118285,1,2,0:0:0:0:
128,73,118395,1,2,0:0:0:0:
49,166,118615,5,2,0:0:0:0:
49,166,118836,2,0,P|63:222|71:263,1,90,2|0,0:0|0:2,0:0:0:0:
152,367,119277,2,0,P|161:322|172:279,1,90,2|2,3:2|0:0,0:0:0:0:
307,247,119718,101,2,0:0:0:0:
307,247,119828,1,2,0:0:0:0:
307,247,119939,2,2,P|268:281|275:140,1,360,2|2,3:1|0:1,0:1:0:0:
395,0,121042,5,0,3:0:0:0:
395,0,121152,1,0,0:0:0:0:
395,0,121262,2,0,P|377:92|369:201,1,180,4|0,3:2|3:2,0:0:0:0:
440,307,121924,5,2,3:0:0:0:
402,306,122034,1,2,0:0:0:0:
365,311,122144,1,10,0:0:0:0:
329,321,122254,1,2,0:0:0:0:
295,337,122365,1,2,3:0:0:0:
263,357,122475,1,2,0:0:0:0:
235,382,122585,1,6,3:1:0:0:
235,382,122806,101,2,0:0:0:0:
236,344,122916,1,2,0:0:0:0:
231,307,123026,1,10,0:2:0:0:
221,271,123136,1,2,0:0:0:0:
205,237,123247,1,2,0:0:0:0:
185,205,123357,1,2,0:0:0:0:
160,177,123467,1,2,3:2:0:0:
160,177,123689,5,2,0:0:0:0:
198,178,123799,1,2,0:0:0:0:
235,173,123909,1,10,0:2:0:0:
271,163,124019,1,2,0:0:0:0:
305,147,124130,1,2,0:0:0:0:
337,127,124240,1,2,0:0:0:0:
365,102,124350,1,2,3:0:0:0:
365,102,124571,101,2,0:1:0:0:
364,140,124681,1,2,0:0:0:0:
369,177,124791,1,10,0:1:0:0:
379,213,124901,1,2,0:0:0:0:
395,247,125012,1,2,0:1:0:0:
415,279,125122,1,2,0:0:0:0:
440,307,125232,1,6,3:2:0:0:
185,195,125453,5,2,0:0:0:0:
217,210,125563,1,2,0:0:0:0:
250,228,125674,1,10,0:2:0:0:
282,245,125784,1,2,0:0:0:0:
278,208,125894,1,2,0:0:0:0:
272,171,126005,1,2,0:0:0:0:
267,134,126115,1,2,3:2:0:0:
267,134,126336,101,2,0:0:0:0:
283,101,126446,1,2,0:0:0:0:
301,69,126557,1,10,0:2:0:0:
318,36,126667,1,2,0:0:0:0:
281,41,126777,1,2,0:0:0:0:
244,47,126888,1,2,0:0:0:0:
207,51,126998,1,6,3:2:0:0:
207,51,127218,5,2,0:0:0:0:
174,35,127328,1,2,0:0:0:0:
142,17,127439,1,10,0:2:0:0:
109,0,127549,1,2,0:0:0:0:
114,38,127659,1,2,0:0:0:0:
119,74,127770,1,2,0:0:0:0:
124,112,127880,1,6,3:2:0:0:
124,112,128101,101,2,3:1:0:0:
108,145,128211,1,2,0:0:0:0:
90,177,128322,1,14,0:1:0:0:
73,210,128432,1,2,0:0:0:0:
111,205,128542,1,2,0:1:0:0:
147,200,128653,1,2,0:0:0:0:
185,195,128763,1,6,3:1:0:0:
417,223,129203,5,8,0:0:0:0:
311,179,129424,1,2,0:0:0:0:
311,179,129535,1,2,0:0:0:0:
311,179,129645,2,0,P|331:258|339:338,1,135,0|0,3:0|0:0,0:0:0:0:
321,304,130086,2,0,P|314:343|303:363,2,45,8|0|2,0:0|0:0|0:0,0:0:0:0:
162,273,130527,101,2,3:0:0:0:
177,281,130638,1,2,0:0:0:0:
193,281,130748,1,2,0:0:0:0:
207,274,130858,1,2,0:0:0:0:
218,262,130968,1,10,0:0:0:0:
174,190,131189,5,2,0:0:0:0:
174,190,131299,1,2,0:0:0:0:
174,190,131410,2,0,P|95:210|15:218,1,135,0|2,3:0|3:2,0:0:0:0:
44,194,131851,2,0,P|5:187|-15:176,2,45,8|0|2,0:0|0:0|0:0,0:0:0:0:
136,8,132292,101,6,3:2:0:0:
121,0,132402,1,2,0:0:0:0:
105,0,132513,1,2,0:0:0:0:
91,7,132623,1,2,0:0:0:0:
80,19,132733,1,10,0:0:0:0:
127,94,132954,5,2,0:0:0:0:
127,94,133064,1,2,0:0:0:0:
127,94,133174,1,2,3:2:0:0:
217,64,133395,2,0,P|204:119|201:179,1,90,2|8,0:0|0:0,0:0:0:0:
286,317,133836,101,2,0:0:0:0:
286,317,133946,1,2,0:0:0:0:
286,317,134057,1,6,3:2:0:0:
232,235,134277,6,0,P|267:227|320:225,1,76.5000014591217,2|8,0:0|0:0,0:0:0:0:
200,152,134718,102,0,P|257:146|316:135,1,116.999994644165,2|0,0:0|3:0,0:0:0:0:
315,135,135049,1,8,0:0:0:0:
315,135,135160,1,0,0:0:0:0:
107,38,135380,5,8,0:0:0:0:
171,285,135601,1,2,0:0:0:0:
200,152,135821,53,4,0:0:0:0:
200,152,136262,1,2,0:0:0:0:
200,152,136483,1,2,0:0:0:0:
200,152,136924,1,2,0:0:0:0:
253,371,137365,5,2,0:0:0:0:
253,371,137476,1,2,0:0:0:0:
253,371,137586,1,2,0:0:0:0:
253,371,138027,1,2,0:0:0:0:
253,371,138248,1,2,0:0:0:0:
253,371,138468,1,2,0:0:0:0:
253,371,138689,1,2,0:0:0:0:
253,371,138909,1,2,0:0:0:0:
253,371,139130,1,2,0:0:0:0:
421,237,139351,101,2,0:0:0:0:
421,237,139792,1,2,0:0:0:0:
421,237,140013,1,2,0:0:0:0:
421,237,141115,5,2,0:0:0:0:
483,149,141336,101,0,0:0:0:0:
439,52,141557,5,2,0:0:0:0:
333,42,141777,101,2,0:0:0:0:
271,129,141998,5,4,0:3:0:0:
315,227,142218,86,0,L|323:274,1,45,0|12,3:0|0:0,0:0:0:0:
435,287,142659,117,2,3:0:0:0:
435,287,142770,1,2,0:0:0:0:
435,287,142880,2,0,P|330:298|209:320,1,225,4|0,3:1|0:0,0:0:0:0:
363,202,143542,54,0,P|321:211|238:213,1,90,4|0,3:2|0:0,0:0:0:0:
273,215,143983,1,2,0:0:0:0:
211,31,144203,1,8,0:0:0:0:
71,100,144424,5,4,3:1:0:0:
101,104,144534,1,2,0:0:0:0:
131,109,144645,1,10,0:0:0:0:
53,204,144865,101,2,0:0:0:0:
106,193,144976,1,2,0:0:0:0:
160,184,145086,1,2,3:0:0:0:
88,280,145306,5,10,0:0:0:0:
118,284,145416,1,2,0:0:0:0:
148,289,145527,1,2,0:0:0:0:
70,384,145747,101,10,0:0:0:0:
123,373,145858,1,2,0:0:0:0:
177,364,145968,1,10,0:0:0:0:
230,353,146078,1,2,0:0:0:0:
284,344,146188,1,10,0:0:0:0:
337,333,146299,1,2,0:0:0:0:
391,324,146409,5,6,0:0:0:0:
256,192,146520,12,2,149939,0:0:0:0:
403,76,153468,53,4,3:2:0:0:
372,339,153909,5,2,3:2:0:0:
109,308,154351,101,2,3:2:0:0:
140,45,154792,5,2,3:2:0:0:
403,76,155233,101,4,3:2:0:0:
372,339,155674,5,2,3:2:0:0:
109,308,156116,101,2,3:2:0:0:
140,45,156557,5,2,3:2:0:0:
256,192,156998,101,4,3:2:0:0:
419,192,157439,5,2,3:2:0:0:
417,205,157512,101,2,0:0:0:0:
415,218,157586,5,2,0:0:0:0:
413,231,157659,101,0,0:0:0:0:
443,329,157880,6,0,P|380:316|332:312,1,90,0|2,3:0|0:0,0:0:0:0:
139,330,158321,101,0,3:0:0:0:
226,286,158542,1,2,0:0:0:0:
226,286,158652,1,0,0:0:0:0:
226,286,158762,2,0,L|217:225,1,45,6|0,3:2|0:0,0:0:0:0:
202,160,158983,5,10,0:3:0:0:
202,160,159093,1,2,0:0:0:0:
246,376,159314,101,2,0:0:0:0:
246,376,159424,1,10,0:3:0:0:
313,294,159645,101,0,0:0:0:0:
313,294,159755,1,0,3:0:0:0:
313,294,159865,2,0,L|304:233,1,45,8|0,0:3|0:0,0:0:0:0:
289,168,160086,5,4,0:3:0:0:
333,384,160306,1,0,3:0:0:0:
376,175,160527,5,4,3:2:0:0:
168,142,160747,37,2,3:0:0:0:
162,172,160858,1,2,0:0:0:0:
189,194,160968,2,0,P|242:176|325:165,1,103.500001974106,12|0,0:1|0:0,0:0:0:0:
357,54,161299,1,0,0:0:0:0:
357,54,161409,2,0,P|304:72|221:83,1,103.500001974106,0|2,3:0|0:0,0:0:0:0:
154,92,161740,101,0,0:0:0:0:
154,92,161851,2,0,P|163:118|169:160,1,51.7500009870529,8|0,0:0|0:0,0:0:0:0:
185,226,162071,5,2,0:0:0:0:
212,230,162181,1,2,0:0:0:0:
238,234,162292,1,6,3:2:0:0:
347,114,162512,101,2,0:0:0:0:
342,140,162622,1,2,0:0:0:0:
338,166,162733,1,10,0:2:0:0:
456,277,162953,5,2,0:0:0:0:
430,272,163063,1,2,0:0:0:0:
404,268,163174,1,6,3:2:0:0:
296,384,163394,101,2,0:0:0:0:
301,357,163504,1,2,0:0:0:0:
305,331,163615,1,10,0:0:0:0:
325,246,163836,5,2,0:0:0:0:
325,246,163946,1,2,0:0:0:0:
325,246,164056,1,6,3:1:0:0:
325,246,164498,101,10,0:0:0:0:
173,283,164719,1,2,0:0:0:0:
343,134,164939,5,4,3:1:0:0:
191,171,165160,1,2,0:0:0:0:
361,22,165380,101,10,0:0:0:0:
209,59,165601,1,2,0:0:0:0:
0,13,165821,5,6,3:1:0:0:
4,38,165931,1,2,0:0:0:0:
8,64,166041,1,2,0:0:0:0:
12,89,166151,1,2,0:0:0:0:
17,115,166262,1,10,0:0:0:0:
92,19,166483,101,2,0:0:0:0:
96,44,166593,1,2,0:0:0:0:
101,70,166703,5,6,3:2:0:0:
285,90,166924,1,2,0:2:0:0:
175,239,167145,1,8,0:3:0:0:
193,24,167365,101,6,0:3:0:0:
193,24,167476,1,2,0:0:0:0:
193,24,167585,1,6,3:1:0:0:
83,173,167806,1,0,0:0:0:0:
267,193,168027,1,8,0:0:0:0:
269,338,168358,5,2,0:0:0:0:
269,338,168468,1,2,3:2:0:0:
453,318,168689,1,0,0:0:0:0:
343,169,168910,1,8,0:2:0:0:
361,384,169130,101,2,0:0:0:0:
361,384,169241,1,2,0:0:0:0:
361,384,169350,1,6,3:2:0:0:
251,235,169571,1,0,0:0:0:0:
435,215,169792,1,8,0:0:0:0:
347,280,170012,5,2,0:0:0:0:
347,280,170123,1,2,0:0:0:0:
347,280,170233,1,2,3:0:0:0:
347,280,170674,102,0,P|331:177|330:109,1,155.250002961159,12|0,0:0|0:0,0:0:0:0:
329,126,171115,5,6,3:2:0:0:
183,258,171336,1,2,0:0:0:0:
183,258,171446,1,2,0:0:0:0:
183,258,171556,1,10,0:2:0:0:
183,126,171777,101,2,0:0:0:0:
329,258,171998,1,2,3:0:0:0:
329,258,172108,1,2,0:0:0:0:
329,258,172218,1,2,0:0:0:0:
325,107,172439,5,8,0:0:0:0:
187,277,172659,1,4,3:1:0:0:
187,277,173101,1,0,0:0:0:0:
189,83,173321,101,8,0:0:0:0:
323,301,173542,1,0,0:0:0:0:
307,30,173762,5,4,3:2:0:0:
205,354,173983,1,8,0:3:0:0:
231,0,174203,101,12,0:1:0:0:
281,384,174424,1,0,0:0:0:0:
256,192,174645,53,4,3:1:0:0:
256,192,174755,12,0,178174,3:2:0:0:
100,218,181703,6,0,P|166:203|213:197,1,90,0|2,3:2|0:0,0:0:0:0:
128,116,182145,1,8,0:0:0:0:
128,116,182806,101,0,3:2:0:0:
188,199,183028,2,0,P|143:207|100:218,1,90,8|2,0:0|0:0,0:0:0:0:
412,218,183468,6,0,P|346:203|299:197,1,90,0|2,3:2|0:0,0:0:0:0:
384,116,183910,1,8,0:0:0:0:
384,116,184130,1,0,3:0:0:0:
384,116,184571,101,0,3:0:0:0:
323,199,184793,2,0,P|368:207|412:218,1,90,10|2,0:0|0:0,0:0:0:0:
354,318,185233,5,6,3:2:0:0:
341,313,185343,1,2,0:0:0:0:
341,300,185453,1,2,0:0:0:0:
354,296,185564,1,2,0:0:0:0:
361,307,185674,1,2,0:0:0:0:
158,318,185895,101,2,0:0:0:0:
171,313,186005,1,2,0:0:0:0:
171,300,186115,1,2,0:0:0:0:
158,296,186226,1,2,0:0:0:0:
151,307,186336,1,2,0:0:0:0:
264,217,186556,21,2,0:0:0:0:
234,207,186667,1,2,0:0:0:0:
234,176,186777,1,2,0:0:0:0:
264,166,186887,1,2,0:0:0:0:
282,192,186998,1,2,3:0:0:0:
256,192,187108,12,12,188321,0:0:0:0:
337,350,188762,53,4,3:1:0:0:
337,350,188983,5,2,0:0:0:0:
377,348,189093,1,2,0:0:0:0:
401,315,189203,1,10,0:0:0:0:
390,276,189314,1,2,0:0:0:0:
381,236,189425,1,2,0:0:0:0:
405,203,189535,1,2,0:0:0:0:
445,202,189645,102,0,P|380:197|297:182,1,135.000005149842,4|2,3:2|0:0,0:0:0:0:
256,237,189976,1,2,3:2:0:0:
251,245,190086,6,0,L|149:260,1,67.5000025749208,8|0,0:0|0:0,0:0:0:0:
162,334,190306,2,0,L|200:238,1,67.5000025749208,2|2,0:0|0:0,0:0:0:0:
129,212,190527,2,0,L|192:292,1,67.5000025749208,4|0,3:2|0:0,0:0:0:0:
258,326,190748,101,2,0:2:0:0:
274,288,190858,1,2,0:0:0:0:
305,261,190968,1,10,0:2:0:0:
341,241,191078,1,2,0:0:0:0:
381,232,191189,1,2,3:2:0:0:
254,57,191409,5,4,3:1:0:0:
238,95,191519,1,2,0:0:0:0:
207,122,191629,1,2,0:0:0:0:
171,142,191739,1,2,3:0:0:0:
131,151,191850,1,14,0:0:0:0:
256,192,192071,101,2,0:0:0:0:
256,192,192181,1,2,0:0:0:0:
256,192,192292,1,6,3:1:0:0:
353,214,192622,5,2,0:0:0:0:
353,214,192733,2,0,P|311:186|280:151,1,67.5000025749208,8|0,0:0|0:0,0:0:0:0:
227,96,192953,2,0,P|223:146|208:190,1,67.5000025749208,2|0,0:0|0:0,0:0:0:0:
187,264,193174,2,0,P|233:243|279:234,1,67.5000025749208,0|0,3:0|0:0,0:0:0:0:
398,380,193395,101,2,0:0:0:0:
373,365,193505,1,2,3:0:0:0:
358,339,193615,1,10,0:0:0:0:
357,310,193725,1,2,0:0:0:0:
369,283,193836,2,0,L|432:296,1,45,0|2,0:0|0:0,0:0:0:0:
500,239,194056,6,0,P|382:248|255:264,1,207.000003948212,4|2,3:2|0:0,0:0:0:0:
256,192,194387,1,2,0:0:0:0:
218,125,194498,102,0,P|115:137|12:145,1,207.000003948212,12|2,0:0|3:2,0:0:0:0:
302,343,194939,6,0,P|252:336|147:334,1,103.500001974106,4|0,3:2|0:0,0:0:0:0:
210,41,195159,2,0,P|260:48|365:50,1,103.500001974106,2|0,0:2|3:0,0:0:0:0:
416,181,195380,101,8,0:0:0:0:
95,202,195600,1,4,0:3:0:0:
256,192,195821,5,4,3:1:0:0:
187,316,196042,101,2,0:0:0:0:
199,305,196152,1,2,0:0:0:0:
215,299,196262,1,8,0:0:0:0:
232,302,196372,1,2,0:0:0:0:
245,312,196484,6,0,P|235:351|246:391,1,67.5000025749208,2|0,0:0|0:0,0:0:0:0:
319,350,196703,2,0,P|341:286|375:228,1,135.000005149842,4|0,3:2|0:0,0:0:0:0:
364,140,197034,101,2,0:0:0:0:
364,140,197144,2,0,P|397:132|424:111,1,67.5000025749208,8|0,0:0|0:0,0:0:0:0:
361,56,197365,2,0,P|295:68|228:69,1,135.000005149842,2|4,0:0|3:1,0:0:0:0:
155,121,197696,5,2,0:0:0:0:
155,121,197806,2,0,P|133:97|102:84,1,67.5000025749208,0|0,0:0|3:0,0:0:0:0:
85,166,198027,2,0,P|129:216|162:275,1,135.000005149842,8|0,0:0|3:2,0:0:0:0:
245,312,198358,101,2,0:0:0:0:
245,312,198468,2,0,P|235:351|246:391,1,67.5000025749208,4|0,3:2|0:0,0:0:0:0:
300,179,198689,5,2,0:0:0:0:
265,148,198799,1,2,0:0:0:0:
224,162,198909,1,8,0:0:0:0:
213,205,199020,1,2,0:0:0:0:
247,236,199130,1,2,0:0:0:0:
289,224,199240,1,2,0:0:0:0:
254,191,199351,101,4,3:1:0:0:
463,221,199571,5,2,0:0:0:0:
464,193,199681,1,2,0:0:0:0:
444,173,199792,1,10,0:0:0:0:
382,223,200012,102,0,P|364:243|366:293,1,67.5000025749208,2|0,0:0|0:0,0:0:0:0:
434,309,200232,2,0,P|347:339|292:364,1,135.000005149842,6|2,3:2|0:0,0:0:0:0:
307,356,200563,1,2,3:2:0:0:
307,356,200674,1,12,0:0:0:0:
208,300,200895,5,2,0:0:0:0:
198,251,201006,1,2,0:0:0:0:
188,203,201116,1,2,3:0:0:0:
178,154,201226,1,2,3:0:0:0:
168,106,201336,1,10,0:0:0:0:
303,83,201556,101,6,0:3:0:0:
313,132,201667,1,10,0:3:0:0:
323,180,201777,1,2,3:0:0:0:
333,229,201887,1,2,3:0:0:0:
343,277,201997,1,4,3:1:0:0:
343,277,202438,5,10,0:1:0:0:
343,277,202880,101,6,3:1:0:0:
256,192,203321,5,12,0:1:0:0:
330,154,203541,101,2,0:0:0:0:
346,176,203651,1,0,0:0:0:0:
341,203,203762,1,0,3:0:0:0:
182,230,203983,5,2,0:0:0:0:
166,208,204093,1,0,3:0:0:0:
171,181,204204,1,8,0:0:0:0:
360,261,204424,101,2,0:0:0:0:
360,261,204534,1,2,0:0:0:0:
360,261,204644,2,0,P|292:250|224:246,1,135.000005149842,4|2,3:2|0:0,0:0:0:0:
152,123,204976,1,2,0:0:0:0:
152,123,205086,2,0,P|220:134|288:138,1,135.000005149842,8|2,0:0|3:2,0:0:0:0:
315,175,205417,1,2,0:0:0:0:
359,190,205527,1,6,3:1:0:0:
406,186,205637,1,2,0:0:0:0:
442,155,205748,1,2,0:0:0:0:
227,247,205968,5,14,0:0:0:0:
197,209,206078,1,2,0:0:0:0:
153,194,206188,1,2,0:0:0:0:
106,198,206298,1,2,0:0:0:0:
70,229,206409,1,6,3:1:0:0:
282,104,206740,101,2,0:0:0:0:
292,111,206850,2,0,L|267:199,1,67.5000025749208,8|0,0:0|0:0,0:0:0:0:
308,263,207071,2,0,L|244:198,1,67.5000025749208,2|0,0:0|0:0,0:0:0:0:
167,201,207292,2,0,L|256:178,1,67.5000025749208,4|2,3:2|0:0,0:0:0:0:
418,119,207512,5,2,0:0:0:0:
393,134,207622,1,2,3:2:0:0:
378,160,207732,1,10,0:0:0:0:
377,189,207842,1,2,0:0:0:0:
389,216,207953,2,0,L|450:204,1,45,2|0,0:0|0:2,0:0:0:0:
512,154,208174,102,0,P|408:148|306:135,1,207.000003948212,4|0,3:1|0:0,0:0:0:0:
256,192,208505,1,2,3:2:0:0:
205,248,208615,2,0,P|103:235|0:230,1,207.000003948212,10|2,0:0|0:0,0:0:0:0:
337,296,209056,6,0,P|267:309|188:342,1,103.500001974106,4|0,3:2|0:0,0:0:0:0:
174,88,209277,2,0,P|226:79|275:64,1,103.500001974106,0|2,0:0|0:0,0:0:0:0:
386,158,209497,101,8,0:3:0:0:
126,226,209718,1,4,0:3:0:0:
256,192,209939,5,4,3:2:0:0:
259,281,210159,101,2,0:0:0:0:
287,282,210269,1,2,0:2:0:0:
307,262,210380,1,8,0:0:0:0:
128,61,210600,5,0,0:0:0:0:
128,61,210710,1,0,0:0:0:0:
128,61,210821,2,0,P|151:186|156:243,1,135.000005149842,4|2,3:2|0:0,0:0:0:0:
384,323,211262,101,10,0:0:0:0:
384,323,211372,1,2,0:0:0:0:
384,323,211483,2,0,P|361:198|356:141,1,135.000005149842,2|4,0:0|3:1,0:0:0:0:
387,64,211924,5,0,0:0:0:0:
387,64,212034,1,0,3:2:0:0:
387,64,212145,2,0,P|262:87|205:92,1,135.000005149842,8|0,0:0|3:0,0:0:0:0:
125,320,212585,101,6,3:2:0:0:
125,320,212695,1,2,0:0:0:0:
125,320,212806,2,0,P|250:297|307:292,1,135.000005149842,0|8,0:0|0:0,0:0:0:0:
257,296,213137,1,2,0:0:0:0:
212,304,213247,1,2,0:0:0:0:
174,275,213357,1,2,0:0:0:0:
165,229,213468,1,6,3:2:0:0:
256,192,213688,5,2,0:0:0:0:
256,192,213799,1,2,0:0:0:0:
256,192,213909,1,10,0:0:0:0:
357,58,214130,101,2,0:0:0:0:
357,58,214240,1,2,0:0:0:0:
357,58,214350,2,0,P|256:80|164:82,1,135.000005149842,4|2,3:1|0:0,0:0:0:0:
224,82,214681,1,2,0:0:0:0:
224,82,214792,1,10,0:0:0:0:
77,156,215012,5,6,0:0:0:0:
107,184,215122,1,2,0:0:0:0:
122,222,215233,1,14,3:2:0:0:
128,263,215342,1,2,0:0:0:0:
123,303,215453,1,2,0:0:0:0:
435,228,215674,101,14,0:0:0:0:
405,200,215784,1,2,0:0:0:0:
390,162,215894,1,2,3:0:0:0:
384,121,216004,1,2,0:0:0:0:
389,81,216115,1,6,3:1:0:0:
389,81,216556,5,8,0:0:0:0:
389,81,216998,101,4,3:1:0:0:
483,131,217218,5,2,0:0:0:0:
481,144,217328,1,2,0:0:0:0:
479,157,217439,1,10,0:0:0:0:
385,55,217659,101,2,0:0:0:0:
387,68,217769,1,2,0:0:0:0:
389,81,217880,1,6,3:2:0:0:
291,135,218101,5,2,0:0:0:0:
289,148,218211,1,2,0:0:0:0:
287,161,218322,1,10,0:0:0:0:
193,59,218542,101,2,0:0:0:0:
195,72,218652,1,2,0:0:0:0:
197,85,218763,1,6,3:2:0:0:
109,139,218983,5,2,0:0:0:0:
107,152,219093,1,2,0:0:0:0:
105,165,219204,1,10,0:0:0:0:
11,63,219424,101,2,3:2:0:0:
13,76,219534,1,2,0:0:0:0:
15,89,219645,1,6,3:2:0:0:
15,89,220086,5,8,0:0:0:0:
15,89,220527,101,4,3:1:0:0:
29,253,220747,5,2,0:0:0:0:
31,240,220857,1,2,0:0:0:0:
33,227,220968,1,10,0:0:0:0:
127,329,221188,101,2,0:0:0:0:
125,316,221298,1,2,0:0:0:0:
123,303,221409,1,6,3:2:0:0:
221,249,221630,5,2,0:0:0:0:
223,236,221740,1,2,3:2:0:0:
225,223,221851,1,10,0:0:0:0:
319,325,222071,101,2,0:0:0:0:
317,312,222181,1,2,0:0:0:0:
315,299,222292,1,6,3:1:0:0:
403,245,222512,5,2,0:0:0:0:
405,232,222622,1,2,0:0:0:0:
407,219,222733,1,10,0:0:0:0:
501,321,222953,101,2,3:0:0:0:
499,308,223063,1,2,0:0:0:0:
497,295,223174,1,6,3:2:0:0:
497,295,223615,5,10,0:0:0:0:
143,180,224057,101,12,3:1:0:0:
154,122,224167,1,8,0:0:0:0:
166,64,224277,1,10,0:0:0:0:
224,76,224388,1,10,0:0:0:0:
282,87,224498,1,8,0:0:0:0:
302,295,224719,5,10,0:0:0:0:
246,315,224829,1,8,0:0:0:0:
190,333,224939,1,12,3:1:0:0:
171,277,225050,1,8,0:0:0:0:
152,221,225160,1,10,0:0:0:0:
322,100,225380,101,10,0:0:0:0:
367,138,225490,1,10,0:0:0:0:
411,178,225600,1,14,0:3:0:0:
372,222,225711,1,10,0:0:0:0:
333,267,225821,1,14,3:1:0:0:
256,192,225931,12,0,227586,0:0:0:0:
256,192,227696,12,4,228909,0:0:0:0:
