osu file format v14

[General]
AudioFilename: audio.ogg
AudioLeadIn: 0
PreviewTime: 59587
Countdown: 0
SampleSet: Soft
StackLeniency: 0.2
Mode: 0
LetterboxInBreaks: 0
EpilepsyWarning: 1
WidescreenStoryboard: 1

[Editor]
Bookmarks: 1133,6951,11314,12769,22042,24405,36042,47678,60769,72405,84042,89860,95678
DistanceSpacing: 0.9
BeatDivisor: 4
GridSize: 32
TimelineZoom: 3.499998

[Metadata]
Title:Phalaenopsis-reaction
TitleUnicode:Phalaenopsis-reaction
Artist:Tsukino
ArtistUnicode:月乃
Creator:tomatas95
Version:Rolniczy's Phalaenopsis lindenii
Source:FLIP*FLOP ~RAMBLING OVERRUN~
Tags:eroge digination video game 祝りんご Iwai Ringo 山口たこ Tako Yamaguchi galgame visual novel vn opening op Flip Flop RAN electronic japanese gazimal rolniczy vergil chair rolni contagious aeril saturnalize
BeatmapID:4419875
BeatmapSetID:2000926

[Difficulty]
HPDrainRate:5
CircleSize:4
OverallDifficulty:9
ApproachRate:9.4
SliderMultiplier:2.4
SliderTickRate:1

[Events]
//Background and Video events
0,0,"my beloved.jpg",0,0
Video,-30,"erogedaisuki.avi"
//Break Periods
//Storyboard Layer 0 (Background)
//Storyboard Layer 1 (Fail)
//Storyboard Layer 2 (Pass)
//Storyboard Layer 3 (Foreground)
//Storyboard Layer 4 (Overlay)
//Storyboard Sound Samples

[TimingPoints]
1133,363.636363636364,4,2,50,60,1,0
1133,-200,4,2,50,60,0,0
1678,-142.857142857143,4,2,50,60,0,0
3860,-142.857142857143,4,2,50,55,0,0
6951,-142.857142857143,4,2,50,60,0,0
8405,-142.857142857143,4,2,50,55,0,0
8769,-142.857142857143,4,2,50,60,0,0
9133,-142.857142857143,4,2,50,65,0,0
9496,-142.857142857143,4,2,50,70,0,0
9860,-142.857142857143,4,2,50,75,0,0
10587,-142.857142857143,4,2,50,80,0,0
10951,-142.857142857143,4,2,50,85,0,0
12042,-142.857142857143,4,2,50,50,0,0
12133,-142.857142857143,4,2,50,55,0,0
12223,-142.857142857143,4,2,50,60,0,0
12314,-142.857142857143,4,2,50,65,0,0
12405,-142.857142857143,4,2,50,70,0,0
12769,-83.3333333333334,4,2,51,90,0,1
12951,-83.3333333333334,4,2,51,90,0,0
13042,-83.3333333333334,4,2,52,90,0,0
13133,-83.3333333333334,4,2,51,90,0,0
13223,-83.3333333333334,4,2,53,90,0,0
13314,-83.3333333333334,4,2,51,90,0,0
13587,-83.3333333333334,4,2,52,90,0,0
13769,-83.3333333333334,4,2,53,90,0,0
13860,-83.3333333333334,4,2,54,90,0,0
14042,-83.3333333333334,4,2,55,90,0,0
14223,-83.3333333333334,4,2,56,90,0,0
14405,-83.3333333333334,4,2,57,90,0,0
14496,-83.3333333333334,4,2,58,90,0,0
14587,-83.3333333333334,4,2,59,90,0,0
14678,-83.3333333333334,4,2,60,90,0,0
14860,-83.3333333333334,4,2,61,90,0,0
14951,-83.3333333333334,4,2,62,90,0,0
15042,-83.3333333333334,4,2,63,90,0,0
15133,-83.3333333333334,4,2,61,90,0,0
15223,-83.3333333333334,4,2,63,90,0,0
15314,-83.3333333333334,4,2,64,90,0,0
15405,-83.3333333333334,4,2,65,90,0,0
15496,-83.3333333333334,4,2,66,90,0,0
15587,-83.3333333333334,4,2,67,90,0,0
15678,-83.3333333333334,4,2,68,90,0,0
15860,-83.3333333333334,4,2,69,90,0,0
16042,-83.3333333333334,4,2,51,90,0,0
16223,-83.3333333333334,4,2,70,90,0,0
16314,-83.3333333333334,4,2,71,90,0,0
16405,-83.3333333333334,4,2,50,90,0,0
16496,-83.3333333333334,4,2,72,90,0,0
16587,-83.3333333333334,4,2,73,90,0,0
16769,-83.3333333333334,4,2,54,90,0,0
16951,-83.3333333333334,4,2,55,90,0,0
17133,-83.3333333333334,4,2,74,90,0,0
17223,-83.3333333333334,4,2,75,90,0,0
17314,-83.3333333333334,4,2,76,90,0,0
17405,-83.3333333333334,4,2,77,90,0,0
17496,-83.3333333333334,4,2,75,90,0,0
17587,-83.3333333333334,4,2,60,90,0,0
17769,-83.3333333333334,4,2,78,90,0,0
17860,-83.3333333333334,4,2,79,90,0,0
17951,-83.3333333333334,4,2,78,90,0,0
18042,-83.3333333333334,4,2,77,90,0,0
18133,-83.3333333333334,4,2,78,90,0,0
18223,-83.3333333333334,4,2,76,90,0,0
18314,-83.3333333333334,4,2,77,90,0,0
18405,-83.3333333333334,4,2,80,90,0,0
18496,-83.3333333333334,4,2,81,90,0,0
18587,-83.3333333333334,4,2,51,90,0,0
18860,-83.3333333333334,4,2,52,90,0,0
18951,-83.3333333333334,4,2,51,90,0,0
19042,-83.3333333333334,4,2,53,90,0,0
19133,-83.3333333333334,4,2,51,90,0,0
19405,-83.3333333333334,4,2,52,90,0,0
19587,-83.3333333333334,4,2,53,90,0,0
19678,-83.3333333333334,4,2,54,90,0,0
19860,-83.3333333333334,4,2,55,90,0,0
20042,-83.3333333333334,4,2,56,90,0,0
20223,-83.3333333333334,4,2,57,90,0,0
20314,-83.3333333333334,4,2,58,90,0,0
20405,-83.3333333333334,4,2,59,90,0,0
20496,-83.3333333333334,4,2,60,90,0,0
20678,-83.3333333333334,4,2,61,90,0,0
20769,-83.3333333333334,4,2,62,90,0,0
20860,-83.3333333333334,4,2,63,90,0,0
20951,-83.3333333333334,4,2,61,90,0,0
21042,-83.3333333333334,4,2,63,90,0,0
21133,-83.3333333333334,4,2,64,90,0,0
21223,-83.3333333333334,4,2,65,90,0,0
21314,-83.3333333333334,4,2,66,90,0,0
21405,-83.3333333333334,4,2,67,90,0,0
21496,-83.3333333333334,4,2,68,90,0,0
21678,-83.3333333333334,4,2,69,90,0,0
21860,-83.3333333333334,4,2,51,90,0,0
22042,-83.3333333333334,4,2,70,90,0,0
22133,-83.3333333333334,4,2,71,90,0,0
22223,-83.3333333333334,4,2,50,90,0,0
22314,-83.3333333333334,4,2,72,90,0,0
22405,-83.3333333333334,4,2,73,90,0,0
22587,-83.3333333333334,4,2,54,90,0,0
22769,-83.3333333333334,4,2,55,90,0,0
22951,-83.3333333333334,4,2,74,90,0,0
23042,-83.3333333333334,4,2,75,90,0,0
23133,-83.3333333333334,4,2,76,90,0,0
23223,-83.3333333333334,4,2,75,90,0,0
23314,-83.3333333333334,4,2,77,90,0,0
23405,-83.3333333333334,4,2,75,90,0,0
23587,-83.3333333333334,4,2,82,90,0,0
23678,-83.3333333333334,4,2,50,90,0,0
23769,-83.3333333333334,4,2,83,90,0,0
23860,-83.3333333333334,4,2,84,90,0,0
24042,-83.3333333333334,4,2,52,90,0,0
24405,-90.9090909090909,4,2,50,80,0,0
24587,-90.9090909090909,4,2,50,60,0,0
24951,-125,4,2,50,60,0,0
29860,-125,4,2,50,65,0,0
30223,-125,4,2,50,70,0,0
30405,-125,4,2,50,60,0,0
33860,-125,4,2,50,65,0,0
34223,-125,4,2,50,70,0,0
34587,-83.3333333333333,4,2,85,70,0,0
34678,-83.3333333333333,4,2,53,70,0,0
35133,-83.3333333333333,4,2,85,70,0,0
35223,-83.3333333333333,4,2,53,70,0,0
35678,-83.3333333333333,4,2,85,75,0,0
36042,-100,4,2,50,75,0,0
36405,-100,4,2,85,70,0,0
41496,-100,4,2,86,70,0,0
41587,-100,4,2,53,70,0,0
42042,-100,4,2,85,70,0,0
46405,-100,4,2,55,70,0,0
46587,-100,4,2,56,70,0,0
46769,-100,4,2,57,70,0,0
46951,-100,4,2,50,70,0,0
47042,-100,4,2,58,70,0,0
47133,-100,4,2,51,70,0,0
47314,-100,4,2,87,75,0,0
47405,-100,4,2,85,70,0,0
47678,-100,4,2,50,75,0,0
48042,-100,4,2,85,65,0,0
48223,-111.111111111111,4,2,85,65,0,0
53133,-111.111111111111,4,2,86,65,0,0
53223,-111.111111111111,4,2,53,65,0,0
53314,-111.111111111111,4,2,88,65,0,0
53405,-111.111111111111,4,2,53,65,0,0
53496,-111.111111111111,4,2,85,65,0,0
56405,-111.111111111111,4,2,85,60,0,0
56769,-111.111111111111,4,2,85,65,0,0
57133,-111.111111111111,4,2,85,70,0,0
57496,-111.111111111111,4,2,85,75,0,0
57860,-111.111111111111,4,2,85,80,0,0
58587,-111.111111111111,4,2,85,75,0,0
59314,-333.333333333332,4,2,85,85,0,0
59587,-333.333333333332,4,2,85,5,0,0
59678,-333.333333333332,4,2,85,45,0,0
60042,-333.333333333332,4,2,85,50,0,0
60133,-333.333333333332,4,2,85,55,0,0
60223,-333.333333333332,4,2,85,60,0,0
60314,-333.333333333332,4,2,85,65,0,0
60405,-111.111111111111,4,2,50,80,0,0
60678,-333.333333333332,4,2,85,5,0,0
60769,-66.6666666666667,4,2,50,90,0,1
61133,-66.6666666666667,4,2,85,90,0,1
63315,-66.6666666666667,4,2,85,90,0,1
64648,-66.6666666666667,4,2,53,90,0,1
64770,-66.6666666666667,4,2,85,90,0,1
65739,-66.6666666666667,4,2,53,90,0,1
65861,-66.6666666666667,4,2,85,90,0,1
66587,-66.6666666666667,4,2,50,90,0,1
66951,-66.6666666666667,4,2,85,90,0,1
69011,-66.6666666666667,4,2,53,90,0,1
69133,-66.6666666666667,4,2,85,90,0,1
71133,-66.6666666666667,4,2,89,90,0,1
72042,-66.6666666666667,4,2,90,90,0,0
72405,-66.6666666666667,4,2,50,90,0,1
72769,-66.6666666666667,4,2,85,90,0,1
75557,-66.6666666666667,4,2,53,90,0,1
75679,-66.6666666666667,4,2,85,90,0,1
78223,-66.6666666666667,4,2,50,90,0,1
78587,-66.6666666666667,4,2,85,90,0,1
80648,-66.6666666666667,4,2,53,90,0,1
80770,-66.6666666666667,4,2,85,90,0,1
82769,-66.6666666666667,4,2,89,90,0,1
83496,-66.6666666666667,4,2,90,90,0,1
84042,-76.9230769230769,4,2,51,90,0,0
84314,-76.9230769230769,4,2,52,90,0,0
84405,-76.9230769230769,4,2,51,90,0,0
84496,-76.9230769230769,4,2,53,90,0,0
84587,-76.9230769230769,4,2,51,90,0,0
84860,-76.9230769230769,4,2,52,90,0,0
85042,-76.9230769230769,4,2,53,90,0,0
85133,-76.9230769230769,4,2,54,90,0,0
85314,-76.9230769230769,4,2,55,90,0,0
85496,-76.9230769230769,4,2,56,90,0,0
85678,-76.9230769230769,4,2,57,90,0,0
85769,-76.9230769230769,4,2,58,90,0,0
85860,-76.9230769230769,4,2,59,90,0,0
85951,-76.9230769230769,4,2,60,90,0,0
86133,-76.9230769230769,4,2,61,90,0,0
86223,-76.9230769230769,4,2,62,90,0,0
86314,-76.9230769230769,4,2,63,90,0,0
86405,-76.9230769230769,4,2,61,90,0,0
86496,-76.9230769230769,4,2,63,90,0,0
86587,-76.9230769230769,4,2,64,90,0,0
86678,-76.9230769230769,4,2,65,90,0,0
86769,-76.9230769230769,4,2,66,90,0,0
86860,-76.9230769230769,4,2,67,90,0,0
86951,-76.9230769230769,4,2,68,90,0,0
87133,-76.9230769230769,4,2,69,90,0,0
87314,-76.9230769230769,4,2,51,90,0,0
87496,-76.9230769230769,4,2,70,90,0,0
87587,-76.9230769230769,4,2,71,90,0,0
87678,-76.9230769230769,4,2,50,90,0,0
87769,-76.9230769230769,4,2,72,90,0,0
87860,-76.9230769230769,4,2,73,90,0,0
88042,-76.9230769230769,4,2,54,90,0,0
88223,-76.9230769230769,4,2,55,90,0,0
88405,-76.9230769230769,4,2,74,90,0,0
88496,-76.9230769230769,4,2,75,90,0,0
88587,-76.9230769230769,4,2,76,90,0,0
88678,-76.9230769230769,4,2,77,90,0,0
88769,-76.9230769230769,4,2,75,90,0,0
88860,-76.9230769230769,4,2,60,90,0,0
89042,-76.9230769230769,4,2,78,90,0,0
89133,-76.9230769230769,4,2,79,90,0,0
89223,-76.9230769230769,4,2,78,90,0,0
89314,-76.9230769230769,4,2,77,90,0,0
89405,-76.9230769230769,4,2,78,90,0,0
89496,-76.9230769230769,4,2,76,90,0,0
89587,-76.9230769230769,4,2,77,90,0,0
89678,-76.9230769230769,4,2,80,90,0,0
89769,-76.9230769230769,4,2,81,90,0,0
89860,-76.9230769230769,4,2,51,90,0,0
90133,-76.9230769230769,4,2,52,90,0,0
90223,-76.9230769230769,4,2,51,90,0,0
90314,-76.9230769230769,4,2,53,90,0,0
90405,-76.9230769230769,4,2,51,90,0,0
90678,-76.9230769230769,4,2,52,90,0,0
90860,-76.9230769230769,4,2,53,90,0,0
90951,-76.9230769230769,4,2,54,90,0,0
91133,-76.9230769230769,4,2,55,90,0,0
91314,-76.9230769230769,4,2,56,90,0,0
91496,-76.9230769230769,4,2,57,90,0,0
91587,-76.9230769230769,4,2,58,90,0,0
91678,-76.9230769230769,4,2,59,90,0,0
91769,-76.9230769230769,4,2,60,90,0,0
91951,-76.9230769230769,4,2,61,90,0,0
92042,-76.9230769230769,4,2,62,90,0,0
92133,-76.9230769230769,4,2,63,90,0,0
92223,-76.9230769230769,4,2,61,90,0,0
92314,-76.9230769230769,4,2,63,90,0,0
92405,-76.9230769230769,4,2,64,90,0,0
92496,-76.9230769230769,4,2,65,90,0,0
92587,-76.9230769230769,4,2,66,90,0,0
92678,-76.9230769230769,4,2,67,90,0,0
92769,-76.9230769230769,4,2,68,90,0,0
92951,-76.9230769230769,4,2,69,90,0,0
93133,-76.9230769230769,4,2,51,90,0,0
93314,-76.9230769230769,4,2,70,90,0,0
93405,-76.9230769230769,4,2,71,90,0,0
93496,-76.9230769230769,4,2,50,90,0,0
93587,-76.9230769230769,4,2,72,90,0,0
93678,-76.9230769230769,4,2,73,90,0,0
93860,-76.9230769230769,4,2,54,90,0,0
94042,-76.9230769230769,4,2,55,90,0,0
94223,-76.9230769230769,4,2,74,90,0,0
94314,-76.9230769230769,4,2,75,90,0,0
94405,-76.9230769230769,4,2,76,90,0,0
94496,-76.9230769230769,4,2,75,90,0,0
94587,-76.9230769230769,4,2,77,90,0,0
94678,-76.9230769230769,4,2,75,90,0,0
94860,-76.9230769230769,4,2,82,90,0,0
94951,-76.9230769230769,4,2,50,90,0,0
95042,-76.9230769230769,4,2,83,90,0,0
95133,-76.9230769230769,4,2,84,90,0,0
95314,-76.9230769230769,4,2,52,90,0,0

[Colours]
Combo1 : 254,182,180
Combo2 : 251,179,240
Combo3 : 173,216,250
Combo4 : 255,206,157

[HitObjects]
128,213,1133,6,0,L|143:135,1,60,6|2,1:2|2:2,0:0:0:0:
50,280,1496,1,2,2:2:0:0:
59,275,1678,2,0,P|132:244|243:236,1,167.999994873047,2|2,2:2|2:2,0:0:0:0:
219,234,2405,6,0,P|234:291|222:340,1,83.9999974365235,2|0,2:2|0:0,0:0:0:0:
231,315,2769,1,2,2:2:0:0:
392,294,2951,1,2,2:2:0:0:
322,341,3133,2,0,P|310:292|312:239,1,83.9999974365235,2|0,2:2|0:0,0:0:0:0:
366,185,3496,1,2,2:2:0:0:
289,158,3678,1,2,2:2:0:0:
452,122,3860,6,0,P|391:129|274:163,1,167.999994873047,2|2,2:2|2:2,0:0:0:0:
215,190,4405,1,2,2:2:0:0:
37,173,4587,2,0,P|110:188|136:103,1,167.999994873047,2|2,2:2|2:2,0:0:0:0:
52,90,5133,2,0,L|34:185,1,83.9999974365235,2|2,2:2|2:2,0:0:0:0:
255,262,5496,5,2,2:2:0:0:
227,143,5678,1,2,2:2:0:0:
134,314,5860,5,0,0:0:0:0:
153,233,6042,1,2,2:2:0:0:
51,254,6223,6,0,P|62:257|77:250,2,20.9999993591309,0|0|0,1:1|1:1|1:1,0:0:0:0:
334,216,6496,5,0,1:1:0:0:
153,233,6678,5,0,1:1:0:0:
153,233,6769,1,0,1:1:0:0:
196,319,6951,6,0,P|220:285|255:262,1,83.9999974365235,6|2,1:2|2:2,0:0:0:0:
110,343,7314,2,0,P|70:329|28:329,1,83.9999974365235,2|2,1:2|2:2,0:0:0:0:
275,358,7678,2,0,P|317:352|358:361,1,83.9999974365235,0|2,1:1|2:2,0:0:0:0:
69,252,8041,2,0,P|38:224|0:209,1,83.9999974365235,0|2,1:1|2:2,0:0:0:0:
196,320,8405,5,0,1:1:0:0:
213,220,8587,1,2,1:2:0:0:
228,120,8769,1,2,1:2:0:0:
242,20,8951,1,2,1:2:0:0:
84,84,9133,5,0,1:1:0:0:
101,184,9315,1,2,1:2:0:0:
116,284,9497,1,2,1:2:0:0:
130,384,9679,1,2,1:2:0:0:
320,303,9860,5,2,1:2:0:0:
315,316,9950,1,0,1:1:0:0:
308,329,10041,1,0,1:1:0:0:
299,342,10132,1,0,1:1:0:0:
288,354,10223,1,0,1:1:0:0:
276,364,10314,1,0,1:1:0:0:
263,373,10405,1,0,1:1:0:0:
249,379,10496,1,0,1:1:0:0:
237,382,10587,5,2,1:2:0:0:
221,329,10678,1,2,1:2:0:0:
240,278,10769,1,2,1:2:0:0:
281,242,10860,1,2,1:2:0:0:
334,230,10951,1,2,1:2:0:0:
387,221,11042,1,2,1:2:0:0:
423,180,11133,1,2,1:2:0:0:
420,126,11223,1,2,1:2:0:0:
375,94,11314,1,2,1:2:0:0:
256,192,11405,12,8,12405,1:2:0:0:
177,221,12769,6,0,P|242:238|365:288,1,143.999995605469,6|0,1:2|0:0,0:0:0:0:
395,209,13042,2,0,L|386:137,1,71.9999978027344,2|8,2:2|1:2,0:0:0:0:
240,59,13223,1,2,2:2:0:0:
239,73,13314,2,0,L|225:144,1,71.9999978027344,2|0,2:2|0:0,0:0:0:0:
467,315,13496,1,0,1:2:0:0:
452,308,13587,2,0,P|383:284|314:265,1,143.999995605469,2|2,2:2|2:2,0:0:0:0:
110,301,13860,2,0,B|178:313|172:345|239:360,1,143.999995605469,10|2,1:2|2:2,0:0:0:0:
344,76,14223,5,2,1:2:0:0:
344,76,14284,5,2,0:0:0:0:
344,76,14345,5,2,0:0:0:0:
344,76,14405,6,0,L|361:6,1,71.9999978027344,2|2,2:2|2:2,0:0:0:0:
426,173,14587,5,10,1:2:0:0:
358,214,14678,1,2,2:2:0:0:
281,193,14769,1,0,0:0:0:0:
236,127,14860,2,0,P|221:93|204:62,1,71.9999978027344,2|2,2:2|1:2,0:0:0:0:
488,26,15042,1,2,2:2:0:0:
470,32,15133,2,0,P|443:72|433:106,1,71.9999978027344,2|2,2:2|2:2,0:0:0:0:
439,274,15314,5,10,1:2:0:0:
441,288,15405,1,2,2:2:0:0:
443,302,15496,1,2,2:2:0:0:
445,316,15587,1,2,2:2:0:0:
346,304,15678,6,0,B|260:289|267:353|161:321,1,143.999995605469,2|2,1:2|2:2,0:0:0:0:
197,326,15920,5,2,0:0:0:0:
188,321,15981,5,2,0:0:0:0:
181,314,16042,6,0,L|168:229,1,71.9999978027344,10|0,1:2|0:0,0:0:0:0:
270,122,16223,1,2,2:2:0:0:
202,165,16314,2,0,P|164:161|131:146,1,71.9999978027344,2|0,2:2|1:1,0:0:0:0:
320,57,16496,1,2,2:2:0:0:
399,58,16587,1,2,2:2:0:0:
460,106,16678,1,2,2:2:0:0:
449,184,16769,2,0,P|437:243|434:273,1,71.9999978027344,10|0,1:2|0:0,0:0:0:0:
231,365,16951,2,0,P|204:340|180:313,1,71.9999978027344,2|0,2:2|0:0,0:0:0:0:
14,145,17133,5,2,1:2:0:0:
2,166,17223,1,2,2:2:0:0:
2,192,17314,1,2,2:2:0:0:
76,196,17405,1,2,2:2:0:0:
133,147,17496,2,0,P|152:71|166:23,1,71.9999978027344,10|2,1:2|2:2,0:0:0:0:
0,378,17678,5,0,0:0:0:0:
28,305,17769,2,0,P|108:265|202:234,1,143.999995605469,2|2,2:2|2:2,0:0:0:0:
231,365,18042,2,0,P|309:377|351:393,1,71.9999978027344,2|2,2:2|2:2,0:0:0:0:
484,355,18223,1,10,1:2:0:0:
481,290,18314,1,2,2:2:0:0:
427,253,18405,1,2,1:2:0:0:
362,258,18496,1,2,2:2:0:0:
322,307,18587,6,0,L|304:233,1,71.9999978027344,6|0,1:2|0:0,0:0:0:0:
411,177,18769,1,0,0:0:0:0:
417,167,18860,2,0,L|425:83,1,71.9999978027344,2|8,2:2|1:2,0:0:0:0:
236,217,19042,1,2,2:2:0:0:
224,212,19133,2,0,L|200:134,1,71.9999978027344,2|0,2:2|0:0,0:0:0:0:
512,104,19314,1,0,1:1:0:0:
500,100,19405,2,0,P|455:88|368:31,1,143.999995605469,2|2,2:2|2:2,0:0:0:0:
236,42,19678,2,0,B|178:49|169:75|98:80,1,143.999995605469,10|2,1:2|2:2,0:0:0:0:
320,374,20042,5,2,1:2:0:0:
320,374,20102,5,2,0:0:0:0:
320,374,20163,5,2,0:0:0:0:
320,374,20223,6,0,L|335:285,1,71.9999978027344,2|2,2:2|2:2,0:0:0:0:
84,204,20405,5,10,1:2:0:0:
110,278,20496,1,2,2:2:0:0:
183,307,20587,1,0,0:0:0:0:
258,281,20678,2,0,P|286:226|316:193,1,71.9999978027344,2|2,2:2|1:2,0:0:0:0:
167,134,20860,1,2,2:2:0:0:
162,140,20951,2,0,P|168:180|188:216,1,71.9999978027344,2|2,2:2|2:2,0:0:0:0:
398,257,21133,5,10,1:2:0:0:
399,242,21223,1,2,2:2:0:0:
401,227,21314,1,2,2:2:0:0:
402,212,21405,1,2,2:2:0:0:
473,276,21496,6,0,P|385:290|281:316,1,143.999995605469,2|2,1:2|2:2,0:0:0:0:
322,299,21739,5,2,0:0:0:0:
313,294,21799,5,2,0:0:0:0:
304,289,21860,6,0,P|295:247|292:215,1,71.9999978027344,10|0,1:2|0:0,0:0:0:0:
412,47,22042,1,2,2:2:0:0:
414,61,22133,2,0,P|413:102|406:155,1,71.9999978027344,2|0,2:2|1:1,0:0:0:0:
182,207,22314,1,2,2:2:0:0:
121,168,22405,1,2,2:2:0:0:
94,101,22496,1,2,2:2:0:0:
98,29,22587,2,0,L|181:38,1,71.9999978027344,10|0,1:2|0:0,0:0:0:0:
334,114,22769,2,0,L|263:119,1,71.9999978027344,2|0,2:2|0:0,0:0:0:0:
27,179,22951,5,2,1:2:0:0:
9,226,23042,1,2,2:2:0:0:
18,275,23133,1,2,2:2:0:0:
54,308,23223,1,2,2:2:0:0:
123,311,23314,1,10,1:2:0:0:
190,277,23405,2,0,B|192:257|192:257|179:195,1,71.9999978027344,2|0,2:2|0:0,0:0:0:0:
271,47,23587,2,0,L|258:147,1,71.9999978027344,2|0,2:2|1:1,0:0:0:0:
207,377,23769,5,2,2:2:0:0:
209,363,23860,2,0,P|246:345|283:337,1,71.9999978027344,2|0,1:2|1:1,0:0:0:0:
505,316,24042,6,0,P|476:329|455:325,1,35.9999989013672,8|8,1:2|2:2,0:0:0:0:
454,347,24133,6,0,P|422:341|407:326,1,35.9999989013672,8|8,2:2|2:2,0:0:0:0:
396,347,24223,6,0,P|373:324|368:304,1,35.9999989013672,8|8,2:2|2:2,0:0:0:0:
346,318,24314,6,0,P|339:286|347:267,1,35.9999989013672,8|8,2:2|2:2,0:0:0:0:
321,261,24405,6,0,B|304:148|418:133|401:4,1,264.000008056641,4|2,1:2|1:2,0:0:0:0:
195,83,24951,1,2,2:2:0:0:
262,6,25133,2,0,P|282:49|281:96,1,96,2|2,1:2|2:2,0:0:0:0:
167,171,25496,2,0,P|129:142|82:132,1,96,2|2,1:2|2:2,0:0:0:0:
5,175,25860,5,2,1:2:0:0:
192,316,26042,1,0,0:0:0:0:
192,316,26133,1,0,0:0:0:0:
192,316,26223,1,2,1:2:0:0:
30,375,26405,2,0,P|50:303|63:269,1,96,2|0,2:2|1:1,0:0:0:0:
281,260,26769,1,2,2:2:0:0:
163,211,26951,1,0,1:1:0:0:
192,316,27133,1,0,0:0:0:0:
363,285,27314,6,0,L|473:262,1,96,0|2,1:1|2:2,0:0:0:0:
482,146,27678,1,2,1:2:0:0:
482,146,27860,1,2,2:2:0:0:
357,174,28042,1,2,1:2:0:0:
395,53,28223,1,2,2:2:0:0:
251,161,28405,1,2,1:2:0:0:
363,285,28587,1,2,2:2:0:0:
134,275,28769,6,0,L|245:255,1,96,2|0,1:2|0:0,0:0:0:0:
238,257,29042,1,0,0:0:0:0:
247,255,29133,1,2,1:2:0:0:
43,122,29314,2,0,L|154:142,1,96,2|0,2:2|1:1,0:0:0:0:
316,213,29678,1,2,2:2:0:0:
194,52,29860,6,0,P|204:83|196:116,1,48,0|0,1:1|0:0,0:0:0:0:
251,161,30042,2,0,P|265:141|274:119,1,48,0|0,1:1|0:0,0:0:0:0:
447,100,30223,6,0,P|360:44|265:47,1,192,0|2,1:1|1:2,0:0:0:0:
137,139,30769,1,2,2:2:0:0:
235,245,30951,1,2,1:2:0:0:
274,119,31133,1,2,2:2:0:0:
150,225,31314,1,2,1:2:0:0:
184,373,31496,1,2,2:2:0:0:
340,330,31678,6,0,P|402:318|445:316,1,96,2|0,1:2|0:0,0:0:0:0:
444,317,31951,1,0,0:0:0:0:
453,318,32042,1,2,1:2:0:0:
323,213,32223,2,0,P|355:177|395:150,1,96,2|0,2:2|1:1,0:0:0:0:
212,165,32587,1,2,2:2:0:0:
236,42,32769,1,0,1:1:0:0:
150,225,32951,1,0,0:0:0:0:
87,38,33133,6,0,L|108:159,1,96,0|2,1:1|2:2,0:0:0:0:
139,350,33496,1,2,1:2:0:0:
227,243,33678,1,2,2:2:0:0:
103,132,33860,1,2,1:2:0:0:
219,327,34042,1,2,2:2:0:0:
431,145,34223,2,0,B|417:153|406:179|406:179|365:183|304:214,1,144,2|0,1:2|0:0,0:0:0:0:
227,243,34587,6,0,L|148:204,1,71.9999978027344,10|8,2:2|2:2,0:0:0:0:
299,289,34769,1,8,1:2:0:0:
298,298,34860,1,8,1:2:0:0:
302,305,34951,2,0,P|332:297|388:258,1,71.9999978027344,8|8,1:2|1:2,0:0:0:0:
219,327,35133,6,0,P|156:291|86:274,1,143.999995605469,10|8,1:2|1:2,0:0:0:0:
77,200,35405,1,8,1:2:0:0:
70,202,35496,1,8,1:2:0:0:
62,203,35587,1,8,1:2:0:0:
54,201,35678,5,10,1:2:0:0:
37,130,35769,1,8,1:2:0:0:
64,63,35860,1,8,1:2:0:0:
128,31,35951,1,8,1:2:0:0:
205,38,36042,6,0,B|301:56|286:106|377:120,1,180,4|0,1:2|0:0,0:0:0:0:
437,109,36405,1,10,1:2:0:0:
178,121,36587,1,2,2:2:0:0:
169,128,36678,1,0,0:0:0:0:
166,139,36769,2,0,P|170:179|183:200,1,60,2|0,1:2|0:0,0:0:0:0:
115,241,36951,2,0,P|146:266|170:273,1,60,2|0,2:2|0:0,0:0:0:0:
131,351,37133,2,0,P|191:312|284:305,1,120,10|2,1:2|2:2,0:0:0:0:
488,285,37496,6,0,P|407:305|369:322,1,120,2|0,1:2|0:0,0:0:0:0:
305,353,37769,1,0,0:0:0:0:
295,360,37860,1,10,1:2:0:0:
373,218,38042,2,0,P|315:203|256:197,1,120,2|0,2:2|1:1,0:0:0:0:
179,195,38314,1,0,0:0:0:0:
167,195,38405,1,2,2:2:0:0:
340,106,38587,2,0,P|356:77|360:30,1,60,8|0,1:2|0:0,0:0:0:0:
261,0,38769,2,0,P|277:26|284:55,1,60
454,72,38951,6,0,P|376:90|303:127,1,120,0|2,1:1|2:2,0:0:0:0:
259,123,39223,1,0,0:0:0:0:
246,128,39314,2,0,P|193:85|198:28,1,120,10|2,1:2|2:2,0:0:0:0:
330,181,39678,6,0,P|354:190|373:220,1,60,2|0,1:2|0:0,0:0:0:0:
295,309,39860,2,0,P|306:282|300:254,1,60,2|0,2:2|0:0,0:0:0:0:
238,200,40042,2,0,L|159:193,1,60,10|0,1:2|0:0,0:0:0:0:
381,292,40223,2,0,L|460:285,1,60,2|0,2:2|0:0,0:0:0:0:
251,377,40405,6,0,P|187:343|122:344,1,120,2|0,1:2|0:0,0:0:0:0:
64,343,40678,1,0,0:0:0:0:
60,334,40769,2,0,L|42:234,1,60,10|0,1:2|0:0,0:0:0:0:
22,136,40951,2,0,P|63:198|117:189,1,120,2|0,2:2|1:1,0:0:0:0:
174,221,41223,1,0,0:0:0:0:
181,213,41314,2,0,P|208:199|238:199,1,60,2|0,2:2|0:0,0:0:0:0:
148,136,41496,1,10,1:2:0:0:
305,31,41678,1,8,1:2:0:0:
313,75,41769,1,8,2:2:0:0:
295,114,41860,6,0,B|214:116|208:83|193:46|107:63,1,180,0|0,1:1|0:0,0:0:0:0:
57,74,42223,1,10,1:2:0:0:
45,270,42405,1,2,2:2:0:0:
35,264,42496,1,0,0:0:0:0:
32,253,42587,2,0,P|49:225|80:206,1,60,2|0,1:2|0:0,0:0:0:0:
120,316,42769,2,0,P|148:306|177:309,1,60,2|0,2:2|0:0,0:0:0:0:
147,134,42951,1,10,1:2:0:0:
279,216,43133,1,2,2:2:0:0:
456,123,43314,6,0,P|398:190|385:238,1,120,2|0,1:2|0:0,0:0:0:0:
369,294,43587,1,0,0:0:0:0:
366,301,43678,1,10,1:2:0:0:
262,98,43860,2,0,P|272:157|279:216,1,120,2|0,2:2|1:1,0:0:0:0:
293,358,44223,1,2,2:2:0:0:
63,187,44405,2,0,P|121:172|177:150,1,120,8|2,1:2|2:2,0:0:0:0:
390,40,44769,6,0,P|346:113|263:99,1,180,2|0,1:2|0:0,0:0:0:0:
202,57,45133,1,10,1:2:0:0:
186,288,45314,1,0,0:0:0:0:
175,290,45405,1,0,0:0:0:0:
167,286,45496,6,0,P|192:245|213:231,1,60,2|0,1:2|0:0,0:0:0:0:
292,275,45678,2,0,P|339:271|363:281,1,60,2|0,2:2|0:0,0:0:0:0:
114,352,45860,2,0,P|85:313|80:288,1,60,10|0,1:2|0:0,0:0:0:0:
107,227,46042,2,0,P|122:181|139:163,1,60,2|0,2:2|0:0,0:0:0:0:
29,248,46223,1,0,1:1:0:0:
44,44,46405,6,0,P|48:26|43:-1,2,40,8|8|8,0:0|0:0|0:0,0:0:0:0:
0,110,46587,6,0,L|71:123,1,60,10|2,1:2|0:0,0:0:0:0:
247,69,46769,1,8,2:2:0:0:
252,59,46860,2,0,L|246:-16,1,60,0|0,0:0|1:1,0:0:0:0:
150,91,47042,1,8,2:2:0:0:
145,101,47133,2,0,L|151:176,1,60,8|0,2:2|0:0,0:0:0:0:
434,304,47314,5,10,2:2:0:0:
420,233,47405,1,8,2:2:0:0:
368,182,47496,1,10,2:2:0:0:
297,166,47587,1,8,2:2:0:0:
226,181,47678,6,0,B|148:184|147:256|40:247,1,180,6|2,1:2|0:0,0:0:0:0:
53,240,48042,1,10,1:2:0:0:
20,63,48223,2,0,P|49:98|70:173,1,107.999996704102,2|0,2:2|1:1,0:0:0:0:
193,349,48587,2,0,P|222:314|243:239,1,107.999996704102,2|8,2:2|1:2,0:0:0:0:
15,301,48951,5,2,2:2:0:0:
14,311,49042,1,0,0:0:0:0:
13,321,49133,2,0,P|63:343|122:378,1,107.999996704102,2|0,1:2|0:0,0:0:0:0:
137,290,49405,1,0,0:0:0:0:
146,280,49496,2,0,P|155:242|153:215,1,53.9999983520508,10|0,1:2|0:0,0:0:0:0:
241,255,49678,2,0,P|308:214|371:199,1,107.999996704102,2|0,2:2|1:1,0:0:0:0:
391,145,49951,1,0,0:0:0:0:
402,147,50042,2,0,P|417:79|417:48,1,53.9999983520508,2|0,2:2|0:0,0:0:0:0:
314,38,50223,6,0,P|333:73|334:101,1,53.9999983520508,10|0,1:2|0:0,0:0:0:0:
454,209,50405,2,0,P|472:189|481:164,1,53.9999983520508,2|0,2:2|0:0,0:0:0:0:
276,138,50587,6,0,P|197:132|111:173,1,161.999995056153,2|0,1:2|0:0,0:0:0:0:
112,176,50951,1,10,1:2:0:0:
241,255,51133,2,0,P|160:357|159:370,1,107.999996704102,2|0,2:2|1:1,0:0:0:0:
99,372,51405,1,0,0:0:0:0:
94,360,51496,2,0,P|83:308|95:256,1,107.999996704102,2|8,2:2|1:2,0:0:0:0:
191,108,51860,1,2,2:2:0:0:
387,256,52042,6,0,P|413:180|446:125,1,107.999996704102,0|0,1:1|0:0,0:0:0:0:
447,44,52314,1,0,0:0:0:0:
436,58,52405,2,0,P|413:76|298:62,1,107.999996704102,10|0,1:2|0:0,0:0:0:0:
492,278,52769,2,0,L|386:255,1,107.999996704102,2|0,1:2|0:0,0:0:0:0:
137,137,53133,1,10,1:2:0:0:
91,156,53223,1,8,2:2:0:0:
69,198,53314,1,10,1:2:0:0:
79,248,53405,1,8,2:2:0:0:
115,280,53496,6,0,L|309:322,1,161.999995056153,2|0,1:2|0:0,0:0:0:0:
282,312,53860,1,10,1:2:0:0:
190,64,54042,2,0,P|226:121|272:141,1,107.999996704102,2|0,2:2|1:1,0:0:0:0:
313,194,54314,1,0,0:0:0:0:
323,182,54405,2,0,P|435:151|463:148,1,107.999996704102,2|8,2:2|1:2,0:0:0:0:
182,182,54769,1,2,2:2:0:0:
501,101,54951,6,0,B|427:89|438:32|338:15,1,161.999995056153,0|0,1:1|0:0,0:0:0:0:
350,17,55314,1,10,1:2:0:0:
182,182,55496,2,0,P|162:124|125:87,1,107.999996704102,2|0,2:2|1:1,0:0:0:0:
60,74,55769,1,0,0:0:0:0:
51,73,55860,1,2,2:2:0:0:
348,95,56042,2,0,P|295:106|244:124,1,107.999996704102,8|2,1:2|2:2,0:0:0:0:
133,296,56405,5,8,1:2:0:0:
182,182,56587,1,0,1:1:0:0:
149,374,56769,1,10,1:2:0:0:
101,157,56951,1,2,1:2:0:0:
298,325,57133,5,8,1:2:0:0:
47,275,57315,1,0,1:1:0:0:
304,245,57497,1,8,1:2:0:0:
73,353,57679,1,2,1:2:0:0:
295,59,57860,5,8,1:2:0:0:
291,73,57950,1,8,1:2:0:0:
287,88,58041,1,8,1:2:0:0:
284,103,58132,1,8,1:2:0:0:
280,118,58223,1,10,1:2:0:0:
276,133,58314,1,8,1:2:0:0:
273,148,58405,1,10,1:2:0:0:
269,163,58496,1,8,1:2:0:0:
266,178,58587,5,8,1:2:0:0:
216,127,58678,1,8,1:2:0:0:
146,114,58769,1,8,1:2:0:0:
82,143,58860,1,8,1:2:0:0:
54,207,58951,1,8,1:2:0:0:
64,276,59042,1,8,1:2:0:0:
113,326,59133,1,8,1:2:0:0:
182,330,59223,1,8,1:2:0:0:
245,292,59314,6,0,L|229:224,1,53.9999983520508,0|0,1:1|0:0,0:0:0:0:
234,240,59678,2,0,L|190:250,1,35.9999989013672,2|0,2:2|0:0,0:0:0:0:
411,197,60042,5,2,1:2:0:0:
417,186,60133,1,0,1:1:0:0:
421,174,60223,1,0,1:1:0:0:
422,162,60314,1,0,1:1:0:0:
425,150,60405,2,0,P|485:139|462:164,1,161.999995056153,10|0,1:2|0:0,0:0:0:0:
486,237,60769,6,0,P|405:237|255:329,1,180.000006866455,6|2,1:2|2:2,0:0:0:0:
260,222,61042,1,0,0:0:0:0:
243,227,61133,2,0,P|221:243|224:327,1,90.0000034332277,10|0,1:2|0:0,0:0:0:0:
87,294,61314,2,0,P|94:338|129:365,1,90.0000034332277,2|0,2:2|0:0,0:0:0:0:
324,179,61496,1,0,1:1:0:0:
318,135,61587,1,0,0:0:0:0:
286,95,61678,2,0,P|250:61|208:40,1,90.0000034332277,2|0,2:2|0:0,0:0:0:0:
134,204,61860,2,0,P|89:205|46:219,1,90.0000034332277,8|0,1:2|0:0,0:0:0:0:
202,118,62042,6,0,P|214:140|185:124,1,90.0000034332277,2|0,2:2|0:0,0:0:0:0:
104,126,62223,1,0,1:1:0:0:
391,226,62405,2,0,P|411:246|380:233,1,90.0000034332277,2|0,2:2|0:0,0:0:0:0:
324,179,62587,2,0,P|345:216|364:280,1,90.0000034332277,10|0,1:2|0:0,0:0:0:0:
487,311,62769,2,0,P|368:347|297:392,1,180.000006866455,2|0,2:2|1:1,0:0:0:0:
229,347,63042,1,0,0:0:0:0:
229,347,63133,6,0,L|141:333,1,90.0000034332277,2|0,2:2|0:0,0:0:0:0:
35,270,63314,2,0,L|124:255,1,90.0000034332277,10|0,1:2|0:0,0:0:0:0:
238,195,63496,2,0,L|149:180,1,90.0000034332277,2|0,2:2|0:0,0:0:0:0:
40,23,63678,6,0,B|124:40|109:105|227:110,1,180.000006866455,0|2,1:1|2:2,0:0:0:0:
333,137,63951,1,0,0:0:0:0:
349,136,64042,2,0,P|373:127|384:61,1,90.0000034332277,10|0,1:2|0:0,0:0:0:0:
288,0,64223,2,0,P|266:100|270:153,1,90.0000034332277,2|0,2:2|0:0,0:0:0:0:
453,277,64405,5,0,1:1:0:0:
461,274,64496,1,0,0:0:0:0:
468,269,64587,2,0,P|478:226|482:181,1,90.0000034332277,2|0,2:2|0:0,0:0:0:0:
252,213,64769,2,0,P|275:251|303:286,1,90.0000034332277,10|0,1:2|0:0,0:0:0:0:
378,351,64951,2,0,P|421:362|466:367,1,90.0000034332277,2|0,2:2|0:0,0:0:0:0:
156,364,65133,6,0,P|200:363|242:347,1,90.0000034332277,2|0,1:2|0:0,0:0:0:0:
410,153,65314,2,0,P|309:163|232:251,1,180.000006866455,2|8,2:2|1:2,0:0:0:0:
167,252,65587,1,0,0:0:0:0:
151,252,65678,2,0,P|125:233|95:178,1,90.0000034332277,2|0,2:2|0:0,0:0:0:0:
249,9,65860,5,0,1:1:0:0:
226,68,65951,1,0,0:0:0:0:
168,94,66042,1,2,2:2:0:0:
105,85,66133,1,0,0:0:0:0:
60,41,66223,2,0,P|107:26|176:23,1,90.0000034332277,8|0,1:2|0:0,0:0:0:0:
170,174,66405,2,0,P|212:188|251:211,1,90.0000034332277,0|0,1:1|0:0,0:0:0:0:
485,82,66587,6,0,P|501:142|400:127,1,180.000006866455,6|2,1:2|2:2,0:0:0:0:
336,209,66860,1,0,0:0:0:0:
334,196,66951,2,0,P|322:152|299:114,1,90.0000034332277,10|0,1:2|0:0,0:0:0:0:
466,246,67133,2,0,P|381:275|311:331,1,180.000006866455,2|0,2:2|1:1,0:0:0:0:
244,377,67405,1,0,0:0:0:0:
228,372,67496,2,0,P|198:319|203:273,1,90.0000034332277,2|0,2:2|0:0,0:0:0:0:
299,114,67678,1,8,1:2:0:0:
84,151,67860,6,0,P|219:187|258:217,1,180.000006866455,2|0,2:2|1:1,0:0:0:0:
299,114,68133,1,0,0:0:0:0:
310,111,68223,2,0,P|357:74|361:34,1,90.0000034332277,2|0,2:2|0:0,0:0:0:0:
233,17,68405,2,0,L|125:37,1,90.0000034332277,10|0,1:2|0:0,0:0:0:0:
418,120,68587,2,0,L|524:131,1,90.0000034332277,2|0,2:2|0:0,0:0:0:0:
250,210,68769,1,0,1:1:0:0:
392,372,68951,1,2,2:2:0:0:
400,355,69042,1,0,0:0:0:0:
400,340,69133,2,0,P|338:322|303:349,1,90.0000034332277,10|0,1:2|0:0,0:0:0:0:
250,210,69314,2,0,P|199:250|201:294,1,90.0000034332277,2|0,2:2|0:0,0:0:0:0:
24,388,69496,6,0,P|122:329|136:178,1,270.000010299683,0|0,1:1|0:0,0:0:0:0:
68,236,69860,2,0,P|39:248|70:244,1,90.0000034332277,10|0,1:2|0:0,0:0:0:0:
105,117,70042,2,0,P|65:96|43:57,1,90.0000034332277,2|0,2:2|0:0,0:0:0:0:
277,100,70223,1,0,1:1:0:0:
262,95,70314,1,0,0:0:0:0:
252,83,70405,2,0,P|249:38|269:0,1,90.0000034332277,2|0,2:2|0:0,0:0:0:0:
413,172,70587,1,8,1:2:0:0:
409,156,70678,1,0,0:0:0:0:
414,141,70769,2,0,P|444:118|536:119,1,90.0000034332277,2|0,2:2|0:0,0:0:0:0:
410,297,70951,5,0,1:1:0:0:
410,297,71011,5,0,1:0:0:0:
410,297,71072,5,0,1:0:0:0:
410,297,71133,6,0,P|353:298|302:281,1,90.0000034332277,2|0,2:2|0:0,0:0:0:0:
263,359,71314,2,0,P|201:333|188:308,1,90.0000034332277,10|0,1:2|0:0,0:0:0:0:
66,310,71496,2,0,P|32:277|33:225,1,90.0000034332277,2|0,2:2|1:1,0:0:0:0:
178,107,71678,6,0,L|193:19,1,90.0000034332277,2|0,1:2|0:0,0:0:0:0:
105,210,71860,2,0,L|88:112,1,90.0000034332277,2|0,1:2|1:1,0:0:0:0:
360,27,72042,6,0,P|380:53|367:81,1,45.0000017166138,10|8,1:2|2:2,0:0:0:0:
398,82,72133,6,0,P|387:113|358:119,1,45.0000017166138,8|8,2:2|2:2,0:0:0:0:
374,144,72223,6,0,P|341:154|319:133,1,45.0000017166138,10|8,2:2|2:2,0:0:0:0:
310,165,72314,6,0,P|282:145|288:114,1,45.0000017166138,8|8,2:2|2:2,0:0:0:0:
256,123,72405,6,0,B|303:190|322:294,1,180.000006866455,6|2,1:2|2:2,0:0:0:0:
391,332,72678,1,0,0:0:0:0:
397,306,72769,2,0,P|411:255|443:184,1,90.0000034332277,10|0,1:2|0:0,0:0:0:0:
206,256,72951,2,0,P|217:299|234:342,1,90.0000034332277,2|0,2:2|0:0,0:0:0:0:
488,185,73133,1,0,1:1:0:0:
504,134,73223,1,0,0:0:0:0:
470,91,73314,1,2,2:2:0:0:
416,88,73405,1,0,0:0:0:0:
373,120,73496,2,0,P|329:117|286:96,1,90.0000034332277,8|0,1:2|0:0,0:0:0:0:
202,34,73678,6,0,P|189:15|212:33,1,90.0000034332277,2|0,2:2|0:0,0:0:0:0:
212,107,73860,1,0,1:1:0:0:
91,169,74042,2,0,P|72:156|90:179,1,90.0000034332277,2|0,2:2|0:0,0:0:0:0:
114,267,74223,2,0,P|141:231|178:205,1,90.0000034332277,10|0,1:2|0:0,0:0:0:0:
26,89,74405,1,2,2:2:0:0:
259,285,74587,5,0,1:1:0:0:
273,281,74678,1,0,0:0:0:0:
290,273,74769,2,0,P|305:233|280:183,1,90.0000034332277,2|0,2:2|0:0,0:0:0:0:
182,313,74951,2,0,P|157:277|102:269,1,90.0000034332277,10|0,1:2|0:0,0:0:0:0:
348,344,75133,2,0,P|389:333|415:284,1,90.0000034332277,2|0,2:2|0:0,0:0:0:0:
228,132,75314,5,0,1:1:0:0:
214,125,75405,1,0,0:0:0:0:
199,123,75496,2,0,P|174:166|182:215,1,90.0000034332277,2|0,2:2|0:0,0:0:0:0:
367,161,75678,2,0,P|317:165|281:199,1,90.0000034332277,10|0,1:2|0:0,0:0:0:0:
164,52,75860,2,0,P|117:35|70:52,1,90.0000034332277,2|0,2:2|0:0,0:0:0:0:
351,236,76042,5,0,1:1:0:0:
363,250,76133,1,0,0:0:0:0:
380,261,76223,2,0,P|430:266|481:243,1,90.0000034332277,2|0,2:2|0:0,0:0:0:0:
335,15,76405,2,0,P|295:103|296:121,1,90.0000034332277,10|0,1:2|0:0,0:0:0:0:
242,254,76587,2,0,P|254:297|280:332,1,90.0000034332277,2|0,2:2|0:0,0:0:0:0:
100,318,76769,6,0,P|142:322|197:350,1,90.0000034332277,2|0,1:2|0:0,0:0:0:0:
448,355,76951,2,0,P|349:280|378:190,1,180.000006866455,2|8,2:2|1:2,0:0:0:0:
467,119,77223,1,0,0:0:0:0:
499,185,77314,2,0,P|464:174|312:160,1,180.000006866455,2|0,2:2|1:1,0:0:0:0:
177,204,77587,1,0,0:0:0:0:
158,197,77678,2,0,P|127:157|139:111,1,90.0000034332277,2|0,2:2|0:0,0:0:0:0:
257,53,77860,6,0,L|236:157,1,90.0000034332277,10|0,1:2|0:0,0:0:0:0:
75,307,78042,2,0,L|54:203,1,90.0000034332277,0|0,1:1|0:0,0:0:0:0:
379,260,78223,6,0,P|334:366|227:335,1,180.000006866455,6|2,1:2|2:2,0:0:0:0:
196,368,78496,1,0,0:0:0:0:
184,363,78587,2,0,P|165:289|139:245,1,90.0000034332277,10|0,1:2|0:0,0:0:0:0:
313,219,78769,2,0,P|347:157|357:114,1,90.0000034332277,2|0,2:2|0:0,0:0:0:0:
195,5,78951,1,0,1:1:0:0:
142,19,79042,1,0,0:0:0:0:
115,65,79133,1,2,2:2:0:0:
122,117,79223,1,0,0:0:0:0:
161,153,79314,2,0,L|261:130,1,90.0000034332277,8|0,1:2|0:0,0:0:0:0:
424,98,79496,1,2,2:2:0:0:
159,277,79678,6,0,P|247:213|336:231,1,180.000006866455,0|2,1:1|2:2,0:0:0:0:
392,273,79951,1,0,0:0:0:0:
381,266,80042,2,0,P|362:306|353:350,1,90.0000034332277,10|0,1:2|0:0,0:0:0:0:
159,277,80223,2,0,P|140:236|131:192,1,90.0000034332277,2|0,2:2|0:0,0:0:0:0:
430,32,80405,1,0,1:1:0:0:
441,66,80496,1,0,0:0:0:0:
424,98,80587,2,0,P|346:120|326:112,1,90.0000034332277,2|0,2:2|0:0,0:0:0:0:
259,159,80769,2,0,P|196:107|191:86,1,90.0000034332277,10|0,1:2|0:0,0:0:0:0:
89,87,80951,2,0,P|95:6|109:-10,1,90.0000034332277,2|0,2:2|0:0,0:0:0:0:
0,242,81133,6,0,P|99:184|194:194,1,180.000006866455,0|0,1:1|0:0,0:0:0:0:
172,306,81405,1,0,0:0:0:0:
159,315,81496,2,0,P|117:331|73:339,1,90.0000034332277,10|0,1:2|0:0,0:0:0:0:
259,159,81678,2,0,P|298:239|299:295,1,90.0000034332277,2|0,2:2|0:0,0:0:0:0:
403,223,81860,1,0,1:1:0:0:
421,222,81951,1,0,0:0:0:0:
435,213,82042,2,0,P|457:157|452:77,1,90.0000034332277,2|0,2:2|0:0,0:0:0:0:
230,30,82223,1,8,1:2:0:0:
249,31,82314,1,0,0:0:0:0:
267,36,82405,2,0,P|309:78|335:154,1,90.0000034332277,2|0,2:2|0:0,0:0:0:0:
374,358,82587,5,0,1:1:0:0:
374,358,82648,5,0,1:0:0:0:
374,358,82708,5,0,1:0:0:0:
374,358,82769,6,0,P|426:329|482:321,1,90.0000034332277,2|0,2:2|0:0,0:0:0:0:
270,201,82951,2,0,P|242:148|199:111,1,90.0000034332277,10|0,1:2|0:0,0:0:0:0:
403,223,83133,2,0,P|439:175|487:146,1,90.0000034332277,2|0,2:2|1:1,0:0:0:0:
222,127,83314,6,0,P|218:67|194:16,1,90.0000034332277,2|0,1:2|0:0,0:0:0:0:
322,104,83496,2,0,P|335:61|355:21,1,90.0000034332277,2|0,1:2|1:1,0:0:0:0:
234,282,83678,6,0,P|213:294|191:297,1,45.0000017166138,10|8,1:2|2:2,0:0:0:0:
189,265,83769,6,0,P|165:258|147:245,1,45.0000017166138,8|8,2:2|2:2,0:0:0:0:
161,216,83860,6,0,P|148:195|145:173,1,45.0000017166138,10|8,2:2|2:2,0:0:0:0:
176,162,83951,6,0,P|181:137|195:120,1,45.0000017166138,8|8,2:2|2:2,0:0:0:0:
222,127,84042,6,0,B|292:101|376:109,1,155.999992858887,6|0,1:2|0:0,0:0:0:0:
480,36,84314,2,0,P|459:85|452:145,1,77.9999964294435,2|8,2:2|1:2,0:0:0:0:
353,295,84496,1,2,2:2:0:0:
334,259,84587,2,0,P|324:207|320:147,1,77.9999964294435,2|0,2:2|0:0,0:0:0:0:
196,55,84769,1,0,1:1:0:0:
222,127,84860,2,0,P|231:204|221:281,1,155.999992858887,2|2,2:2|2:2,0:0:0:0:
428,281,85133,2,0,P|346:305|280:344,1,155.999992858887,10|2,1:2|2:2,0:0:0:0:
378,108,85496,5,2,1:2:0:0:
378,108,85557,5,2,0:0:0:0:
378,108,85618,5,2,0:0:0:0:
378,108,85678,6,0,P|389:145|395:186,1,77.9999964294435,2|2,2:2|2:2,0:0:0:0:
213,310,85860,5,10,1:2:0:0:
139,283,85951,1,2,2:2:0:0:
118,207,86042,1,0,0:0:0:0:
161,142,86133,2,0,L|259:126,1,77.9999964294435,2|2,2:2|1:2,0:0:0:0:
359,13,86314,1,2,2:2:0:0:
392,56,86405,1,2,2:2:0:0:
378,108,86496,1,2,2:2:0:0:
331,137,86587,1,10,1:2:0:0:
323,136,86678,1,2,2:2:0:0:
315,136,86769,2,0,L|235:129,1,77.9999964294435,2|2,2:2|2:2,0:0:0:0:
412,222,86951,6,0,P|266:258|205:291,1,155.999992858887,2|2,1:2|2:2,0:0:0:0:
252,265,87193,5,2,0:0:0:0:
242,270,87254,5,0,0:0:0:0:
233,275,87314,6,0,P|181:237|176:208,1,77.9999964294435,10|0,1:2|0:0,0:0:0:0:
288,43,87496,1,2,2:2:0:0:
274,50,87587,2,0,P|235:54|198:68,1,77.9999964294435,2|0,2:2|1:1,0:0:0:0:
51,210,87769,1,2,2:2:0:0:
118,171,87860,1,2,2:2:0:0:
127,93,87951,1,2,2:2:0:0:
69,40,88042,2,0,L|36:150,1,77.9999964294435,10|0,1:2|0:0,0:0:0:0:
252,265,88223,2,0,L|231:189,1,77.9999964294435,2|0,2:2|0:0,0:0:0:0:
35,286,88405,5,2,1:2:0:0:
25,299,88496,1,2,2:2:0:0:
21,321,88587,1,2,2:2:0:0:
84,359,88678,1,2,2:2:0:0:
157,348,88769,2,0,P|179:289|180:244,1,77.9999964294435,10|2,1:2|2:2,0:0:0:0:
200,59,88951,5,0,0:0:0:0:
127,93,89042,2,0,P|232:104|322:151,1,155.999992858887,2|2,2:2|2:2,0:0:0:0:
410,138,89314,2,0,P|444:99|453:47,1,77.9999964294435,2|2,2:2|2:2,0:0:0:0:
236,205,89496,1,10,1:2:0:0:
252,265,89587,1,2,2:2:0:0:
302,301,89678,1,2,1:2:0:0:
364,305,89769,1,2,2:2:0:0:
414,268,89860,6,0,P|342:234|316:238,1,77.9999964294435,6|0,1:2|0:0,0:0:0:0:
377,62,90042,1,0,0:0:0:0:
349,98,90133,2,0,P|315:117|277:121,1,77.9999964294435,2|8,2:2|1:2,0:0:0:0:
236,205,90314,1,2,2:2:0:0:
195,166,90405,2,0,P|161:146|122:143,1,77.9999964294435,2|0,2:2|0:0,0:0:0:0:
0,52,90587,1,0,1:1:0:0:
43,28,90678,2,0,B|120:22|118:79|207:62,1,155.999992858887,2|2,2:2|2:2,0:0:0:0:
377,62,90951,2,0,P|289:68|293:148,1,155.999992858887,10|2,1:2|2:2,0:0:0:0:
464,365,91314,5,2,1:2:0:0:
464,365,91375,5,2,0:0:0:0:
464,365,91436,5,2,0:0:0:0:
464,365,91496,6,0,L|473:270,1,77.9999964294435,2|2,2:2|2:2,0:0:0:0:
362,236,91678,1,10,1:2:0:0:
284,231,91769,1,2,2:2:0:0:
215,269,91860,1,0,0:0:0:0:
173,335,91951,2,0,L|79:366,1,77.9999964294435,2|2,2:2|1:2,0:0:0:0:
5,194,92133,1,2,2:2:0:0:
58,202,92223,1,2,2:2:0:0:
110,186,92314,1,2,2:2:0:0:
145,142,92405,1,10,1:2:0:0:
141,126,92496,1,2,2:2:0:0:
137,110,92587,2,0,L|121:14,1,77.9999964294435,2|2,2:2|2:2,0:0:0:0:
256,9,92769,6,0,P|237:84|234:162,1,155.999992858887,2|2,1:2|2:2,0:0:0:0:
238,172,93011,5,2,0:0:0:0:
241,181,93072,5,2,0:0:0:0:
248,188,93133,6,0,L|349:181,1,77.9999964294435,10|0,1:2|0:0,0:0:0:0:
163,261,93314,1,2,2:2:0:0:
138,277,93405,2,0,L|27:264,1,77.9999964294435,2|0,2:2|1:1,0:0:0:0:
280,321,93587,1,2,2:2:0:0:
332,334,93678,1,2,2:2:0:0:
386,328,93769,1,2,2:2:0:0:
432,299,93860,2,0,P|444:229|459:194,1,77.9999964294435,10|0,1:2|0:0,0:0:0:0:
247,188,94042,2,0,P|236:150|233:112,1,77.9999964294435,2|0,2:2|0:0,0:0:0:0:
489,1,94223,5,2,1:2:0:0:
503,53,94314,1,2,2:2:0:0:
481,103,94405,1,2,2:2:0:0:
420,138,94496,1,2,2:2:0:0:
350,127,94587,1,10,1:2:0:0:
295,82,94678,2,0,B|277:-31,1,77.9999964294435,2|0,2:2|0:0,0:0:0:0:
144,229,94860,2,0,B|155:151,1,77.9999964294435,2|0,2:2|1:1,0:0:0:0:
347,199,95042,5,2,2:2:0:0:
333,203,95133,2,0,L|242:190,1,77.9999964294435,2|0,1:2|1:1,0:0:0:0:
61,279,95314,6,0,P|45:288|47:307,1,38.9999982147218,8|8,1:2|2:2,0:0:0:0:
114,337,95405,6,0,P|112:356|129:366,1,38.9999982147218,8|8,2:2|2:2,0:0:0:0:
198,341,95496,6,0,P|212:353|230:346,1,38.9999982147218,8|8,2:2|2:2,0:0:0:0:
267,281,95587,6,0,P|285:277|289:259,1,38.9999982147218,8|8,2:2|2:2,0:0:0:0:
256,192,95678,5,4,1:2:0:0:
