osu file format v14

[General]
AudioFilename: audio.ogg
AudioLeadIn: 0
PreviewTime: 59587
Countdown: 0
SampleSet: Soft
StackLeniency: 0.7
Mode: 0
LetterboxInBreaks: 0
EpilepsyWarning: 1
WidescreenStoryboard: 1

[Editor]
Bookmarks: 1133,6951,11314,12769,24405,36042,47678,60769,72405,84042,89860,95678
DistanceSpacing: 0.9
BeatDivisor: 4
GridSize: 16
TimelineZoom: 1.9

[Metadata]
Title:Phalaenopsis-reaction
TitleUnicode:Phalaenopsis-reaction
Artist:Tsukino
ArtistUnicode:月乃
Creator:tomatas95
Version:Normal
Source:FLIP*FLOP ~RAMBLING OVERRUN~
Tags:eroge digination video game 祝りんご Iwai Ringo 山口たこ Tako Yamaguchi galgame visual novel vn opening op Flip Flop RAN electronic japanese gazimal rolniczy vergil chair rolni contagious aeril saturnalize
BeatmapID:4419874
BeatmapSetID:2000926

[Difficulty]
HPDrainRate:3
CircleSize:3
OverallDifficulty:4
ApproachRate:5.5
SliderMultiplier:1.1
SliderTickRate:1

[Events]
//Background and Video events
0,0,"TsukigaokaPowerAwakening.jpg",0,0
Video,-30,"erogedaisuki.avi"
//Break Periods
//Storyboard Layer 0 (Background)
//Storyboard Layer 1 (Fail)
//Storyboard Layer 2 (Pass)
//Storyboard Layer 3 (Foreground)
//Storyboard Layer 4 (Overlay)
//Storyboard Sound Samples

[TimingPoints]
1133,363.636363636364,4,2,50,60,1,0
1133,-111.111111111111,4,2,50,60,0,0
3860,-111.111111111111,4,2,50,55,0,0
6951,-111.111111111111,4,2,50,60,0,0
8405,-111.111111111111,4,2,50,55,0,0
8769,-111.111111111111,4,2,50,60,0,0
9133,-111.111111111111,4,2,50,65,0,0
9496,-111.111111111111,4,2,50,70,0,0
9860,-111.111111111111,4,2,50,75,0,0
10587,-111.111111111111,4,2,50,80,0,0
10951,-111.111111111111,4,2,50,85,0,0
11314,-111.111111111111,4,2,50,85,0,0
12042,-111.111111111111,4,2,50,50,0,0
12133,-111.111111111111,4,2,50,55,0,0
12223,-111.111111111111,4,2,50,60,0,0
12314,-111.111111111111,4,2,50,65,0,0
12405,-111.111111111111,4,2,50,70,0,0
12769,-100,4,2,85,90,0,0
24042,-100,4,2,52,90,0,0
24405,-111.111111111111,4,2,50,80,0,0
24587,-111.111111111111,4,2,50,60,0,0
29860,-111.111111111111,4,2,50,65,0,0
30223,-111.111111111111,4,2,50,70,0,0
30405,-111.111111111111,4,2,50,60,0,0
33860,-111.111111111111,4,2,50,65,0,0
34223,-111.111111111111,4,2,50,70,0,0
34587,-111.111111111111,4,2,85,70,0,0
34678,-111.111111111111,4,2,53,70,0,0
35133,-111.111111111111,4,2,85,70,0,0
35223,-111.111111111111,4,2,53,70,0,0
35678,-111.111111111111,4,2,85,75,0,0
36042,-100,4,2,50,75,0,0
36405,-100,4,2,85,70,0,0
41496,-100,4,2,86,70,0,0
41587,-100,4,2,53,70,0,0
42042,-100,4,2,85,70,0,0
46405,-100,4,2,55,70,0,0
46587,-100,4,2,56,70,0,0
46769,-100,4,2,57,70,0,0
46951,-100,4,2,50,70,0,0
47042,-100,4,2,58,70,0,0
47133,-100,4,2,51,70,0,0
47314,-100,4,2,87,75,0,0
47405,-100,4,2,85,70,0,0
47678,-100,4,2,50,75,0,0
48042,-100,4,2,85,65,0,0
53133,-100,4,2,86,65,0,0
53223,-100,4,2,53,65,0,0
53314,-100,4,2,88,65,0,0
53405,-100,4,2,53,65,0,0
53496,-100,4,2,85,65,0,0
56405,-100,4,2,85,60,0,0
56769,-100,4,2,85,65,0,0
57133,-100,4,2,85,70,0,0
57496,-100,4,2,85,75,0,0
57860,-100,4,2,85,80,0,0
58587,-100,4,2,85,75,0,0
59314,-100,4,2,85,85,0,0
59678,-100,4,2,85,45,0,0
60042,-100,4,2,85,50,0,0
60133,-100,4,2,85,55,0,0
60223,-100,4,2,85,60,0,0
60314,-100,4,2,85,65,0,0
60405,-100,4,2,50,80,0,0
60769,-90.9090909090909,4,2,50,90,0,1
61133,-90.9090909090909,4,2,85,90,0,1
63315,-90.9090909090909,4,2,85,90,0,1
64648,-90.9090909090909,4,2,53,90,0,1
64770,-90.9090909090909,4,2,85,90,0,1
65739,-90.9090909090909,4,2,53,90,0,1
65861,-90.9090909090909,4,2,85,90,0,1
66587,-90.9090909090909,4,2,50,90,0,1
66951,-90.9090909090909,4,2,85,90,0,1
69011,-90.9090909090909,4,2,53,90,0,1
69133,-90.9090909090909,4,2,85,90,0,1
71133,-90.9090909090909,4,2,89,90,0,1
72042,-90.9090909090909,4,2,85,90,0,0
72405,-90.9090909090909,4,2,50,90,0,1
72769,-90.9090909090909,4,2,85,90,0,1
75557,-90.9090909090909,4,2,53,90,0,1
75679,-90.9090909090909,4,2,85,90,0,1
78223,-90.9090909090909,4,2,50,90,0,1
78587,-90.9090909090909,4,2,85,90,0,1
80648,-90.9090909090909,4,2,53,90,0,1
80770,-90.9090909090909,4,2,85,90,0,1
82769,-90.9090909090909,4,2,89,90,0,1
83496,-90.9090909090909,4,2,90,90,0,1
84042,-100,4,2,85,90,0,0
95678,-100,4,2,52,90,0,0
100042,-100,4,2,52,5,0,0

[Colours]
Combo1 : 254,182,180
Combo2 : 251,179,240
Combo3 : 173,216,250
Combo4 : 255,206,157

[HitObjects]
72,41,1133,6,0,L|6:47,2,49.4999984893799,6|2|2,1:2|2:2|2:2,0:0:0:0:
107,68,1678,2,0,L|210:58,1,98.9999969787599,2|2,2:2|2:2,0:0:0:0:
189,146,2405,2,0,L|85:155,1,98.9999969787599,2|2,2:2|2:2,0:0:0:0:
45,232,3133,2,0,B|20:251|14:290|21:331|69:346|69:346|105:319|98:284,1,197.99999395752,2|2,2:2|2:2,0:0:0:0:
166,244,4223,1,2,2:2:0:0:
242,290,4587,6,0,B|277:224|217:169|217:169|186:119|223:43|319:63|326:137,1,346.49998942566,2|0,2:2|0:0,0:0:0:0:
413,126,6223,2,0,P|417:89|429:47,2,74.2499977340699,0|0|0,1:1|1:1|1:1,0:0:0:0:
452,146,6951,5,4,1:2:0:0:
459,238,7314,1,2,1:2:0:0:
459,238,7496,2,0,P|468:284|480:341,1,98.9999969787599,2|2,2:2|2:2,0:0:0:0:
391,354,8223,2,0,P|382:308|370:251,1,98.9999969787599,2|2,2:2|1:2,0:0:0:0:
360,218,8769,1,2,1:2:0:0:
360,218,8951,2,0,P|318:228|253:191,1,98.9999969787599,2|2,1:2|1:2,0:0:0:0:
235,178,9496,1,2,1:2:0:0:
159,225,9860,6,0,P|161:249|168:273,1,49.4999984893799,2|0,1:2|1:1,0:0:0:0:
178,316,10223,2,0,P|158:330|140:348,1,49.4999984893799,0|0,1:1|1:1,0:0:0:0:
108,377,10587,2,0,P|85:367|61:360,1,49.4999984893799,2|2,1:2|1:2,0:0:0:0:
20,346,10951,2,0,P|17:321|10:297,1,49.4999984893799,2|2,1:2|1:2,0:0:0:0:
7,253,11314,1,2,1:2:0:0:
160,34,12405,5,8,1:2:0:0:
249,77,12769,6,0,B|292:69|292:69|306:52|306:52|370:38,1,110,6|8,1:2|1:2,0:0:0:0:
403,49,13314,2,0,P|396:91|388:141,2,82.5,2|2|8,2:2|2:2|1:2,0:0:0:0:
441,9,14042,1,2,2:2:0:0:
497,102,14405,1,2,2:2:0:0:
497,102,14587,2,0,P|488:144|476:221,1,110,8|0,1:2|1:2,0:0:0:0:
488,308,15314,1,10,1:2:0:0:
404,367,15678,5,2,1:2:0:0:
320,295,16042,2,0,P|325:244|336:192,2,82.5,10|2|0,1:2|2:2|2:2,0:0:0:0:
287,340,16769,1,8,1:2:0:0:
287,340,16951,1,2,2:2:0:0:
194,291,17314,1,2,2:2:0:0:
194,291,17496,2,0,P|189:240|178:188,2,82.5,8|2|0,1:2|2:2|2:2,0:0:0:0:
165,338,18223,1,8,1:2:0:0:
56,356,18587,6,0,B|47:311|47:311|51:288|51:288|39:225,1,110,6|8,1:2|1:2,0:0:0:0:
24,195,19133,2,0,P|67:201|114:166,2,82.5,2|2|8,2:2|2:2|1:2,0:0:0:0:
1,144,19860,1,2,2:2:0:0:
67,56,20223,1,2,2:2:0:0:
67,56,20405,2,0,L|196:73,1,110,8|0,1:2|1:0,0:0:0:0:
256,128,21133,1,8,1:2:0:0:
318,204,21496,5,2,1:2:0:0:
243,285,21860,2,0,L|147:274,2,82.5,8|2|0,1:2|2:2|2:2,0:0:0:0:
274,329,22587,2,0,L|331:335,1,55,8|0,1:2|2:2,0:0:0:0:
437,304,23133,1,2,2:2:0:0:
437,304,23314,2,0,P|426:343|421:384,2,82.5,10|2|0,1:2|2:2|1:2,0:0:0:0:
461,254,24042,2,0,P|464:226|472:200,1,55,8|8,1:2|2:2,0:0:0:0:
486,147,24405,5,4,1:2:0:0:
460,61,24769,2,0,P|413:75|352:52,1,98.9999969787599,2|0,1:2|1:2,0:0:0:0:
284,25,25496,1,2,1:2:0:0:
218,85,25860,2,0,P|231:131|241:191,1,98.9999969787599,2|0,1:2|1:2,0:0:0:0:
235,225,26405,1,2,2:2:0:0:
170,286,26769,2,0,P|118:272|60:293,1,98.9999969787599,2|0,2:2|0:0,0:0:0:0:
29,208,27496,5,2,2:2:0:0:
29,208,27678,2,0,P|66:170|77:109,1,98.9999969787599,2|0,1:2|1:2,0:0:0:0:
27,54,28405,1,2,1:2:0:0:
110,22,28769,2,0,L|216:33,1,98.9999969787599,2|0,1:2|1:2,0:0:0:0:
253,31,29314,1,2,2:2:0:0:
334,68,29678,2,0,P|325:115|316:182,1,98.9999969787599,2|0,2:2|1:1,0:0:0:0:
325,209,30223,5,0,1:1:0:0:
406,172,30587,1,2,1:2:0:0:
464,239,30951,2,0,P|452:288|445:347,1,98.9999969787599,2|0,1:2|1:2,0:0:0:0:
358,355,31678,2,0,P|320:320|273:284,1,98.9999969787599,2|0,1:2|1:2,0:0:0:0:
242,272,32223,1,2,2:2:0:0:
188,343,32587,2,0,L|75:354,1,98.9999969787599,2|0,2:2|0:0,0:0:0:0:
44,357,33133,5,0,1:1:0:0:
11,274,33496,1,2,1:2:0:0:
67,204,33860,2,0,L|180:193,1,98.9999969787599,2|0,1:2|1:2,0:0:0:0:
252,213,34587,2,0,P|246:237|245:261,2,49.4999984893799,10|8|8,2:2|1:2|1:2,0:0:0:0:
294,198,35133,2,0,P|312:214|332:228,2,49.4999984893799,10|8|8,1:2|1:2|1:2,0:0:0:0:
295,153,35678,1,10,1:2:0:0:
248,65,36042,6,0,B|209:59|209:59|191:41|191:41|123:32,1,110,4|8,1:2|1:2,0:0:0:0:
48,17,36769,1,2,1:2:0:0:
7,107,37133,2,0,P|18:142|21:175,1,55,10|0,1:2|2:2,0:0:0:0:
62,186,37496,2,0,P|42:246|37:304,1,110,2|8,1:2|1:2,0:0:0:0:
37,342,38042,1,2,2:2:0:0:
134,358,38405,2,0,L|259:343,1,110,2|0,2:2|0:0,0:0:0:0:
293,343,38951,5,0,1:1:0:0:
332,252,39314,1,10,1:2:0:0:
264,179,39678,2,0,L|193:185,2,55,2|0|10,1:2|2:2|1:2,0:0:0:0:
314,165,40223,1,2,2:2:0:0:
314,165,40405,2,0,P|320:117|284:59,1,110,2|10,1:2|1:2,0:0:0:0:
268,20,40951,1,2,2:2:0:0:
370,11,41314,1,2,2:2:0:0:
370,11,41496,2,0,P|408:40|476:38,1,110,10|0,1:2|1:1,0:0:0:0:
494,136,42223,5,10,1:2:0:0:
415,196,42587,1,2,1:2:0:0:
476,273,42951,2,0,L|461:332,1,55,10|0,1:2|2:2,0:0:0:0:
456,375,43314,2,0,P|403:351|336:381,1,110,2|8,1:2|1:2,0:0:0:0:
305,358,43860,2,0,P|352:324|359:251,1,110,2|0,2:2|2:2,0:0:0:0:
363,226,44405,1,8,1:2:0:0:
276,274,44769,5,2,1:2:0:0:
227,187,45133,2,0,L|216:111,1,55,10|0,1:2|0:0,0:0:0:0:
238,86,45496,2,0,P|191:100|136:70,1,110,2|8,1:2|1:2,0:0:0:0:
96,47,46042,2,0,P|84:94|31:127,1,110,2|8,2:2|2:2,0:0:0:0:
11,169,46587,1,8,1:2:0:0:
18,267,46951,2,0,L|86:276,1,55,0|8,1:1|2:2,0:0:0:0:
108,308,47314,2,0,L|176:317,1,55,10|10,2:2|2:2,0:0:0:0:
208,335,47678,6,0,P|221:286|176:219,1,110,6|8,1:2|1:2,0:0:0:0:
159,201,48223,1,2,2:2:0:0:
231,133,48587,1,2,2:2:0:0:
295,208,48951,1,2,2:2:0:0:
295,208,49133,6,0,P|344:221|411:176,1,110,2|8,1:2|1:2,0:0:0:0:
437,170,49678,1,2,2:2:0:0:
495,250,50042,1,2,2:2:0:0:
495,250,50223,2,0,P|486:290|483:316,1,55,10|2,1:2|2:2,0:0:0:0:
488,353,50587,6,0,P|442:331|368:364,1,110,2|8,1:2|1:2,0:0:0:0:
344,372,51133,1,2,2:2:0:0:
270,305,51496,1,2,2:2:0:0:
295,208,51860,2,0,P|290:162|273:93,1,110,2|0,2:2|0:0,0:0:0:0:
257,53,52405,1,10,1:2:0:0:
345,8,52769,1,2,1:2:0:0:
404,86,53133,2,0,L|465:80,1,55,10|10,1:2|1:2,0:0:0:0:
508,82,53496,6,0,P|494:135|488:189,1,110,2|8,1:2|1:2,0:0:0:0:
462,232,54042,1,2,2:2:0:0:
385,168,54405,1,2,2:2:0:0:
295,208,54769,6,0,B|255:223|219:191|219:191|185:158|142:176,1,165,2|8,2:2|1:2,0:0:0:0:
95,191,55496,1,2,2:2:0:0:
32,114,55860,1,2,2:2:0:0:
80,27,56223,2,0,P|130:42|191:14,1,110,2|0,2:2|1:1,0:0:0:0:
236,23,56769,1,10,1:2:0:0:
236,23,56951,2,0,P|248:73|302:112,1,110,2|0,1:2|1:1,0:0:0:0:
331,138,57496,1,8,1:2:0:0:
259,207,57860,6,0,P|229:211|188:203,1,55,8|8,1:2|1:2,0:0:0:0:
155,202,58223,2,0,P|143:229|116:261,1,55,10|10,1:2|1:2,0:0:0:0:
99,289,58587,2,0,P|117:312|131:352,1,55,8|8,1:2|1:2,0:0:0:0:
146,380,58951,2,0,P|176:375|217:384,1,55,8|8,1:2|1:2,0:0:0:0:
249,372,59314,1,0,1:1:0:0:
490,198,60405,5,10,1:2:0:0:
412,121,60769,6,0,L|422:54,2,60.5000018463135,6|0|10,1:2|2:2|1:2,0:0:0:0:
383,167,61314,1,2,2:2:0:0:
286,115,61678,1,2,2:2:0:0:
195,175,62042,2,0,L|180:53,1,121.000003692627,2|0,2:2|2:2,0:0:0:0:
165,7,62587,1,8,1:2:0:0:
165,7,62769,1,2,2:2:0:0:
56,17,63133,6,0,P|46:58|44:87,1,60.5000018463135,2|8,2:2|1:2,0:0:0:0:
55,131,63496,1,2,2:2:0:0:
13,231,63860,2,0,P|23:272|25:301,1,60.5000018463135,2|8,2:2|1:2,0:0:0:0:
28,344,64223,1,2,2:2:0:0:
121,288,64587,2,0,P|124:258|132:228,2,60.5000018463135,2|8|2,2:2|1:2|2:2,0:0:0:0:
140,344,65133,1,2,1:2:0:0:
140,344,65314,2,0,P|191:329|262:358,1,121.000003692627,2|0,2:2|2:2,0:0:0:0:
362,361,66042,1,2,2:2:0:0:
362,361,66223,2,0,L|349:291,1,60.5000018463135,8|0,1:2|1:1,0:0:0:0:
334,249,66587,6,0,P|304:256|265:249,2,60.5000018463135,6|0|10,1:2|2:2|1:2,0:0:0:0:
375,212,67133,1,2,2:2:0:0:
449,291,67496,1,2,2:2:0:0:
502,195,67860,2,0,L|485:71,1,121.000003692627,2|0,2:2|2:2,0:0:0:0:
477,26,68405,1,10,1:2:0:0:
477,26,68587,1,2,2:2:0:0:
384,80,68951,1,2,2:2:0:0:
384,80,69133,2,0,L|392:142,1,60.5000018463135,10|0,1:2|2:2,0:0:0:0:
401,193,69496,6,0,P|352:175|282:205,1,121.000003692627,0|8,1:1|1:2,0:0:0:0:
255,240,70042,1,2,2:2:0:0:
152,204,70405,1,2,2:2:0:0:
57,257,70769,2,0,P|48:197|29:127,1,121.000003692627,2|0,2:2|2:2,0:0:0:0:
11,88,71314,2,0,P|44:82|89:79,1,60.5000018463135,10|2,1:2|2:2,0:0:0:0:
116,111,71678,2,0,L|194:102,1,60.5000018463135,2|2,1:2|1:2,0:0:0:0:
209,60,72042,2,0,L|287:51,1,60.5000018463135,10|10,1:2|2:2,0:0:0:0:
323,59,72405,6,0,P|319:23|311:-8,2,60.5000018463135,6|0|10,1:2|2:2|1:2,0:0:0:0:
337,111,72951,1,2,2:2:0:0:
420,41,73314,1,2,2:2:0:0:
498,117,73678,2,0,P|484:177|478:239,1,121.000003692627,2|0,2:2|2:2,0:0:0:0:
507,288,74223,1,10,1:2:0:0:
507,288,74405,1,2,2:2:0:0:
431,366,74769,2,0,P|399:360|360:370,1,60.5000018463135,2|8,2:2|1:2,0:0:0:0:
318,378,75133,5,2,2:2:0:0:
293,272,75496,2,0,P|313:247|324:208,1,60.5000018463135,2|8,2:2|1:2,0:0:0:0:
339,168,75860,1,2,2:2:0:0:
448,184,76223,2,0,P|459:213|487:243,2,60.5000018463135,2|8|2,2:2|1:2|2:2,0:0:0:0:
489,147,76769,1,2,1:2:0:0:
489,147,76951,2,0,P|493:86|512:10,1,121.000003692627,2|0,2:2|2:2,0:0:0:0:
402,16,77678,1,2,2:2:0:0:
402,16,77860,2,0,P|408:45|410:75,1,60.5000018463135,10|0,1:2|1:1,0:0:0:0:
385,124,78223,6,0,P|353:129|303:136,2,60.5000018463135,6|2|10,1:2|2:2|1:2,0:0:0:0:
410,172,78769,1,2,2:2:0:0:
323,238,79133,1,2,2:2:0:0:
234,174,79496,2,0,L|206:35,1,121.000003692627,2|0,2:2|2:2,0:0:0:0:
216,4,80042,1,10,1:2:0:0:
216,4,80223,1,2,2:2:0:0:
122,56,80587,1,2,2:2:0:0:
122,56,80769,2,0,P|89:66|49:58,1,60.5000018463135,10|0,1:2|2:2,0:0:0:0:
13,40,81133,6,0,L|41:179,1,121.000003692627,0|10,1:1|1:2,0:0:0:0:
48,211,81678,1,2,2:2:0:0:
8,312,82042,1,2,2:2:0:0:
107,356,82405,2,0,P|155:338|219:368,1,121.000003692627,2|2,2:2|2:2,0:0:0:0:
270,370,82951,2,0,P|273:336|284:305,1,60.5000018463135,10|2,1:2|2:2,0:0:0:0:
240,274,83314,2,0,P|237:240|226:209,1,60.5000018463135,2|2,1:2|1:2,0:0:0:0:
279,194,83678,2,0,P|282:160|293:129,1,60.5000018463135,10|10,1:2|2:2,0:0:0:0:
260,94,84042,6,0,B|299:87|299:87|314:68|314:68|379:57,1,110,6|8,1:2|1:2,0:0:0:0:
405,42,84587,1,2,2:2:0:0:
493,87,84951,1,2,0:0:0:0:
493,87,85133,2,0,P|485:120|479:155,1,55,8|2,1:2|2:2,0:0:0:0:
489,239,85678,1,2,2:2:0:0:
489,239,85860,2,0,L|363:214,1,110,8|0,1:2|1:0,0:0:0:0:
302,157,86587,1,10,1:2:0:0:
198,174,86951,5,2,1:2:0:0:
144,256,87314,2,0,L|46:267,2,82.5,10|2|0,1:2|2:2|2:2,0:0:0:0:
195,275,88042,1,8,1:2:0:0:
195,275,88223,1,2,2:2:0:0:
141,358,88587,1,2,2:2:0:0:
141,358,88769,2,0,L|43:369,2,82.5,8|2|0,1:2|2:2|2:2,0:0:0:0:
188,371,89496,1,8,1:2:0:0:
282,339,89860,6,0,B|326:336|326:336|336:323|336:323|401:318,1,110,6|8,1:2|1:2,0:0:0:0:
428,294,90405,2,0,P|437:334|444:382,2,82.5,2|2|8,2:2|2:2|1:2,0:0:0:0:
459,255,91133,1,2,2:2:0:0:
493,164,91496,1,2,2:2:0:0:
493,164,91678,2,0,P|481:106|506:46,1,110,8|0,1:2|1:0,0:0:0:0:
411,7,92405,1,10,1:2:0:0:
315,55,92769,5,2,1:2:0:0:
299,152,93133,2,0,L|405:141,2,82.5,10|2|0,1:2|2:2|2:2,0:0:0:0:
281,198,93860,2,0,L|220:204,1,55,8|0,1:2|2:2,0:0:0:0:
132,236,94405,1,2,2:2:0:0:
132,236,94587,2,0,P|127:188|116:131,2,82.5,10|2|0,1:2|2:2|1:2,0:0:0:0:
165,272,95314,2,0,P|159:299|156:326,1,55,8|8,1:2|2:2,0:0:0:0:
125,365,95678,1,4,1:2:0:0:
256,192,95769,12,0,100042,0:0:0:0:
