osu file format v14

[General]
AudioFilename: audio.ogg
AudioLeadIn: 0
PreviewTime: 59587
Countdown: 0
SampleSet: Soft
StackLeniency: 0.4
Mode: 0
LetterboxInBreaks: 0
EpilepsyWarning: 1
WidescreenStoryboard: 1

[Editor]
Bookmarks: 1133,6951,11314,12769,22042,24405,36042,47678,60769,64587,72405,84042,89860,95678
DistanceSpacing: 0.9
BeatDivisor: 4
GridSize: 16
TimelineZoom: 1.9

[Metadata]
Title:Phalaenopsis-reaction
TitleUnicode:Phalaenopsis-reaction
Artist:Tsukino
ArtistUnicode:月乃
Creator:tomatas95
Version:Aeril's Expert
Source:FLIP*FLOP ~RAMBLING OVERRUN~
Tags:eroge digination video game 祝りんご Iwai Ringo 山口たこ Tako Yamaguchi galgame visual novel vn opening op Flip Flop RAN electronic japanese gazimal rolniczy vergil chair rolni contagious aeril saturnalize
BeatmapID:4419869
BeatmapSetID:2000926

[Difficulty]
HPDrainRate:5.5
CircleSize:4
OverallDifficulty:8.2
ApproachRate:9
SliderMultiplier:1.7
SliderTickRate:1

[Events]
//Background and Video events
0,0,"TsukigaokaConfession.jpg",0,0
Video,-30,"erogedaisuki.avi"
//Break Periods
//Storyboard Layer 0 (Background)
//Storyboard Layer 1 (Fail)
//Storyboard Layer 2 (Pass)
//Storyboard Layer 3 (Foreground)
//Storyboard Layer 4 (Overlay)
//Storyboard Sound Samples

[TimingPoints]
1133,363.636363636364,4,2,50,60,1,0
1133,-100,4,2,50,60,0,0
3860,-100,4,2,50,55,0,0
6951,-86.9565217391304,4,2,50,60,0,0
8405,-86.9565217391304,4,2,50,55,0,0
8769,-76.9230769230769,4,2,50,60,0,0
9133,-68.9655172413793,4,2,50,65,0,0
9496,-62.5,4,2,50,70,0,0
9860,-76.9230769230769,4,2,50,75,0,0
10587,-76.9230769230769,4,2,50,80,0,0
10951,-76.9230769230769,4,2,50,85,0,0
12042,-76.9230769230769,4,2,50,50,0,0
12133,-76.9230769230769,4,2,50,55,0,0
12223,-76.9230769230769,4,2,50,60,0,0
12314,-76.9230769230769,4,2,50,65,0,0
12405,-76.9230769230769,4,2,50,70,0,0
12769,-62.5,4,2,51,90,0,0
13042,-62.5,4,2,52,90,0,0
13133,-62.5,4,2,51,90,0,0
13223,-62.5,4,2,53,90,0,0
13314,-62.5,4,2,51,90,0,0
13587,-62.5,4,2,52,90,0,0
13769,-62.5,4,2,53,90,0,0
13860,-62.5,4,2,54,90,0,0
14042,-62.5,4,2,55,90,0,0
14223,-62.5,4,2,56,90,0,0
14405,-62.5,4,2,57,90,0,0
14496,-62.5,4,2,58,90,0,0
14587,-62.5,4,2,59,90,0,0
14678,-62.5,4,2,60,90,0,0
14860,-62.5,4,2,61,90,0,0
14951,-62.5,4,2,62,90,0,0
15042,-62.5,4,2,63,90,0,0
15133,-62.5,4,2,61,90,0,0
15223,-62.5,4,2,63,90,0,0
15314,-76.9230769230769,4,2,64,90,0,0
15405,-76.9230769230769,4,2,65,90,0,0
15496,-76.9230769230769,4,2,66,90,0,0
15587,-76.9230769230769,4,2,67,90,0,0
15678,-62.5,4,2,68,90,0,0
15860,-62.5,4,2,69,90,0,0
16042,-62.5,4,2,51,90,0,0
16223,-62.5,4,2,70,90,0,0
16314,-62.5,4,2,71,90,0,0
16405,-62.5,4,2,50,90,0,0
16496,-62.5,4,2,72,90,0,0
16587,-62.5,4,2,73,90,0,0
16769,-62.5,4,2,54,90,0,0
16951,-62.5,4,2,55,90,0,0
17133,-62.5,4,2,74,90,0,0
17223,-62.5,4,2,75,90,0,0
17314,-62.5,4,2,76,90,0,0
17405,-62.5,4,2,77,90,0,0
17496,-62.5,4,2,75,90,0,0
17587,-62.5,4,2,60,90,0,0
17769,-62.5,4,2,78,90,0,0
17860,-62.5,4,2,79,90,0,0
17951,-62.5,4,2,78,90,0,0
18042,-62.5,4,2,77,90,0,0
18133,-62.5,4,2,78,90,0,0
18223,-62.5,4,2,76,90,0,0
18314,-62.5,4,2,77,90,0,0
18405,-62.5,4,2,80,90,0,0
18496,-62.5,4,2,81,90,0,0
18587,-62.5,4,2,51,90,0,0
18860,-62.5,4,2,52,90,0,0
18951,-62.5,4,2,51,90,0,0
19042,-62.5,4,2,53,90,0,0
19133,-62.5,4,2,51,90,0,0
19405,-62.5,4,2,52,90,0,0
19587,-62.5,4,2,53,90,0,0
19678,-62.5,4,2,54,90,0,0
19860,-62.5,4,2,55,90,0,0
20042,-62.5,4,2,56,90,0,0
20223,-62.5,4,2,57,90,0,0
20314,-62.5,4,2,58,90,0,0
20405,-62.5,4,2,59,90,0,0
20496,-62.5,4,2,60,90,0,0
20678,-62.5,4,2,61,90,0,0
20769,-62.5,4,2,62,90,0,0
20860,-62.5,4,2,63,90,0,0
20951,-62.5,4,2,61,90,0,0
21042,-62.5,4,2,63,90,0,0
21133,-76.9230769230769,4,2,64,90,0,0
21223,-76.9230769230769,4,2,65,90,0,0
21314,-76.9230769230769,4,2,66,90,0,0
21405,-76.9230769230769,4,2,67,90,0,0
21496,-62.5,4,2,68,90,0,0
21678,-62.5,4,2,69,90,0,0
21860,-62.5,4,2,51,90,0,0
22042,-62.5,4,2,70,90,0,0
22133,-62.5,4,2,71,90,0,0
22223,-62.5,4,2,50,90,0,0
22314,-62.5,4,2,72,90,0,0
22405,-62.5,4,2,73,90,0,0
22587,-62.5,4,2,54,90,0,0
22769,-62.5,4,2,55,90,0,0
22951,-62.5,4,2,74,90,0,0
23042,-62.5,4,2,75,90,0,0
23133,-62.5,4,2,76,90,0,0
23223,-62.5,4,2,75,90,0,0
23314,-62.5,4,2,77,90,0,0
23405,-62.5,4,2,75,90,0,0
23587,-62.5,4,2,82,90,0,0
23678,-62.5,4,2,50,90,0,0
23769,-62.5,4,2,83,90,0,0
23860,-54.054054054054,4,2,84,90,0,0
24042,-54.054054054054,4,2,52,90,0,0
24405,-86.9565217391304,4,2,50,80,0,0
24587,-86.9565217391304,4,2,50,60,0,0
29860,-86.9565217391304,4,2,50,65,0,0
30223,-86.9565217391304,4,2,50,70,0,0
30405,-86.9565217391304,4,2,50,60,0,0
33860,-86.9565217391304,4,2,50,65,0,0
34223,-86.9565217391304,4,2,50,70,0,0
34587,-86.9565217391304,4,2,85,70,0,0
34678,-86.9565217391304,4,2,53,70,0,0
35133,-68.9655172413793,4,2,85,70,0,0
35223,-68.9655172413793,4,2,53,70,0,0
35678,-68.9655172413793,4,2,85,75,0,0
36042,-86.9565217391304,4,2,50,75,0,0
36405,-86.9565217391304,4,2,85,70,0,0
41496,-86.9565217391304,4,2,86,70,0,0
41587,-86.9565217391304,4,2,53,70,0,0
42042,-86.9565217391304,4,2,85,70,0,0
46405,-86.9565217391304,4,2,55,70,0,0
46587,-86.9565217391304,4,2,56,70,0,0
46769,-86.9565217391304,4,2,57,70,0,0
46951,-86.9565217391304,4,2,50,70,0,0
47042,-86.9565217391304,4,2,58,70,0,0
47133,-86.9565217391304,4,2,51,70,0,0
47314,-86.9565217391304,4,2,87,75,0,0
47405,-86.9565217391304,4,2,85,70,0,0
47678,-86.9565217391304,4,2,50,75,0,0
48042,-86.9565217391304,4,2,85,65,0,0
53133,-86.9565217391304,4,2,86,65,0,0
53223,-86.9565217391304,4,2,53,65,0,0
53314,-86.9565217391304,4,2,88,65,0,0
53405,-86.9565217391304,4,2,53,65,0,0
53496,-86.9565217391304,4,2,85,65,0,0
56405,-86.9565217391304,4,2,85,60,0,0
56769,-86.9565217391304,4,2,85,65,0,0
57133,-86.9565217391304,4,2,85,70,0,0
57496,-86.9565217391304,4,2,85,75,0,0
57860,-86.9565217391304,4,2,85,80,0,0
58587,-86.9565217391304,4,2,85,75,0,0
59314,-86.9565217391304,4,2,85,85,0,0
59678,-86.9565217391304,4,2,85,45,0,0
60042,-86.9565217391304,4,2,85,50,0,0
60133,-86.9565217391304,4,2,85,55,0,0
60223,-86.9565217391304,4,2,85,60,0,0
60314,-86.9565217391304,4,2,85,65,0,0
60405,-86.9565217391304,4,2,50,80,0,0
60769,-62.5,4,2,50,90,0,1
61133,-62.5,4,2,85,90,0,1
63314,-76.9230769230769,4,2,85,90,0,1
63678,-62.5,4,2,85,90,0,1
64648,-62.5,4,2,53,90,0,1
64770,-62.5,4,2,85,90,0,1
65739,-62.5,4,2,53,90,0,1
65860,-76.9230769230769,4,2,85,90,0,1
66587,-62.5,4,2,50,90,0,1
66951,-62.5,4,2,85,90,0,1
69011,-62.5,4,2,53,90,0,1
69133,-62.5,4,2,85,90,0,1
71133,-62.5,4,2,89,90,0,1
71496,-76.9230769230769,4,2,89,90,0,1
71860,-100,4,2,89,90,0,1
72042,-100,4,2,90,90,0,1
72405,-62.5,4,2,50,90,0,1
72769,-62.5,4,2,85,90,0,1
74951,-76.9230769230769,4,2,85,90,0,1
75314,-62.5,4,2,85,90,0,1
75557,-62.5,4,2,53,90,0,1
75679,-62.5,4,2,85,90,0,1
77496,-76.9230769230769,4,2,85,90,0,1
78223,-62.5,4,2,50,90,0,1
78587,-62.5,4,2,85,90,0,1
80648,-62.5,4,2,53,90,0,1
80770,-62.5,4,2,85,90,0,1
82769,-62.5,4,2,89,90,0,1
83133,-76.9230769230769,4,2,89,90,0,1
83496,-100,4,2,90,90,0,1
84042,-62.5,4,2,51,90,0,0
84314,-62.5,4,2,52,90,0,0
84405,-62.5,4,2,51,90,0,0
84496,-62.5,4,2,53,90,0,0
84587,-62.5,4,2,51,90,0,0
84860,-62.5,4,2,52,90,0,0
85042,-62.5,4,2,53,90,0,0
85133,-62.5,4,2,54,90,0,0
85314,-62.5,4,2,55,90,0,0
85496,-62.5,4,2,56,90,0,0
85678,-62.5,4,2,57,90,0,0
85769,-62.5,4,2,58,90,0,0
85860,-62.5,4,2,59,90,0,0
85951,-62.5,4,2,60,90,0,0
86133,-62.5,4,2,61,90,0,0
86223,-62.5,4,2,62,90,0,0
86314,-62.5,4,2,63,90,0,0
86405,-62.5,4,2,61,90,0,0
86496,-62.5,4,2,63,90,0,0
86587,-76.9230769230769,4,2,64,90,0,0
86678,-76.9230769230769,4,2,65,90,0,0
86769,-76.9230769230769,4,2,66,90,0,0
86860,-76.9230769230769,4,2,67,90,0,0
86951,-62.5,4,2,68,90,0,0
87133,-62.5,4,2,69,90,0,0
87314,-62.5,4,2,51,90,0,0
87496,-62.5,4,2,70,90,0,0
87587,-62.5,4,2,71,90,0,0
87678,-62.5,4,2,50,90,0,0
87769,-62.5,4,2,72,90,0,0
87860,-62.5,4,2,73,90,0,0
88042,-62.5,4,2,54,90,0,0
88223,-62.5,4,2,55,90,0,0
88405,-62.5,4,2,74,90,0,0
88496,-62.5,4,2,75,90,0,0
88587,-62.5,4,2,76,90,0,0
88678,-62.5,4,2,77,90,0,0
88769,-62.5,4,2,75,90,0,0
88860,-62.5,4,2,60,90,0,0
89042,-62.5,4,2,78,90,0,0
89133,-62.5,4,2,79,90,0,0
89223,-62.5,4,2,78,90,0,0
89314,-62.5,4,2,77,90,0,0
89405,-62.5,4,2,78,90,0,0
89496,-62.5,4,2,76,90,0,0
89587,-62.5,4,2,77,90,0,0
89678,-62.5,4,2,80,90,0,0
89769,-62.5,4,2,81,90,0,0
89860,-62.5,4,2,51,90,0,0
90133,-62.5,4,2,52,90,0,0
90223,-62.5,4,2,51,90,0,0
90314,-62.5,4,2,53,90,0,0
90405,-62.5,4,2,51,90,0,0
90678,-62.5,4,2,52,90,0,0
90860,-62.5,4,2,53,90,0,0
90951,-62.5,4,2,54,90,0,0
91133,-62.5,4,2,55,90,0,0
91314,-62.5,4,2,56,90,0,0
91496,-62.5,4,2,57,90,0,0
91587,-62.5,4,2,58,90,0,0
91678,-62.5,4,2,59,90,0,0
91769,-62.5,4,2,60,90,0,0
91951,-62.5,4,2,61,90,0,0
92042,-62.5,4,2,62,90,0,0
92133,-62.5,4,2,63,90,0,0
92223,-62.5,4,2,61,90,0,0
92314,-62.5,4,2,63,90,0,0
92405,-76.9230769230769,4,2,64,90,0,0
92496,-76.9230769230769,4,2,65,90,0,0
92587,-76.9230769230769,4,2,66,90,0,0
92678,-76.9230769230769,4,2,67,90,0,0
92769,-62.5,4,2,68,90,0,0
92951,-62.5,4,2,69,90,0,0
93133,-62.5,4,2,51,90,0,0
93314,-62.5,4,2,70,90,0,0
93405,-62.5,4,2,71,90,0,0
93496,-62.5,4,2,50,90,0,0
93587,-62.5,4,2,72,90,0,0
93678,-62.5,4,2,73,90,0,0
93860,-62.5,4,2,54,90,0,0
94042,-62.5,4,2,55,90,0,0
94223,-62.5,4,2,74,90,0,0
94314,-62.5,4,2,75,90,0,0
94405,-62.5,4,2,76,90,0,0
94496,-62.5,4,2,75,90,0,0
94587,-62.5,4,2,77,90,0,0
94678,-62.5,4,2,75,90,0,0
94860,-62.5,4,2,82,90,0,0
94951,-62.5,4,2,50,90,0,0
95042,-62.5,4,2,83,90,0,0
95133,-52.6315789473684,4,2,84,90,0,0
95314,-52.6315789473684,4,2,52,90,0,0

[Colours]
Combo1 : 254,182,180
Combo2 : 251,179,240
Combo3 : 173,216,250
Combo4 : 255,206,157

[HitObjects]
130,325,1133,6,0,P|94:303|49:301,2,85,6|2|2,1:2|2:2|2:2,0:0:0:0:
207,362,1678,2,0,P|256:360|313:243,2,170,2|2|2,2:2|2:2|2:2,0:0:0:0:
30,70,2769,2,0,P|43:105|40:160,1,85,2|2,2:2|2:2,0:0:0:0:
0,227,3133,2,0,P|42:185|163:179,1,170,2|2,2:2|2:2,0:0:0:0:
147,172,3678,1,2,2:2:0:0:
147,172,3860,1,2,2:2:0:0:
256,208,4223,5,2,2:2:0:0:
256,208,4405,1,2,2:2:0:0:
256,208,4587,1,2,2:2:0:0:
364,243,4951,5,2,2:2:0:0:
364,243,5133,1,2,2:2:0:0:
364,243,5315,1,2,2:2:0:0:
290,284,5496,5,2,2:2:0:0:
448,225,5678,2,0,P|388:277|369:394,1,170,2|2,2:2|2:2,0:0:0:0:
466,140,6223,6,0,L|504:129,2,21.25,0|0|0,1:1|1:1|1:1,0:0:0:0:
477,51,6496,1,0,1:1:0:0:
456,244,6678,1,0,1:1:0:0:
448,225,6769,1,0,1:1:0:0:
252,82,6951,5,6,1:2:0:0:
387,101,7133,1,2,2:2:0:0:
252,82,7314,1,2,1:2:0:0:
387,101,7496,2,0,B|302:123|343:147|251:168,1,146.62500279665,2|0,2:2|0:0,0:0:0:0:
243,173,7860,2,0,P|301:209|331:248,1,97.7500018644333,2|0,2:2|1:1,0:0:0:0:
334,21,8223,1,2,2:2:0:0:
434,90,8405,6,0,L|354:108,1,48.8750009322167,0|0,1:1|0:0,0:0:0:0:
481,194,8587,2,0,L|401:176,1,48.8750009322167,2|0,1:2|0:0,0:0:0:0:
395,88,8769,6,0,L|315:106,1,55.2499974708558,2|0,1:2|0:0,0:0:0:0:
343,255,8951,2,0,L|263:237,1,55.2499974708558,2|0,1:2|0:0,0:0:0:0:
356,86,9133,6,0,L|276:104,1,61.6250018806458,0|0,1:1|0:0,0:0:0:0:
205,316,9314,2,0,L|125:298,1,61.6250018806458,2|0,1:2|0:0,0:0:0:0:
71,199,9496,6,0,L|-9:217,1,68,2|0,1:2|0:0,0:0:0:0:
66,210,9678,2,0,L|-14:228,1,68,2|0,1:2|0:0,0:0:0:0:
149,226,9860,6,0,L|159:166,3,55.2499974708558,2|0|0|0,1:2|1:1|1:1|1:1,0:0:0:0:
129,134,10223,2,0,L|139:74,3,55.2499974708558,0|0|0|0,1:1|1:1|1:1|1:1,0:0:0:0:
206,26,10587,5,2,1:2:0:0:
248,15,10677,1,2,1:2:0:0:
289,30,10768,1,2,1:2:0:0:
314,65,10859,1,2,1:2:0:0:
316,109,10951,2,0,P|299:153|281:169,1,55.2499974708558,2|2,1:2|1:2,0:0:0:0:
233,226,11133,2,0,P|226:253|235:304,1,55.2499974708558,2|2,1:2|1:2,0:0:0:0:
263,359,11314,1,2,1:2:0:0:
256,192,11405,12,8,12405,1:2:0:0:
465,42,12769,6,0,B|451:126|430:92|413:190,1,136,6|0,1:2|0:0,0:0:0:0:
419,74,13042,1,2,2:2:0:0:
424,83,13133,2,0,P|445:139|447:207,1,68,8|2,1:2|2:2,0:0:0:0:
386,259,13314,6,0,B|372:175|351:209|334:111,1,136,2|0,2:2|1:1,0:0:0:0:
340,227,13587,1,2,2:2:0:0:
345,218,13678,2,0,P|366:162|368:94,1,68,0|2,0:0|2:2,0:0:0:0:
344,51,13860,6,0,L|241:31,1,68,10|0,1:2|0:0,0:0:0:0:
190,189,14042,2,0,L|293:169,1,68,2|0,2:2|0:0,0:0:0:0:
367,154,14223,1,2,1:2:0:0:
268,258,14405,5,2,2:2:0:0:
315,262,14495,1,2,2:2:0:0:
359,278,14586,1,10,1:2:0:0:
397,307,14677,1,2,2:2:0:0:
487,234,14860,1,2,2:2:0:0:
476,238,14951,1,2,1:2:0:0:
308,348,15133,1,2,2:2:0:0:
308,348,15223,1,2,2:2:0:0:
308,348,15314,2,0,P|273:344|235:350,1,55.2499974708558,10|2,1:2|2:2,0:0:0:0:
250,252,15496,2,0,P|217:266|187:290,1,55.2499974708558,2|2,2:2|2:2,0:0:0:0:
151,353,15678,6,0,P|84:363|25:265,1,136,2|2,1:2|2:2,0:0:0:0:
129,216,15951,1,0,0:0:0:0:
129,216,16042,2,0,P|109:279|111:324,1,68,10|0,1:2|0:0,0:0:0:0:
45,156,16223,1,2,2:2:0:0:
53,165,16314,2,0,P|125:170|131:84,1,136,2|2,2:2|2:2,0:0:0:0:
76,70,16587,6,0,P|50:51|7:48,2,68,2|2|10,2:2|2:2|1:2,0:0:0:0:
282,25,16951,1,2,2:2:0:0:
240,159,17133,5,2,1:2:0:0:
240,159,17223,2,0,P|230:113|232:75,2,68,2|2|2,2:2|2:2|2:2,0:0:0:0:
297,216,17496,2,0,P|287:263|268:298,1,68,10|2,1:2|2:2,0:0:0:0:
212,17,17769,2,0,L|179:218,1,204,2|2,2:2|2:2,0:0:0:0:
205,308,18133,1,2,2:2:0:0:
214,301,18223,6,0,P|262:282|322:285,1,68,10|2,1:2|2:2,0:0:0:0:
334,213,18405,2,0,P|286:194|226:197,1,68,2|2,1:2|2:2,0:0:0:0:
120,292,18587,6,0,B|78:349|14:337|14:337|25:304,1,136,6|0,1:2|0:0,0:0:0:0:
86,290,18860,1,2,2:2:0:0:
80,299,18951,2,0,P|57:341|49:377,1,68,8|2,1:2|2:2,0:0:0:0:
1,220,19133,6,0,B|43:163|107:175|107:175|96:208,1,136,2|0,2:2|1:1,0:0:0:0:
35,222,19406,1,2,2:2:0:0:
41,213,19497,2,0,P|63:170|71:134,1,68,0|2,0:0|2:2,0:0:0:0:
15,49,19678,6,0,L|129:70,1,68,10|0,1:2|0:0,0:0:0:0:
176,222,19860,2,0,L|290:201,1,68,2|0,2:2|0:0,0:0:0:0:
286,122,20042,1,2,1:2:0:0:
167,82,20223,5,2,2:2:0:0:
213,87,20313,1,2,2:2:0:0:
259,75,20404,1,10,1:2:0:0:
297,47,20495,1,2,2:2:0:0:
221,183,20678,1,2,2:2:0:0:
208,179,20769,1,2,1:2:0:0:
346,156,20951,1,2,2:2:0:0:
346,156,21042,1,2,2:2:0:0:
346,156,21133,2,0,P|332:205|334:242,1,55.2499974708558,10|2,1:2|2:2,0:0:0:0:
264,268,21314,2,0,P|276:317|295:350,1,55.2499974708558,2|2,2:2|2:2,0:0:0:0:
341,384,21496,6,0,P|388:337|380:256,1,136,2|2,1:2|2:2,0:0:0:0:
484,332,21769,1,0,0:0:0:0:
484,332,21860,2,0,P|457:336|410:363,1,68,10|0,1:2|0:0,0:0:0:0:
418,164,22042,1,2,2:2:0:0:
429,158,22133,2,0,P|486:182|454:260,1,136,2|2,2:2|2:2,0:0:0:0:
387,270,22405,6,0,P|353:265|323:249,2,68,2|2|10,2:2|2:2|1:2,0:0:0:0:
508,81,22769,1,2,2:2:0:0:
321,21,22951,5,2,1:2:0:0:
321,21,23042,2,0,P|304:71|307:104,2,68,2|2|2,2:2|2:2|2:2,0:0:0:0:
230,127,23314,2,0,P|183:114|147:117,1,68,10|2,1:2|2:2,0:0:0:0:
302,175,23496,1,0,0:0:0:0:
312,171,23587,1,2,2:2:0:0:
102,50,23769,5,2,2:2:0:0:
91,46,23860,2,0,B|41:46|9:108|9:108|105:163|154:73|156:72|158:71|211:8|316:65,1,393.124998500347,2|8,1:2|2:2,0:0:0:0:
352,79,24405,6,0,P|408:77|466:28,1,97.7500018644333,4|2,1:2|2:2,0:0:0:0:
230,146,24769,2,0,P|187:123|138:123,1,97.7500018644333,2|2,1:2|2:2,0:0:0:0:
407,166,25133,1,2,1:2:0:0:
260,235,25314,1,2,2:2:0:0:
318,160,25496,1,2,1:2:0:0:
318,160,25678,1,2,2:2:0:0:
339,334,25860,6,0,P|404:344|451:227,1,195.500003728867,2|2,1:2|1:2,0:0:0:0:
269,282,26405,2,0,B|166:304|211:347|90:367,1,195.500003728867,2|2,2:2|2:2,0:0:0:0:
64,272,26951,2,0,P|131:273|176:300,1,97.7500018644333,0|0,1:1|0:0,0:0:0:0:
157,285,27223,1,0,0:0:0:0:
157,285,27314,1,0,1:1:0:0:
267,381,27496,5,2,2:2:0:0:
298,186,27678,2,0,P|212:202|180:237,1,97.7500018644333,2|2,1:2|2:2,0:0:0:0:
18,25,28042,1,2,1:2:0:0:
197,117,28223,1,2,2:2:0:0:
97,142,28405,2,0,P|101:84|132:34,1,97.7500018644333,2|2,1:2|2:2,0:0:0:0:
360,55,28769,6,0,P|371:129|286:88,1,195.500003728867,2|2,1:2|1:2,0:0:0:0:
240,21,29314,2,0,L|264:257,1,195.500003728867,2|2,2:2|2:2,0:0:0:0:
275,319,29860,1,0,1:1:0:0:
458,160,30042,5,0,1:1:0:0:
458,160,30133,1,0,1:0:0:0:
458,160,30223,1,0,1:1:0:0:
347,259,30405,2,0,P|405:271|459:312,2,97.7500018644333,2|2|2,2:2|1:2|2:2,0:0:0:0:
182,277,30951,2,0,P|159:327|158:382,1,97.7500018644333,2|2,1:2|2:2,0:0:0:0:
324,170,31314,2,0,P|364:129|384:83,1,97.7500018644333,2|2,1:2|2:2,0:0:0:0:
161,161,31678,6,0,B|264:194|217:229|332:263,1,195.500003728867,2|2,1:2|1:2,0:0:0:0:
151,258,32223,2,0,P|79:262|65:389,1,195.500003728867,2|2,2:2|2:2,0:0:0:0:
214,323,32769,2,0,P|240:282|233:206,1,97.7500018644333,0|0,1:1|0:0,0:0:0:0:
243,234,33042,1,0,0:0:0:0:
243,234,33133,1,0,1:1:0:0:
322,37,33314,5,2,2:2:0:0:
361,180,33496,1,2,1:2:0:0:
322,37,33678,1,2,2:2:0:0:
495,96,33860,2,0,P|427:104|373:86,1,97.7500018644333,2|2,1:2|2:2,0:0:0:0:
142,156,34223,1,2,1:2:0:0:
231,16,34405,1,2,2:2:0:0:
310,196,34587,6,0,L|180:219,1,97.7500018644333,10|8,2:2|1:2,0:0:0:0:
89,233,34860,1,8,1:2:0:0:
89,233,34951,1,8,1:2:0:0:
405,279,35133,6,0,L|275:256,1,123.250003761292,10|8,1:2|1:2,0:0:0:0:
133,311,35405,1,8,1:2:0:0:
133,311,35496,2,0,L|41:327,1,61.6250018806458,8|8,1:2|1:2,0:0:0:0:
327,313,35678,5,10,1:2:0:0:
302,317,35768,1,8,1:2:0:0:
278,321,35859,1,8,1:2:0:0:
254,325,35950,1,8,1:2:0:0:
230,330,36041,1,4,1:2:0:0:
169,384,36223,5,2,2:2:0:0:
260,240,36405,2,0,P|255:192|232:150,1,97.7500018644333,10|2,1:2|2:2,0:0:0:0:
16,115,36769,1,2,1:2:0:0:
232,150,36951,1,2,2:2:0:0:
76,237,37133,2,0,P|124:238|170:221,1,97.7500018644333,10|2,1:2|2:2,0:0:0:0:
11,28,37496,6,0,P|67:11|147:116,1,195.500003728867,2|10,1:2|1:2,0:0:0:0:
82,277,38042,2,0,B|58:286|47:301|47:301|22:213|104:143,1,195.500003728867,2|2,2:2|2:2,0:0:0:0:
312,29,38587,2,0,P|274:65|216:54,1,97.7500018644333,8|0,1:2|0:0,0:0:0:0:
231,63,38860,1,0,0:0:0:0:
231,63,38951,1,0,1:1:0:0:
157,227,39133,6,0,P|188:189|230:164,2,97.7500018644333,2|10|2,2:2|1:2|2:2,0:0:0:0:
402,105,39678,2,0,P|404:65|385:-9,1,97.7500018644333,2|2,1:2|2:2,0:0:0:0:
335,177,40042,1,10,1:2:0:0:
335,177,40223,1,2,2:2:0:0:
508,186,40405,6,0,B|405:206|448:247|334:269,1,195.500003728867,2|10,1:2|1:2,0:0:0:0:
90,344,40951,2,0,B|73:301|73:301|177:342,1,146.62500279665,2|0,2:2|0:0,0:0:0:0:
181,343,41314,1,2,2:2:0:0:
421,297,41496,1,10,1:2:0:0:
241,275,41678,5,8,1:2:0:0:
241,275,41769,1,8,2:2:0:0:
241,275,41860,2,0,P|272:337|267:387,1,97.7500018644333,0|2,1:1|2:2,0:0:0:0:
152,202,42223,2,0,P|157:153|184:113,1,97.7500018644333,10|2,1:2|2:2,0:0:0:0:
416,22,42587,1,2,1:2:0:0:
475,166,42769,1,2,2:2:0:0:
334,227,42951,1,10,1:2:0:0:
334,227,43133,1,2,2:2:0:0:
497,64,43314,6,0,P|426:50|404:170,1,195.500003728867,2|10,1:2|1:2,0:0:0:0:
334,227,43860,2,0,L|363:10,1,195.500003728867,2|2,2:2|2:2,0:0:0:0:
164,162,44405,1,8,1:2:0:0:
323,312,44587,5,2,2:2:0:0:
246,121,44769,2,0,B|269:204|219:186|255:290,1,146.62500279665,2|0,1:2|0:0,0:0:0:0:
235,276,45133,2,0,P|225:242|233:179,1,97.7500018644333,10|0,1:2|0:0,0:0:0:0:
0,21,45496,1,2,1:2:0:0:
190,44,45678,1,2,2:2:0:0:
74,197,45860,1,10,1:2:0:0:
86,95,46042,6,0,P|167:162|147:265,1,195.500003728867,2|8,2:2|2:2,0:0:0:0:
161,244,46496,1,0,0:0:0:0:
161,244,46587,1,8,1:2:0:0:
59,302,46769,1,8,2:2:0:0:
48,303,46860,2,0,L|-16:312,1,48.8750009322167,0|0,0:0|1:1,0:0:0:0:
154,342,47042,1,8,2:2:0:0:
141,343,47133,1,8,2:2:0:0:
341,267,47314,5,10,2:2:0:0:
366,271,47404,1,8,2:2:0:0:
390,275,47495,1,10,2:2:0:0:
414,279,47586,1,8,2:2:0:0:
440,283,47678,2,0,P|357:261|331:370,1,195.500003728867,6|10,1:2|1:2,0:0:0:0:
484,366,48223,2,0,L|467:168,1,195.500003728867,2|2,2:2|2:2,0:0:0:0:
499,42,48769,6,0,P|454:82|392:77,1,97.7500018644333,8|2,1:2|2:2,0:0:0:0:
312,60,49133,2,0,B|420:96|355:140|477:174,1,195.500003728867,2|10,1:2|1:2,0:0:0:0:
300,149,49678,2,0,P|232:145|241:27,1,195.500003728867,2|2,2:2|2:2,0:0:0:0:
312,60,50223,5,10,1:2:0:0:
312,60,50405,1,2,2:2:0:0:
165,104,50587,2,0,B|57:140|122:184|0:218,1,195.500003728867,2|10,1:2|1:2,0:0:0:0:
152,232,51133,2,0,P|198:221|217:178,1,97.7500018644333,2|0,2:2|1:1,0:0:0:0:
97,34,51496,2,0,P|51:17|3:17,1,97.7500018644333,2|8,2:2|1:2,0:0:0:0:
63,133,51860,5,2,2:2:0:0:
63,133,52042,2,0,P|106:195|107:344,2,195.500003728867,0|10|2,1:1|1:2|1:2,0:0:0:0:
28,313,53133,1,10,1:2:0:0:
28,313,53223,1,8,2:2:0:0:
28,313,53314,2,0,L|14:389,1,48.8750009322167,10|8,1:2|2:2,0:0:0:0:
85,229,53496,6,0,L|313:214,1,195.500003728867,2|10,1:2|1:2,0:0:0:0:
423,384,54042,2,0,P|434:362|430:278,1,97.7500018644333,2|0,2:2|1:1,0:0:0:0:
250,309,54405,2,0,L|368:330,1,97.7500018644333,2|8,2:2|1:2,0:0:0:0:
479,68,54769,5,2,2:2:0:0:
479,68,54951,2,0,P|387:43|322:140,1,195.500003728867,0|10,1:1|1:2,0:0:0:0:
381,185,55496,2,0,L|496:202,1,97.7500018644333,2|0,2:2|1:1,0:0:0:0:
250,47,55860,2,0,P|229:119|239:168,1,97.7500018644333,2|8,2:2|1:2,0:0:0:0:
316,360,56223,5,2,2:2:0:0:
316,360,56405,1,8,1:2:0:0:
289,226,56587,1,0,1:1:0:0:
48,316,56769,1,10,1:2:0:0:
75,182,56951,1,2,1:2:0:0:
225,294,57133,5,8,1:2:0:0:
203,186,57315,1,0,1:1:0:0:
36,323,57496,1,8,1:2:0:0:
57,215,57678,1,2,1:2:0:0:
233,103,57860,5,8,1:2:0:0:
217,72,57950,1,8,1:2:0:0:
195,46,58041,1,8,1:2:0:0:
167,26,58132,1,8,1:2:0:0:
136,13,58223,1,10,1:2:0:0:
102,9,58314,1,8,1:2:0:0:
68,12,58405,1,10,1:2:0:0:
36,23,58496,1,8,1:2:0:0:
55,73,58587,6,0,L|11:83,1,24.4375004661083,8|8,1:2|2:2,0:0:0:0:
51,89,58678,6,0,L|17:119,1,24.4375004661083,8|8,1:2|2:2,0:0:0:0:
55,104,58769,6,0,L|41:147,1,24.4375004661083,8|8,1:2|2:2,0:0:0:0:
66,115,58860,6,0,L|76:159,1,24.4375004661083,8|8,1:2|2:2,0:0:0:0:
82,119,58951,6,0,L|112:152,1,24.4375004661083,8|8,1:2|2:2,0:0:0:0:
134,138,59042,6,0,L|120:181,1,24.4375004661083,8|8,1:2|2:2,0:0:0:0:
143,192,59133,6,0,L|99:202,1,24.4375004661083,8|8,1:2|2:2,0:0:0:0:
100,227,59223,6,0,L|69:193,1,24.4375004661083,8|8,1:2|2:2,0:0:0:0:
76,300,59314,5,0,1:1:0:0:
76,300,60042,2,0,L|116:308,6,24.4375004661083,2|0|0|0|0|0|0,1:2|0:0|1:1|0:0|1:1|0:0|1:1,0:0:0:0:
0,198,60405,5,10,1:2:0:0:
0,198,60769,2,0,P|88:198|128:252,1,136,6|2,1:2|2:2,0:0:0:0:
210,211,61042,1,0,0:0:0:0:
212,223,61133,2,0,P|203:267|184:297,1,68,10|0,1:2|0:0,0:0:0:0:
258,347,61314,2,0,P|325:304|409:315,1,136,2|0,2:2|1:1,0:0:0:0:
453,356,61587,1,0,0:0:0:0:
443,367,61677,1,2,2:2:0:0:
264,232,61859,5,8,1:2:0:0:
507,219,62042,1,2,2:2:0:0:
500,226,62133,1,0,0:0:0:0:
494,234,62223,2,0,P|419:221|390:168,1,136,0|2,1:1|2:2,0:0:0:0:
309,150,62496,1,0,0:0:0:0:
314,140,62587,2,0,P|335:111|392:94,1,68,10|0,1:2|0:0,0:0:0:0:
501,4,62769,5,2,2:2:0:0:
506,14,62860,2,0,P|514:58|505:103,1,68,0|0,0:0|1:1,0:0:0:0:
402,209,63042,1,0,0:0:0:0:
363,208,63132,1,2,2:2:0:0:
327,223,63223,1,0,0:0:0:0:
300,251,63314,2,0,P|275:292|269:332,1,55.2499974708558,10|0,1:2|0:0,0:0:0:0:
224,130,63496,2,0,P|222:178|236:215,1,55.2499974708558,2|0,2:2|0:0,0:0:0:0:
178,313,63678,6,0,B|94:327|128:348|30:365,1,136,0|2,1:1|2:2,0:0:0:0:
146,359,63951,1,0,0:0:0:0:
136,354,64042,2,0,P|80:333|12:331,1,68,10|0,1:2|0:0,0:0:0:0:
40,249,64223,2,0,P|54:218|62:175,1,68,2|0,2:2|0:0,0:0:0:0:
238,118,64405,2,0,P|232:214|137:205,1,204,0|0,1:1|0:0,0:0:0:0:
141,199,64769,6,0,L|241:217,1,68,10|0,1:2|0:0,0:0:0:0:
20,102,64951,2,0,L|121:93,1,68,2|0,2:2|0:0,0:0:0:0:
152,19,65133,5,2,1:2:0:0:
264,92,65314,2,0,L|18:46,1,204,2|0,2:2|0:0,0:0:0:0:
0,148,65678,2,0,L|101:139,1,68,2|0,2:2|0:0,0:0:0:0:
142,208,65860,6,0,P|155:243|154:290,1,55.2499974708558,0|0,1:1|0:0,0:0:0:0:
262,178,66042,1,2,2:2:0:0:
262,178,66133,1,0,0:0:0:0:
262,178,66223,2,0,P|255:214|231:255,1,55.2499974708558,8|0,1:2|0:0,0:0:0:0:
380,212,66405,2,0,P|356:240|314:263,1,55.2499974708558,0|0,1:1|0:0,0:0:0:0:
310,331,66587,6,0,P|360:350|414:267,1,136,6|2,1:2|2:2,0:0:0:0:
503,322,66860,1,0,0:0:0:0:
503,309,66951,2,0,P|502:282|478:233,1,68,10|0,1:2|0:0,0:0:0:0:
512,52,67133,2,0,P|459:116|455:190,1,136,2|0,2:2|1:1,0:0:0:0:
380,212,67405,1,0,0:0:0:0:
368,206,67496,1,2,2:2:0:0:
437,0,67678,5,8,1:2:0:0:
280,174,67860,1,2,2:2:0:0:
276,183,67951,1,0,0:0:0:0:
271,191,68042,2,0,P|182:218|103:177,1,136,0|2,1:1|2:2,0:0:0:0:
128,89,68314,1,0,0:0:0:0:
139,90,68405,2,0,P|165:97|208:134,1,68,10|0,1:2|0:0,0:0:0:0:
270,74,68587,1,2,2:2:0:0:
266,66,68678,2,0,P|266:31|287:-18,2,68,0|0|0,0:0|1:1|0:0,0:0:0:0:
369,59,68951,5,2,2:2:0:0:
369,59,69042,1,2,0:0:0:0:
369,59,69133,1,10,1:2:0:0:
194,253,69314,1,2,2:2:0:0:
95,20,69496,6,0,B|38:62|50:126|50:126|83:115,1,136,0|0,1:1|0:0,0:0:0:0:
38,36,69769,1,2,0:0:0:0:
44,45,69860,2,0,P|67:87|75:123,1,68,10|0,1:2|0:0,0:0:0:0:
25,229,70042,2,0,P|72:159|207:137,1,204,2|0,2:2|0:0,0:0:0:0:
263,110,70405,2,0,P|265:145|243:195,1,68,2|0,2:2|0:0,0:0:0:0:
25,229,70587,5,8,1:2:0:0:
152,380,70769,2,0,L|236:362,1,68,2|0,2:2|0:0,0:0:0:0:
87,308,70951,5,0,1:1:0:0:
87,308,71042,1,0,0:0:0:0:
87,308,71133,2,0,P|53:341|39:384,1,68,2|0,2:2|0:0,0:0:0:0:
116,225,71314,2,0,P|104:179|74:145,1,68,10|0,1:2|0:0,0:0:0:0:
239,310,71496,6,0,P|193:321|159:351,1,55.2499974708558,2|0,2:2|1:1,0:0:0:0:
132,150,71678,2,0,P|132:102|112:62,1,55.2499974708558,2|0,1:2|0:0,0:0:0:0:
312,351,71860,6,0,P|273:340|236:347,1,42.5,2|0,1:2|1:1,0:0:0:0:
152,95,72042,2,0,P|157:74|153:55,7,21.25,10|8|8|8|10|8|8|8,1:2|2:2|2:2|2:2|2:2|2:2|2:2|2:2,0:0:0:0:
219,16,72405,6,0,P|300:25|348:96,1,136,6|2,1:2|2:2,0:0:0:0:
421,32,72678,1,0,0:0:0:0:
421,45,72769,2,0,P|416:89|399:118,1,68,10|0,1:2|0:0,0:0:0:0:
496,169,72951,2,0,P|414:162|350:202,1,136,2|0,2:2|1:1,0:0:0:0:
288,144,73223,1,0,0:0:0:0:
285,132,73314,1,2,2:2:0:0:
512,256,73496,5,8,1:2:0:0:
340,357,73678,1,2,2:2:0:0:
334,364,73769,1,0,0:0:0:0:
327,370,73860,2,0,P|245:354|220:298,1,136,0|2,1:1|2:2,0:0:0:0:
349,276,74133,1,0,0:0:0:0:
359,268,74223,2,0,P|406:258|468:276,1,68,10|0,1:2|0:0,0:0:0:0:
158,238,74405,5,2,2:2:0:0:
150,248,74496,2,0,P|125:297|125:337,1,68,0|0,0:0|1:1,0:0:0:0:
100,136,74678,1,0,0:0:0:0:
101,97,74769,1,2,2:2:0:0:
86,61,74860,1,0,0:0:0:0:
57,34,74951,2,0,P|16:9|-23:3,1,55.2499974708558,10|0,1:2|0:0,0:0:0:0:
10,173,75133,2,0,P|11:124|-3:87,1,55.2499974708558,2|0,2:2|0:0,0:0:0:0:
172,22,75314,6,0,B|256:36|222:57|320:74,1,136,0|2,1:1|2:2,0:0:0:0:
204,68,75587,1,0,0:0:0:0:
214,63,75678,2,0,P|270:42|338:40,1,68,10|0,1:2|0:0,0:0:0:0:
383,85,75860,2,0,P|404:141|406:209,1,68,2|0,2:2|0:0,0:0:0:0:
285,357,76042,2,0,L|319:132,1,204,0|0,1:1|0:0,0:0:0:0:
319,141,76405,6,0,L|328:263,1,68,10|0,1:2|0:0,0:0:0:0:
390,281,76587,2,0,L|399:403,1,68,2|0,2:2|0:0,0:0:0:0:
319,141,76769,5,2,1:2:0:0:
498,324,76951,1,2,2:2:0:0:
498,324,77042,1,0,0:0:0:0:
498,324,77133,2,0,P|496:243|442:216,1,136,8|2,1:2|2:2,0:0:0:0:
299,304,77496,6,0,P|286:339|287:386,1,55.2499974708558,0|0,1:1|0:0,0:0:0:0:
179,274,77678,1,2,2:2:0:0:
179,274,77769,1,0,0:0:0:0:
179,274,77860,2,0,P|186:310|210:351,1,55.2499974708558,10|0,1:2|0:0,0:0:0:0:
61,308,78042,2,0,P|85:336|127:359,1,55.2499974708558,0|0,1:1|0:0,0:0:0:0:
191,179,78223,6,0,P|200:132|127:44,1,136,6|2,1:2|2:2,0:0:0:0:
10,28,78496,1,0,0:0:0:0:
22,31,78587,2,0,P|61:51|88:88,1,68,10|0,1:2|0:0,0:0:0:0:
20,243,78769,2,0,P|59:169|119:157,1,136,2|0,2:2|1:1,0:0:0:0:
191,179,79042,1,0,0:0:0:0:
195,193,79133,1,2,2:2:0:0:
119,244,79314,5,8,1:2:0:0:
342,144,79496,1,2,2:2:0:0:
349,140,79587,1,0,0:0:0:0:
356,136,79678,2,0,P|428:148|488:196,1,136,0|2,1:1|2:2,0:0:0:0:
461,340,79951,1,0,0:0:0:0:
456,330,80042,2,0,P|449:300|449:250,1,68,10|0,1:2|0:0,0:0:0:0:
352,224,80223,1,2,2:2:0:0:
345,234,80314,2,0,P|322:255|279:280,2,68,0|0|0,0:0|1:1|0:0,0:0:0:0:
373,332,80587,5,2,2:2:0:0:
373,332,80678,1,0,0:0:0:0:
373,332,80769,1,10,1:2:0:0:
202,232,80951,1,2,2:2:0:0:
486,53,81133,6,0,B|421:24|371:67|371:67|397:90,1,136,0|0,1:1|0:0,0:0:0:0:
443,11,81406,1,0,0:0:0:0:
438,21,81497,2,0,P|413:61|385:86,1,68,10|0,1:2|0:0,0:0:0:0:
178,50,81678,2,0,P|269:75|316:228,1,204,2|0,2:2|0:0,0:0:0:0:
405,189,82042,2,0,P|379:231|351:246,1,68,2|0,2:2|0:0,0:0:0:0:
265,22,82223,5,8,1:2:0:0:
499,95,82405,2,0,L|404:122,1,68,2|0,2:2|0:0,0:0:0:0:
279,248,82587,5,0,1:1:0:0:
279,248,82678,1,0,0:0:0:0:
279,248,82769,2,0,P|282:298|315:352,1,68,2|0,2:2|0:0,0:0:0:0:
209,170,82951,2,0,P|164:147|100:149,1,68,10|0,1:2|0:0,0:0:0:0:
207,342,83133,6,0,P|228:374|270:397,1,55.2499974708558,2|0,2:2|1:1,0:0:0:0:
141,99,83314,2,0,P|101:90|51:105,1,55.2499974708558,2|0,1:2|0:0,0:0:0:0:
50,298,83496,5,2,1:2:0:0:
44,306,83587,1,0,1:1:0:0:
38,314,83678,2,0,L|2:326,7,21.25,10|8|8|8|10|8|8|8,1:2|2:2|2:2|2:2|2:2|2:2|2:2|2:2,0:0:0:0:
77,384,84042,6,0,B|91:300|112:334|129:236,1,136,6|0,1:2|0:0,0:0:0:0:
117,359,84315,1,2,2:2:0:0:
112,350,84406,2,0,P|91:294|89:226,1,68,8|2,1:2|2:2,0:0:0:0:
73,97,84587,6,0,B|59:181|38:147|21:245,1,136,2|0,2:2|1:1,0:0:0:0:
33,122,84860,1,2,2:2:0:0:
38,131,84951,2,0,P|59:187|61:255,1,68,0|2,0:0|2:2,0:0:0:0:
172,265,85133,6,0,L|255:278,1,68,10|0,1:2|0:0,0:0:0:0:
226,87,85314,2,0,L|158:97,1,68,2|0,2:2|0:0,0:0:0:0:
334,176,85496,1,2,1:2:0:0:
507,29,85678,5,2,2:2:0:0:
459,25,85768,1,2,2:2:0:0:
415,41,85859,1,10,1:2:0:0:
379,72,85950,1,2,2:2:0:0:
188,9,86133,1,2,2:2:0:0:
177,5,86224,1,2,1:2:0:0:
312,127,86405,1,2,2:2:0:0:
312,127,86496,1,2,2:2:0:0:
312,127,86587,2,0,P|334:174|338:206,1,55.2499974708558,10|2,1:2|2:2,0:0:0:0:
237,189,86769,2,0,P|232:240|220:270,1,55.2499974708558,2|2,2:2|2:2,0:0:0:0:
310,273,86951,6,0,P|214:300|197:381,1,136,2|2,1:2|2:2,0:0:0:0:
148,215,87223,1,0,0:0:0:0:
148,215,87314,2,0,P|111:270|79:288,1,68,10|0,1:2|0:0,0:0:0:0:
124,384,87496,1,2,2:2:0:0:
113,380,87587,2,0,B|40:356|84:322|-54:294,1,136,2|2,2:2|2:2,0:0:0:0:
30,222,87860,6,0,P|30:186|6:138,2,68,2|2|10,2:2|2:2|1:2,0:0:0:0:
222,376,88223,1,2,2:2:0:0:
170,238,88405,5,2,1:2:0:0:
170,238,88496,2,0,P|118:264|80:298,2,68,2|2|2,2:2|2:2|2:2,0:0:0:0:
256,279,88769,2,0,P|309:285|340:278,1,68,10|2,1:2|2:2,0:0:0:0:
67,198,89042,2,0,L|287:188,1,204,2|2,2:2|2:2,0:0:0:0:
356,103,89405,1,2,2:2:0:0:
361,93,89496,6,0,P|373:56|374:10,1,68,10|2,1:2|2:2,0:0:0:0:
427,253,89678,2,0,P|439:289|440:335,1,68,2|2,1:2|2:2,0:0:0:0:
498,114,89860,6,0,B|427:113|398:171|398:171|431:182,1,136,6|0,1:2|0:0,0:0:0:0:
462,83,90133,1,2,2:2:0:0:
461,94,90224,2,0,P|454:141|438:174,1,68,8|2,1:2|2:2,0:0:0:0:
241,93,90405,6,0,B|311:93|340:35|340:35|307:24,1,136,2|0,2:2|1:1,0:0:0:0:
277,124,90678,1,2,2:2:0:0:
278,113,90769,2,0,P|284:65|300:32,1,68,0|2,0:0|2:2,0:0:0:0:
142,6,90951,6,0,L|151:109,1,68,10|0,1:2|0:0,0:0:0:0:
356,143,91133,2,0,L|347:246,1,68,2|0,2:2|0:0,0:0:0:0:
160,277,91314,1,2,1:2:0:0:
19,144,91496,5,2,2:2:0:0:
67,140,91586,1,2,2:2:0:0:
111,156,91677,1,10,1:2:0:0:
147,187,91768,1,2,2:2:0:0:
278,338,91951,1,2,2:2:0:0:
288,342,92042,1,2,1:2:0:0:
108,289,92223,1,2,2:2:0:0:
108,289,92314,1,2,2:2:0:0:
108,289,92405,2,0,P|149:284|183:258,1,55.2499974708558,10|2,1:2|2:2,0:0:0:0:
253,255,92587,2,0,P|269:216|263:174,1,55.2499974708558,2|2,2:2|2:2,0:0:0:0:
265,78,92769,6,0,P|214:81|155:172,1,136,2|2,1:2|2:2,0:0:0:0:
105,42,93042,1,0,0:0:0:0:
105,42,93133,2,0,P|150:55|188:52,1,68,10|0,1:2|0:0,0:0:0:0:
277,175,93314,1,2,2:2:0:0:
288,171,93405,2,0,B|361:147|317:113|455:85,1,136,2|2,2:2|2:2,0:0:0:0:
453,23,93678,6,0,P|487:34|516:58,2,68,2|2|10,2:2|2:2|1:2,0:0:0:0:
265,78,94042,1,2,2:2:0:0:
431,230,94223,5,2,1:2:0:0:
431,230,94314,2,0,P|461:216|512:211,2,68,2|2|2,2:2|2:2|2:2,0:0:0:0:
384,295,94587,2,0,P|371:326|368:360,1,68,10|2,1:2|2:2,0:0:0:0:
491,296,94769,1,0,0:0:0:0:
501,301,94860,1,2,2:2:0:0:
271,313,95042,5,2,2:2:0:0:
262,305,95133,2,0,B|198:273|142:276|150:370|86:386|19:364|-14:312|8:235|71:209|143:228|170:266|146:377|178:375|245:360,1,484.499987062455,2|4,1:2|1:2,0:0:0:0:
