osu file format v14

[General]
AudioFilename: audio.ogg
AudioLeadIn: 0
PreviewTime: 47628
Countdown: 0
SampleSet: Soft
StackLeniency: 0.4
Mode: 0
LetterboxInBreaks: 0
WidescreenStoryboard: 0

[Editor]
DistanceSpacing: 0.5
BeatDivisor: 3
GridSize: 8
TimelineZoom: 1.8

[Metadata]
Title:Lavie
TitleUnicode:ラヴィ
Artist:Tsukino
ArtistUnicode:月乃
Creator:gazimal
Version:Dependence
Source:
Tags:japanese pop electronic すりぃ Clammbon pnky eringiRa ponbot FreezingAnimenz surii 鏡音レン kagamine len jpop j-pop cover
BeatmapID:4446601
BeatmapSetID:2117313

[Difficulty]
HPDrainRate:5
CircleSize:4
OverallDifficulty:9
ApproachRate:9.4
SliderMultiplier:1.8
SliderTickRate:1

[Events]
//Background and Video events
0,0,"FzjEx0UaUAAyhou (1)_waifu2x_art_noise3_scale.jpg",0,0
//Break Periods
//Storyboard Layer 0 (Background)
//Storyboard Layer 1 (Fail)
//Storyboard Layer 2 (Pass)
//Storyboard Layer 3 (Foreground)
//Storyboard Layer 4 (Overlay)
//Storyboard Sound Samples

[TimingPoints]
-808,327.868852459016,4,2,0,100,1,0
502,-666.666666666667,4,2,1,45,0,0
2798,-333.333333333333,4,2,1,60,0,0
3126,-333.333333333333,4,2,1,70,0,0
4437,-100,4,2,1,70,0,0
5421,-200,4,2,1,50,0,0
5667,-200,4,2,1,5,0,0
5749,-133.333333333333,4,2,1,65,0,0
9847,-100,4,2,2,65,0,0
10011,-100,4,2,3,65,0,0
10093,-100,4,2,2,65,0,0
10175,-100,4,2,1,65,0,0
10339,-80,4,2,1,65,0,0
10503,-66.6666666666667,4,2,2,65,0,0
10667,-66.6666666666667,4,2,3,65,0,0
10749,-66.6666666666667,4,2,2,65,0,0
10831,-66.6666666666667,4,2,1,65,0,0
10995,-133.333333333333,4,2,1,65,0,0
15093,-100,4,2,2,65,0,0
15257,-100,4,2,3,65,0,0
15339,-100,4,2,2,65,0,0
15421,-100,4,2,1,65,0,0
15585,-80,4,2,1,65,0,0
15749,-66.6666666666667,4,2,2,65,0,0
15913,-66.6666666666667,4,2,3,65,0,0
15995,-66.6666666666667,4,2,2,65,0,0
16077,-66.6666666666667,4,2,1,65,0,0
16241,-66.6666666666667,4,2,1,55,0,0
18536,-400,4,2,1,55,0,0
18782,-200,4,2,1,5,0,0
18864,-400,4,2,1,55,0,0
21814,-133.333333333333,4,2,1,55,0,0
22142,-133.333333333333,4,2,1,55,0,0
23782,-83.3333333333333,4,2,1,55,0,0
25585,-333.333333333333,4,2,1,45,0,0
26077,-100,4,2,1,65,0,0
29847,-83.3333333333333,4,2,1,65,0,0
30175,-133.333333333333,4,2,1,65,0,0
30339,-100,4,2,1,65,0,0
30585,-200,4,2,1,5,0,0
30667,-100,4,2,1,65,0,0
30995,-66.6666666666667,4,2,1,65,0,0
31241,-200,4,2,1,5,0,0
31323,-100,4,2,1,65,0,0
36569,-133.333333333333,4,2,1,65,0,0
37224,-133.333333333333,4,2,1,50,0,0
38700,-333.333333333333,4,2,1,50,0,0
39519,-100,4,2,1,50,0,0
40011,-133.333333333333,4,2,1,50,0,0
42060,-200,4,2,1,5,0,0
42142,-133.333333333333,4,2,1,50,0,0
43946,-333.333333333333,4,2,1,50,0,0
44437,-133.333333333333,4,2,1,50,0,0
44683,-200,4,2,1,5,0,0
44765,-133.333333333333,4,2,1,50,0,0
45585,-133.333333333333,4,2,2,50,0,0
45749,-133.333333333333,4,2,1,50,0,0
46241,-133.333333333333,4,2,2,50,0,0
46323,-133.333333333333,4,2,1,50,0,0
47388,-52.6315789473684,4,2,1,70,0,0
47552,-66.6666666666667,4,2,1,70,0,0
47716,-66.6666666666667,4,2,1,80,0,0
59028,-100,4,2,1,80,0,0
66405,-200,4,2,1,80,0,0
67388,-66.6666666666667,4,2,1,80,0,0
68044,-200,4,2,1,80,0,0
68290,-200,4,2,1,5,0,0
68372,-66.6666666666667,4,2,1,50,0,0
68413,-200,4,2,1,5,0,0
68700,-66.6666666666667,4,2,1,65,0,0
72798,-66.6666666666667,4,2,2,65,0,0
72962,-66.6666666666667,4,2,3,65,0,0
73044,-66.6666666666667,4,2,2,65,0,0
73126,-66.6666666666667,4,2,1,65,0,0
73454,-66.6666666666667,4,2,2,65,0,0
73618,-66.6666666666667,4,2,3,65,0,0
73700,-66.6666666666667,4,2,2,65,0,0
73782,-66.6666666666667,4,2,1,65,0,0
74110,-200,4,2,4,50,0,0
74437,-66.6666666666667,4,2,4,50,0,0
74560,-200,4,2,1,5,0,0
74601,-133.333333333333,4,2,1,50,0,0
74765,-333.333333333333,4,2,4,50,0,0
75257,-33.3333333333333,4,2,1,70,0,0
75503,-200,4,2,1,5,0,0
75585,-133.333333333333,4,2,1,70,0,0
75913,-100,4,2,1,70,0,0
76159,-200,4,2,1,5,0,0
76241,-66.6666666666667,4,2,1,70,0,0
76814,-200,4,2,1,5,0,0
76896,-133.333333333333,4,2,1,70,0,0
77224,-100,4,2,1,70,0,0
79847,-66.6666666666667,4,2,1,70,0,0
80503,-33.3333333333333,4,2,1,70,0,0
80749,-200,4,2,1,5,0,0
80831,-133.333333333333,4,2,1,70,0,0
81159,-100,4,2,1,70,0,0
81405,-200,4,2,1,5,0,0
81487,-62.5,4,2,1,70,0,0
82060,-200,4,2,1,5,0,0
82142,-133.333333333333,4,2,1,70,0,0
82470,-100,4,2,1,70,0,0
85749,-58.8235294117647,4,2,1,70,0,0
86651,-200,4,2,1,5,0,0
86732,-90.9090909090909,4,2,1,70,0,0
86978,-200,4,2,1,5,0,0
87060,-333.333333333333,4,2,1,70,0,0
87716,-133.333333333333,4,2,1,70,0,0
88044,-100,4,2,1,70,0,0
88372,-66.6666666666667,4,2,1,70,0,0
89028,-133.333333333333,4,2,1,70,0,0
89246,-200,4,2,1,5,0,0
89355,-83.3333333333333,4,2,1,70,0,0
89601,-200,4,2,1,5,0,0
89683,-100,4,2,1,70,0,0
89929,-200,4,2,1,5,0,0
90011,-200,4,2,1,70,0,0
90339,-133.333333333333,4,2,1,70,0,0
90667,-100,4,2,1,70,0,0
90995,-58.8235294117647,4,2,1,70,0,0
91896,-200,4,2,1,5,0,0
91978,-90.9090909090909,4,2,1,70,0,0
92224,-200,4,2,1,5,0,0
92306,-111.111111111111,4,2,1,70,0,0
92552,-200,4,2,1,5,0,0
92634,-166.666666666667,4,2,1,70,0,0
92962,-133.333333333333,4,2,1,70,0,0
93618,-100,4,2,1,70,0,0
93864,-200,4,2,1,5,0,0
93946,-100,4,2,1,70,0,0
95175,-200,4,2,1,5,0,0
95257,-100,4,2,1,70,0,0
96241,-100,4,2,1,45,0,0
97224,-58.8235294117647,4,2,1,70,0,0
97470,-200,4,2,1,5,0,0
97552,-58.8235294117647,4,2,1,80,0,0
108864,-100,4,2,1,80,0,0
116241,-133.333333333333,4,2,1,80,0,0
117388,-66.6666666666667,4,2,1,80,0,0
118208,-133.333333333333,4,2,1,50,0,0
118536,-62.5,4,2,1,75,0,0
118864,-76.9230769230769,4,2,1,75,0,0
123782,-66.6666666666667,4,2,1,75,0,0
123946,-100,4,2,1,75,0,0
124110,-66.6666666666667,4,2,1,75,0,0
124273,-100,4,2,1,75,0,0
124765,-66.6666666666667,4,2,1,75,0,0
125257,-100,4,2,1,75,0,0
125421,-66.6666666666667,4,2,1,75,0,0
125585,-100,4,2,1,75,0,0
126732,-90.9090909090909,4,2,1,75,0,0
127060,-83.3333333333333,4,2,1,75,0,0
127388,-76.9230769230769,4,2,1,75,0,0
127716,-71.4285714285714,4,2,1,75,0,0
128044,-66.6666666666667,4,2,1,75,0,0
128372,-62.5,4,2,1,75,0,0
131651,-62.5,4,2,1,50,0,0
131814,-133.333333333333,4,2,1,50,0,0
133126,-333.333333333333,4,2,1,50,0,0
133946,-100,4,2,1,50,0,0
134437,-133.333333333333,4,2,1,50,0,0
135749,-333.333333333333,4,2,1,50,0,0
136241,-133.333333333333,4,2,1,50,0,0
136487,-200,4,2,1,5,0,0
136569,-133.333333333333,4,2,1,50,0,0
138372,-333.333333333333,4,2,1,50,0,0
138863,-133.333333333333,4,2,1,50,0,0
139191,-133.333333333333,4,2,1,50,0,0
140011,-133.333333333333,4,2,2,50,0,0
140175,-133.333333333333,4,2,1,50,0,0
140667,-133.333333333333,4,2,2,50,0,0
140749,-133.333333333333,4,2,1,50,0,0
141814,-40,4,2,1,70,0,0
142060,-200,4,2,1,5,0,0
142142,-100,4,2,1,70,0,0
142183,-200,4,2,1,5,0,0
142798,-100,4,2,1,70,0,0
142839,-200,4,2,1,5,0,0
143290,-100,4,2,1,70,0,0
143331,-200,4,2,1,5,0,0
143946,-100,4,2,1,70,0,0
144110,-66.6666666666667,4,2,1,70,0,0
144601,-66.6666666666667,4,2,2,70,0,0
144683,-66.6666666666667,4,2,1,70,0,0
144765,-100,4,2,1,70,0,0
144806,-200,4,2,1,5,0,0
144929,-100,4,2,1,45,0,0
145421,-100,4,2,1,70,0,0
145462,-200,4,2,1,5,0,0
145585,-100,4,2,1,45,0,0
145749,-100,4,2,1,70,0,0
145995,-200,4,2,1,5,0,0
146077,-500,4,2,1,45,0,0
146896,-500,4,2,1,70,0,0
147388,-500,4,2,1,80,0,0
151323,-83.3333333333333,4,2,1,80,0,0
151651,-83.3333333333333,4,2,1,80,0,0
151896,-200,4,2,1,5,0,0
151978,-111.111111111111,4,2,1,80,0,0
154273,-55.5555555555556,4,2,1,80,0,0
154765,-66.6666666666667,4,2,1,80,0,0
155585,-83.3333333333333,4,2,1,80,0,0
160831,-200,4,2,1,80,0,0
161487,-200,4,2,1,80,0,0
163454,-133.333333333333,4,2,1,80,0,0
163618,-133.333333333333,4,2,1,80,0,0
164601,-66.6666666666667,4,2,1,80,0,0
165257,-66.6666666666667,4,2,1,50,0,0
165749,-133.333333333333,4,2,1,65,0,0
169847,-100,4,2,2,65,0,0
170011,-100,4,2,3,65,0,0
170093,-100,4,2,2,65,0,0
170175,-100,4,2,1,65,0,0
170339,-80,4,2,1,65,0,0
170503,-66.6666666666667,4,2,2,65,0,0
170667,-66.6666666666667,4,2,3,65,0,0
170749,-66.6666666666667,4,2,2,65,0,0
170831,-66.6666666666667,4,2,1,65,0,0
174929,-83.3333333333333,4,2,1,65,0,0
175093,-71.4285714285714,4,2,2,65,0,0
175257,-71.4285714285714,4,2,3,65,0,0
175339,-71.4285714285714,4,2,2,65,0,0
175421,-71.4285714285714,4,2,1,65,0,0
175585,-62.5,4,2,1,65,0,0
175749,-55.5555555555556,4,2,2,65,0,0
175913,-55.5555555555556,4,2,3,65,0,0
175995,-55.5555555555556,4,2,2,65,0,0
176077,-55.5555555555556,4,2,1,65,0,0

[Colours]
Combo1 : 255,128,255
Combo2 : 192,192,192

[HitObjects]
478,382,503,6,0,L|489:329,1,53.9999983520508,2|2,2:2|2:2,0:0:0:0:
489,329,1651,1,2,2:2:0:0:
360,261,2143,5,2,2:2:0:0:
444,258,2307,1,2,2:2:0:0:
489,329,2471,1,2,2:2:0:0:
489,329,2799,6,0,L|475:331,1,13.4999995880127,2|0,3:2|0:0,0:0:0:0:
399,351,2963,2,0,L|385:353,1,13.4999995880127
271,380,3127,5,4,3:2:0:0:
271,380,3455,5,0,3:3:0:0:
360,261,3619,1,0,3:3:0:0:
201,151,3783,1,0,3:3:0:0:
277,293,3947,1,0,3:3:0:0:
47,341,4111,1,0,3:3:0:0:
207,239,4274,1,0,3:3:0:0:
53,256,4438,6,0,B|106:255|132:292|132:292|106:255|125:196,2,180,2|2|2,3:2|3:2|3:2,0:0:0:0:
46,175,5422,2,0,B|31:165|27:147|27:147|42:157|46:173,1,67.5,8|0,2:3|0:0,0:0:0:0:
53,256,5750,6,0,P|42:268|28:278,1,33.7500012874604,6|0,3:2|0:0,0:0:0:0:
53,256,5914,2,0,P|42:268|28:278,1,33.7500012874604,2|0,2:2|0:0,0:0:0:0:
53,256,6078,2,0,P|42:268|28:278,1,33.7500012874604,2|0,3:2|0:0,0:0:0:0:
53,256,6242,2,0,P|42:268|28:278,1,33.7500012874604,2|0,2:2|0:0,0:0:0:0:
122,206,6406,5,2,3:2:0:0:
131,180,6488,1,2,2:2:0:0:
161,170,6570,1,2,2:2:0:0:
198,183,6652,1,2,2:2:0:0:
241,212,6733,1,2,3:2:0:0:
301,196,6815,1,2,2:2:0:0:
319,134,6897,1,2,2:2:0:0:
281,81,6979,1,2,2:2:0:0:
217,88,7061,6,0,P|203:78|192:65,1,33.7500012874604,2|0,3:2|0:0,0:0:0:0:
217,88,7225,2,0,P|203:78|192:65,1,33.7500012874604,2|0,2:2|0:0,0:0:0:0:
217,88,7389,2,0,P|203:78|192:65,1,33.7500012874604,2|0,3:2|0:0,0:0:0:0:
217,88,7553,2,0,P|203:78|192:65,1,33.7500012874604,2|0,2:2|0:0,0:0:0:0:
94,27,7717,5,2,3:2:0:0:
66,37,7799,1,2,2:2:0:0:
51,70,7881,1,2,2:2:0:0:
58,109,7963,1,2,2:2:0:0:
89,136,8045,1,2,3:2:0:0:
146,164,8127,1,2,2:2:0:0:
158,232,8209,1,2,2:2:0:0:
116,285,8291,1,2,2:2:0:0:
53,279,8373,6,0,P|39:289|28:302,1,33.7500012874604,2|0,3:2|0:0,0:0:0:0:
53,279,8537,2,0,P|39:289|28:302,1,33.7500012874604,2|0,2:2|0:0,0:0:0:0:
53,279,8701,2,0,P|39:289|28:302,1,33.7500012874604,2|0,3:2|0:0,0:0:0:0:
53,279,8865,2,0,P|39:289|28:302,1,33.7500012874604,2|0,2:2|0:0,0:0:0:0:
158,232,9029,5,2,3:2:0:0:
197,214,9111,1,2,2:2:0:0:
242,217,9192,1,2,2:2:0:0:
281,247,9274,1,2,2:2:0:0:
311,292,9356,1,2,3:2:0:0:
358,338,9438,1,2,2:2:0:0:
431,346,9520,1,2,2:2:0:0:
488,296,9602,1,2,2:2:0:0:
478,219,9684,6,0,P|463:210|447:204,1,33.7500012874604,2|0,3:2|0:0,0:0:0:0:
400,117,9848,2,0,P|379:125|365:142,1,45,2|0,2:2|0:0,0:0:0:0:
281,247,10012,5,2,2:2:0:0:
268,247,10094,1,0,2:2:0:0:
259,241,10176,1,6,2:3:0:0:
256,230,10258,1,4,2:3:0:0:
262,220,10340,2,0,P|250:245|228:262,1,56.25,6|0,3:3|0:0,0:0:0:0:
183,370,10504,2,0,P|153:355|136:326,1,67.5000025749208,2|0,2:2|0:0,0:0:0:0:
102,216,10668,5,2,2:2:0:0:
77,196,10750,1,0,2:2:0:0:
43,202,10832,1,6,2:3:0:0:
23,231,10914,1,4,2:3:0:0:
36,265,10996,6,0,P|51:258|63:247,1,33.7500012874604,6|0,3:2|0:0,0:0:0:0:
36,265,11160,2,0,P|51:258|63:247,1,33.7500012874604,2|0,2:2|0:0,0:0:0:0:
36,265,11324,2,0,P|51:258|63:247,1,33.7500012874604,2|0,3:2|0:0,0:0:0:0:
36,265,11488,2,0,P|51:258|63:247,1,33.7500012874604,2|0,2:2|0:0,0:0:0:0:
73,58,11652,5,2,3:2:0:0:
54,63,11733,1,2,2:2:0:0:
39,77,11815,1,2,2:2:0:0:
29,104,11897,1,2,2:2:0:0:
35,145,11979,1,2,3:2:0:0:
74,176,12061,1,2,2:2:0:0:
138,172,12143,1,2,2:2:0:0:
182,122,12225,1,2,2:2:0:0:
172,52,12307,6,0,P|159:40|144:33,1,33.7500012874604,2|0,3:2|0:0,0:0:0:0:
172,52,12471,2,0,P|159:40|144:33,1,33.7500012874604,2|0,2:2|0:0,0:0:0:0:
172,52,12635,2,0,P|159:40|144:33,1,33.7500012874604,2|0,3:2|0:0,0:0:0:0:
172,52,12799,2,0,P|159:40|144:33,1,33.7500012874604,2|0,2:2|0:0,0:0:0:0:
256,181,12963,5,2,3:2:0:0:
279,192,13045,1,2,2:2:0:0:
308,189,13127,1,2,2:2:0:0:
332,159,13209,1,2,2:2:0:0:
332,114,13291,1,2,3:2:0:0:
364,67,13373,1,2,2:2:0:0:
426,57,13455,1,2,2:2:0:0:
479,94,13537,1,2,2:2:0:0:
484,159,13619,6,0,P|497:149|508:136,1,33.7500012874604,2|0,3:2|0:0,0:0:0:0:
484,159,13783,2,0,P|497:149|508:136,1,33.7500012874604,2|0,2:2|0:0,0:0:0:0:
484,159,13947,2,0,P|497:149|508:136,1,33.7500012874604,2|0,3:2|0:0,0:0:0:0:
484,159,14111,2,0,P|497:149|508:136,1,33.7500012874604,2|0,2:2|0:0,0:0:0:0:
391,300,14274,5,2,3:2:0:0:
374,285,14356,1,2,2:2:0:0:
373,257,14438,1,2,2:2:0:0:
391,234,14520,1,2,2:2:0:0:
437,225,14602,1,2,3:2:0:0:
482,254,14684,1,2,2:2:0:0:
493,317,14766,1,2,2:2:0:0:
452,380,14848,1,2,2:2:0:0:
379,382,14930,6,0,P|358:371|345:350,1,33.7500012874604,2|0,3:2|0:0,0:0:0:0:
243,384,15094,2,0,P|235:362|236:340,1,45,2|0,2:2|0:0,0:0:0:0:
266,228,15258,1,2,2:2:0:0:
257,218,15340,1,0,2:2:0:0:
243,216,15422,1,6,2:3:0:0:
227,219,15504,1,4,2:3:0:0:
217,232,15586,2,0,P|237:213|246:186,1,56.25,6|0,3:3|0:0,0:0:0:0:
364,137,15750,2,0,P|348:107|321:87,1,67.5000025749208,2|0,2:2|0:0,0:0:0:0:
127,25,15914,5,2,2:2:0:0:
107,66,15996,1,0,2:2:0:0:
129,109,16078,1,6,2:3:0:0:
177,115,16160,1,4,2:3:0:0:
214,85,16242,6,0,L|205:45,1,33.7500012874604,6|0,3:2|0:0,0:0:0:0:
501,232,16897,6,0,L|510:192,1,33.7500012874604,2|0,3:2|0:0,0:0:0:0:
41,379,17389,6,0,L|32:339,1,33.7500012874604,2|0,3:2|0:0,0:0:0:0:
119,362,18209,6,0,L|110:322,1,33.7500012874604,2|0,3:2|0:0,0:0:0:0:
501,232,18537,6,0,L|510:192,1,33.7500012874604,2|0,2:2|0:0,0:0:0:0:
508,199,18865,5,2,3:2:0:0:
427,210,19029,1,2,2:2:0:0:
390,138,19192,1,2,2:2:0:0:
438,72,19356,1,2,2:2:0:0:
344,204,19520,1,2,3:2:0:0:
344,204,19848,1,2,2:2:0:0:
245,11,20012,1,2,3:2:0:0:
245,11,20340,5,2,2:2:0:0:
255,92,20504,1,2,2:2:0:0:
183,129,20667,1,2,2:2:0:0:
117,81,20831,1,2,3:2:0:0:
117,81,21160,6,0,L|124:48,1,33.7500012874604,2|0,2:2|0:0,0:0:0:0:
61,7,21488,5,4,3:2:0:0:
183,129,21652,1,2,2:2:0:0:
131,220,21815,2,0,L|123:186,1,33.7500012874604,2|0,3:2|0:0,0:0:0:0:
36,139,21979,1,2,0:0:0:0:
36,139,22061,1,2,0:0:0:0:
36,139,22143,2,0,L|57:238,1,101.250003862381,2|0,3:2|0:0,0:0:0:0:
14,303,22471,1,2,3:2:0:0:
160,322,22635,6,0,L|93:307,2,67.5000025749208,2|0|2,2:2|3:3|2:2,0:0:0:0:
231,249,23127,1,2,3:2:0:0:
317,363,23291,1,2,2:2:0:0:
449,326,23455,2,0,L|441:292,1,33.7500012874604,2|0,3:2|0:0,0:0:0:0:
422,209,23619,1,0,0:0:0:0:
419,334,23783,2,0,B|413:300|413:300|471:225|471:225|463:189,1,161.999995056153,10|0,3:2|0:0,0:0:0:0:
431,119,24111,5,2,3:2:0:0:
512,131,24274,1,2,2:2:0:0:
443,34,24438,1,2,3:2:0:0:
311,49,24602,1,2,2:2:0:0:
279,169,24766,1,2,3:2:0:0:
210,214,24930,1,2,2:2:0:0:
137,176,25094,1,2,3:2:0:0:
222,32,25258,5,2,3:2:0:0:
222,32,25586,2,0,L|216:5,2,26.9999991760254,2|2|2,2:2|2:2|2:2,0:0:0:0:
133,15,26078,6,0,L|142:59,1,45,2|0,3:2|0:0,0:0:0:0:
279,169,26242,1,8,2:2:0:0:
272,200,26323,1,8,2:2:0:0:
265,231,26405,1,8,2:2:0:0:
258,263,26487,1,8,2:2:0:0:
252,294,26569,1,8,2:2:0:0:
245,326,26651,1,8,2:2:0:0:
180,369,26733,5,6,3:2:0:0:
327,319,26897,1,2,2:2:0:0:
474,269,27061,1,10,3:2:0:0:
489,373,27225,6,0,B|472:373|456:381|456:381|411:373|411:329,1,90,2|0,2:2|3:3,0:0:0:0:
296,200,27553,2,0,P|275:213|263:235,1,45,2|0,2:2|0:0,0:0:0:0:
181,272,27717,2,0,P|171:251|170:229,1,45,10|0,3:2|0:0,0:0:0:0:
138,357,27881,2,0,P|160:368|184:368,1,45,2|0,2:2|0:0,0:0:0:0:
327,319,28045,5,2,3:2:0:0:
321,307,28127,1,2,2:2:0:0:
303,300,28209,1,2,2:2:0:0:
280,313,28291,1,2,2:2:0:0:
276,346,28373,1,10,3:2:0:0:
305,372,28455,1,2,2:2:0:0:
354,363,28537,6,0,P|361:323|373:269,1,90,2|0,2:2|3:3,0:0:0:0:
492,175,28865,2,0,L|447:184,1,45,2|0,2:2|0:0,0:0:0:0:
398,106,29029,2,0,L|442:96,1,45,10|0,3:2|0:0,0:0:0:0:
356,180,29192,2,0,L|311:170,1,45,2|0,2:2|0:0,0:0:0:0:
180,19,29356,5,2,3:2:0:0:
230,166,29520,1,2,2:2:0:0:
280,313,29684,1,10,3:2:0:0:
137,147,29848,2,0,B|130:117|151:100|180:99|180:99|158:109|155:130,1,107.999996704102,2|0,2:2|3:3,0:0:0:0:
90,297,30176,2,0,L|56:289,1,33.7500012874604,2|0,2:2|0:0,0:0:0:0:
25,205,30340,2,0,L|157:233,1,135,10|0,3:2|0:0,0:0:0:0:
25,205,30668,1,0,3:3:0:0:
352,334,30996,6,0,B|382:323|386:277|386:277|341:249|273:269|278:333,1,202.500007724762,10|0,3:2|0:0,0:0:0:0:
222,370,31324,2,0,P|206:349|201:324,1,45,2|0,3:2|0:0,0:0:0:0:
112,223,31488,2,0,L|157:233,1,45,8|0,2:2|0:0,0:0:0:0:
332,169,31652,1,10,3:2:0:0:
352,115,31733,1,8,2:2:0:0:
315,72,31815,1,8,2:2:0:0:
260,84,31897,1,8,2:2:0:0:
245,165,31979,5,2,3:2:0:0:
377,240,32143,1,2,2:2:0:0:
497,127,32307,1,10,3:2:0:0:
405,0,32471,6,0,B|400:12|389:23|389:23|389:62|437:73,1,90,2|0,2:2|3:3,0:0:0:0:
443,195,32799,2,0,P|428:177|408:167,1,45,2|0,2:2|0:0,0:0:0:0:
273,87,32963,2,0,P|292:76|315:72,1,45,10|0,3:2|0:0,0:0:0:0:
144,121,33127,2,0,P|136:142|136:164,1,45,2|0,2:2|0:0,0:0:0:0:
199,327,33291,5,2,3:2:0:0:
200,338,33373,1,2,2:2:0:0:
191,350,33455,1,2,2:2:0:0:
175,354,33537,1,2,2:2:0:0:
150,348,33619,1,10,3:2:0:0:
138,321,33701,1,2,2:2:0:0:
157,289,33783,6,0,P|199:296|245:307,1,90,2|0,2:2|3:3,0:0:0:0:
41,338,34111,2,0,L|31:293,1,45,2|0,2:2|0:0,0:0:0:0:
9,201,34274,2,0,L|53:210,1,45,10|0,3:2|0:0,0:0:0:0:
146,208,34438,2,0,L|136:163,1,45,2|0,2:2|0:0,0:0:0:0:
34,40,34602,5,2,3:2:0:0:
181,90,34766,1,2,2:2:0:0:
328,140,34930,1,10,3:2:0:0:
244,307,35094,6,0,L|225:218,1,90,2|0,2:2|3:3,0:0:0:0:
174,361,35422,2,0,L|164:316,1,45,2|0,2:2|0:0,0:0:0:0:
342,384,35586,2,0,L|323:295,1,90,10|2,3:2|2:2,0:0:0:0:
439,113,35914,5,2,3:2:0:0:
460,111,35996,1,2,2:2:0:0:
475,131,36078,1,2,2:2:0:0:
472,163,36160,1,2,2:2:0:0:
436,185,36242,1,10,3:2:0:0:
386,174,36324,1,2,2:2:0:0:
354,124,36406,1,2,2:2:0:0:
366,61,36488,1,2,2:2:0:0:
428,38,36570,6,0,L|461:30,1,33.7500012874604,2|2,3:2|2:2,0:0:0:0:
253,28,36733,2,0,L|286:20,1,33.7500012874604,10|2,2:2|2:2,0:0:0:0:
120,113,36897,2,0,L|153:105,3,33.7500012874604,10|2|2|2,3:2|2:2|2:2|2:2,0:0:0:0:
120,34,37225,5,6,3:2:0:0:
158,187,37389,2,0,L|172:253,1,67.5000025749208,2|8,2:2|2:3,0:0:0:0:
120,34,37717,5,2,3:2:0:0:
158,187,37881,2,0,L|172:253,1,67.5000025749208,10|0,1:3|0:0,0:0:0:0:
120,34,38209,5,10,2:3:0:0:
158,187,38373,2,0,L|172:253,1,67.5000025749208,2|8,3:2|2:3,0:0:0:0:
120,34,38701,6,0,L|114:7,2,26.9999991760254,2|10|2,2:2|3:3|3:2,0:0:0:0:
32,139,39192,1,10,1:3:0:0:
237,88,39520,5,10,2:3:0:0:
237,88,39602,1,0,0:0:0:0:
237,88,39684,2,0,L|259:83,2,22.5
120,113,39848,5,10,3:3:0:0:
228,216,40012,2,0,P|259:205|278:178,1,67.5000025749208,2|8,2:2|2:3,0:0:0:0:
120,113,40340,5,2,3:2:0:0:
228,216,40504,2,0,P|221:248|235:278,1,67.5000025749208,10|0,1:3|0:0,0:0:0:0:
120,113,40832,5,10,2:3:0:0:
228,216,40996,2,0,P|203:193|170:190,1,67.5000025749208,2|8,3:2|2:3,0:0:0:0:
27,280,41324,5,2,3:2:0:0:
27,280,41488,1,10,3:3:0:0:
27,280,41652,1,2,2:2:0:0:
170,190,41815,6,0,L|148:289,1,101.250003862381,10|0,1:3|0:0,0:0:0:0:
127,360,42143,6,0,L|110:356,6,16.8750006437302,10|0|0|0|0|0|0,3:3|0:0|0:0|0:0|0:0|0:0|0:0,0:0:0:0:
235,376,42471,5,10,3:3:0:0:
357,311,42635,1,2,2:2:0:0:
357,311,42799,5,8,2:3:0:0:
374,332,42963,1,2,3:2:0:0:
217,251,43127,1,10,1:3:0:0:
217,251,43291,1,0,0:0:0:0:
192,269,43455,5,10,2:3:0:0:
353,193,43619,1,2,3:2:0:0:
353,193,43783,1,8,2:3:0:0:
274,135,43947,6,0,L|269:161,2,26.9999991760254,2|10|2,2:2|3:3|3:2,0:0:0:0:
354,107,44438,6,0,L|332:7,1,101.250003862381,10|0,1:3|0:0,0:0:0:0:
416,23,44766,6,0,L|432:26,6,16.8750006437302,10|0|0|0|0|0|0,2:3|0:0|0:0|0:0|0:0|0:0|0:0,0:0:0:0:
333,8,45094,5,10,3:3:0:0:
260,42,45258,1,2,1:2:0:0:
114,110,45422,1,8,1:3:0:0:
148,14,45586,1,2,1:2:0:0:
354,107,45750,5,10,1:3:0:0:
359,118,45832,1,0,1:1:0:0:
348,125,45914,1,0,1:1:0:0:
359,139,45996,1,0,1:1:0:0:
337,157,46078,1,10,1:3:0:0:
353,188,46160,1,0,1:1:0:0:
312,224,46242,1,2,1:2:0:0:
336,279,46324,1,0,1:1:0:0:
336,279,47389,6,0,B|402:242|402:242|191:300,1,256.499993150711,12|0,3:2|0:0,0:0:0:0:
176,354,47717,5,6,3:2:0:0:
245,209,47881,1,10,2:2:0:0:
26,152,48045,1,2,3:2:0:0:
55,238,48209,1,10,2:2:0:0:
224,108,48373,1,2,3:2:0:0:
224,108,48537,1,8,2:2:0:0:
133,45,48701,1,2,3:2:0:0:
245,209,48865,5,10,2:2:0:0:
387,238,49029,1,0,3:3:0:0:
433,2,49192,1,10,2:2:0:0:
486,137,49356,5,2,3:2:0:0:
377,78,49520,1,10,2:2:0:0:
298,266,49684,1,2,3:2:0:0:
407,325,49848,1,8,2:2:0:0:
224,108,50012,5,2,3:2:0:0:
190,115,50093,1,2,2:2:0:0:
157,122,50175,1,10,2:2:0:0:
124,129,50257,1,2,2:2:0:0:
56,91,50340,5,2,3:2:0:0:
157,224,50504,1,10,2:2:0:0:
269,22,50668,1,2,3:2:0:0:
475,201,50832,5,10,2:2:0:0:
377,78,50996,1,2,3:2:0:0:
229,133,51160,1,10,2:2:0:0:
372,90,51324,1,2,3:2:0:0:
462,202,51488,1,10,2:2:0:0:
327,256,51652,5,2,3:2:0:0:
229,133,51815,1,8,2:2:0:0:
98,141,51979,1,2,3:2:0:0:
272,375,52143,1,8,2:2:0:0:
135,384,52307,1,2,3:2:0:0:
37,261,52470,1,8,2:2:0:0:
229,133,52635,5,8,3:2:0:0:
224,155,52716,1,8,2:2:0:0:
219,177,52798,1,8,2:2:0:0:
214,199,52880,1,8,2:2:0:0:
242,266,52963,5,6,3:2:0:0:
98,141,53127,1,10,2:2:0:0:
330,72,53291,1,2,3:2:0:0:
312,170,53455,1,10,2:2:0:0:
141,2,53619,1,2,3:2:0:0:
141,2,53783,1,8,2:2:0:0:
47,77,53947,5,2,3:2:0:0:
388,5,54111,1,10,3:2:0:0:
388,5,54438,5,2,3:2:0:0:
466,145,54602,1,10,2:2:0:0:
361,253,54766,1,2,3:2:0:0:
220,201,54930,1,10,2:2:0:0:
114,212,55094,1,0,3:3:0:0:
83,298,55258,1,10,2:2:0:0:
88,325,55340,1,2,2:2:0:0:
117,353,55422,1,2,3:2:0:0:
166,358,55504,1,2,2:2:0:0:
221,307,55586,5,10,3:2:0:0:
136,132,55750,1,10,2:2:0:0:
343,43,55914,1,2,3:2:0:0:
286,159,56078,1,10,2:2:0:0:
433,215,56242,1,2,3:2:0:0:
396,141,56406,1,10,2:2:0:0:
501,115,56570,1,2,3:2:0:0:
492,133,56733,1,10,2:2:0:0:
343,43,56897,5,2,3:2:0:0:
166,259,57225,2,0,P|298:235|432:214,2,270.000010299683,2|2|12,3:2|3:2|2:2,0:0:0:0:
166,259,58209,5,2,3:2:0:0:
150,250,58291,1,2,2:2:0:0:
142,222,58373,1,2,2:2:0:0:
156,190,58455,1,2,2:2:0:0:
198,177,58537,1,10,3:2:0:0:
240,197,58619,1,2,2:2:0:0:
257,250,58701,1,2,2:2:0:0:
316,274,58783,1,2,2:2:0:0:
378,253,58865,1,2,3:2:0:0:
394,188,58947,1,2,2:2:0:0:
359,130,59029,2,0,P|339:113|306:106,3,45,2|2|10|2,2:2|2:2|3:2|2:2,0:0:0:0:
146,117,59356,5,2,2:2:0:0:
106,80,59438,1,2,2:2:0:0:
111,27,59520,1,2,3:2:0:0:
149,0,59602,1,2,2:2:0:0:
190,6,59684,1,2,2:2:0:0:
207,24,59766,1,2,2:2:0:0:
206,39,59848,1,10,3:2:0:0:
200,49,59930,1,2,2:2:0:0:
191,53,60012,2,0,L|146:43,3,45,2|2|2|2,2:2|2:2|3:2|2:2,0:0:0:0:
20,13,60340,2,0,L|29:57,1,45,2|2,2:2|2:2,0:0:0:0:
4,174,60504,6,0,L|48:164,1,45,10|2,3:2|2:2,0:0:0:0:
235,124,60668,1,2,2:2:0:0:
264,117,60749,1,2,2:2:0:0:
293,111,60831,1,6,3:2:0:0:
323,105,60913,1,2,2:2:0:0:
352,99,60995,1,2,2:2:0:0:
381,92,61077,1,2,2:2:0:0:
411,86,61160,6,0,L|401:130,1,45,10|2,3:2|2:2,0:0:0:0:
380,241,61324,1,2,2:2:0:0:
357,236,61405,1,2,2:2:0:0:
335,231,61487,1,2,3:2:0:0:
313,226,61569,1,2,2:2:0:0:
291,222,61651,1,2,2:2:0:0:
269,217,61733,1,2,2:2:0:0:
247,212,61815,6,0,L|256:256,1,45,10|2,3:2|2:2,0:0:0:0:
285,346,61979,1,2,2:2:0:0:
302,342,62060,1,2,2:2:0:0:
320,338,62142,1,2,3:2:0:0:
337,334,62224,1,0,0:0:0:0:
355,331,62307,6,0,L|350:353,2,22.5,2|2|2,2:2|2:2|2:2,0:0:0:0:
440,313,62471,6,0,L|430:357,1,45,10|0,3:2|0:0,0:0:0:0:
247,212,62635,2,0,L|256:256,1,45,2|0,2:2|0:0,0:0:0:0:
411,86,62799,2,0,L|401:130,1,45,2|0,3:2|0:0,0:0:0:0:
500,64,62963,2,0,L|490:108,1,45,2|0,2:2|0:0,0:0:0:0:
281,0,63127,5,10,3:2:0:0:
290,44,63208,1,8,2:2:0:0:
299,88,63290,1,10,2:2:0:0:
309,132,63372,1,8,2:2:0:0:
318,176,63454,5,6,3:2:0:0:
331,160,63537,1,2,2:2:0:0:
324,129,63619,1,2,2:2:0:0:
289,117,63701,1,2,2:2:0:0:
244,131,63783,1,10,3:2:0:0:
212,182,63865,1,2,2:2:0:0:
153,205,63947,1,2,2:2:0:0:
93,180,64029,1,2,2:2:0:0:
72,115,64111,1,2,3:2:0:0:
106,57,64192,1,2,2:2:0:0:
173,52,64274,2,0,P|167:80|137:106,3,45,2|2|10|2,2:2|2:2|3:2|2:2,0:0:0:0:
13,178,64602,5,2,2:2:0:0:
2,236,64684,1,2,2:2:0:0:
40,280,64766,1,2,3:2:0:0:
90,289,64848,1,2,2:2:0:0:
126,303,64930,1,2,2:2:0:0:
137,331,65012,1,2,2:2:0:0:
136,353,65094,1,10,3:2:0:0:
124,367,65176,1,2,2:2:0:0:
108,372,65258,2,0,P|85:367|66:356,3,45,2|2|2|2,2:2|2:2|3:2|2:2,0:0:0:0:
113,212,65586,2,0,P|136:217|155:228,1,45,2|2,2:2|2:2,0:0:0:0:
266,325,65750,2,0,P|270:304|275:280,1,45,10|2,3:2|2:2,0:0:0:0:
425,138,65914,5,2,2:2:0:0:
475,151,65996,1,2,2:2:0:0:
490,207,66078,1,2,3:2:0:0:
454,249,66160,1,2,2:2:0:0:
411,249,66242,1,2,2:2:0:0:
379,254,66324,1,2,2:2:0:0:
362,272,66406,2,0,L|351:296,1,22.5,10|2,3:2|2:2,0:0:0:0:
390,127,66570,5,2,2:2:0:0:
341,108,66652,1,2,2:2:0:0:
296,144,66732,1,2,3:2:0:0:
301,199,66814,1,2,2:2:0:0:
336,225,66896,1,2,2:2:0:0:
359,247,66978,1,2,2:2:0:0:
362,272,67060,2,0,L|351:296,1,22.5,10|2,3:2|2:2,0:0:0:0:
398,163,67225,5,2,3:2:0:0:
398,163,67553,6,0,P|378:135|348:120,1,67.5000025749208,2|0,3:2|0:0,0:0:0:0:
272,28,67717,2,0,P|238:31|210:49,1,67.5000025749208,2|0,3:2|0:0,0:0:0:0:
92,69,67881,2,0,P|78:99|79:132,1,67.5000025749208,2|0,3:2|0:0,0:0:0:0:
37,245,68045,6,0,P|56:272|86:287,1,67.5000025749208,2|0,3:2|0:0,0:0:0:0:
86,287,68373,2,0,P|66:292|51:308,1,33.7500012874604,8|0,2:3|0:0,0:0:0:0:
257,308,68701,5,6,3:2:0:0:
209,168,68865,1,2,2:2:0:0:
349,120,69029,1,2,3:2:0:0:
397,260,69192,1,2,2:2:0:0:
457,132,69356,5,2,3:2:0:0:
474,179,69438,1,2,2:2:0:0:
491,226,69520,1,2,2:2:0:0:
444,243,69602,1,2,2:2:0:0:
397,260,69684,1,2,3:2:0:0:
370,192,69766,1,2,2:2:0:0:
349,120,69848,1,2,2:2:0:0:
279,144,69930,1,2,2:2:0:0:
209,168,70012,5,2,3:2:0:0:
257,308,70176,1,2,2:2:0:0:
117,356,70340,1,2,3:2:0:0:
69,216,70504,1,2,2:2:0:0:
133,90,70668,5,2,3:2:0:0:
84,104,70750,1,2,2:2:0:0:
38,120,70832,1,2,2:2:0:0:
53,168,70914,1,2,2:2:0:0:
69,216,70996,1,2,3:2:0:0:
140,195,71078,1,2,2:2:0:0:
209,168,71160,1,2,2:2:0:0:
232,236,71242,1,2,2:2:0:0:
257,308,71324,5,2,3:2:0:0:
397,260,71488,1,2,2:2:0:0:
349,120,71652,1,2,3:2:0:0:
209,168,71815,1,2,2:2:0:0:
149,296,71979,5,2,3:2:0:0:
132,249,72061,1,2,2:2:0:0:
115,202,72143,1,2,2:2:0:0:
162,185,72225,1,2,2:2:0:0:
209,168,72307,1,2,3:2:0:0:
232,236,72389,1,2,2:2:0:0:
257,308,72471,1,2,2:2:0:0:
327,284,72553,1,2,2:2:0:0:
397,260,72635,5,10,3:2:0:0:
339,84,72799,1,2,2:2:0:0:
512,93,72963,1,2,2:2:0:0:
508,109,73044,1,0,2:2:0:0:
504,126,73126,1,6,2:3:0:0:
501,142,73208,1,4,2:3:0:0:
427,186,73291,5,6,3:3:0:0:
475,0,73455,1,2,2:2:0:0:
268,91,73619,1,2,2:2:0:0:
272,107,73700,1,0,2:2:0:0:
276,124,73782,1,6,2:3:0:0:
279,140,73864,1,4,2:3:0:0:
349,165,73947,6,0,L|282:150,1,67.5000025749208,6|0,3:2|0:0,0:0:0:0:
85,109,74111,6,0,L|40:99,1,45,2|0,2:2|0:0,0:0:0:0:
42,100,74438,2,0,B|56:126|56:126|134:139,1,101.250003862381,2|0,3:2|0:0,0:0:0:0:
205,155,74602,2,0,L|197:121,1,33.7500012874604,0|0,1:1|0:0,0:0:0:0:
173,26,74766,6,0,L|167:0,2,26.9999991760254,2|0|2,3:2|0:0|3:2,0:0:0:0:
150,248,75258,6,0,B|102:307|102:307|108:315|108:315|293:215|293:215|288:206|288:206|179:139,1,405.000015449525,4|0,3:2|0:0,0:0:0:0:
79,215,75586,6,0,L|49:250,2,45.0000017166138
121,71,75914,2,0,B|114:28|68:25|68:25|104:37|111:64,1,135,8|0,2:3|0:0,0:0:0:0:
42,100,76242,6,0,B|48:134|16:174|16:174|102:70|238:43|238:43|190:73|179:135|221:175,1,472.500018024445,2|0,3:2|0:0,0:0:0:0:
312,140,76897,2,0,P|291:131|274:116,2,45.0000017166138,2|0|0,3:2|0:0|0:0,0:0:0:0:
384,181,77225,2,0,P|370:203|343:219,1,45,8|0,2:3|0:0,0:0:0:0:
332,64,77389,1,2,3:2:0:0:
446,129,77553,2,0,P|455:140|463:155,6,22.5,0|0|0|0|2|0|0,0:0|0:0|0:0|0:0|2:2|0:0|0:0,0:0:0:0:
416,54,77881,5,2,3:2:0:0:
416,54,78209,5,2,2:2:0:0:
374,57,78318,1,2,2:2:0:0:
362,100,78427,1,2,2:2:0:0:
416,54,78537,5,10,2:3:0:0:
332,64,78646,1,2,2:2:0:0:
312,140,78755,1,2,2:2:0:0:
288,219,78865,5,2,3:2:0:0:
267,231,78974,1,2,2:2:0:0:
267,207,79083,1,2,2:2:0:0:
229,297,79192,5,2,2:2:0:0:
186,363,79301,1,2,2:2:0:0:
103,346,79410,1,2,2:2:0:0:
47,196,79520,5,2,3:2:0:0:
125,200,79629,1,2,2:2:0:0:
152,280,79738,1,2,2:2:0:0:
22,340,79848,6,0,P|36:297|83:269,1,90.0000034332277,10|2,3:3|2:2,0:0:0:0:
229,297,80067,1,2,2:2:0:0:
47,196,80176,6,0,P|31:184|22:170,6,33.7500012874604,2|0|0|0|0|0|0,3:2|0:0|0:0|0:0|0:0|0:0|0:0,0:0:0:0:
152,280,80504,6,0,B|156:237|207:217|207:217|201:114|96:126|96:126|46:195|46:195|78:158|132:161,1,405.000015449525,4|0,3:2|0:0,0:0:0:0:
216,79,80832,2,0,P|198:64|177:57,2,45.0000017166138
368,148,81160,2,0,B|405:147|423:123|408:88|408:88|400:125|381:138,1,135,8|0,2:3|0:0,0:0:0:0:
401,279,81488,6,0,B|307:265|250:328|250:328|294:221|282:128|282:128|292:220|365:233,1,504,2|0,3:2|0:0,0:0:0:0:
451,199,82143,2,0,P|467:183|478:164,2,45.0000017166138,2|0|0,3:2|0:0|0:0,0:0:0:0:
321,370,82471,2,0,P|340:358|362:353,1,45,8|0,2:3|0:0,0:0:0:0:
503,374,82635,1,2,3:2:0:0:
401,279,82799,2,0,P|389:272|382:262,6,22.5,0|0|0|0|2|0|0,0:0|0:0|0:0|0:0|2:2|0:0|0:0,0:0:0:0:
500,282,83127,5,2,3:2:0:0:
500,282,83455,5,2,2:2:0:0:
499,238,83564,1,2,2:2:0:0:
458,221,83673,1,2,2:2:0:0:
508,278,83783,5,10,2:3:0:0:
497,199,83892,1,2,2:2:0:0:
423,169,84001,1,2,2:2:0:0:
288,137,84111,5,2,3:2:0:0:
288,101,84220,1,2,2:2:0:0:
319,119,84329,1,2,2:2:0:0:
271,188,84438,5,2,2:2:0:0:
300,117,84547,1,2,2:2:0:0:
329,46,84657,1,2,2:2:0:0:
376,107,84766,5,2,3:2:0:0:
300,117,84875,1,2,2:2:0:0:
225,127,84985,1,2,2:2:0:0:
254,57,85094,5,2,3:2:0:0:
346,177,85203,1,2,2:2:0:0:
376,107,85313,1,2,2:2:0:0:
225,127,85422,1,2,3:2:0:0:
68,334,85750,6,0,B|28:267|90:166|222:190|239:282|239:282|124:320|-7:197|44:17|194:4|194:4|157:26|158:71,1,841.500016050339,4|0,3:2|0:0,0:0:0:0:
212,109,86733,2,0,B|197:128|171:133|171:133|211:141|245:108|230:58,1,148.50000453186,2|0,3:2|0:0,0:0:0:0:
159,54,87061,6,0,L|129:46,1,26.9999991760254,2|0,2:2|0:0,0:0:0:0:
301,15,87389,2,0,L|271:7,1,26.9999991760254,2|0,3:2|0:0,0:0:0:0:
337,94,87717,2,0,P|357:84|370:67,1,33.7500012874604,10|0,2:3|0:0,0:0:0:0:
383,0,87881,1,0,3:3:0:0:
459,68,88045,2,0,P|450:60|440:55,6,22.5,2|0|0|0|0|0|0,2:2|0:0|0:0|0:0|0:0|0:0|0:0,0:0:0:0:
477,198,88373,6,0,P|454:159|413:143,1,90.0000034332277,0|0,3:3|0:0,0:0:0:0:
450,254,88591,2,0,P|471:215|465:171,1,90.0000034332277,0|0,3:3|0:0,0:0:0:0:
388,258,88810,2,0,P|432:257|466:230,1,90.0000034332277,0|0,3:3|0:0,0:0:0:0:
353,206,89029,6,0,P|375:244|416:260,1,90.0000034332277,8|0,2:3|0:0,0:0:0:0:
331,126,89356,6,0,B|341:91|316:57|266:69|266:69|302:76|316:104,1,161.999995056153,2|0,3:2|0:0,0:0:0:0:
248,148,89684,2,0,B|249:184|213:202|181:181|181:181|210:178|224:167,1,135,2|0,2:2|0:0,0:0:0:0:
183,104,90012,2,0,P|169:83|149:72,1,45,2|0,3:2|0:0,0:0:0:0:
112,5,90340,2,0,P|96:14|84:31,1,33.7500012874604,10|0,2:3|0:0,0:0:0:0:
197,5,90504,1,0,0:0:0:0:
103,141,90668,2,0,P|94:148|83:151,6,22.5,2|0|0|0|0|0|0,3:2|0:0|0:0|0:0|0:0|0:0|0:0,0:0:0:0:
219,169,90996,6,0,B|338:212|453:133|435:36|435:36|269:31|199:159|204:296|288:345|288:345|262:299|274:263,1,841.500016050339,4|0,3:2|0:0,0:0:0:0:
179,102,91979,2,0,B|184:64|150:43|110:59|110:59|144:66|160:87,1,148.50000453186,0|0,3:3|0:0,0:0:0:0:
140,173,92307,2,0,B|104:173|88:190|94:228|94:228|101:206|121:192,1,121.499996292114,2|0,2:2|0:0,0:0:0:0:
219,169,92635,2,0,P|250:170|286:146,1,53.9999983520508,2|0,3:2|0:0,0:0:0:0:
348,212,92963,2,0,P|357:195|359:175,1,33.7500012874604,10|0,2:3|0:0,0:0:0:0:
311,58,93127,1,0,3:3:0:0:
425,132,93291,2,0,P|420:125|410:119,6,16.8750006437302,2|0|0|0|0|0|0,2:2|0:0|0:0|0:0|0:0|0:0|0:0,0:0:0:0:
512,215,93619,6,0,P|451:241|420:300,1,135,0|0,3:3|0:0,0:0:0:0:
499,371,93947,1,0,0:0:0:0:
502,359,94056,1,0,0:0:0:0:
495,348,94165,1,0,0:0:0:0:
482,346,94274,1,8,2:3:0:0:
337,306,94602,2,0,P|344:335|363:359,2,60,2|0|0,3:2|0:0|0:0,0:0:0:0:
322,207,94930,6,0,P|272:250|205:257,1,135,2|0,2:2|0:0,0:0:0:0:
146,310,95258,2,0,P|135:298|130:283,4,30,2|0|0|0|0,3:2|0:0|0:0|0:0|0:0,0:0:0:0:
71,358,95586,2,0,P|65:344|55:333,4,30,2|0|0|0|0,3:2|0:0|0:0|0:0|0:0,0:0:0:0:
52,251,95914,5,2,3:2:0:0:
52,251,96242,5,2,2:2:0:0:
27,201,96351,1,2,2:2:0:0:
63,224,96460,1,2,2:2:0:0:
28,234,96570,1,2,2:2:0:0:
96,183,96679,1,2,2:2:0:0:
11,129,96788,1,2,2:2:0:0:
99,71,96897,1,2,2:2:0:0:
99,71,97225,6,0,L|323:118,1,229.500004377365,12|0,3:2|0:0,0:0:0:0:
392,184,97553,5,6,3:2:0:0:
333,22,97717,1,10,2:2:0:0:
281,297,97881,1,2,3:2:0:0:
305,207,98045,1,10,2:2:0:0:
408,350,98209,1,2,3:2:0:0:
408,350,98373,1,8,2:2:0:0:
436,260,98537,1,2,3:2:0:0:
255,384,98701,5,10,2:2:0:0:
125,331,98865,1,0,3:3:0:0:
224,92,99029,1,10,2:2:0:0:
117,182,99192,1,2,3:2:0:0:
88,56,99356,1,10,2:2:0:0:
327,11,99520,1,2,3:2:0:0:
356,137,99684,1,8,2:2:0:0:
203,192,99847,5,2,3:2:0:0:
210,158,99930,1,2,2:2:0:0:
217,125,100012,1,10,2:2:0:0:
224,92,100094,1,2,2:2:0:0:
166,42,100176,5,2,3:2:0:0:
285,172,100340,1,10,2:2:0:0:
152,315,100504,1,2,3:2:0:0:
221,373,100668,1,10,2:2:0:0:
69,347,100832,1,2,3:2:0:0:
236,285,100996,1,10,2:2:0:0:
307,344,101160,1,2,3:2:0:0:
35,207,101324,5,10,2:2:0:0:
170,232,101488,1,2,3:2:0:0:
259,127,101652,1,8,2:2:0:0:
166,220,101815,1,2,3:2:0:0:
39,196,101979,1,8,2:2:0:0:
252,117,102143,1,2,3:2:0:0:
426,261,102307,1,8,2:2:0:0:
307,344,102471,1,8,3:2:0:0:
312,319,102552,1,8,2:2:0:0:
317,294,102634,1,8,2:2:0:0:
322,269,102716,1,8,2:2:0:0:
236,285,102799,5,6,3:2:0:0:
369,192,102963,1,10,2:2:0:0:
161,100,103127,1,2,3:2:0:0:
199,190,103291,1,10,2:2:0:0:
365,15,103455,1,2,3:2:0:0:
365,15,103619,1,8,2:2:0:0:
398,96,103783,5,2,3:2:0:0:
42,27,103947,1,10,3:2:0:0:
42,27,104274,5,2,3:2:0:0:
76,172,104438,1,10,2:2:0:0:
211,187,104602,1,2,3:2:0:0:
339,200,104766,1,10,2:2:0:0:
370,295,104930,1,0,3:3:0:0:
307,365,105094,1,10,2:2:0:0:
277,374,105176,1,2,2:2:0:0:
234,363,105258,1,2,3:2:0:0:
214,320,105340,1,2,2:2:0:0:
249,253,105422,5,2,3:2:0:0:
458,344,105586,1,10,2:2:0:0:
505,175,105750,1,2,3:2:0:0:
370,295,105914,1,10,2:2:0:0:
233,101,106078,1,2,3:2:0:0:
294,176,106242,1,10,2:2:0:0:
442,18,106406,1,2,3:2:0:0:
429,51,106570,1,10,2:2:0:0:
166,33,106733,5,2,3:2:0:0:
294,277,107061,2,0,P|147:233|0:194,2,306.000005836487,2|2|12,3:2|3:2|2:2,0:0:0:0:
294,277,108045,5,2,3:2:0:0:
314,272,108127,1,2,2:2:0:0:
333,260,108209,1,2,2:2:0:0:
346,237,108291,1,2,2:2:0:0:
348,199,108373,1,10,3:2:0:0:
326,154,108455,1,2,2:2:0:0:
277,120,108537,1,2,2:2:0:0:
271,54,108619,1,2,2:2:0:0:
319,7,108701,1,2,3:2:0:0:
386,12,108783,1,2,2:2:0:0:
424,68,108865,2,0,P|436:86|455:97,3,45,2|2|10|2,2:2|2:2|3:2|2:2,0:0:0:0:
511,220,109192,5,2,2:2:0:0:
498,280,109274,1,2,2:2:0:0:
450,308,109356,1,2,3:2:0:0:
401,310,109438,1,2,2:2:0:0:
369,320,109520,1,2,2:2:0:0:
361,342,109602,1,2,2:2:0:0:
364,358,109684,1,10,3:2:0:0:
372,365,109766,1,2,2:2:0:0:
382,369,109848,2,0,P|403:361|420:347,3,45,2|2|2|2,2:2|2:2|3:2|2:2,0:0:0:0:
334,236,110176,2,0,P|314:246|297:261,1,45,2|2,2:2|2:2,0:0:0:0:
170,384,110340,6,0,L|160:340,1,45,10|2,3:2|2:2,0:0:0:0:
47,197,110504,1,2,2:2:0:0:
40,168,110585,1,2,2:2:0:0:
34,139,110667,1,6,3:2:0:0:
28,109,110749,1,2,2:2:0:0:
22,80,110831,1,2,2:2:0:0:
15,51,110913,1,2,2:2:0:0:
9,21,110996,6,0,L|53:31,1,45,10|2,3:2|2:2,0:0:0:0:
204,59,111160,1,2,2:2:0:0:
199,82,111241,1,2,2:2:0:0:
194,104,111323,1,2,3:2:0:0:
189,126,111405,1,2,2:2:0:0:
185,148,111487,1,2,2:2:0:0:
180,170,111569,1,2,2:2:0:0:
175,192,111651,6,0,L|219:183,1,45,10|2,3:2|2:2,0:0:0:0:
350,155,111815,1,2,2:2:0:0:
346,138,111896,1,2,2:2:0:0:
342,120,111978,1,2,3:2:0:0:
338,103,112060,1,0,0:0:0:0:
335,85,112143,6,0,L|357:90,2,22.5,2|2|2,2:2|2:2|2:2,0:0:0:0:
308,0,112307,6,0,L|352:9,1,45,10|0,3:2|0:0,0:0:0:0:
175,192,112471,2,0,L|219:182,1,45,2|0,2:2|0:0,0:0:0:0:
9,21,112635,2,0,L|53:31,1,45,2|0,3:2|0:0,0:0:0:0:
204,59,112799,2,0,L|248:69,1,45,2|0,2:2|0:0,0:0:0:0:
487,189,112963,5,10,3:2:0:0:
478,145,113045,1,8,2:2:0:0:
468,101,113127,1,10,2:2:0:0:
459,57,113209,1,8,2:2:0:0:
450,13,113290,5,6,3:2:0:0:
466,21,113373,1,2,2:2:0:0:
471,42,113455,1,2,2:2:0:0:
459,57,113537,1,2,2:2:0:0:
430,67,113619,1,10,3:2:0:0:
389,58,113701,1,2,2:2:0:0:
355,21,113783,1,2,2:2:0:0:
300,6,113865,1,2,2:2:0:0:
238,22,113947,1,2,3:2:0:0:
221,86,114029,1,2,2:2:0:0:
259,140,114111,2,0,P|281:150|321:150,3,45,2|2|10|2,2:2|2:2|3:2|2:2,0:0:0:0:
78,144,114438,5,2,2:2:0:0:
26,180,114520,1,2,2:2:0:0:
17,241,114602,1,2,3:2:0:0:
52,286,114684,1,2,2:2:0:0:
101,293,114766,1,2,2:2:0:0:
136,286,114848,1,2,2:2:0:0:
152,272,114930,1,10,3:2:0:0:
159,258,115012,1,2,2:2:0:0:
160,247,115094,2,0,P|143:228|107:212,3,45,2|2|2|2,2:2|2:2|3:2|2:2,0:0:0:0:
105,379,115422,2,0,P|129:373|161:350,1,45,2|2,2:2|2:2,0:0:0:0:
255,218,115586,2,0,L|264:262,1,45,10|2,3:2|2:2,0:0:0:0:
381,378,115750,5,2,2:2:0:0:
415,340,115832,1,2,2:2:0:0:
471,340,115914,1,2,3:2:0:0:
512,308,115996,1,2,2:2:0:0:
511,253,116078,1,2,2:2:0:0:
476,229,116160,1,2,2:2:0:0:
439,235,116242,2,0,P|424:247|414:264,1,33.7500012874604,10|2,3:2|2:2,0:0:0:0:
381,378,116406,5,2,2:2:0:0:
373,327,116488,1,2,2:2:0:0:
326,296,116570,1,2,3:2:0:0:
310,247,116652,1,2,2:2:0:0:
341,202,116732,1,2,2:2:0:0:
382,203,116814,1,2,2:2:0:0:
408,229,116896,2,0,P|415:246|417:266,1,33.7500012874604,10|2,3:2|2:2,0:0:0:0:
381,378,117061,5,2,3:2:0:0:
381,378,117389,6,0,P|364:349|335:331,1,67.5000025749208,2|0,3:2|0:0,0:0:0:0:
128,334,117553,2,0,P|161:333|190:318,1,67.5000025749208,2|0,3:2|0:0,0:0:0:0:
292,136,117717,2,0,P|275:165|274:198,1,67.5000025749208,2|0,3:2|0:0,0:0:0:0:
269,280,117881,5,2,3:2:0:0:
7,122,118209,6,0,B|39:118|54:141|54:141|41:116|61:85,1,101.250003862381,10|0,2:3|0:0,0:0:0:0:
136,74,118537,6,0,B|144:41|119:18|82:23|82:23|120:37|126:70,1,144,2|8,3:2|2:2,0:0:0:0:
177,151,118783,1,0,0:0:0:0:
177,151,118865,2,0,P|202:136|216:111,1,58.4999973220826,2|0,3:2|0:0,0:0:0:0:
242,0,119029,1,8,2:2:0:0:
438,46,119192,1,2,3:2:0:0:
433,232,119356,1,10,2:2:0:0:
395,247,119438,1,2,2:2:0:0:
360,235,119520,1,2,3:2:0:0:
349,206,119602,1,2,2:2:0:0:
355,187,119684,2,0,P|372:248|326:302,1,116.999994644165,10|0,2:2|3:3,0:0:0:0:
162,372,120012,5,10,2:2:0:0:
172,376,120094,1,2,2:2:0:0:
177,384,120176,1,2,3:2:0:0:
87,302,120340,5,10,2:2:0:0:
81,326,120422,1,2,2:2:0:0:
56,339,120504,1,2,3:2:0:0:
151,214,120668,5,10,2:2:0:0:
106,225,120750,1,2,2:2:0:0:
68,191,120832,1,2,3:2:0:0:
272,171,120996,5,10,2:2:0:0:
219,143,121078,1,2,2:2:0:0:
211,77,121160,1,2,3:2:0:0:
359,36,121324,1,8,2:2:0:0:
490,136,121488,1,2,3:2:0:0:
455,51,121652,1,10,2:2:0:0:
455,356,121815,5,2,3:2:0:0:
308,384,121979,1,10,2:2:0:0:
164,322,122143,1,2,3:2:0:0:
137,173,122307,1,10,2:2:0:0:
359,36,122471,1,2,3:2:0:0:
490,136,122635,1,8,2:2:0:0:
210,56,122799,5,2,3:2:0:0:
207,50,122881,1,2,2:2:0:0:
204,44,122963,1,10,2:2:0:0:
201,38,123045,1,2,2:2:0:0:
216,10,123127,5,2,3:2:0:0:
235,79,123209,1,2,2:2:0:0:
223,151,123291,1,10,2:2:0:0:
192,218,123373,1,2,2:2:0:0:
163,263,123455,1,2,3:2:0:0:
158,305,123537,1,2,2:2:0:0:
166,338,123619,1,10,2:2:0:0:
175,353,123701,1,2,2:2:0:0:
186,364,123783,6,0,P|153:350|134:314,1,67.5000025749208,6|0,3:2|0:0,0:0:0:0:
38,305,123947,2,0,P|43:281|55:263,1,45,10|0,2:2|0:0,0:0:0:0:
270,277,124111,6,0,P|303:263|322:227,1,67.5000025749208,2|0,3:2|0:0,0:0:0:0:
418,218,124273,2,0,P|413:194|400:176,1,45,10|0,2:2|0:0,0:0:0:0:
216,10,124437,6,0,P|171:27|129:36,1,90,2|8,3:2|2:2,0:0:0:0:
133,135,124684,1,0,0:0:0:0:
133,135,124766,2,0,P|195:109|261:95,1,135.000005149842,2|8,3:2|2:2,0:0:0:0:
492,115,125094,6,0,P|498:85|506:49,1,67.5000025749208,2|0,3:2|0:0,0:0:0:0:
342,0,125258,2,0,P|337:22|332:44,1,45,10|0,2:2|0:0,0:0:0:0:
340,303,125422,6,0,P|373:296|406:290,1,67.5000025749208,2|0,3:2|0:0,0:0:0:0:
387,119,125586,2,0,P|364:123|342:127,1,45,10|0,2:2|0:0,0:0:0:0:
212,264,125750,6,0,P|222:305|230:352,1,90,2|8,3:2|2:2,0:0:0:0:
32,259,126078,1,2,3:2:0:0:
14,243,126160,1,2,2:2:0:0:
21,209,126242,1,10,2:2:0:0:
58,193,126324,1,2,2:2:0:0:
96,217,126406,6,0,P|81:234|61:243,1,45,2|0,3:2|0:0,0:0:0:0:
147,129,126570,1,10,2:2:0:0:
147,129,126652,1,2,2:2:0:0:
147,129,126733,2,0,P|169:138|190:152,1,49.5000015106202,2|0,3:2|0:0,0:0:0:0:
414,303,126897,5,10,2:2:0:0:
409,296,126979,1,2,2:2:0:0:
406,289,127061,2,0,P|409:261|420:218,1,53.9999983520508,2|0,3:2|0:0,0:0:0:0:
350,150,127225,1,10,2:2:0:0:
346,140,127307,1,2,2:2:0:0:
344,131,127389,2,0,P|350:103|366:62,1,58.4999973220826,2|0,3:2|0:0,0:0:0:0:
97,181,127553,5,10,2:2:0:0:
86,169,127635,1,2,2:2:0:0:
74,161,127717,2,0,P|43:140|12:125,1,62.9999980773926,2|0,3:2|0:0,0:0:0:0:
77,1,127881,1,10,2:2:0:0:
83,17,127963,1,2,2:2:0:0:
93,31,128045,2,0,P|121:54|150:72,1,67.5000025749208,2|0,3:2|0:0,0:0:0:0:
181,287,128209,5,10,2:2:0:0:
194,258,128291,1,2,2:2:0:0:
214,236,128373,2,0,P|242:213|276:194,1,72,2|0,3:2|0:0,0:0:0:0:
447,142,128537,1,10,2:2:0:0:
479,90,128619,1,2,2:2:0:0:
443,38,128701,1,2,3:2:0:0:
401,302,128865,5,10,2:2:0:0:
406,311,128947,1,10,2:2:0:0:
411,320,129029,1,6,2:2:0:0:
256,192,129111,12,2,131324,0:0:0:0:
44,324,131652,5,2,3:2:0:0:
132,338,131815,2,0,L|117:271,1,67.5000025749208,2|8,2:2|2:3,0:0:0:0:
44,324,132143,5,2,3:2:0:0:
132,338,132307,2,0,L|117:271,1,67.5000025749208,10|0,1:3|0:0,0:0:0:0:
44,324,132635,5,10,2:3:0:0:
132,338,132799,2,0,L|117:271,1,67.5000025749208,2|8,3:2|2:3,0:0:0:0:
229,279,133127,6,0,L|202:284,2,26.9999991760254,2|10|2,2:2|3:3|3:2,0:0:0:0:
438,245,133619,1,10,1:3:0:0:
351,354,133947,5,10,2:3:0:0:
351,354,134029,1,0,0:0:0:0:
351,354,134111,2,0,L|355:376,2,22.5
328,264,134274,5,10,3:3:0:0:
294,113,134438,2,0,L|308:179,1,67.5000025749208,2|8,2:2|2:3,0:0:0:0:
328,264,134766,5,2,3:2:0:0:
294,113,134930,2,0,L|308:179,1,67.5000025749208,10|0,1:3|0:0,0:0:0:0:
328,264,135258,5,10,2:3:0:0:
294,113,135422,2,0,L|308:179,1,67.5000025749208,2|8,3:2|2:3,0:0:0:0:
215,174,135750,5,2,3:2:0:0:
215,174,135914,1,10,3:3:0:0:
215,174,136078,1,2,2:2:0:0:
373,38,136242,6,0,L|394:137,1,101.250003862381,10|0,1:3|0:0,0:0:0:0:
468,156,136570,6,0,L|483:159,6,16.8750006437302,10|0|0|0|0|0|0,3:3|0:0|0:0|0:0|0:0|0:0|0:0,0:0:0:0:
294,113,136897,5,10,3:3:0:0:
341,280,137061,1,2,2:2:0:0:
341,280,137225,1,8,2:3:0:0:
402,331,137389,5,2,3:2:0:0:
235,284,137553,1,10,1:3:0:0:
235,284,137717,1,0,0:0:0:0:
168,337,137881,5,10,2:3:0:0:
215,170,138045,1,2,3:2:0:0:
215,170,138209,1,8,2:3:0:0:
141,214,138373,6,0,L|114:219,2,26.9999991760254,2|10|2,2:2|3:3|3:2,0:0:0:0:
294,113,138865,6,0,L|393:134,1,101.250003862381,10|0,1:3|0:0,0:0:0:0:
447,197,139192,6,0,L|450:213,6,16.8750006437302,10|0|0|0|0|0|0,2:3|0:0|0:0|0:0|0:0|0:0|0:0,0:0:0:0:
393,134,139520,5,10,3:3:0:0:
429,292,139684,1,2,1:2:0:0:
450,375,139848,1,8,1:3:0:0:
299,267,140012,1,2,1:2:0:0:
133,384,140176,5,10,1:3:0:0:
138,373,140258,1,0,1:1:0:0:
127,366,140340,1,0,1:1:0:0:
138,352,140422,1,0,1:1:0:0:
116,334,140504,1,10,1:3:0:0:
132,303,140586,1,0,1:1:0:0:
91,267,140668,1,2,1:2:0:0:
115,212,140750,1,0,1:1:0:0:
115,212,141815,6,0,B|141:157|129:86|62:51|4:76|4:76|-11:119|7:155|50:164,1,337.5,12|0,3:2|0:0,0:0:0:0:
206,116,142143,6,0,L|228:111,1,22.5,8|0,3:2|0:0,0:0:0:0:
460,381,142799,6,0,L|437:376,1,22.5,8|0,3:2|0:0,0:0:0:0:
6,251,143291,6,0,L|28:246,1,22.5,8|0,3:2|0:0,0:0:0:0:
512,91,143947,5,0,3:3:0:0:
429,32,144111,2,0,L|414:98,1,67.5000025749208,8|0,3:2|0:0,0:0:0:0:
385,248,144274,1,8,2:2:0:0:
393,245,144356,1,8,2:2:0:0:
401,242,144438,1,2,3:2:0:0:
355,234,144520,1,2,2:2:0:0:
316,271,144602,1,2,2:2:0:0:
331,335,144684,1,6,2:3:0:0:
410,339,144766,6,0,L|439:327,1,22.5,6|0,3:2|0:0,0:0:0:0:
92,361,145422,2,0,L|121:349,1,22.5,10|0,3:2|0:0,0:0:0:0:
429,32,145750,6,0,L|400:164,1,135,14|0,3:2|0:0,0:0:0:0:
472,208,146078,6,0,L|480:172,2,36,2|2|2,2:2|2:2|2:2,0:0:0:0:
346,43,146897,5,8,2:2:0:0:
104,192,147061,1,4,3:2:0:0:
352,282,147225,1,8,2:2:0:0:
359,286,147307,1,8,2:2:0:0:
366,290,147389,5,6,3:2:0:0:
335,198,147553,1,10,2:2:0:0:
59,288,147717,1,2,3:2:0:0:
90,380,147881,1,10,2:2:0:0:
274,320,148045,1,2,3:2:0:0:
243,228,148209,1,8,2:2:0:0:
427,168,148373,5,2,3:2:0:0:
182,350,148537,1,10,3:2:0:0:
182,350,148865,5,2,3:2:0:0:
27,210,149029,1,10,2:2:0:0:
114,29,149192,1,2,3:2:0:0:
292,25,149356,1,10,2:2:0:0:
343,140,149520,1,0,3:3:0:0:
239,210,149684,1,10,2:2:0:0:
209,207,149766,1,2,2:2:0:0:
178,181,149848,1,2,3:2:0:0:
172,130,149930,1,2,2:2:0:0:
224,78,150012,5,2,3:2:0:0:
356,260,150176,1,10,2:2:0:0:
431,225,150340,1,2,3:2:0:0:
357,360,150504,1,10,2:2:0:0:
512,208,150668,5,2,3:2:0:0:
298,134,150832,1,10,2:2:0:0:
150,233,150996,1,2,3:2:0:0:
129,378,151160,1,10,2:2:0:0:
394,148,151324,5,10,3:2:0:0:
394,148,151651,6,0,B|401:121|440:120|434:127|481:139|499:84|470:49|439:63,1,161.999995056153,2|0,3:2|0:0,0:0:0:0:
394,148,151979,2,0,B|405:122|375:97|375:106|331:86|352:32|396:23|411:53,1,161.999995056153,2|12,3:2|2:2,0:0:0:0:
75,195,152635,5,2,3:2:0:0:
56,185,152717,1,2,2:2:0:0:
51,157,152799,1,2,2:2:0:0:
71,131,152881,1,2,2:2:0:0:
108,125,152963,1,10,3:2:0:0:
141,149,153045,1,2,2:2:0:0:
151,204,153127,1,2,2:2:0:0:
194,247,153209,1,2,2:2:0:0:
256,240,153291,1,2,3:2:0:0:
285,183,153373,1,2,2:2:0:0:
259,125,153455,1,2,2:2:0:0:
251,122,153537,1,2,2:2:0:0:
242,122,153619,1,10,3:2:0:0:
235,125,153701,1,2,2:2:0:0:
231,132,153783,5,2,2:2:0:0:
240,99,153865,1,2,2:2:0:0:
282,80,153947,1,2,3:2:0:0:
336,93,154029,1,2,2:2:0:0:
376,142,154111,1,2,2:2:0:0:
436,165,154192,1,2,2:2:0:0:
492,134,154274,2,0,B|476:135|465:130|465:130|433:138|424:184,1,80.9999975280763,10|2,3:2|2:2,0:0:0:0:
361,322,154438,1,2,2:2:0:0:
393,366,154520,1,2,2:2:0:0:
434,374,154602,1,2,3:2:0:0:
462,370,154684,1,2,2:2:0:0:
474,358,154766,2,0,P|460:328|429:315,1,67.5000025749208,2|2,2:2|2:2,0:0:0:0:
324,214,154930,2,0,P|291:211|264:230,1,67.5000025749208,10|2,3:2|2:2,0:0:0:0:
96,367,155094,5,2,2:2:0:0:
51,335,155175,1,2,2:2:0:0:
43,281,155257,1,6,3:2:0:0:
77,237,155339,1,2,2:2:0:0:
131,232,155421,1,2,2:2:0:0:
173,268,155503,1,2,2:2:0:0:
176,322,155586,2,0,P|148:313|136:288,1,53.9999983520508,10|2,3:2|2:2,0:0:0:0:
196,144,155750,5,2,2:2:0:0:
200,100,155831,1,2,2:2:0:0:
234,72,155913,1,2,3:2:0:0:
278,78,155995,1,2,2:2:0:0:
303,114,156077,1,2,2:2:0:0:
295,157,156159,1,2,2:2:0:0:
259,181,156242,2,0,P|254:158|271:134,1,53.9999983520508,10|2,3:2|2:2,0:0:0:0:
395,146,156406,5,2,2:2:0:0:
428,131,156487,1,2,2:2:0:0:
461,144,156569,1,2,3:2:0:0:
474,176,156651,1,0,0:0:0:0:
459,208,156733,2,0,P|441:200|430:184,2,26.9999991760254,2|2|2,2:2|2:2|2:2,0:0:0:0:
423,50,156897,6,0,P|396:52|373:66,1,53.9999983520508,10|0,3:2|0:0,0:0:0:0:
210,48,157061,2,0,P|198:72|199:99,1,53.9999983520508,2|0,2:2|0:0,0:0:0:0:
367,335,157225,2,0,P|390:322|405:300,1,53.9999983520508,2|0,3:2|0:0,0:0:0:0:
330,200,157389,2,0,P|306:212|291:234,1,53.9999983520508,2|0,2:2|0:0,0:0:0:0:
97,384,157553,5,10,3:2:0:0:
88,340,157635,1,8,2:2:0:0:
78,296,157717,1,10,2:2:0:0:
69,252,157799,1,8,2:2:0:0:
60,208,157880,5,6,3:2:0:0:
72,220,157963,1,2,2:2:0:0:
93,224,158045,1,2,2:2:0:0:
123,217,158127,1,2,2:2:0:0:
151,182,158209,1,10,3:2:0:0:
146,129,158291,1,2,2:2:0:0:
98,98,158373,1,2,2:2:0:0:
105,162,158455,1,2,2:2:0:0:
161,191,158537,1,2,3:2:0:0:
227,195,158619,1,2,2:2:0:0:
284,160,158701,1,2,2:2:0:0:
305,122,158783,1,2,2:2:0:0:
327,111,158865,1,10,3:2:0:0:
347,116,158947,1,2,2:2:0:0:
357,125,159029,5,2,2:2:0:0:
332,88,159111,1,2,2:2:0:0:
335,43,159192,1,2,3:2:0:0:
378,12,159274,1,2,2:2:0:0:
436,20,159356,1,2,2:2:0:0:
470,74,159438,1,2,2:2:0:0:
446,133,159520,2,0,P|426:154|413:174,1,53.9999983520508,10|2,3:2|2:2,0:0:0:0:
383,338,159684,1,2,2:2:0:0:
332,319,159766,1,2,2:2:0:0:
321,278,159848,1,2,3:2:0:0:
332,246,159930,1,2,2:2:0:0:
359,241,160012,2,0,P|348:265|325:282,1,53.9999983520508,2|2,2:2|2:2,0:0:0:0:
251,366,160176,2,0,P|224:361|202:343,1,53.9999983520508,10|2,3:2|2:2,0:0:0:0:
65,136,160340,5,2,2:2:0:0:
15,149,160422,1,2,2:2:0:0:
0,205,160504,1,2,3:2:0:0:
36,247,160586,1,2,2:2:0:0:
79,247,160668,1,2,2:2:0:0:
111,252,160750,1,2,2:2:0:0:
128,270,160832,2,0,L|139:294,1,22.5,10|2,3:2|2:2,0:0:0:0:
100,125,160996,5,2,2:2:0:0:
149,106,161078,1,2,2:2:0:0:
194,142,161160,1,2,3:2:0:0:
189,197,161242,1,2,2:2:0:0:
154,223,161324,1,2,2:2:0:0:
131,245,161406,1,2,2:2:0:0:
128,270,161487,2,0,L|139:294,1,22.5,10|2,3:2|2:2,0:0:0:0:
92,161,161651,5,2,3:2:0:0:
92,161,161979,5,0,3:3:0:0:
239,84,162143,1,10,2:2:0:0:
155,50,162307,5,0,3:3:0:0:
410,171,162471,1,10,2:2:0:0:
447,90,162635,5,0,3:3:0:0:
128,270,162799,1,10,2:2:0:0:
171,279,162881,1,2,0:0:0:0:
214,302,162963,1,10,3:2:0:0:
241,339,163045,1,10,2:2:0:0:
256,384,163127,1,2,3:2:0:0:
263,350,163209,1,2,0:0:0:0:
288,322,163291,1,2,0:0:0:0:
331,304,163373,1,2,0:0:0:0:
360,288,163455,2,0,P|344:281|327:279,1,33.7500012874604,10|0,3:2|0:0,0:0:0:0:
102,236,163619,5,2,2:2:0:0:
94,173,163701,1,2,0:0:0:0:
142,131,163783,1,2,3:3:0:0:
205,137,163865,1,2,0:0:0:0:
254,178,163947,5,10,2:2:0:0:
305,124,164029,1,10,2:2:0:0:
381,125,164111,1,10,3:2:0:0:
432,181,164192,1,10,2:2:0:0:
417,254,164274,1,10,2:2:0:0:
417,254,164602,6,0,P|445:272|479:276,1,67.5000025749208,2|0,3:2|0:0,0:0:0:0:
444,382,164766,2,0,P|415:363|381:359,1,67.5000025749208,2|0,3:2|0:0,0:0:0:0:
89,190,164930,6,0,P|60:208|26:212,1,67.5000025749208,2|0,3:2|0:0,0:0:0:0:
62,318,165094,2,0,P|90:299|124:295,1,67.5000025749208,2|0,3:2|0:0,0:0:0:0:
381,125,165258,6,0,P|389:90|402:55,2,67.5000025749208,2|0|8,2:2|0:0|2:3,0:0:0:0:
382,358,165750,6,0,L|415:350,1,33.7500012874604,6|0,3:2|0:0,0:0:0:0:
277,316,165914,2,0,L|310:308,1,33.7500012874604,2|0,2:2|0:0,0:0:0:0:
172,274,166078,2,0,L|205:266,1,33.7500012874604,2|0,3:2|0:0,0:0:0:0:
67,232,166242,2,0,L|100:224,1,33.7500012874604,2|0,2:2|0:0,0:0:0:0:
281,195,166406,5,2,3:2:0:0:
249,182,166488,1,2,2:2:0:0:
202,164,166570,1,2,2:2:0:0:
140,139,166652,1,2,2:2:0:0:
72,109,166733,1,2,3:2:0:0:
133,96,166815,1,2,2:2:0:0:
202,81,166897,1,2,2:2:0:0:
280,64,166979,1,2,2:2:0:0:
365,46,167061,6,0,L|372:12,1,33.7500012874604,2|0,3:2|0:0,0:0:0:0:
396,149,167225,2,0,L|403:115,1,33.7500012874604,2|0,2:2|0:0,0:0:0:0:
427,252,167389,2,0,L|434:218,1,33.7500012874604,2|0,3:2|0:0,0:0:0:0:
458,355,167553,2,0,L|465:321,1,33.7500012874604,2|0,2:2|0:0,0:0:0:0:
306,164,167717,5,2,3:2:0:0:
315,196,167799,1,2,2:2:0:0:
330,244,167881,1,2,2:2:0:0:
350,308,167963,1,2,2:2:0:0:
370,379,168044,1,2,3:2:0:0:
321,341,168126,1,2,2:2:0:0:
266,296,168208,1,2,2:2:0:0:
204,247,168290,1,2,2:2:0:0:
136,191,168373,6,0,L|102:198,1,33.7500012874604,2|0,3:2|0:0,0:0:0:0:
58,273,168537,2,0,L|24:279,1,33.7500012874604,2|0,2:2|0:0,0:0:0:0:
215,110,168701,2,0,L|181:116,1,33.7500012874604,2|0,3:2|0:0,0:0:0:0:
294,29,168865,2,0,L|260:35,1,33.7500012874604,2|0,2:2|0:0,0:0:0:0:
14,14,169029,5,2,3:2:0:0:
43,28,169111,1,2,2:2:0:0:
88,51,169191,1,2,2:2:0:0:
147,79,169273,1,2,2:2:0:0:
215,110,169355,1,2,3:2:0:0:
273,89,169438,1,2,2:2:0:0:
339,63,169520,1,2,2:2:0:0:
413,35,169602,1,2,2:2:0:0:
495,3,169684,6,0,L|487:36,1,33.7500012874604,2|0,3:2|0:0,0:0:0:0:
372,140,169848,2,0,L|330:159,1,45,2|0,2:2|0:0,0:0:0:0:
103,148,170012,1,2,2:2:0:0:
89,140,170094,1,0,2:2:0:0:
74,132,170176,1,6,2:3:0:0:
60,124,170258,1,4,2:3:0:0:
45,116,170340,2,0,P|64:96|93:88,1,56.25,6|0,3:3|0:0,0:0:0:0:
220,0,170504,2,0,P|248:17|267:45,1,67.5000025749208,2|0,2:2|0:0,0:0:0:0:
416,252,170668,1,2,2:2:0:0:
456,259,170750,1,0,2:2:0:0:
489,232,170832,1,6,2:3:0:0:
486,189,170914,1,4,2:3:0:0:
445,155,170996,5,6,3:2:0:0:
367,327,171160,1,2,2:2:0:0:
116,212,171324,1,2,3:2:0:0:
38,384,171488,1,2,2:2:0:0:
321,185,171652,5,2,3:2:0:0:
341,152,171733,1,2,2:2:0:0:
300,121,171815,1,2,2:2:0:0:
240,85,171897,1,2,2:2:0:0:
276,36,171979,1,2,3:2:0:0:
326,78,172061,1,2,2:2:0:0:
287,138,172143,1,2,2:2:0:0:
243,201,172225,1,2,2:2:0:0:
307,246,172307,5,2,3:2:0:0:
90,134,172471,1,2,2:2:0:0:
8,268,172635,1,2,3:2:0:0:
224,380,172799,1,2,2:2:0:0:
363,152,172963,5,2,3:2:0:0:
348,110,173044,1,2,2:2:0:0:
421,92,173126,1,2,2:2:0:0:
493,77,173208,1,2,2:2:0:0:
477,9,173290,1,2,3:2:0:0:
423,27,173372,1,2,2:2:0:0:
415,100,173454,1,2,2:2:0:0:
405,175,173536,1,2,2:2:0:0:
344,217,173618,5,2,3:2:0:0:
154,52,173783,1,2,2:2:0:0:
300,305,173947,1,2,3:2:0:0:
512,177,174110,1,2,2:2:0:0:
120,188,174274,5,2,3:2:0:0:
103,230,174355,1,2,2:2:0:0:
162,257,174437,1,2,2:2:0:0:
229,287,174519,1,2,2:2:0:0:
196,349,174601,1,2,3:2:0:0:
144,329,174683,1,2,2:2:0:0:
174,257,174765,1,2,2:2:0:0:
209,188,174847,1,2,2:2:0:0:
144,148,174930,6,0,P|124:128|98:121,1,53.9999983520508,2|0,3:2|0:0,0:0:0:0:
334,85,175094,2,0,P|340:58|329:23,1,62.9999980773926,2|0,2:2|0:0,0:0:0:0:
479,212,175258,1,2,2:2:0:0:
494,210,175340,1,0,2:2:0:0:
504,202,175422,1,6,2:3:0:0:
510,190,175504,1,4,2:3:0:0:
512,177,175586,2,0,P|486:201|451:208,1,72,6|0,3:3|0:0,0:0:0:0:
264,339,175750,2,0,P|225:326|201:295,1,80.9999975280763,2|0,2:2|0:0,0:0:0:0:
71,119,175914,1,2,2:2:0:0:
78,115,175996,1,0,2:2:0:0:
85,111,176078,1,6,2:3:0:0:
92,107,176160,1,4,2:3:0:0:
167,133,176242,5,6,3:2:0:0:
167,133,176733,5,2,3:2:0:0:
354,81,176897,1,2,3:2:0:0:
220,315,177061,1,2,3:2:0:0:
490,307,177225,1,2,3:2:0:0:
512,384,177389,1,2,3:2:0:0:
256,192,177553,5,10,3:2:0:0:
