osu file format v14

[General]
AudioFilename: audio.mp3
AudioLeadIn: 0
PreviewTime:57627
Countdown: 0
SampleSet: Soft
StackLeniency: 0.5
Mode: 0
LetterboxInBreaks: 0
WidescreenStoryboard: 1

[Editor]
Bookmarks: 98779
DistanceSpacing: 0.6
BeatDivisor: 4
GridSize: 32
TimelineZoom: 1.700005

[Metadata]
Title:Dohna Dohna no Uta (Game Ver.)
TitleUnicode:ドーナドーナのうた (Game Ver.)
Artist:Tsukino
ArtistUnicode:月乃
Creator:Riana
Version:Kuse's Insane
Source:ドーナドーナ いっしょにわるいことをしよう
Tags:dona Issho ni Warui Koto o Shiyou アリスソフト alicesoft vn visual novel eroge japanese video game size pop jpop j-pop アリスサウンドアルバム Vol.33 alice sound album chocomochi goldenmine KuBsNia_ZhoYL_ kuse interlude- lude hoto cocoa heilia buckfro i_love_jrszz i love jrszz 水夏える minatsu eru muse dash
BeatmapID:2743403
BeatmapSetID:1316020

[Difficulty]
HPDrainRate:5
CircleSize:4
OverallDifficulty:7
ApproachRate:8.6
SliderMultiplier:1.6
SliderTickRate:1

[Events]
//Background and Video events
0,0,"00050800.1605610134.5277orig.jpg",0,0
//Break Periods
//Storyboard Layer 0 (Background)
//Storyboard Layer 1 (Fail)
//Storyboard Layer 2 (Pass)
//Storyboard Layer 3 (Foreground)
//Storyboard Layer 4 (Overlay)
//Storyboard Sound Samples

[TimingPoints]
95,394.736842105263,4,2,1,40,1,0
6016,-100,4,2,1,60,0,0
6410,-83.3333333333333,4,2,1,80,0,0
12331,-62.5,4,2,1,80,0,0
12627,-62.5,4,2,1,5,0,0
12726,-83.3333333333333,4,2,1,80,0,0
14404,-83.3333333333333,4,2,1,5,0,0
14502,-83.3333333333333,4,2,1,80,0,0
17463,-83.3333333333333,4,2,1,70,0,0
19042,-125,4,2,1,50,0,0
30292,-200,4,2,1,50,0,0
31673,-100,4,2,1,70,0,0
33154,-100,4,2,1,5,0,0
33252,-100,4,2,1,70,0,0
36312,-100,4,2,1,5,0,0
36410,-100,4,2,1,70,0,0
44305,-125,4,2,1,70,0,0
50621,-100,4,2,1,80,0,0
57726,-166.666666666667,4,2,1,80,0,0
58022,-166.666666666667,4,2,1,5,0,0
58121,-62.5,4,2,1,50,0,0
58417,-100,4,2,1,5,0,0
58516,-80,4,2,1,90,0,0
70752,-62.5,4,2,1,90,0,0
71048,-62.5,4,2,1,5,0,0
71147,-80,4,2,1,90,0,0
83779,-80,4,2,1,80,0,0
88614,-80,4,2,1,5,0,0
88713,-80,4,2,1,80,0,0
89700,-62.5,4,2,1,80,0,0
89996,-62.5,4,2,1,80,0,0
90094,-80,4,2,1,80,0,0
91772,-80,4,2,1,5,0,0
91871,-80,4,2,1,80,0,0
93252,-80,4,2,1,70,0,0
97594,-62.5,4,2,1,50,0,0
97891,-62.5,4,2,1,5,0,0
97989,-100,4,2,1,50,0,0
99371,-62.5,4,2,1,100,0,0
99766,-62.5,4,2,1,50,0,0

[Colours]
Combo1 : 255,224,132
Combo2 : 181,255,181
Combo3 : 168,207,255
Combo4 : 250,169,181

[HitObjects]
145,334,95,5,2,0:2:0:0:
79,278,292,1,2,0:2:0:0:
69,280,391,1,2,0:2:0:0:
59,283,489,1,2,0:2:0:0:
141,222,687,1,2,0:2:0:0:
89,145,884,6,0,P|122:119|162:146,1,80,2|2,0:2|0:2,0:0:0:0:
191,144,1180,2,0,P|225:153|256:110,1,80,2|0,0:2|0:0,0:0:0:0:
296,99,1476,2,0,B|324:84|352:91|352:91|368:123|424:133,1,120,2|0,0:2|0:0,0:0:0:0:
452,112,1871,5,2,0:2:0:0:
431,199,2068,1,2,0:2:0:0:
509,185,2266,2,0,L|418:201,1,80,2|0,0:2|0:0,0:0:0:0:
341,209,2660,1,2,0:2:0:0:
243,222,2858,1,2,0:2:0:0:
348,208,3055,1,2,0:2:0:0:
344,319,3252,5,2,0:2:0:0:
410,263,3449,1,2,0:2:0:0:
420,265,3548,1,2,0:2:0:0:
430,268,3646,1,2,0:2:0:0:
348,207,3844,1,2,0:2:0:0:
400,130,4041,6,0,P|367:104|327:131,1,80,2|0,0:2|0:0,0:0:0:0:
298,129,4337,2,0,P|264:138|233:95,1,80,2|0,0:2|0:0,0:0:0:0:
193,84,4634,2,0,B|158:93|158:93|146:89|146:89|126:105|126:105|114:102|114:102|65:118,1,120,2|0,0:1|0:0,0:0:0:0:
50,154,5029,5,0,0:0:0:0:
179,218,5226,1,2,0:0:0:0:
96,226,5423,2,0,L|67:229,2,20
105,226,5621,6,0,L|97:325,1,80,2|0,0:0|0:0,0:0:0:0:
265,272,6016,1,8,0:2:0:0:
261,262,6114,1,8,0:2:0:0:
258,253,6213,1,8,0:2:0:0:
254,244,6312,1,8,0:2:0:0:
249,230,6410,6,0,P|272:176|314:122,1,95.9999970703126,6|2,3:2|0:2,0:0:0:0:
233,59,6805,1,8,0:2:0:0:
172,155,7002,2,0,B|144:118|144:118|-13:96,1,191.999994140625,2|2,0:2|0:0,0:0:0:0:
21,216,7594,1,8,0:0:0:0:
128,280,7792,6,0,P|172:242|236:231,1,95.9999970703126,2|0,0:2|3:0,0:0:0:0:
379,204,8187,2,0,P|325:233|304:278,1,95.9999970703126,2|10,0:2|0:2,0:0:0:0:
479,304,8581,2,0,L|495:100,1,191.999994140625,2|2,0:2|0:2,0:0:0:0:
355,51,9173,1,10,0:2:0:0:
327,48,9272,1,2,0:2:0:0:
306,81,9371,1,2,0:2:0:0:
273,64,9469,1,2,0:2:0:0:
243,77,9568,6,0,B|205:107|161:112|108:102|108:102|139:120|147:156,1,191.999994140625,2|10,3:2|0:2,0:0:0:0:
29,261,10160,2,0,P|49:196|97:171,1,95.9999970703126,2|0,0:0|3:0,0:0:0:0:
180,309,10555,2,0,P|120:312|87:349,1,95.9999970703126,2|10,0:2|0:2,0:0:0:0:
246,367,10950,6,0,B|344:346|287:265|393:257,1,191.999994140625,2|2,0:2|0:2,0:0:0:0:
512,384,11542,2,0,P|468:350|410:355,1,95.9999970703126,10|2,0:2|0:2,0:0:0:0:
217,257,11937,2,0,P|264:261|299:292,1,95.9999970703126,2|2,3:2|0:0,0:0:0:0:
390,257,12331,6,0,B|401:188|401:188|426:170|426:170|407:146|407:146|416:66,1,192,10|0,0:2|0:0,0:0:0:0:
413,85,12726,6,0,P|346:58|311:151,1,191.999994140625,6|10,3:2|0:2,0:0:0:0:
299,292,13318,2,0,P|264:261|217:257,1,95.9999970703126,2|0,0:2|3:0,0:0:0:0:
107,182,13713,2,0,P|89:130|32:107,1,95.9999970703126,2|8,0:2|0:2,0:0:0:0:
6,274,14108,6,0,B|58:325|58:325|164:304,1,143.999995605469,2|0,0:2|0:0,0:0:0:0:
127,311,14502,1,2,0:2:0:0:
237,231,14700,1,10,0:2:0:0:
153,122,14897,2,0,P|207:136|268:175,1,95.9999970703126,2|0,0:0|3:0,0:0:0:0:
357,82,15292,1,2,0:2:0:0:
463,168,15489,1,10,0:2:0:0:
460,191,15588,1,2,0:0:0:0:
477,229,15687,1,2,0:2:0:0:
451,263,15785,1,2,0:2:0:0:
447,286,15884,6,0,B|429:324|379:329|379:329|337:275|263:300,1,191.999994140625,6|8,3:2|0:2,0:0:0:0:
122,375,16476,2,0,L|243:358,1,95.9999970703126,2|0,0:2|3:0,0:0:0:0:
60,254,16871,2,0,L|189:279,1,95.9999970703126,2|8,0:2|0:2,0:0:0:0:
227,182,17266,1,2,0:2:0:0:
108,99,17463,6,0,B|105:153|105:153|157:214|157:214|153:279,3,191.999994140625,0|0|0|0,3:0|3:0|3:0|3:0,0:0:0:0:
153,271,19042,6,0,P|204:199|299:232,1,192,4|2,3:2|0:0,0:0:0:0:
343,312,19831,2,0,B|488:290|488:290|427:268,1,192,2|2,0:2|0:0,0:0:0:0:
379,207,20621,5,2,0:2:0:0:
383,211,21213,1,2,0:2:0:0:
383,211,21410,2,0,L|391:132,2,64,2|2|2,0:0|0:0|0:0,0:0:0:0:
327,280,22002,1,2,0:0:0:0:
237,211,22200,6,0,B|123:216|208:319|64:312,1,192,2|2,0:2|0:0,0:0:0:0:
7,260,22989,2,0,P|1:181|112:153,1,192,2|2,0:2|0:2,0:0:0:0:
176,164,23779,5,2,0:2:0:0:
180,168,24371,1,2,0:2:0:0:
180,168,24568,2,0,L|266:179,2,64,2|2|2,0:0|0:0|0:0,0:0:0:0:
141,88,25160,1,2,0:0:0:0:
253,26,25358,6,0,B|305:17|305:17|391:56|391:56|453:42,1,192,2|2,0:2|0:0,0:0:0:0:
502,150,26147,2,0,B|475:111|475:111|453:267,1,192,2|2,0:2|0:0,0:0:0:0:
449,340,26937,5,2,0:2:0:0:
453,344,27529,1,2,0:2:0:0:
453,344,27726,2,0,L|527:332,1,64,2|2,0:0|0:0,0:0:0:0:
369,283,28121,1,2,0:0:0:0:
321,370,28318,1,2,0:0:0:0:
236,258,28516,6,0,P|280:217|281:89,1,192,2|2,0:2|0:0,0:0:0:0:
189,92,29305,2,0,P|177:184|235:257,1,192,2|2,0:2|0:0,0:0:0:0:
317,290,30094,1,2,0:2:0:0:
383,218,30292,5,2,0:2:0:0:
392,200,30390,1,2,0:2:0:0:
409,190,30489,1,2,0:2:0:0:
429,190,30588,1,2,0:2:0:0:
445,201,30686,1,2,0:2:0:0:
454,218,30785,1,2,0:2:0:0:
453,238,30884,1,2,0:2:0:0:
441,254,30982,1,2,0:2:0:0:
423,262,31081,1,2,0:2:0:0:
404,259,31180,1,2,0:2:0:0:
458,342,31673,6,0,B|410:336|410:336|361:283|361:283|300:276,1,160,6|0,3:2|0:0,0:0:0:0:
258,360,32266,1,0,0:0:0:0:
133,244,32463,2,0,L|104:241,4,20,2|0|0|0|0,0:2|0:0|0:0|0:0|0:0,0:0:0:0:
186,313,32858,2,0,L|42:333,1,120,2|0,3:2|0:0,0:0:0:0:
59,337,33252,6,0,B|74:165,1,160,2|0,0:2|0:0,0:0:0:0:
186,53,33844,2,0,P|123:75|89:107,1,80,2|0,0:2|0:0,0:0:0:0:
219,159,34239,1,0,0:0:0:0:
197,268,34437,1,2,3:2:0:0:
217,145,34634,2,0,L|214:113,2,20
219,159,34831,6,0,B|333:182|333:182|384:163,1,160,2|0,3:2|0:0,0:0:0:0:
458,126,35423,1,0,0:0:0:0:
505,271,35621,2,0,L|508:299,4,20,2|0|0|0|0,0:2|0:0|0:0|0:0|0:0,0:0:0:0:
439,216,36016,2,0,L|418:347,1,120,2|0,3:2|0:0,0:0:0:0:
420,334,36410,5,2,3:2:0:0:
277,270,36608,1,2,0:2:0:0:
147,337,36805,1,2,0:2:0:0:
237,349,37002,2,0,L|250:252,1,80,2|0,0:2|0:0,0:0:0:0:
126,195,37397,1,2,3:2:0:0:
81,280,37594,1,2,0:2:0:0:
19,167,37792,2,0,L|-12:171,2,20,2|0|0,0:2|0:0|0:0,0:0:0:0:
31,164,37989,6,0,L|45:52,1,80,6|0,3:2|0:0,0:0:0:0:
113,10,38384,1,0,3:0:0:0:
141,125,38581,1,2,0:2:0:0:
266,89,38779,2,0,P|220:59|162:54,1,80,2|0,3:2|0:0,0:0:0:0:
214,192,39173,1,2,3:2:0:0:
119,264,39371,1,2,0:2:0:0:
243,369,39568,6,0,L|253:290,1,80,2|0,3:2|0:0,0:0:0:0:
347,264,39963,1,0,3:0:0:0:
435,356,40160,2,0,P|483:370|528:367,2,80,2|2|0,0:2|3:2|0:0,0:0:0:0:
494,278,40752,1,2,3:2:0:0:
401,189,40950,1,0,0:0:0:0:
495,74,41147,6,0,L|482:163,1,80,2|0,3:2|0:0,0:0:0:0:
401,189,41542,1,2,3:2:0:0:
322,37,41739,2,0,L|335:135,1,80,2|0,0:2|3:0,0:0:0:0:
288,203,42134,1,0,0:0:0:0:
208,88,42331,6,0,L|225:-1,1,80,2|0,3:2|0:0,0:0:0:0:
81,132,42726,2,0,L|97:226,1,80,0|0,3:0|0:0,0:0:0:0:
223,274,43121,2,0,L|206:373,1,80,2|2,3:2|0:2,0:0:0:0:
49,368,43516,2,0,L|39:275,1,80,2|2,3:2|0:2,0:0:0:0:
40,288,44305,6,0,L|384:326,1,320,6|0,3:2|0:0,0:0:0:0:
507,200,45489,2,0,P|431:216|414:267,2,128,0|2|2,1:0|1:2|1:2,0:0:0:0:
507,200,46476,1,0,3:0:0:0:
440,162,46673,1,2,1:2:0:0:
401,95,46871,1,0,3:0:0:0:
415,19,47068,1,2,0:2:0:0:
415,19,47463,6,0,P|446:74|291:61,1,320,6|0,3:2|0:0,0:0:0:0:
154,23,48647,2,0,B|92:37|92:37|91:35|91:35|17:50,2,128,6|2|2,1:2|1:2|1:2,0:0:0:0:
231,145,49634,1,0,3:0:0:0:
154,23,49831,1,2,1:2:0:0:
213,71,50029,1,0,3:0:0:0:
178,213,50226,1,8,3:3:0:0:
152,208,50325,1,8,3:3:0:0:
126,210,50423,1,8,3:3:0:0:
104,223,50522,1,8,3:3:0:0:
86,250,50621,6,0,L|107:361,1,80,12|0,0:2|0:0,0:0:0:0:
297,377,51016,2,0,L|311:281,1,80,8|0,0:2|0:0,0:0:0:0:
381,221,51410,1,8,0:2:0:0:
472,368,51608,1,0,0:0:0:0:
456,247,51805,1,8,0:2:0:0:
401,333,52002,1,0,0:0:0:0:
381,221,52200,6,0,L|470:233,1,80,8|0,0:2|0:0,0:0:0:0:
506,56,52594,2,0,L|403:80,1,80,8|0,0:2|0:0,0:0:0:0:
351,145,52989,1,8,0:2:0:0:
210,68,53187,1,0,0:0:0:0:
307,229,53384,1,8,0:2:0:0:
287,80,53581,1,0,0:0:0:0:
164,194,53779,5,2,3:2:0:0:
199,326,53976,1,8,0:2:0:0:
247,175,54173,1,0,3:2:0:0:
195,338,54371,1,8,0:2:0:0:
326,208,54568,1,0,3:2:0:0:
190,353,54766,1,8,0:2:0:0:
377,280,54963,1,0,3:2:0:0:
185,366,55160,1,8,0:2:0:0:
99,253,55358,6,0,L|43:262,3,40,0|8|8|8,3:2|0:2|0:2|0:2,0:0:0:0:
150,168,55752,2,0,L|196:177,3,40,8|8|8|8,0:2|0:2|0:2|0:2,0:0:0:0:
102,83,56147,5,8,0:2:0:0:
136,70,56245,1,8,0:2:0:0:
173,67,56344,1,8,0:2:0:0:
208,81,56443,1,8,0:2:0:0:
238,103,56541,1,8,0:2:0:0:
270,122,56640,1,8,0:2:0:0:
307,125,56739,1,8,0:2:0:0:
342,114,56837,1,8,0:2:0:0:
375,95,56936,1,8,0:2:0:0:
375,95,57726,6,0,P|419:95|456:120,1,71.9999978027344,2|0,3:2|0:0,0:0:0:0:
443,107,58121,6,0,B|488:84|488:84|492:35|492:35|447:58|447:58|442:102,1,192,8|0,0:1|0:0,0:0:0:0:
443,107,58516,6,0,L|460:220,1,100,6|0,3:2|0:0,0:0:0:0:
407,340,58910,1,10,0:2:0:0:
295,236,59108,2,0,P|344:234|408:275,1,100,2|2,0:2|3:2,0:0:0:0:
207,268,59502,2,0,P|184:222|185:146,1,100,2|10,0:2|0:2,0:0:0:0:
265,22,59897,6,0,L|247:135,1,100,2|2,0:2|3:2,0:0:0:0:
97,97,60292,1,2,0:2:0:0:
123,82,60391,1,2,0:2:0:0:
152,79,60489,1,10,0:2:0:0:
119,208,60687,1,2,0:2:0:0:
1,133,60884,1,2,3:2:0:0:
128,214,61081,1,2,0:2:0:0:
62,358,61279,1,10,0:2:0:0:
150,336,61476,1,2,0:2:0:0:
1,233,61673,6,0,B|95:222|42:354|154:335,1,200,2|10,3:2|0:2,0:0:0:0:
285,267,62266,2,0,P|235:233|192:237,1,100,2|0,0:2|3:0,0:0:0:0:
269,348,62660,1,2,0:2:0:0:
293,341,62759,1,2,0:2:0:0:
317,347,62858,1,10,0:2:0:0:
465,284,63055,6,0,L|486:74,1,200,2|2,0:2|0:2,0:0:0:0:
319,47,63647,2,0,L|335:174,1,100,10|2,0:2|0:2,0:0:0:0:
148,11,64042,1,2,3:2:0:0:
242,0,64239,1,2,0:2:0:0:
81,75,64437,1,10,0:2:0:0:
256,166,64634,1,2,0:2:0:0:
250,195,64733,1,0,0:0:0:0:
242,223,64831,6,0,B|201:230|201:230|124:163|124:163|56:186,1,200,6|10,3:2|0:2,0:0:0:0:
25,352,65423,2,0,L|154:374,1,100,2|0,0:2|3:0,0:0:0:0:
260,296,65818,1,2,0:2:0:0:
280,384,66016,1,10,0:2:0:0:
359,244,66213,6,0,P|286:212|271:166,1,100,2|0,0:2|3:0,0:0:0:0:
366,90,66608,1,2,0:2:0:0:
363,119,66706,1,0,0:0:0:0:
359,148,66805,1,8,0:2:0:0:
223,121,67002,1,2,0:2:0:0:
306,5,67200,1,2,3:2:0:0:
218,133,67397,1,2,0:2:0:0:
115,18,67594,1,10,0:2:0:0:
181,62,67792,1,2,0:2:0:0:
0,122,67989,6,0,B|136:142|136:142|138:181|182:205,1,200,2|10,3:2|0:2,0:0:0:0:
305,99,68581,2,0,P|242:108|207:162,1,100,2|0,0:2|3:0,0:0:0:0:
190,265,68976,1,2,0:2:0:0:
74,210,69173,1,10,0:2:0:0:
9,328,69371,1,2,0:2:0:0:
37,336,69469,1,2,0:2:0:0:
65,345,69568,5,2,3:2:0:0:
190,265,69766,1,2,0:2:0:0:
237,384,69963,1,0,3:0:0:0:
261,380,70062,1,8,0:2:0:0:
285,374,70160,1,0,3:0:0:0:
309,370,70259,1,8,0:2:0:0:
333,364,70358,2,0,L|325:305,1,50,10|8,0:2|0:0,0:0:0:0:
357,225,70555,2,0,L|361:159,1,50,8|8,0:0|0:0,0:0:0:0:
417,344,70752,6,0,B|457:373|457:373|506:355|506:355|463:326|463:326|419:342,1,192,8|0,0:1|0:0,0:0:0:0:
417,344,71147,6,0,P|371:316|297:325,1,100,6|0,3:2|0:0,0:0:0:0:
234,384,71542,1,10,0:2:0:0:
182,234,71739,2,0,L|206:108,1,100,2|2,0:2|3:2,0:0:0:0:
340,99,72134,2,0,L|361:229,1,100,2|10,0:2|0:2,0:0:0:0:
512,110,72529,6,0,P|442:127|420:180,1,100,2|0,0:2|3:0,0:0:0:0:
286,258,72923,1,2,0:2:0:0:
263,247,73022,1,2,0:2:0:0:
237,247,73121,1,10,0:2:0:0:
269,345,73318,1,2,0:2:0:0:
415,248,73516,1,2,3:2:0:0:
453,338,73713,1,2,0:2:0:0:
339,201,73910,1,10,0:2:0:0:
430,161,74108,1,2,0:2:0:0:
344,17,74305,6,0,B|307:66|307:66|341:210,1,200,2|10,3:2|0:2,0:0:0:0:
404,347,74897,2,0,L|416:233,1,100,2|0,0:2|3:0,0:0:0:0:
272,281,75292,1,2,0:2:0:0:
247,284,75391,1,2,0:2:0:0:
222,288,75489,1,10,0:2:0:0:
187,94,75687,6,0,B|320:117|320:117|333:154|385:167,1,200,2|2,0:2|0:2,0:0:0:0:
469,26,76279,2,0,P|419:45|397:95,1,100,10|2,0:2|0:2,0:0:0:0:
423,252,76673,2,0,P|466:209|463:129,1,100,2|2,3:2|0:2,0:0:0:0:
398,84,77068,1,10,0:2:0:0:
318,268,77266,1,2,0:0:0:0:
314,299,77364,1,0,0:0:0:0:
309,331,77463,6,0,P|249:293|106:297,1,200,6|10,3:2|0:2,0:0:0:0:
50,345,78055,1,2,0:2:0:0:
0,214,78252,1,2,3:2:0:0:
87,183,78450,2,0,L|102:68,1,100,2|10,0:2|0:2,0:0:0:0:
275,6,78844,6,0,P|226:17|170:84,1,100,2|0,0:2|3:0,0:0:0:0:
324,89,79239,1,2,0:2:0:0:
218,183,79437,1,10,0:2:0:0:
373,236,79634,2,0,L|389:111,1,100,2|2,0:2|3:2,0:0:0:0:
496,226,80029,1,2,0:2:0:0:
492,250,80127,1,2,0:2:0:0:
487,274,80226,1,10,0:2:0:0:
430,380,80423,1,2,0:2:0:0:
372,235,80621,6,0,B|336:191|277:197|277:197|258:248|207:254,1,200,2|10,3:2|0:2,0:0:0:0:
128,103,81213,2,0,P|178:132|197:202,1,100,2|2,0:2|3:2,0:0:0:0:
142,309,81608,1,2,0:2:0:0:
33,206,81805,2,0,L|138:223,1,100,10|2,0:2|0:2,0:0:0:0:
239,347,82200,6,0,P|283:322|348:328,1,100,2|2,3:2|0:2,0:0:0:0:
367,333,82496,1,0,0:0:0:0:
367,333,82594,1,10,0:2:0:0:
426,200,82792,1,2,0:2:0:0:
455,294,82989,2,0,L|512:300,1,50,0|0,3:0|3:0,0:0:0:0:
341,212,83187,2,0,L|283:202,1,50,0|0,3:0|3:0,0:0:0:0:
407,45,83384,1,8,0:2:0:0:
416,68,83483,1,8,0:2:0:0:
414,92,83581,1,8,0:2:0:0:
402,114,83680,1,8,0:2:0:0:
381,127,83779,6,0,P|319:91|273:99,1,100,4|2,3:2|0:2,0:0:0:0:
216,163,84173,1,10,0:2:0:0:
113,48,84371,2,0,L|126:157,1,100,2|0,0:2|3:0,0:0:0:0:
10,295,84766,2,0,L|23:173,1,100,2|8,0:2|0:2,0:0:0:0:
174,306,85160,6,0,P|120:338|62:335,1,100,2|0,0:2|3:0,0:0:0:0:
199,194,85555,2,0,P|259:209|295:255,1,100,2|8,0:2|0:2,0:0:0:0:
372,371,85950,2,0,L|385:261,1,100,2|0,0:2|3:0,0:0:0:0:
447,201,86344,1,2,0:2:0:0:
284,235,86542,2,0,P|247:179|327:62,1,200,10|2,0:2|3:2,0:0:0:0:
481,123,87134,5,2,0:2:0:0:
391,44,87331,1,10,0:2:0:0:
361,158,87529,2,0,L|220:137,1,100,2|0,0:2|3:0,0:0:0:0:
100,240,87923,2,0,L|243:215,1,100,2|8,0:2|0:2,0:0:0:0:
314,378,88318,2,0,B|277:341|277:341|296:212,1,150,2|0,0:2|0:0,0:0:0:0:
291,244,88713,5,2,0:2:0:0:
391,331,88910,1,8,0:2:0:0:
490,203,89108,2,0,P|415:214|380:252,1,100,0|2,0:0|3:2,0:0:0:0:
389,252,89404,1,2,0:2:0:0:
389,252,89502,1,2,0:2:0:0:
297,98,89700,6,0,B|339:81|356:26|356:26|354:83|384:118,1,192,10|2,0:2|0:2,0:0:0:0:
382,116,90094,6,0,P|336:170|283:172,1,100,6|0,3:2|0:0,0:0:0:0:
240,34,90489,1,10,0:2:0:0:
141,97,90687,2,0,P|197:113|238:178,1,100,2|0,0:2|3:0,0:0:0:0:
155,278,91081,2,0,P|117:310|67:315,1,100,2|10,0:2|0:2,0:0:0:0:
61,135,91476,6,0,B|98:105|98:105|115:217,1,150,2|0,0:2|0:0,0:0:0:0:
123,210,91871,2,0,P|174:202|228:250,1,100,2|10,0:2|0:2,0:0:0:0:
395,338,92266,2,0,L|285:358,1,100,2|0,0:2|3:0,0:0:0:0:
338,233,92660,1,2,0:2:0:0:
342,208,92759,1,2,0:2:0:0:
347,183,92858,1,10,0:2:0:0:
286,83,93055,1,2,0:2:0:0:
214,226,93252,6,0,B|169:255|169:255|16:229,1,200,6|10,3:2|0:2,0:0:0:0:
13,123,93844,2,0,P|67:123|86:167,1,100,2|2,0:2|3:2,0:0:0:0:
200,37,94239,2,0,P|168:83|155:144,1,100,2|10,3:2|0:2,0:0:0:0:
326,190,94634,1,2,0:2:0:0:
342,171,94733,1,2,0:2:0:0:
355,150,94831,6,0,L|344:41,1,100,2|2,3:2|0:2,0:0:0:0:
486,184,95226,2,0,L|503:83,1,100,2|2,3:2|0:2,0:0:0:0:
373,244,95621,2,0,L|391:356,1,100,2|2,3:2|0:2,0:0:0:0:
230,384,96016,2,0,L|241:275,1,100,2|2,3:2|0:2,0:0:0:0:
141,159,96410,5,6,3:2:0:0:
116,155,96509,1,0,0:0:0:0:
90,156,96608,1,2,0:0:0:0:
68,168,96706,1,0,0:0:0:0:
53,188,96805,2,0,L|71:265,1,50,0|8,3:0|0:2,0:0:0:0:
147,293,97002,2,0,L|156:231,1,50,0|8,3:0|0:2,0:0:0:0:
227,154,97200,1,0,3:2:0:0:
154,70,97397,2,0,L|114:76,2,25,8|0|0,0:2|0:0|3:0,0:0:0:0:
170,61,97594,6,0,B|216:42|251:73|251:73|251:65|251:65|285:109|369:78,1,192,2|0,3:1|0:0,0:0:0:0:
378,62,97989,5,2,0:2:0:0:
412,165,98187,1,2,0:2:0:0:
434,157,98285,1,2,0:2:0:0:
457,151,98384,1,2,0:2:0:0:
493,248,98581,2,0,L|518:242,2,20,2|0|0,0:2|0:0|0:0,0:0:0:0:
482,263,98779,6,0,P|449:289|409:262,1,80,2|2,0:2|0:2,0:0:0:0:
380,264,99075,2,0,P|346:255|315:298,1,80,2|0,0:2|0:0,0:0:0:0:
286,321,99371,6,0,B|179:359|214:243|113:278|113:278|153:265|199:321,1,256,6|0,3:2|0:0,0:0:0:0:
