osu file format v14

[General]
AudioFilename: audio.mp3
AudioLeadIn: 0
PreviewTime: 57726
Countdown: 0
SampleSet: Normal
StackLeniency: 0.7
Mode: 1
LetterboxInBreaks: 0
WidescreenStoryboard: 0

[Editor]
DistanceSpacing: 1.4
BeatDivisor: 8
GridSize: 32
TimelineZoom: 1.9

[Metadata]
Title:Dohna Dohna no Uta (Game Ver.)
TitleUnicode:ドーナドーナのうた (Game Ver.)
Artist:Tsukino
ArtistUnicode:月乃
Creator:[Zeth]
Version:What bad things shall we do today?
Source:ドーナドーナ いっしょにわるいことをしよう
Tags:dona Issho ni Warui Koto o Shiyou アリスソフト alicesoft vn visual novel eroge japanese video game size pop electronic アリスサウンドアルバム Vol.33 alice sound album 水夏える minatsu eru muse dash Ph0eNiiXZ Phoeniixz Phoenix cdh cdhsausageboy ler1211 Rinze
BeatmapID:4085514
BeatmapSetID:1969446

[Difficulty]
HPDrainRate:6
CircleSize:2
OverallDifficulty:6
ApproachRate:10
SliderMultiplier:1.4
SliderTickRate:1

[Events]
//Background and Video events
0,0,"antenna.jpg",0,0
//Break Periods
//Storyboard Layer 0 (Background)
//Storyboard Layer 1 (Fail)
//Storyboard Layer 2 (Pass)
//Storyboard Layer 3 (Foreground)
//Storyboard Layer 4 (Overlay)
//Storyboard Sound Samples

[TimingPoints]
95,394.736842105263,4,1,0,100,1,0
95,-125,4,1,0,100,0,0
6016,-111.111111111111,4,1,0,100,0,0
6114,-108.108108108108,4,1,0,100,0,0
6213,-105.263157894737,4,1,0,100,0,0
6410,-90.9090909090909,4,1,0,100,0,0
6608,-100,4,1,0,100,0,0
17858,-105.263157894737,4,1,0,100,0,0
18252,-111.111111111111,4,1,0,100,0,0
18647,-117.647058823529,4,1,0,100,0,0
19042,-125,4,1,0,100,0,0
19437,-142.857142857143,4,1,0,100,0,0
30486,-111.11111,4,1,0,100,0,0
30585,-112.9085,4,1,0,100,0,0
30684,-114.764984,4,1,0,100,0,0
30782,-116.66384,4,1,0,100,0,0
30881,-118.64697,4,1,0,100,0,0
30980,-120.69869,4,1,0,100,0,0
31078,-122.80078,4,1,0,100,0,0
31177,-125,4,1,0,100,0,0
31673,-100,4,1,0,100,0,0
32266,-111.111111111111,4,1,0,100,0,0
37989,-100,4,1,0,100,0,0
44305,-111.111111111111,4,1,0,100,0,0
44601,-125,4,1,0,100,0,0
49039,-125,4,1,0,100,0,0
49434,-122.69796,4,1,0,100,0,0
49631,-121.581245,4,1,0,100,0,0
49828,-120.48468,4,1,0,100,0,0
50026,-119.402306,4,1,0,100,0,0
50223,-118.34453,4,1,0,100,0,0
50322,-117.81999,4,1,0,100,0,0
50420,-117.30532,4,1,0,100,0,0
50618,-116.27907,4,1,0,100,0,0
50914,-114.77793,4,1,0,100,0,0
51013,-114.28447,4,1,0,100,0,0
51210,-113.315056,4,1,0,100,0,0
51407,-112.361946,4,1,0,100,0,0
51802,-110.49839,4,1,0,100,0,0
51999,-109.59189,4,1,0,100,0,0
52197,-108.695656,4,1,0,100,0,0
52493,-107.38281,4,1,0,100,0,0
52591,-106.955124,4,1,0,100,0,0
52789,-106.10133,4,1,0,100,0,0
52986,-105.26525,4,1,0,100,0,0
53381,-103.62796,4,1,0,100,0,0
53578,-102.83028,4,1,0,100,0,0
53776,-102.04082,4,1,0,100,0,0
53973,-101.26728,4,1,0,100,0,0
54170,-100.50539,4,1,0,100,0,0
54368,-99.75109,4,1,0,100,0,0
54565,-99.01176,4,1,0,100,0,0
54763,-98.27963,4,1,0,100,0,0
54960,-97.561874,4,1,0,100,0,0
55157,-96.85452,4,1,0,100,0,0
55355,-96.15384,4,1,0,100,0,0
55552,-95.46668,4,1,0,100,0,0
55651,-95.12507,4,1,0,100,0,0
55749,-94.78928,4,1,0,100,0,0
55848,-94.45248,4,1,0,100,0,0
55947,-94.11806,4,1,0,100,0,0
56045,-93.789345,4,1,0,100,0,0
56144,-93.4596,4,1,0,100,0,0
56243,-93.132164,4,1,0,100,0,0
56341,-92.81028,4,1,0,100,0,0
56440,-92.487366,4,1,0,100,0,0
56539,-92.1667,4,1,0,100,0,0
56638,-91.84825,4,1,0,100,0,0
56736,-91.53517,4,1,0,100,0,0
56835,-91.221054,4,1,0,100,0,0
56934,-90.90909,4,1,0,100,0,0
58121,-66.6666666666667,4,1,0,100,0,0
58516,-80,4,1,0,100,0,1
58713,-90.9090909090909,4,1,0,100,0,1
69170,-90.90909,4,1,0,100,0,1
69366,-92.09649,4,1,0,100,0,1
69466,-92.71434,4,1,0,100,0,1
69563,-93.321625,4,1,0,100,0,1
69763,-94.59921,4,1,0,100,0,1
69861,-95.23809,4,1,0,100,0,1
69959,-95.885666,4,1,0,100,0,1
70057,-96.54208,4,1,0,100,0,1
70156,-97.21441,4,1,0,100,0,1
70223,-97.67474,4,1,0,100,0,1
70289,-98.13249,4,1,0,100,0,1
70355,-98.59457,4,1,0,100,0,1
70453,-99.28874,4,1,0,100,0,1
70550,-99.98553,4,1,0,100,0,1
70555,-100,4,1,0,100,0,1
70752,-66.6666666666667,4,1,0,100,0,0
71147,-80,4,1,0,100,0,1
71344,-90.9090909090909,4,1,0,100,0,1
83779,-80,4,1,0,100,0,0
83976,-100,4,1,0,100,0,0
89700,-66.6666666666667,4,1,0,100,0,0
90094,-80,4,1,0,100,0,1
90292,-90.9090909090909,4,1,0,100,0,1
94828,-90.92703,4,1,0,100,0,1
95223,-93.35405,4,1,0,100,0,1
95618,-95.91418,4,1,0,100,0,1
96013,-98.61868,4,1,0,100,0,1
96210,-100.02533,4,1,0,100,0,1
96407,-101.47269,4,1,0,100,0,1
96605,-102.97022,4,1,0,100,0,1
96703,-103.72789,4,1,0,100,0,1
96802,-104.50471,4,1,0,100,0,1
96901,-105.293236,4,1,0,100,0,1
96999,-106.08562,4,1,0,100,0,1
97098,-106.89828,4,1,0,100,0,1
97197,-107.723495,4,1,0,100,0,1
97263,-108.280754,4,1,0,100,0,1
97328,-108.83523,4,1,0,100,0,1
97394,-109.404076,4,1,0,100,0,1
97493,-110.268585,4,1,0,100,0,1
97591,-111.137924,4,1,0,100,0,1
97989,-125,4,1,0,100,0,0
99371,-50,4,1,0,100,0,1
99568,-66.6666666666667,4,1,0,100,0,0

[HitObjects]
256,192,95,5,0,0:0:0:0:
256,192,292,1,2,0:0:0:0:
256,192,391,1,0,0:0:0:0:
256,192,489,1,2,0:0:0:0:
256,192,687,1,0,0:0:0:0:
256,192,884,1,2,0:0:0:0:
256,192,1081,1,2,0:0:0:0:
256,192,1180,1,0,0:0:0:0:
256,192,1476,1,2,0:0:0:0:
256,192,1871,1,0,0:0:0:0:
256,192,2068,1,0,0:0:0:0:
256,192,2266,1,2,0:0:0:0:
256,192,2660,1,2,0:0:0:0:
256,192,2759,1,2,0:0:0:0:
256,192,2858,1,0,0:0:0:0:
256,192,3055,1,2,0:0:0:0:
256,192,3252,1,0,0:0:0:0:
256,192,3450,1,2,0:0:0:0:
256,192,3548,1,0,0:0:0:0:
256,192,3647,1,2,0:0:0:0:
256,192,3844,1,0,0:0:0:0:
256,192,4042,1,2,0:0:0:0:
256,192,4239,1,0,0:0:0:0:
256,192,4338,1,2,0:0:0:0:
256,192,4634,1,2,0:0:0:0:
256,192,5029,1,0,0:0:0:0:
256,192,5226,1,2,0:0:0:0:
256,192,5423,1,0,0:0:0:0:
256,192,5489,1,0,0:0:0:0:
256,192,5555,1,0,0:0:0:0:
256,192,5621,1,2,0:0:0:0:
256,192,6016,1,2,0:0:0:0:
256,192,6114,1,2,0:0:0:0:
256,192,6213,1,2,0:0:0:0:
256,192,6410,1,4,0:0:0:0:
256,192,6706,1,2,0:0:0:0:
256,192,6805,1,0,0:0:0:0:
256,192,7002,1,2,0:0:0:0:
256,192,7200,1,0,0:0:0:0:
256,192,7298,1,0,0:0:0:0:
256,192,7397,1,2,0:0:0:0:
256,192,7496,1,2,0:0:0:0:
256,192,7594,1,0,0:0:0:0:
256,192,7792,1,2,0:0:0:0:
256,192,7989,1,0,0:0:0:0:
256,192,8187,1,2,0:0:0:0:
256,192,8285,1,0,0:0:0:0:
256,192,8384,1,2,0:0:0:0:
256,192,8581,1,2,0:0:0:0:
256,192,8779,1,0,0:0:0:0:
256,192,8877,1,2,0:0:0:0:
256,192,8976,1,0,0:0:0:0:
256,192,9075,1,0,0:0:0:0:
256,192,9173,1,2,0:0:0:0:
256,192,9272,1,0,0:0:0:0:
256,192,9371,1,2,0:0:0:0:
256,192,9469,1,2,0:0:0:0:
256,192,9568,1,0,0:0:0:0:
256,192,9864,1,2,0:0:0:0:
256,192,9963,1,0,0:0:0:0:
256,192,10160,1,2,0:0:0:0:
256,192,10358,1,0,0:0:0:0:
256,192,10456,1,0,0:0:0:0:
256,192,10555,1,2,0:0:0:0:
256,192,10654,1,0,0:0:0:0:
256,192,10752,1,2,0:0:0:0:
256,192,10950,1,2,0:0:0:0:
256,192,11147,1,0,0:0:0:0:
256,192,11344,1,2,0:0:0:0:
256,192,11443,1,2,0:0:0:0:
256,192,11542,1,0,0:0:0:0:
256,192,11739,1,2,0:0:0:0:
256,192,11838,1,0,0:0:0:0:
256,192,11937,1,2,0:0:0:0:
256,192,12134,1,0,0:0:0:0:
256,192,12331,1,2,0:0:0:0:
256,192,12397,1,0,0:0:0:0:
256,192,12463,1,0,0:0:0:0:
256,192,12529,1,2,0:0:0:0:
256,192,12726,1,4,0:0:0:0:
256,192,13022,1,2,0:0:0:0:
256,192,13121,1,2,0:0:0:0:
256,192,13318,1,0,0:0:0:0:
256,192,13516,1,2,0:0:0:0:
256,192,13614,1,2,0:0:0:0:
256,192,13713,1,0,0:0:0:0:
256,192,13812,1,0,0:0:0:0:
256,192,13910,1,2,0:0:0:0:
256,192,14108,1,2,0:0:0:0:
256,192,14305,1,0,0:0:0:0:
256,192,14502,1,2,0:0:0:0:
256,192,14601,1,0,0:0:0:0:
256,192,14700,1,2,0:0:0:0:
256,192,14798,1,2,0:0:0:0:
256,192,14897,1,0,0:0:0:0:
256,192,15094,1,2,0:0:0:0:
256,192,15292,1,0,0:0:0:0:
256,192,15391,1,0,0:0:0:0:
256,192,15489,1,2,0:0:0:0:
256,192,15687,1,0,0:0:0:0:
256,192,15884,1,6,0:0:0:0:
256,192,16180,1,2,0:0:0:0:
256,192,16279,1,2,0:0:0:0:
256,192,16476,1,0,0:0:0:0:
256,192,16673,1,2,0:0:0:0:
256,192,16772,1,2,0:0:0:0:
256,192,16871,1,0,0:0:0:0:
256,192,17068,1,2,0:0:0:0:
256,192,17266,1,0,0:0:0:0:
256,192,17463,1,2,0:0:0:0:
256,192,17858,1,0,0:0:0:0:
256,192,18252,1,0,0:0:0:0:
256,192,18647,1,0,0:0:0:0:
256,192,19042,1,6,0:0:0:0:
256,192,19634,1,0,0:0:0:0:
256,192,19831,1,0,0:0:0:0:
256,192,20423,1,2,0:0:0:0:
256,192,20621,1,2,0:0:0:0:
256,192,21213,1,2,0:0:0:0:
256,192,21410,1,0,0:0:0:0:
256,192,21608,1,2,0:0:0:0:
256,192,21805,1,2,0:0:0:0:
256,192,22002,1,0,0:0:0:0:
256,192,22200,1,0,0:0:0:0:
256,192,22792,1,2,0:0:0:0:
256,192,22989,1,0,0:0:0:0:
256,192,23581,1,0,0:0:0:0:
256,192,23779,1,2,0:0:0:0:
256,192,24371,1,0,0:0:0:0:
256,192,24568,1,2,0:0:0:0:
256,192,24766,1,2,0:0:0:0:
256,192,24963,1,0,0:0:0:0:
256,192,25160,1,0,0:0:0:0:
256,192,25358,1,2,0:0:0:0:
256,192,25950,1,2,0:0:0:0:
256,192,26147,1,0,0:0:0:0:
256,192,26739,1,0,0:0:0:0:
256,192,26937,1,2,0:0:0:0:
256,192,27529,1,0,0:0:0:0:
256,192,27726,1,0,0:0:0:0:
256,192,27923,1,2,0:0:0:0:
256,192,28121,1,2,0:0:0:0:
256,192,28318,1,0,0:0:0:0:
256,192,28516,1,2,0:0:0:0:
256,192,29108,1,2,0:0:0:0:
256,192,29305,1,2,0:0:0:0:
256,192,29897,1,0,0:0:0:0:
256,192,30094,1,0,0:0:0:0:
256,192,30489,1,2,0:0:0:0:
256,192,30588,1,2,0:0:0:0:
256,192,30687,1,0,0:0:0:0:
256,192,30785,1,2,0:0:0:0:
256,192,30884,1,0,0:0:0:0:
256,192,30983,1,0,0:0:0:0:
256,192,31081,1,2,0:0:0:0:
256,192,31180,1,2,0:0:0:0:
256,192,31673,1,4,0:0:0:0:
256,192,32266,1,0,0:0:0:0:
256,192,32463,1,2,0:0:0:0:
256,192,32562,1,2,0:0:0:0:
256,192,32660,1,2,0:0:0:0:
256,192,32858,1,0,0:0:0:0:
256,192,33055,1,2,0:0:0:0:
256,192,33252,1,0,0:0:0:0:
256,192,33844,1,2,0:0:0:0:
256,192,34042,1,0,0:0:0:0:
256,192,34239,1,2,0:0:0:0:
256,192,34437,1,2,0:0:0:0:
256,192,34535,1,2,0:0:0:0:
256,192,34634,1,0,0:0:0:0:
256,192,34733,1,2,0:0:0:0:
256,192,34831,1,0,0:0:0:0:
256,192,35423,1,2,0:0:0:0:
256,192,35621,1,0,0:0:0:0:
256,192,35719,1,0,0:0:0:0:
256,192,35818,1,0,0:0:0:0:
256,192,36016,1,2,0:0:0:0:
256,192,36213,1,0,0:0:0:0:
256,192,36410,1,2,0:0:0:0:
256,192,37002,1,0,0:0:0:0:
256,192,37200,1,2,0:0:0:0:
256,192,37397,1,2,0:0:0:0:
256,192,37594,1,0,0:0:0:0:
256,192,37693,1,0,0:0:0:0:
256,192,37792,1,2,0:0:0:0:
256,192,37989,1,4,0:0:0:0:
256,192,38384,1,0,0:0:0:0:
256,192,38581,1,2,0:0:0:0:
256,192,38680,1,2,0:0:0:0:
256,192,38779,1,0,0:0:0:0:
256,192,39173,1,2,0:0:0:0:
256,192,39371,1,0,0:0:0:0:
256,192,39469,1,0,0:0:0:0:
256,192,39568,1,2,0:0:0:0:
256,192,39963,1,0,0:0:0:0:
256,192,40160,1,2,0:0:0:0:
256,192,40259,1,2,0:0:0:0:
256,192,40358,1,2,0:0:0:0:
256,192,40555,1,0,0:0:0:0:
256,192,40752,1,2,0:0:0:0:
256,192,40851,1,2,0:0:0:0:
256,192,40950,1,0,0:0:0:0:
256,192,41048,1,0,0:0:0:0:
256,192,41147,1,2,0:0:0:0:
256,192,41443,1,0,0:0:0:0:
256,192,41542,1,2,0:0:0:0:
256,192,41739,1,0,0:0:0:0:
256,192,41937,1,2,0:0:0:0:
256,192,42035,1,0,0:0:0:0:
256,192,42134,1,0,0:0:0:0:
256,192,42331,1,2,0:0:0:0:
256,192,42726,1,0,0:0:0:0:
256,192,43121,1,2,0:0:0:0:
256,192,43318,1,0,0:0:0:0:
256,192,43516,1,2,0:0:0:0:
256,192,43614,1,2,0:0:0:0:
256,192,43713,1,0,0:0:0:0:
256,192,43812,1,2,0:0:0:0:
256,192,44305,1,4,0:0:0:0:
256,192,44700,1,2,0:0:0:0:
256,192,44897,1,0,0:0:0:0:
256,192,45094,1,2,0:0:0:0:
256,192,45292,1,2,0:0:0:0:
256,192,45489,1,0,0:0:0:0:
256,192,46279,1,0,0:0:0:0:
256,192,46476,1,0,0:0:0:0:
256,192,46673,1,2,0:0:0:0:
256,192,46871,1,2,0:0:0:0:
256,192,47068,1,2,0:0:0:0:
256,192,47463,1,0,0:0:0:0:
256,192,47858,1,2,0:0:0:0:
256,192,48055,1,2,0:0:0:0:
256,192,48252,1,0,0:0:0:0:
256,192,48450,1,0,0:0:0:0:
256,192,48647,1,2,0:0:0:0:
256,192,49437,1,2,0:0:0:0:
256,192,49634,1,0,0:0:0:0:
256,192,49831,1,2,0:0:0:0:
256,192,50029,1,2,0:0:0:0:
256,192,50226,1,0,0:0:0:0:
256,192,50325,1,0,0:0:0:0:
256,192,50423,1,2,0:0:0:0:
256,192,50621,1,4,0:0:0:0:
256,192,50917,1,2,0:0:0:0:
256,192,51016,1,2,0:0:0:0:
256,192,51213,1,0,0:0:0:0:
256,192,51410,1,2,0:0:0:0:
256,192,51805,1,0,0:0:0:0:
256,192,52002,1,0,0:0:0:0:
256,192,52200,1,2,0:0:0:0:
256,192,52496,1,0,0:0:0:0:
256,192,52594,1,2,0:0:0:0:
256,192,52792,1,2,0:0:0:0:
256,192,52989,1,0,0:0:0:0:
256,192,53384,1,2,0:0:0:0:
256,192,53581,1,2,0:0:0:0:
256,192,53779,1,4,0:0:0:0:
256,192,53976,1,0,0:0:0:0:
256,192,54173,1,2,0:0:0:0:
256,192,54371,1,0,0:0:0:0:
256,192,54568,1,6,0:0:0:0:
256,192,54766,1,2,0:0:0:0:
256,192,54963,1,0,0:0:0:0:
256,192,55160,1,2,0:0:0:0:
256,192,55358,1,4,0:0:0:0:
256,192,55555,1,2,0:0:0:0:
256,192,55654,1,2,0:0:0:0:
256,192,55752,1,0,0:0:0:0:
256,192,55851,1,2,0:0:0:0:
256,192,55950,1,0,0:0:0:0:
256,192,56048,1,0,0:0:0:0:
256,192,56147,1,2,0:0:0:0:
256,192,56246,1,2,0:0:0:0:
256,192,56344,1,2,0:0:0:0:
256,192,56443,1,2,0:0:0:0:
256,192,56542,1,0,0:0:0:0:
256,192,56641,1,0,0:0:0:0:
256,192,56739,1,2,0:0:0:0:
256,192,56838,1,2,0:0:0:0:
256,192,56937,1,0,0:0:0:0:
256,192,58121,1,6,0:0:0:0:
256,192,58516,1,4,0:0:0:0:
256,192,58812,1,2,0:0:0:0:
256,192,58910,1,0,0:0:0:0:
256,192,59108,1,2,0:0:0:0:
256,192,59305,1,0,0:0:0:0:
256,192,59404,1,0,0:0:0:0:
256,192,59502,1,2,0:0:0:0:
256,192,59601,1,2,0:0:0:0:
256,192,59700,1,0,0:0:0:0:
256,192,59897,1,2,0:0:0:0:
256,192,59996,1,0,0:0:0:0:
256,192,60094,1,2,0:0:0:0:
256,192,60292,1,2,0:0:0:0:
256,192,60489,1,0,0:0:0:0:
256,192,60588,1,2,0:0:0:0:
256,192,60785,1,2,0:0:0:0:
256,192,60884,1,0,0:0:0:0:
256,192,60983,1,0,0:0:0:0:
256,192,61081,1,2,0:0:0:0:
256,192,61279,1,0,0:0:0:0:
256,192,61476,1,2,0:0:0:0:
256,192,61673,1,0,0:0:0:0:
256,192,61871,1,2,0:0:0:0:
256,192,61969,1,2,0:0:0:0:
256,192,62068,1,0,0:0:0:0:
256,192,62266,1,2,0:0:0:0:
256,192,62463,1,0,0:0:0:0:
256,192,62562,1,2,0:0:0:0:
256,192,62660,1,0,0:0:0:0:
256,192,62759,1,0,0:0:0:0:
256,192,62858,1,2,0:0:0:0:
256,192,63055,1,0,0:0:0:0:
256,192,63154,1,2,0:0:0:0:
256,192,63252,1,0,0:0:0:0:
256,192,63450,1,0,0:0:0:0:
256,192,63647,1,2,0:0:0:0:
256,192,63746,1,2,0:0:0:0:
256,192,63844,1,0,0:0:0:0:
256,192,64042,1,2,0:0:0:0:
256,192,64239,1,0,0:0:0:0:
256,192,64338,1,0,0:0:0:0:
256,192,64437,1,2,0:0:0:0:
256,192,64634,1,2,0:0:0:0:
256,192,64831,1,4,0:0:0:0:
256,192,65127,1,2,0:0:0:0:
256,192,65226,1,0,0:0:0:0:
256,192,65423,1,2,0:0:0:0:
256,192,65522,1,2,0:0:0:0:
256,192,65621,1,0,0:0:0:0:
256,192,65818,1,2,0:0:0:0:
256,192,65917,1,0,0:0:0:0:
256,192,66016,1,2,0:0:0:0:
256,192,66213,1,2,0:0:0:0:
256,192,66410,1,0,0:0:0:0:
256,192,66509,1,0,0:0:0:0:
256,192,66608,1,2,0:0:0:0:
256,192,66805,1,2,0:0:0:0:
256,192,66904,1,0,0:0:0:0:
256,192,67101,1,0,0:0:0:0:
256,192,67200,1,2,0:0:0:0:
256,192,67298,1,2,0:0:0:0:
256,192,67397,1,0,0:0:0:0:
256,192,67594,1,2,0:0:0:0:
256,192,67792,1,0,0:0:0:0:
256,192,67989,1,2,0:0:0:0:
256,192,68187,1,0,0:0:0:0:
256,192,68285,1,0,0:0:0:0:
256,192,68384,1,2,0:0:0:0:
256,192,68581,1,2,0:0:0:0:
256,192,68779,1,0,0:0:0:0:
256,192,68877,1,2,0:0:0:0:
256,192,68976,1,0,0:0:0:0:
256,192,69173,1,0,0:0:0:0:
256,192,69371,1,2,0:0:0:0:
256,192,69469,1,2,0:0:0:0:
256,192,69568,1,0,0:0:0:0:
256,192,69766,1,2,0:0:0:0:
256,192,69864,1,0,0:0:0:0:
256,192,69963,1,2,0:0:0:0:
256,192,70062,1,2,0:0:0:0:
256,192,70160,1,0,0:0:0:0:
256,192,70226,1,0,0:0:0:0:
256,192,70292,1,0,0:0:0:0:
256,192,70358,1,2,0:0:0:0:
256,192,70456,1,2,0:0:0:0:
256,192,70555,1,0,0:0:0:0:
256,192,70752,1,6,0:0:0:0:
256,192,71147,1,4,0:0:0:0:
256,192,71443,1,0,0:0:0:0:
256,192,71542,1,2,0:0:0:0:
256,192,71739,1,2,0:0:0:0:
256,192,71937,1,0,0:0:0:0:
256,192,72035,1,0,0:0:0:0:
256,192,72134,1,2,0:0:0:0:
256,192,72233,1,2,0:0:0:0:
256,192,72331,1,0,0:0:0:0:
256,192,72529,1,2,0:0:0:0:
256,192,72627,1,0,0:0:0:0:
256,192,72726,1,2,0:0:0:0:
256,192,72923,1,0,0:0:0:0:
256,192,73121,1,2,0:0:0:0:
256,192,73219,1,0,0:0:0:0:
256,192,73417,1,2,0:0:0:0:
256,192,73516,1,2,0:0:0:0:
256,192,73614,1,0,0:0:0:0:
256,192,73713,1,2,0:0:0:0:
256,192,73910,1,0,0:0:0:0:
256,192,74108,1,2,0:0:0:0:
256,192,74305,1,0,0:0:0:0:
256,192,74502,1,2,0:0:0:0:
256,192,74601,1,0,0:0:0:0:
256,192,74700,1,2,0:0:0:0:
256,192,74897,1,2,0:0:0:0:
256,192,75094,1,0,0:0:0:0:
256,192,75292,1,2,0:0:0:0:
256,192,75391,1,2,0:0:0:0:
256,192,75489,1,0,0:0:0:0:
256,192,75588,1,0,0:0:0:0:
256,192,75687,1,2,0:0:0:0:
256,192,75884,1,0,0:0:0:0:
256,192,76081,1,2,0:0:0:0:
256,192,76279,1,0,0:0:0:0:
256,192,76377,1,0,0:0:0:0:
256,192,76476,1,2,0:0:0:0:
256,192,76673,1,0,0:0:0:0:
256,192,76871,1,2,0:0:0:0:
256,192,76969,1,2,0:0:0:0:
256,192,77068,1,0,0:0:0:0:
256,192,77266,1,0,0:0:0:0:
256,192,77463,1,6,0:0:0:0:
256,192,77759,1,0,0:0:0:0:
256,192,77858,1,2,0:0:0:0:
256,192,78055,1,0,0:0:0:0:
256,192,78154,1,0,0:0:0:0:
256,192,78252,1,2,0:0:0:0:
256,192,78351,1,2,0:0:0:0:
256,192,78450,1,0,0:0:0:0:
256,192,78647,1,2,0:0:0:0:
256,192,78844,1,0,0:0:0:0:
256,192,78943,1,0,0:0:0:0:
256,192,79042,1,2,0:0:0:0:
256,192,79239,1,0,0:0:0:0:
256,192,79437,1,2,0:0:0:0:
256,192,79535,1,0,0:0:0:0:
256,192,79634,1,2,0:0:0:0:
256,192,79831,1,2,0:0:0:0:
256,192,80029,1,0,0:0:0:0:
256,192,80226,1,2,0:0:0:0:
256,192,80325,1,2,0:0:0:0:
256,192,80423,1,0,0:0:0:0:
256,192,80522,1,0,0:0:0:0:
256,192,80621,1,2,0:0:0:0:
256,192,80818,1,0,0:0:0:0:
256,192,80917,1,2,0:0:0:0:
256,192,81016,1,0,0:0:0:0:
256,192,81213,1,0,0:0:0:0:
256,192,81410,1,2,0:0:0:0:
256,192,81509,1,0,0:0:0:0:
256,192,81608,1,2,0:0:0:0:
256,192,81805,1,2,0:0:0:0:
256,192,82002,1,0,0:0:0:0:
256,192,82101,1,0,0:0:0:0:
256,192,82200,1,2,0:0:0:0:
256,192,82397,1,0,0:0:0:0:
256,192,82594,1,2,0:0:0:0:
256,192,82693,1,2,0:0:0:0:
256,192,82792,1,0,0:0:0:0:
256,192,82891,1,0,0:0:0:0:
256,192,82989,1,2,0:0:0:0:
256,192,83187,1,0,0:0:0:0:
256,192,83285,1,2,0:0:0:0:
256,192,83384,1,0,0:0:0:0:
256,192,83483,1,0,0:0:0:0:
256,192,83581,1,2,0:0:0:0:
256,192,83779,1,4,0:0:0:0:
256,192,84075,1,2,0:0:0:0:
256,192,84173,1,0,0:0:0:0:
256,192,84371,1,2,0:0:0:0:
256,192,84568,1,0,0:0:0:0:
256,192,84667,1,0,0:0:0:0:
256,192,84766,1,2,0:0:0:0:
256,192,84963,1,0,0:0:0:0:
256,192,85160,1,2,0:0:0:0:
256,192,85358,1,0,0:0:0:0:
256,192,85555,1,2,0:0:0:0:
256,192,85654,1,0,0:0:0:0:
256,192,85752,1,2,0:0:0:0:
256,192,85950,1,2,0:0:0:0:
256,192,86147,1,0,0:0:0:0:
256,192,86246,1,2,0:0:0:0:
256,192,86344,1,0,0:0:0:0:
256,192,86443,1,0,0:0:0:0:
256,192,86542,1,2,0:0:0:0:
256,192,86937,1,0,0:0:0:0:
256,192,87134,1,2,0:0:0:0:
256,192,87233,1,2,0:0:0:0:
256,192,87331,1,0,0:0:0:0:
256,192,87529,1,2,0:0:0:0:
256,192,87726,1,0,0:0:0:0:
256,192,87825,1,0,0:0:0:0:
256,192,87923,1,2,0:0:0:0:
256,192,88121,1,0,0:0:0:0:
256,192,88318,1,2,0:0:0:0:
256,192,88516,1,0,0:0:0:0:
256,192,88713,1,2,0:0:0:0:
256,192,88812,1,0,0:0:0:0:
256,192,88910,1,2,0:0:0:0:
256,192,89108,1,2,0:0:0:0:
256,192,89305,1,0,0:0:0:0:
256,192,89502,1,0,0:0:0:0:
256,192,89700,1,6,0:0:0:0:
256,192,90094,1,4,0:0:0:0:
256,192,90391,1,2,0:0:0:0:
256,192,90489,1,0,0:0:0:0:
256,192,90687,1,2,0:0:0:0:
256,192,90884,1,0,0:0:0:0:
256,192,90983,1,0,0:0:0:0:
256,192,91081,1,2,0:0:0:0:
256,192,91180,1,0,0:0:0:0:
256,192,91279,1,2,0:0:0:0:
256,192,91476,1,2,0:0:0:0:
256,192,91673,1,0,0:0:0:0:
256,192,91871,1,2,0:0:0:0:
256,192,91969,1,2,0:0:0:0:
256,192,92068,1,0,0:0:0:0:
256,192,92167,1,2,0:0:0:0:
256,192,92266,1,0,0:0:0:0:
256,192,92463,1,2,0:0:0:0:
256,192,92660,1,0,0:0:0:0:
256,192,92759,1,0,0:0:0:0:
256,192,92858,1,2,0:0:0:0:
256,192,93055,1,0,0:0:0:0:
256,192,93154,1,2,0:0:0:0:
256,192,93252,1,0,0:0:0:0:
256,192,93548,1,2,0:0:0:0:
256,192,93647,1,2,0:0:0:0:
256,192,93844,1,0,0:0:0:0:
256,192,94042,1,2,0:0:0:0:
256,192,94141,1,0,0:0:0:0:
256,192,94239,1,2,0:0:0:0:
256,192,94437,1,0,0:0:0:0:
256,192,94634,1,2,0:0:0:0:
256,192,94831,1,0,0:0:0:0:
256,192,95226,1,0,0:0:0:0:
256,192,95621,1,0,0:0:0:0:
256,192,96016,1,2,0:0:0:0:
256,192,96213,1,2,0:0:0:0:
256,192,96410,1,4,0:0:0:0:
256,192,96608,1,2,0:0:0:0:
256,192,96706,1,0,0:0:0:0:
256,192,96805,1,2,0:0:0:0:
256,192,96904,1,2,0:0:0:0:
256,192,97002,1,0,0:0:0:0:
256,192,97101,1,2,0:0:0:0:
256,192,97200,1,0,0:0:0:0:
256,192,97266,1,0,0:0:0:0:
256,192,97331,1,0,0:0:0:0:
256,192,97397,1,2,0:0:0:0:
256,192,97496,1,0,0:0:0:0:
256,192,97594,1,2,0:0:0:0:
256,192,97989,1,0,0:0:0:0:
256,192,98187,1,2,0:0:0:0:
256,192,98285,1,0,0:0:0:0:
256,192,98384,1,2,0:0:0:0:
256,192,98581,1,0,0:0:0:0:
256,192,98647,1,2,0:0:0:0:
256,192,98713,1,2,0:0:0:0:
256,192,98779,1,0,0:0:0:0:
256,192,98976,1,2,0:0:0:0:
256,192,99075,1,2,0:0:0:0:
256,192,99173,1,0,0:0:0:0:
256,192,99371,1,6,0:0:0:0:
