osu file format v14

[General]
AudioFilename: audio.mp3
AudioLeadIn: 0
PreviewTime: 57726
Countdown: 0
SampleSet: Normal
StackLeniency: 0.7
Mode: 1
LetterboxInBreaks: 0
WidescreenStoryboard: 1

[Editor]
DistanceSpacing: 1.4
BeatDivisor: 4
GridSize: 32
TimelineZoom: 1.9

[Metadata]
Title:Dohna Dohna no Uta (Game Ver.)
TitleUnicode:ドーナドーナのうた (Game Ver.)
Artist:Tsukino
ArtistUnicode:月乃
Creator:[Zeth]
Version:Kantan
Source:ドーナドーナ いっしょにわるいことをしよう
Tags:dona Issho ni Warui Koto o Shiyou アリスソフト alicesoft vn visual novel eroge japanese video game size pop electronic アリスサウンドアルバム Vol.33 alice sound album 水夏える minatsu eru muse dash Ph0eNiiXZ Phoeniixz Phoenix cdh cdhsausageboy ler1211 Rinze
BeatmapID:4087309
BeatmapSetID:1969446

[Difficulty]
HPDrainRate:7
CircleSize:2
OverallDifficulty:3
ApproachRate:10
SliderMultiplier:1.4
SliderTickRate:1

[Events]
//Background and Video events
0,0,"medico.jpg",0,0
//Break Periods
//Storyboard Layer 0 (Background)
//Storyboard Layer 1 (Fail)
//Storyboard Layer 2 (Pass)
//Storyboard Layer 3 (Foreground)
//Storyboard Layer 4 (Overlay)
//Storyboard Sound Samples

[TimingPoints]
95,394.736842105263,4,1,0,100,1,0
58516,-100,4,1,0,100,0,1
70752,-100,4,1,0,100,0,0
71147,-100,4,1,0,100,0,1
83779,-100,4,1,0,100,0,0
90094,-100,4,1,0,100,0,1
97989,-100,4,1,0,100,0,0
99371,-100,4,1,0,100,0,1
99568,-100,4,1,0,100,0,0

[HitObjects]
256,192,4634,12,0,6015,0:0:0:0:
256,192,6410,5,4,0:0:0:0:
256,192,7200,1,0,0:0:0:0:
256,192,7989,1,2,0:0:0:0:
256,192,8384,1,2,0:0:0:0:
256,192,8779,1,0,0:0:0:0:
256,192,9568,1,2,0:0:0:0:
256,192,10358,1,2,0:0:0:0:
256,192,11147,1,0,0:0:0:0:
256,192,11542,1,0,0:0:0:0:
256,192,11937,1,2,0:0:0:0:
256,192,12726,1,4,0:0:0:0:
256,192,13318,1,2,0:0:0:0:
256,192,13713,1,0,0:0:0:0:
256,192,14108,1,2,0:0:0:0:
256,192,14700,1,2,0:0:0:0:
256,192,15094,1,0,0:0:0:0:
256,192,15884,1,4,0:0:0:0:
256,192,16476,1,2,0:0:0:0:
256,192,16871,1,2,0:0:0:0:
256,192,17266,1,0,0:0:0:0:
256,192,19042,1,4,0:0:0:0:
256,192,20621,1,0,0:0:0:0:
256,192,22200,1,2,0:0:0:0:
256,192,23779,1,2,0:0:0:0:
256,192,25358,1,0,0:0:0:0:
256,192,26937,1,2,0:0:0:0:
256,192,28516,1,0,0:0:0:0:
256,192,30094,1,2,0:0:0:0:
256,192,31673,1,4,0:0:0:0:
256,192,32463,1,2,0:0:0:0:
256,192,32858,1,0,0:0:0:0:
256,192,34042,1,2,0:0:0:0:
256,192,34437,1,2,0:0:0:0:
256,192,34831,1,0,0:0:0:0:
256,192,35621,1,0,0:0:0:0:
256,192,36016,1,2,0:0:0:0:
256,192,36410,1,0,0:0:0:0:
256,192,37397,1,0,0:0:0:0:
256,192,37989,1,6,0:0:0:0:
256,192,38779,1,0,0:0:0:0:
256,192,39173,1,0,0:0:0:0:
256,192,39568,1,2,0:0:0:0:
256,192,39963,1,2,0:0:0:0:
256,192,40358,1,0,0:0:0:0:
256,192,41147,1,2,0:0:0:0:
256,192,41739,1,2,0:0:0:0:
256,192,42331,1,0,0:0:0:0:
256,192,43121,1,0,0:0:0:0:
256,192,43516,1,2,0:0:0:0:
256,192,44305,1,4,0:0:0:0:
256,192,45489,1,0,0:0:0:0:
256,192,46673,1,2,0:0:0:0:
256,192,47068,1,2,0:0:0:0:
256,192,47463,1,0,0:0:0:0:
256,192,48647,1,0,0:0:0:0:
256,192,49831,1,2,0:0:0:0:
256,192,50226,1,0,0:0:0:0:
256,192,50621,1,4,0:0:0:0:
256,192,51410,1,2,0:0:0:0:
256,192,52200,1,0,0:0:0:0:
256,192,52594,1,0,0:0:0:0:
256,192,52989,1,2,0:0:0:0:
256,192,53779,1,0,0:0:0:0:
256,192,54173,1,0,0:0:0:0:
256,192,54568,1,2,0:0:0:0:
256,192,54963,1,2,0:0:0:0:
256,192,55358,1,4,0:0:0:0:
256,192,55555,12,0,56937,0:0:0:0:
256,192,58516,5,4,0:0:0:0:
256,192,59108,1,2,0:0:0:0:
256,192,59502,1,2,0:0:0:0:
256,192,59897,1,0,0:0:0:0:
256,192,60292,1,2,0:0:0:0:
256,192,60884,1,0,0:0:0:0:
256,192,61673,1,2,0:0:0:0:
256,192,62266,1,0,0:0:0:0:
256,192,62660,1,0,0:0:0:0:
256,192,63055,1,2,0:0:0:0:
256,192,63647,1,0,0:0:0:0:
256,192,64831,5,4,0:0:0:0:
256,192,65423,1,0,0:0:0:0:
256,192,65817,1,0,0:0:0:0:
256,192,66212,1,2,0:0:0:0:
256,192,66607,1,2,0:0:0:0:
256,192,67200,1,0,0:0:0:0:
256,192,67988,1,2,0:0:0:0:
256,192,68581,1,2,0:0:0:0:
256,192,69173,1,0,0:0:0:0:
256,192,70358,1,0,0:0:0:0:
256,192,70752,1,2,0:0:0:0:
256,192,71147,5,4,0:0:0:0:
256,192,71739,1,2,0:0:0:0:
256,192,72134,1,0,0:0:0:0:
256,192,72528,1,0,0:0:0:0:
256,192,72923,1,2,0:0:0:0:
256,192,73515,1,0,0:0:0:0:
256,192,74304,1,2,0:0:0:0:
256,192,74897,1,0,0:0:0:0:
256,192,75291,1,2,0:0:0:0:
256,192,75686,1,2,0:0:0:0:
256,192,76278,1,0,0:0:0:0:
256,192,77462,5,4,0:0:0:0:
256,192,78054,1,0,0:0:0:0:
256,192,78450,1,0,0:0:0:0:
256,192,78843,1,2,0:0:0:0:
256,192,79238,1,0,0:0:0:0:
256,192,79634,1,2,0:0:0:0:
256,192,80621,1,0,0:0:0:0:
256,192,81212,1,0,0:0:0:0:
256,192,81805,1,2,0:0:0:0:
256,192,82594,1,0,0:0:0:0:
256,192,82989,1,2,0:0:0:0:
256,192,83383,1,2,0:0:0:0:
256,192,83779,1,4,0:0:0:0:
256,192,84568,1,0,0:0:0:0:
256,192,85358,1,2,0:0:0:0:
256,192,85752,1,2,0:0:0:0:
256,192,86147,1,0,0:0:0:0:
256,192,86937,1,2,0:0:0:0:
256,192,87726,1,2,0:0:0:0:
256,192,88516,1,0,0:0:0:0:
256,192,88910,1,0,0:0:0:0:
256,192,89305,1,2,0:0:0:0:
256,192,89700,5,2,0:0:0:0:
256,192,90094,1,4,0:0:0:0:
256,192,90687,1,0,0:0:0:0:
256,192,91476,1,2,0:0:0:0:
256,192,91871,1,2,0:0:0:0:
256,192,92266,1,0,0:0:0:0:
256,192,93252,1,2,0:0:0:0:
256,192,93844,1,0,0:0:0:0:
256,192,94239,1,0,0:0:0:0:
256,192,94634,1,2,0:0:0:0:
256,192,96016,1,0,0:0:0:0:
256,192,96410,1,6,0:0:0:0:
256,192,97200,1,2,0:0:0:0:
256,192,97594,1,2,0:0:0:0:
256,192,97989,1,0,0:0:0:0:
256,192,99371,1,6,0:0:0:0:
