osu file format v14

[General]
AudioFilename: audio.mp3
AudioLeadIn: 0
PreviewTime: 19806
Countdown: 0
SampleSet: Soft
StackLeniency: 0.7
Mode: 3
LetterboxInBreaks: 0
SpecialStyle: 0
WidescreenStoryboard: 1

[Editor]
Bookmarks: 20971,39612,53593,58253,86214,90874,95534,104855,151457,188738,191651,207379,246991,309903,320389,330874
DistanceSpacing: 1.6
BeatDivisor: 12
GridSize: 4
TimelineZoom: 2.899999

[Metadata]
Title:Fight Against the Past
TitleUnicode:Fight Against the Past
Artist:Tsukimi Shizuka x LUNARiUM
ArtistUnicode:月見静華 x LUNARiUM
Creator:BKwind
Version:Welcome To My World
Source:osu!mania 4K Chinese National Cup 2022
Tags:mcnc 4k 2022 gf tb tiebreaker grand finals bluewind electronic instrumental trance freeform uk hardcore xixi2333 中国国家杯 ln long note hybrid marathon
BeatmapID:4295520
BeatmapSetID:2055674

[Difficulty]
HPDrainRate:8.6
CircleSize:6
OverallDifficulty:7
ApproachRate:5
SliderMultiplier:1.4
SliderTickRate:1

[Events]
//Background and Video events
0,0,"bg.jpg",0,0
//Break Periods
//Storyboard Layer 0 (Background)
//Storyboard Layer 1 (Fail)
//Storyboard Layer 2 (Pass)
//Storyboard Layer 3 (Foreground)
//Storyboard Layer 4 (Overlay)
//Storyboard Sound Samples

[TimingPoints]
2331,291.26213592233,4,2,1,40,1,0
58253,-100,4,2,1,40,0,1
75729,-100,4,2,1,40,0,0
76894,-100,4,2,1,40,0,1
95534,-100,4,2,1,40,0,0
114175,-100,4,2,1,40,0,1
132816,-100,4,2,1,40,0,0
207379,-100,4,2,1,40,0,1
225729,-100,4,2,1,40,0,0
226020,-100,4,2,1,40,0,1
242330,-100,4,2,1,40,0,0
247282,-100,4,2,1,40,0,1
263301,-100,4,2,1,40,0,0
272622,-100,4,2,1,40,0,1
281942,-100,4,2,1,40,0,0
300583,-100,4,2,1,40,0,1
319224,-100,4,2,1,40,0,0

[HitObjects]
298,192,2331,5,0,0:0:0:0:
42,192,2331,1,0,0:0:0:0:
469,192,2331,1,0,0:0:0:0:
128,192,2913,1,0,0:0:0:0:
384,192,3059,1,0,0:0:0:0:
213,192,3204,1,0,0:0:0:0:
469,192,3350,1,0,0:0:0:0:
42,192,3496,1,0,0:0:0:0:
384,192,3496,1,0,0:0:0:0:
128,192,3496,1,0,0:0:0:0:
298,192,3932,1,0,0:0:0:0:
213,192,4369,1,0,0:0:0:0:
213,192,4661,1,0,0:0:0:0:
42,192,4661,1,0,0:0:0:0:
469,192,4661,1,0,0:0:0:0:
298,192,5097,1,0,0:0:0:0:
469,192,5097,1,0,0:0:0:0:
469,192,6408,1,0,0:0:0:0:
384,192,6554,1,0,0:0:0:0:
213,192,6699,1,0,0:0:0:0:
42,192,6845,1,0,0:0:0:0:
128,192,6991,1,0,0:0:0:0:
298,192,6991,1,0,0:0:0:0:
469,192,6991,1,0,0:0:0:0:
42,192,7573,1,0,0:0:0:0:
213,192,7719,1,0,0:0:0:0:
298,192,7864,1,0,0:0:0:0:
384,192,8010,1,0,0:0:0:0:
469,192,8156,1,0,0:0:0:0:
213,192,8156,1,0,0:0:0:0:
42,192,8156,1,0,0:0:0:0:
298,192,8593,1,0,0:0:0:0:
469,192,9030,1,0,0:0:0:0:
469,192,9321,1,0,0:0:0:0:
298,192,9321,1,0,0:0:0:0:
128,192,9321,1,0,0:0:0:0:
384,192,9612,1,0,0:0:0:0:
384,192,9758,1,0,0:0:0:0:
128,192,9758,1,0,0:0:0:0:
42,192,11068,1,0,0:0:0:0:
128,192,11214,1,0,0:0:0:0:
213,192,11360,1,0,0:0:0:0:
384,192,11505,1,0,0:0:0:0:
298,192,11651,1,0,0:0:0:0:
128,192,11651,1,0,0:0:0:0:
42,192,11651,1,0,0:0:0:0:
213,192,11651,1,0,0:0:0:0:
469,192,11797,128,0,11942:0:0:0:0:
469,192,12088,128,0,12233:0:0:0:0:
42,192,12233,1,0,0:0:0:0:
469,192,12379,128,0,12525:0:0:0:0:
128,192,12379,1,0,0:0:0:0:
213,192,12525,1,0,0:0:0:0:
298,192,12670,1,0,0:0:0:0:
469,192,12670,128,0,12816:0:0:0:0:
128,192,12816,1,0,0:0:0:0:
384,192,12816,1,0,0:0:0:0:
42,192,12962,128,0,13107:0:0:0:0:
42,192,13253,128,0,13398:0:0:0:0:
298,192,13253,1,0,0:0:0:0:
42,192,13544,128,0,13690:0:0:0:0:
469,192,13690,1,0,0:0:0:0:
42,192,13835,128,0,13981:0:0:0:0:
128,192,13981,128,0,14054:0:0:0:0:
384,192,13981,128,0,14054:0:0:0:0:
469,192,14127,128,0,14272:0:0:0:0:
213,192,14199,128,0,14272:0:0:0:0:
469,192,14418,128,0,14564:0:0:0:0:
42,192,14418,128,0,14491:0:0:0:0:
298,192,14636,128,0,14709:0:0:0:0:
469,192,14709,128,0,14855:0:0:0:0:
128,192,14855,128,0,14928:0:0:0:0:
469,192,15000,128,0,15146:0:0:0:0:
213,192,15000,128,0,15073:0:0:0:0:
384,192,15146,128,0,15219:0:0:0:0:
128,192,15146,128,0,15219:0:0:0:0:
42,192,15292,128,0,15437:0:0:0:0:
298,192,15364,128,0,15437:0:0:0:0:
42,192,15583,128,0,15729:0:0:0:0:
469,192,15583,128,0,15656:0:0:0:0:
213,192,15801,128,0,15874:0:0:0:0:
42,192,15874,128,0,16020:0:0:0:0:
384,192,16020,1,0,0:0:0:0:
469,192,16020,1,0,0:0:0:0:
298,192,16020,128,0,16093:0:0:0:0:
42,192,16165,128,0,16311:0:0:0:0:
298,192,16165,1,0,0:0:0:0:
469,192,16165,1,0,0:0:0:0:
384,192,16165,128,0,16238:0:0:0:0:
213,192,16311,1,0,0:0:0:0:
384,192,16311,1,0,0:0:0:0:
469,192,16311,1,0,0:0:0:0:
128,192,16384,1,0,0:0:0:0:
42,192,16384,1,0,0:0:0:0:
298,192,16457,1,0,0:0:0:0:
384,192,16457,1,0,0:0:0:0:
213,192,16530,1,0,0:0:0:0:
128,192,16530,1,0,0:0:0:0:
298,192,16602,1,0,0:0:0:0:
469,192,16602,1,0,0:0:0:0:
42,192,16602,1,0,0:0:0:0:
213,192,16675,1,0,0:0:0:0:
128,192,16675,1,0,0:0:0:0:
384,192,16748,1,0,0:0:0:0:
469,192,16748,1,0,0:0:0:0:
298,192,16821,1,0,0:0:0:0:
213,192,16821,1,0,0:0:0:0:
128,192,16894,1,0,0:0:0:0:
42,192,16894,1,0,0:0:0:0:
469,192,16894,1,0,0:0:0:0:
384,192,16966,1,0,0:0:0:0:
298,192,16966,1,0,0:0:0:0:
213,192,17039,1,0,0:0:0:0:
42,192,17039,1,0,0:0:0:0:
384,192,17112,1,0,0:0:0:0:
469,192,17112,1,0,0:0:0:0:
42,192,17185,1,0,0:0:0:0:
298,192,17209,1,0,0:0:0:0:
128,192,17233,1,0,0:0:0:0:
384,192,17258,1,0,0:0:0:0:
213,192,17282,1,0,0:0:0:0:
469,192,17306,1,0,0:0:0:0:
42,192,17330,1,0,0:0:0:0:
298,192,17330,1,0,0:0:0:0:
298,192,17476,1,0,0:0:0:0:
128,192,17476,1,0,0:0:0:0:
42,192,17476,1,0,0:0:0:0:
384,192,17549,1,0,0:0:0:0:
469,192,17549,1,0,0:0:0:0:
213,192,17622,1,0,0:0:0:0:
128,192,17622,1,0,0:0:0:0:
298,192,17695,1,0,0:0:0:0:
384,192,17695,1,0,0:0:0:0:
213,192,17767,1,0,0:0:0:0:
42,192,17767,1,0,0:0:0:0:
469,192,17792,1,0,0:0:0:0:
384,192,17816,1,0,0:0:0:0:
298,192,17840,1,0,0:0:0:0:
128,192,17913,1,0,0:0:0:0:
384,192,17937,1,0,0:0:0:0:
298,192,17962,1,0,0:0:0:0:
213,192,17986,1,0,0:0:0:0:
384,192,18059,1,0,0:0:0:0:
469,192,18059,1,0,0:0:0:0:
42,192,18059,1,0,0:0:0:0:
213,192,18131,1,0,0:0:0:0:
128,192,18131,1,0,0:0:0:0:
298,192,18204,1,0,0:0:0:0:
384,192,18204,1,0,0:0:0:0:
128,192,18277,1,0,0:0:0:0:
42,192,18277,1,0,0:0:0:0:
469,192,18350,1,0,0:0:0:0:
213,192,18374,1,0,0:0:0:0:
384,192,18398,1,0,0:0:0:0:
128,192,18423,1,0,0:0:0:0:
298,192,18447,1,0,0:0:0:0:
42,192,18471,1,0,0:0:0:0:
469,192,18496,1,0,0:0:0:0:
213,192,18496,1,0,0:0:0:0:
213,192,18641,1,0,0:0:0:0:
42,192,18641,1,0,0:0:0:0:
469,192,18641,1,0,0:0:0:0:
384,192,18714,1,0,0:0:0:0:
298,192,18714,1,0,0:0:0:0:
128,192,18787,1,0,0:0:0:0:
469,192,18787,1,0,0:0:0:0:
298,192,18860,1,0,0:0:0:0:
213,192,18860,1,0,0:0:0:0:
384,192,18932,1,0,0:0:0:0:
469,192,18932,1,0,0:0:0:0:
42,192,18932,1,0,0:0:0:0:
213,192,19005,1,0,0:0:0:0:
128,192,19005,1,0,0:0:0:0:
298,192,19078,1,0,0:0:0:0:
384,192,19078,1,0,0:0:0:0:
213,192,19151,1,0,0:0:0:0:
128,192,19151,1,0,0:0:0:0:
384,192,19224,1,0,0:0:0:0:
469,192,19224,1,0,0:0:0:0:
42,192,19224,1,0,0:0:0:0:
42,192,19369,1,0,0:0:0:0:
298,192,19394,1,0,0:0:0:0:
128,192,19418,1,0,0:0:0:0:
384,192,19442,1,0,0:0:0:0:
213,192,19466,1,0,0:0:0:0:
469,192,19491,1,0,0:0:0:0:
298,192,19515,1,0,0:0:0:0:
128,192,19515,1,0,0:0:0:0:
42,192,19515,1,0,0:0:0:0:
469,192,19661,1,0,0:0:0:0:
213,192,19685,1,0,0:0:0:0:
384,192,19709,1,0,0:0:0:0:
128,192,19733,1,0,0:0:0:0:
298,192,19758,1,0,0:0:0:0:
42,192,19782,1,0,0:0:0:0:
469,192,19806,1,0,0:0:0:0:
384,192,19806,1,0,0:0:0:0:
213,192,19806,128,0,19879:0:0:0:0:
42,192,19879,128,0,19952:0:0:0:0:
128,192,19952,128,0,20025:0:0:0:0:
213,192,20025,128,0,20097:0:0:0:0:
384,192,20097,128,0,20170:0:0:0:0:
128,192,20170,128,0,20243:0:0:0:0:
213,192,20243,128,0,20316:0:0:0:0:
298,192,20316,128,0,20389:0:0:0:0:
469,192,20389,1,0,0:0:0:0:
42,192,20389,128,0,20437:0:0:0:0:
213,192,20437,128,0,20486:0:0:0:0:
298,192,20486,128,0,20534:0:0:0:0:
128,192,20534,128,0,20583:0:0:0:0:
298,192,20583,128,0,20631:0:0:0:0:
384,192,20631,128,0,20680:0:0:0:0:
469,192,20680,128,0,20729:0:0:0:0:
298,192,20729,128,0,20777:0:0:0:0:
213,192,20777,128,0,20826:0:0:0:0:
384,192,20826,128,0,20874:0:0:0:0:
213,192,20874,128,0,20923:0:0:0:0:
128,192,20923,128,0,20971:0:0:0:0:
42,192,20971,1,0,0:0:0:0:
298,192,20971,1,0,0:0:0:0:
384,192,20971,1,0,0:0:0:0:
469,192,20971,1,0,0:0:0:0:
128,192,21117,1,0,0:0:0:0:
213,192,21117,1,0,0:0:0:0:
384,192,21190,1,0,0:0:0:0:
469,192,21190,1,0,0:0:0:0:
298,192,21263,1,0,0:0:0:0:
128,192,21263,1,0,0:0:0:0:
42,192,21263,1,0,0:0:0:0:
384,192,21408,1,0,0:0:0:0:
298,192,21408,1,0,0:0:0:0:
128,192,21481,1,0,0:0:0:0:
42,192,21481,1,0,0:0:0:0:
213,192,21554,1,0,0:0:0:0:
384,192,21554,1,0,0:0:0:0:
469,192,21554,1,0,0:0:0:0:
128,192,21699,1,0,0:0:0:0:
213,192,21699,1,0,0:0:0:0:
384,192,21772,1,0,0:0:0:0:
469,192,21772,1,0,0:0:0:0:
128,192,21845,1,0,0:0:0:0:
42,192,21845,1,0,0:0:0:0:
298,192,21845,1,0,0:0:0:0:
298,192,21991,1,0,0:0:0:0:
384,192,21991,1,0,0:0:0:0:
42,192,22064,1,0,0:0:0:0:
128,192,22064,1,0,0:0:0:0:
384,192,22136,1,0,0:0:0:0:
213,192,22136,1,0,0:0:0:0:
469,192,22136,1,0,0:0:0:0:
128,192,22282,1,0,0:0:0:0:
298,192,22282,1,0,0:0:0:0:
384,192,22355,1,0,0:0:0:0:
469,192,22355,1,0,0:0:0:0:
213,192,22428,1,0,0:0:0:0:
128,192,22428,1,0,0:0:0:0:
42,192,22428,1,0,0:0:0:0:
384,192,22573,1,0,0:0:0:0:
213,192,22573,1,0,0:0:0:0:
128,192,22646,1,0,0:0:0:0:
42,192,22646,1,0,0:0:0:0:
298,192,22719,1,0,0:0:0:0:
384,192,22719,1,0,0:0:0:0:
469,192,22719,1,0,0:0:0:0:
128,192,22864,1,0,0:0:0:0:
298,192,22864,1,0,0:0:0:0:
384,192,22937,1,0,0:0:0:0:
469,192,22937,1,0,0:0:0:0:
128,192,23010,1,0,0:0:0:0:
42,192,23010,1,0,0:0:0:0:
213,192,23010,1,0,0:0:0:0:
384,192,23156,1,0,0:0:0:0:
213,192,23156,1,0,0:0:0:0:
42,192,23229,1,0,0:0:0:0:
128,192,23229,1,0,0:0:0:0:
384,192,23301,1,0,0:0:0:0:
469,192,23301,1,0,0:0:0:0:
298,192,23301,128,0,23374:0:0:0:0:
128,192,23374,128,0,23447:0:0:0:0:
469,192,23447,1,0,0:0:0:0:
213,192,23447,128,0,23520:0:0:0:0:
298,192,23520,128,0,23593:0:0:0:0:
128,192,23593,1,0,0:0:0:0:
42,192,23593,1,0,0:0:0:0:
384,192,23593,128,0,23665:0:0:0:0:
298,192,23665,128,0,23738:0:0:0:0:
128,192,23738,1,0,0:0:0:0:
384,192,23738,128,0,23811:0:0:0:0:
469,192,23811,128,0,23884:0:0:0:0:
213,192,23884,1,0,0:0:0:0:
42,192,23884,1,0,0:0:0:0:
298,192,23884,128,0,23957:0:0:0:0:
384,192,23957,128,0,24030:0:0:0:0:
42,192,24030,1,0,0:0:0:0:
298,192,24030,128,0,24102:0:0:0:0:
213,192,24102,128,0,24175:0:0:0:0:
384,192,24175,1,0,0:0:0:0:
469,192,24175,1,0,0:0:0:0:
128,192,24175,128,0,24248:0:0:0:0:
213,192,24248,128,0,24321:0:0:0:0:
384,192,24321,1,0,0:0:0:0:
128,192,24321,128,0,24394:0:0:0:0:
42,192,24394,128,0,24466:0:0:0:0:
213,192,24466,1,0,0:0:0:0:
298,192,24466,1,0,0:0:0:0:
469,192,24466,1,0,0:0:0:0:
128,192,24612,1,0,0:0:0:0:
384,192,24612,1,0,0:0:0:0:
213,192,24685,1,0,0:0:0:0:
469,192,24685,1,0,0:0:0:0:
298,192,24758,1,0,0:0:0:0:
128,192,24758,1,0,0:0:0:0:
42,192,24758,1,0,0:0:0:0:
384,192,24903,1,0,0:0:0:0:
128,192,24903,1,0,0:0:0:0:
298,192,24976,1,0,0:0:0:0:
42,192,24976,1,0,0:0:0:0:
384,192,25049,1,0,0:0:0:0:
213,192,25049,1,0,0:0:0:0:
469,192,25049,1,0,0:0:0:0:
128,192,25195,1,0,0:0:0:0:
384,192,25195,1,0,0:0:0:0:
469,192,25267,1,0,0:0:0:0:
213,192,25267,1,0,0:0:0:0:
128,192,25340,1,0,0:0:0:0:
298,192,25340,1,0,0:0:0:0:
42,192,25340,1,0,0:0:0:0:
128,192,25486,1,0,0:0:0:0:
384,192,25486,1,0,0:0:0:0:
298,192,25559,1,0,0:0:0:0:
42,192,25559,1,0,0:0:0:0:
384,192,25631,1,0,0:0:0:0:
469,192,25631,1,0,0:0:0:0:
213,192,25631,1,0,0:0:0:0:
213,192,25777,1,0,0:0:0:0:
128,192,25777,1,0,0:0:0:0:
384,192,25850,1,0,0:0:0:0:
469,192,25850,1,0,0:0:0:0:
298,192,25923,1,0,0:0:0:0:
128,192,25923,1,0,0:0:0:0:
42,192,25923,1,0,0:0:0:0:
298,192,26068,1,0,0:0:0:0:
384,192,26068,1,0,0:0:0:0:
128,192,26141,1,0,0:0:0:0:
42,192,26141,1,0,0:0:0:0:
213,192,26214,1,0,0:0:0:0:
384,192,26214,1,0,0:0:0:0:
469,192,26214,1,0,0:0:0:0:
128,192,26360,1,0,0:0:0:0:
213,192,26360,1,0,0:0:0:0:
384,192,26432,1,0,0:0:0:0:
469,192,26432,1,0,0:0:0:0:
128,192,26505,1,0,0:0:0:0:
42,192,26505,1,0,0:0:0:0:
298,192,26505,1,0,0:0:0:0:
298,192,26651,1,0,0:0:0:0:
384,192,26651,1,0,0:0:0:0:
42,192,26724,1,0,0:0:0:0:
128,192,26724,1,0,0:0:0:0:
384,192,26797,1,0,0:0:0:0:
213,192,26797,1,0,0:0:0:0:
469,192,26797,1,0,0:0:0:0:
298,192,26942,1,0,0:0:0:0:
128,192,26942,1,0,0:0:0:0:
384,192,27015,1,0,0:0:0:0:
469,192,27015,1,0,0:0:0:0:
213,192,27088,1,0,0:0:0:0:
128,192,27088,1,0,0:0:0:0:
42,192,27088,1,0,0:0:0:0:
384,192,27233,1,0,0:0:0:0:
213,192,27233,1,0,0:0:0:0:
128,192,27306,1,0,0:0:0:0:
42,192,27306,1,0,0:0:0:0:
298,192,27379,1,0,0:0:0:0:
384,192,27379,1,0,0:0:0:0:
469,192,27379,1,0,0:0:0:0:
128,192,27525,1,0,0:0:0:0:
298,192,27525,1,0,0:0:0:0:
384,192,27597,1,0,0:0:0:0:
469,192,27597,1,0,0:0:0:0:
128,192,27670,1,0,0:0:0:0:
42,192,27670,1,0,0:0:0:0:
213,192,27670,1,0,0:0:0:0:
384,192,27816,1,0,0:0:0:0:
213,192,27816,1,0,0:0:0:0:
42,192,27889,1,0,0:0:0:0:
128,192,27889,1,0,0:0:0:0:
298,192,27962,1,0,0:0:0:0:
213,192,27962,1,0,0:0:0:0:
384,192,27962,128,0,28180:0:0:0:0:
469,192,28034,128,0,28107:0:0:0:0:
298,192,28107,128,0,28180:0:0:0:0:
128,192,28107,1,0,0:0:0:0:
213,192,28180,128,0,28253:0:0:0:0:
384,192,28253,128,0,28471:0:0:0:0:
469,192,28253,1,0,0:0:0:0:
42,192,28253,1,0,0:0:0:0:
213,192,28326,128,0,28398:0:0:0:0:
128,192,28398,1,0,0:0:0:0:
298,192,28398,128,0,28471:0:0:0:0:
469,192,28471,128,0,28544:0:0:0:0:
298,192,28544,1,0,0:0:0:0:
213,192,28544,1,0,0:0:0:0:
128,192,28544,128,0,28763:0:0:0:0:
42,192,28617,128,0,28690:0:0:0:0:
384,192,28690,1,0,0:0:0:0:
213,192,28690,128,0,28908:0:0:0:0:
298,192,28763,128,0,28835:0:0:0:0:
469,192,28835,1,0,0:0:0:0:
42,192,28835,1,0,0:0:0:0:
128,192,28835,128,0,29127:0:0:0:0:
298,192,28908,128,0,28981:0:0:0:0:
384,192,28981,1,0,0:0:0:0:
213,192,28981,128,0,29054:0:0:0:0:
42,192,29054,128,0,29127:0:0:0:0:
213,192,29127,1,0,0:0:0:0:
298,192,29127,1,0,0:0:0:0:
469,192,29127,1,0,0:0:0:0:
298,192,29272,1,0,0:0:0:0:
42,192,29272,1,0,0:0:0:0:
384,192,29345,1,0,0:0:0:0:
128,192,29345,1,0,0:0:0:0:
213,192,29418,1,0,0:0:0:0:
42,192,29418,1,0,0:0:0:0:
469,192,29418,1,0,0:0:0:0:
298,192,29491,1,0,0:0:0:0:
384,192,29491,1,0,0:0:0:0:
213,192,29564,1,0,0:0:0:0:
42,192,29564,1,0,0:0:0:0:
384,192,29636,1,0,0:0:0:0:
298,192,29636,1,0,0:0:0:0:
128,192,29709,1,0,0:0:0:0:
42,192,29709,1,0,0:0:0:0:
469,192,29709,1,0,0:0:0:0:
298,192,29855,1,0,0:0:0:0:
213,192,29855,1,0,0:0:0:0:
128,192,29855,1,0,0:0:0:0:
469,192,30000,1,0,0:0:0:0:
42,192,30000,1,0,0:0:0:0:
384,192,30049,1,0,0:0:0:0:
298,192,30097,1,0,0:0:0:0:
128,192,30146,1,0,0:0:0:0:
213,192,30146,1,0,0:0:0:0:
384,192,30219,1,0,0:0:0:0:
128,192,30292,1,0,0:0:0:0:
42,192,30292,1,0,0:0:0:0:
298,192,30292,1,0,0:0:0:0:
469,192,30292,1,0,0:0:0:0:
213,192,30364,1,0,0:0:0:0:
128,192,30437,1,0,0:0:0:0:
384,192,30437,1,0,0:0:0:0:
298,192,30510,1,0,0:0:0:0:
42,192,30510,1,0,0:0:0:0:
213,192,30583,1,0,0:0:0:0:
384,192,30583,1,0,0:0:0:0:
469,192,30583,1,0,0:0:0:0:
128,192,30656,1,0,0:0:0:0:
298,192,30729,1,0,0:0:0:0:
384,192,30729,1,0,0:0:0:0:
128,192,30801,1,0,0:0:0:0:
42,192,30801,1,0,0:0:0:0:
213,192,30874,1,0,0:0:0:0:
384,192,30874,1,0,0:0:0:0:
469,192,30874,1,0,0:0:0:0:
298,192,30947,1,0,0:0:0:0:
384,192,31020,1,0,0:0:0:0:
128,192,31020,1,0,0:0:0:0:
213,192,31093,1,0,0:0:0:0:
469,192,31093,1,0,0:0:0:0:
298,192,31165,1,0,0:0:0:0:
128,192,31165,1,0,0:0:0:0:
42,192,31165,1,0,0:0:0:0:
384,192,31238,1,0,0:0:0:0:
213,192,31311,1,0,0:0:0:0:
128,192,31311,1,0,0:0:0:0:
384,192,31384,1,0,0:0:0:0:
469,192,31384,1,0,0:0:0:0:
128,192,31457,1,0,0:0:0:0:
42,192,31457,1,0,0:0:0:0:
298,192,31457,1,0,0:0:0:0:
213,192,31530,1,0,0:0:0:0:
128,192,31602,1,0,0:0:0:0:
384,192,31602,1,0,0:0:0:0:
298,192,31675,1,0,0:0:0:0:
42,192,31675,1,0,0:0:0:0:
213,192,31748,1,0,0:0:0:0:
384,192,31748,1,0,0:0:0:0:
469,192,31748,1,0,0:0:0:0:
128,192,31821,1,0,0:0:0:0:
298,192,31894,1,0,0:0:0:0:
384,192,31894,1,0,0:0:0:0:
128,192,31966,1,0,0:0:0:0:
42,192,31966,1,0,0:0:0:0:
213,192,32039,1,0,0:0:0:0:
384,192,32039,1,0,0:0:0:0:
469,192,32039,1,0,0:0:0:0:
298,192,32112,1,0,0:0:0:0:
384,192,32185,1,0,0:0:0:0:
128,192,32185,1,0,0:0:0:0:
213,192,32258,1,0,0:0:0:0:
469,192,32258,1,0,0:0:0:0:
298,192,32330,1,0,0:0:0:0:
128,192,32330,1,0,0:0:0:0:
42,192,32330,1,0,0:0:0:0:
384,192,32403,1,0,0:0:0:0:
213,192,32476,1,0,0:0:0:0:
128,192,32476,1,0,0:0:0:0:
384,192,32549,1,0,0:0:0:0:
469,192,32549,1,0,0:0:0:0:
298,192,32622,128,0,32695:0:0:0:0:
128,192,32622,128,0,32695:0:0:0:0:
42,192,32622,128,0,32695:0:0:0:0:
213,192,32695,128,0,32767:0:0:0:0:
469,192,32695,128,0,32767:0:0:0:0:
128,192,32767,128,0,32840:0:0:0:0:
384,192,32767,128,0,32840:0:0:0:0:
42,192,32840,128,0,32913:0:0:0:0:
298,192,32840,128,0,32913:0:0:0:0:
384,192,32913,128,0,32986:0:0:0:0:
213,192,32913,128,0,32986:0:0:0:0:
469,192,32913,128,0,32986:0:0:0:0:
128,192,32986,128,0,33059:0:0:0:0:
42,192,32986,128,0,33059:0:0:0:0:
384,192,33059,128,0,33131:0:0:0:0:
298,192,33059,128,0,33131:0:0:0:0:
128,192,33131,128,0,33204:0:0:0:0:
213,192,33131,128,0,33204:0:0:0:0:
298,192,33204,128,0,33277:0:0:0:0:
469,192,33204,128,0,33277:0:0:0:0:
42,192,33204,128,0,33277:0:0:0:0:
213,192,33277,128,0,33350:0:0:0:0:
384,192,33277,128,0,33350:0:0:0:0:
128,192,33350,128,0,33423:0:0:0:0:
298,192,33350,128,0,33423:0:0:0:0:
213,192,33423,128,0,33496:0:0:0:0:
384,192,33423,128,0,33496:0:0:0:0:
469,192,33496,128,0,33568:0:0:0:0:
42,192,33496,128,0,33568:0:0:0:0:
298,192,33496,128,0,33568:0:0:0:0:
128,192,33568,128,0,33641:0:0:0:0:
384,192,33568,128,0,33641:0:0:0:0:
469,192,33641,128,0,33714:0:0:0:0:
213,192,33641,128,0,33714:0:0:0:0:
298,192,33714,128,0,33787:0:0:0:0:
42,192,33714,128,0,33787:0:0:0:0:
213,192,33787,1,0,0:0:0:0:
384,192,33787,1,0,0:0:0:0:
469,192,33787,1,0,0:0:0:0:
128,192,33860,1,0,0:0:0:0:
298,192,33932,1,0,0:0:0:0:
384,192,33932,1,0,0:0:0:0:
128,192,34005,1,0,0:0:0:0:
42,192,34005,1,0,0:0:0:0:
213,192,34078,1,0,0:0:0:0:
384,192,34078,1,0,0:0:0:0:
469,192,34078,1,0,0:0:0:0:
298,192,34151,1,0,0:0:0:0:
384,192,34224,1,0,0:0:0:0:
128,192,34224,1,0,0:0:0:0:
213,192,34297,1,0,0:0:0:0:
469,192,34297,1,0,0:0:0:0:
298,192,34369,1,0,0:0:0:0:
128,192,34369,1,0,0:0:0:0:
42,192,34369,1,0,0:0:0:0:
384,192,34442,1,0,0:0:0:0:
213,192,34515,1,0,0:0:0:0:
128,192,34515,1,0,0:0:0:0:
384,192,34588,1,0,0:0:0:0:
469,192,34588,1,0,0:0:0:0:
298,192,34661,1,0,0:0:0:0:
128,192,34661,1,0,0:0:0:0:
42,192,34661,1,0,0:0:0:0:
213,192,34733,1,0,0:0:0:0:
128,192,34806,1,0,0:0:0:0:
384,192,34806,1,0,0:0:0:0:
298,192,34879,1,0,0:0:0:0:
42,192,34879,1,0,0:0:0:0:
213,192,34952,1,0,0:0:0:0:
384,192,34952,1,0,0:0:0:0:
469,192,34952,1,0,0:0:0:0:
128,192,35025,1,0,0:0:0:0:
298,192,35097,1,0,0:0:0:0:
384,192,35097,1,0,0:0:0:0:
128,192,35170,1,0,0:0:0:0:
42,192,35170,1,0,0:0:0:0:
213,192,35243,1,0,0:0:0:0:
384,192,35243,1,0,0:0:0:0:
469,192,35243,1,0,0:0:0:0:
298,192,35316,1,0,0:0:0:0:
384,192,35389,1,0,0:0:0:0:
128,192,35389,1,0,0:0:0:0:
213,192,35462,1,0,0:0:0:0:
469,192,35462,1,0,0:0:0:0:
298,192,35534,1,0,0:0:0:0:
128,192,35534,1,0,0:0:0:0:
42,192,35534,1,0,0:0:0:0:
384,192,35607,1,0,0:0:0:0:
213,192,35680,1,0,0:0:0:0:
128,192,35680,1,0,0:0:0:0:
384,192,35753,1,0,0:0:0:0:
469,192,35753,1,0,0:0:0:0:
298,192,35826,1,0,0:0:0:0:
128,192,35826,1,0,0:0:0:0:
42,192,35826,1,0,0:0:0:0:
213,192,35898,1,0,0:0:0:0:
128,192,35971,1,0,0:0:0:0:
384,192,35971,1,0,0:0:0:0:
298,192,36044,1,0,0:0:0:0:
42,192,36044,1,0,0:0:0:0:
469,192,36117,1,0,0:0:0:0:
384,192,36117,1,0,0:0:0:0:
213,192,36117,1,0,0:0:0:0:
128,192,36190,1,0,0:0:0:0:
384,192,36263,1,0,0:0:0:0:
298,192,36263,1,0,0:0:0:0:
42,192,36335,1,0,0:0:0:0:
128,192,36335,1,0,0:0:0:0:
469,192,36408,1,0,0:0:0:0:
384,192,36408,1,0,0:0:0:0:
213,192,36408,1,0,0:0:0:0:
298,192,36481,1,0,0:0:0:0:
128,192,36554,1,0,0:0:0:0:
384,192,36554,1,0,0:0:0:0:
213,192,36627,1,0,0:0:0:0:
469,192,36627,1,0,0:0:0:0:
42,192,36699,1,0,0:0:0:0:
128,192,36699,1,0,0:0:0:0:
298,192,36699,1,0,0:0:0:0:
384,192,36772,1,0,0:0:0:0:
128,192,36845,1,0,0:0:0:0:
213,192,36845,1,0,0:0:0:0:
469,192,36918,1,0,0:0:0:0:
384,192,36918,1,0,0:0:0:0:
42,192,36991,1,0,0:0:0:0:
128,192,36991,1,0,0:0:0:0:
298,192,36991,1,0,0:0:0:0:
213,192,37064,1,0,0:0:0:0:
384,192,37136,1,0,0:0:0:0:
128,192,37136,1,0,0:0:0:0:
298,192,37209,1,0,0:0:0:0:
42,192,37209,1,0,0:0:0:0:
213,192,37282,128,0,37355:0:0:0:0:
128,192,37282,128,0,37355:0:0:0:0:
469,192,37282,128,0,37355:0:0:0:0:
384,192,37282,128,0,37355:0:0:0:0:
384,192,37428,128,0,37646:0:0:0:0:
128,192,37428,128,0,37646:0:0:0:0:
298,192,37500,128,0,37573:0:0:0:0:
42,192,37500,128,0,37573:0:0:0:0:
469,192,37573,128,0,37792:0:0:0:0:
213,192,37573,128,0,37792:0:0:0:0:
42,192,37719,128,0,37792:0:0:0:0:
384,192,37719,1,0,0:0:0:0:
298,192,37719,128,0,37792:0:0:0:0:
42,192,37864,128,0,37937:0:0:0:0:
128,192,37864,128,0,37937:0:0:0:0:
384,192,37937,128,0,38010:0:0:0:0:
469,192,37937,128,0,38010:0:0:0:0:
42,192,38010,128,0,38083:0:0:0:0:
128,192,38010,128,0,38083:0:0:0:0:
298,192,38010,1,0,0:0:0:0:
384,192,38083,128,0,38156:0:0:0:0:
469,192,38083,128,0,38156:0:0:0:0:
42,192,38156,1,0,0:0:0:0:
298,192,38180,1,0,0:0:0:0:
128,192,38204,1,0,0:0:0:0:
384,192,38229,1,0,0:0:0:0:
213,192,38253,1,0,0:0:0:0:
469,192,38277,1,0,0:0:0:0:
298,192,38301,1,0,0:0:0:0:
128,192,38301,1,0,0:0:0:0:
42,192,38301,1,0,0:0:0:0:
213,192,38447,1,0,0:0:0:0:
42,192,38447,1,0,0:0:0:0:
298,192,38447,1,0,0:0:0:0:
469,192,38447,1,0,0:0:0:0:
384,192,38593,1,0,0:0:0:0:
213,192,38593,1,0,0:0:0:0:
128,192,38593,1,0,0:0:0:0:
469,192,38738,1,0,0:0:0:0:
42,192,38738,1,0,0:0:0:0:
213,192,38811,1,0,0:0:0:0:
384,192,38811,1,0,0:0:0:0:
42,192,38884,1,0,0:0:0:0:
469,192,38884,1,0,0:0:0:0:
298,192,38957,1,0,0:0:0:0:
128,192,38957,1,0,0:0:0:0:
213,192,39030,1,0,0:0:0:0:
42,192,39030,1,0,0:0:0:0:
469,192,39030,1,0,0:0:0:0:
384,192,39175,1,0,0:0:0:0:
298,192,39175,1,0,0:0:0:0:
128,192,39175,1,0,0:0:0:0:
469,192,39321,1,0,0:0:0:0:
42,192,39321,1,0,0:0:0:0:
128,192,39321,1,0,0:0:0:0:
213,192,39321,1,0,0:0:0:0:
298,192,39466,1,0,0:0:0:0:
469,192,39466,1,0,0:0:0:0:
128,192,39612,128,0,39830:0:0:0:0:
42,192,39612,128,0,39830:0:0:0:0:
384,192,39612,128,0,39830:0:0:0:0:
469,192,39612,128,0,39830:0:0:0:0:
469,192,39903,1,0,0:0:0:0:
42,192,39903,1,0,0:0:0:0:
384,192,39903,1,0,0:0:0:0:
128,192,39903,1,0,0:0:0:0:
213,192,39945,1,0,0:0:0:0:
298,192,39987,1,0,0:0:0:0:
384,192,40028,1,0,0:0:0:0:
128,192,40049,1,0,0:0:0:0:
469,192,40070,1,0,0:0:0:0:
42,192,40195,1,0,0:0:0:0:
384,192,40195,1,0,0:0:0:0:
213,192,40231,1,0,0:0:0:0:
128,192,40267,1,0,0:0:0:0:
42,192,40304,1,0,0:0:0:0:
213,192,40340,1,0,0:0:0:0:
298,192,40377,1,0,0:0:0:0:
469,192,40413,1,0,0:0:0:0:
128,192,40486,1,0,0:0:0:0:
42,192,40486,1,0,0:0:0:0:
384,192,40486,1,0,0:0:0:0:
298,192,40527,1,0,0:0:0:0:
213,192,40569,1,0,0:0:0:0:
128,192,40611,1,0,0:0:0:0:
384,192,40631,1,0,0:0:0:0:
42,192,40652,1,0,0:0:0:0:
469,192,40777,1,0,0:0:0:0:
298,192,40777,1,0,0:0:0:0:
128,192,40814,1,0,0:0:0:0:
384,192,40850,1,0,0:0:0:0:
213,192,40886,1,0,0:0:0:0:
469,192,40923,1,0,0:0:0:0:
298,192,40959,1,0,0:0:0:0:
213,192,40996,1,0,0:0:0:0:
128,192,41068,1,0,0:0:0:0:
42,192,41068,1,0,0:0:0:0:
469,192,41068,1,0,0:0:0:0:
384,192,41105,1,0,0:0:0:0:
298,192,41141,1,0,0:0:0:0:
128,192,41178,1,0,0:0:0:0:
213,192,41214,1,0,0:0:0:0:
384,192,41250,1,0,0:0:0:0:
469,192,41287,1,0,0:0:0:0:
42,192,41360,1,0,0:0:0:0:
213,192,41360,1,0,0:0:0:0:
384,192,41396,1,0,0:0:0:0:
128,192,41432,1,0,0:0:0:0:
298,192,41469,1,0,0:0:0:0:
42,192,41505,1,0,0:0:0:0:
213,192,41542,1,0,0:0:0:0:
298,192,41578,1,0,0:0:0:0:
384,192,41651,1,0,0:0:0:0:
469,192,41651,1,0,0:0:0:0:
128,192,41651,1,0,0:0:0:0:
213,192,41692,1,0,0:0:0:0:
298,192,41734,1,0,0:0:0:0:
384,192,41776,1,0,0:0:0:0:
128,192,41797,1,0,0:0:0:0:
469,192,41817,1,0,0:0:0:0:
42,192,41942,128,0,42233:0:0:0:0:
298,192,41942,1,0,0:0:0:0:
384,192,41942,1,0,0:0:0:0:
213,192,42015,1,0,0:0:0:0:
128,192,42088,1,0,0:0:0:0:
384,192,42088,1,0,0:0:0:0:
298,192,42161,1,0,0:0:0:0:
469,192,42233,128,0,42525:0:0:0:0:
213,192,42233,1,0,0:0:0:0:
128,192,42233,1,0,0:0:0:0:
298,192,42306,1,0,0:0:0:0:
384,192,42379,1,0,0:0:0:0:
128,192,42379,1,0,0:0:0:0:
213,192,42452,1,0,0:0:0:0:
42,192,42525,1,0,0:0:0:0:
298,192,42525,128,0,42597:0:0:0:0:
384,192,42525,128,0,42597:0:0:0:0:
128,192,42597,1,0,0:0:0:0:
298,192,42670,128,0,42743:0:0:0:0:
384,192,42670,128,0,42743:0:0:0:0:
128,192,42743,1,0,0:0:0:0:
42,192,42816,1,0,0:0:0:0:
384,192,42816,128,0,42889:0:0:0:0:
469,192,42816,128,0,42889:0:0:0:0:
213,192,42889,1,0,0:0:0:0:
384,192,42962,128,0,43034:0:0:0:0:
469,192,42962,128,0,43034:0:0:0:0:
213,192,43034,1,0,0:0:0:0:
469,192,43107,1,0,0:0:0:0:
42,192,43107,128,0,43253:0:0:0:0:
298,192,43107,128,0,43253:0:0:0:0:
128,192,43180,128,0,43326:0:0:0:0:
384,192,43253,1,0,0:0:0:0:
213,192,43253,128,0,43398:0:0:0:0:
298,192,43326,128,0,43471:0:0:0:0:
42,192,43398,1,0,0:0:0:0:
128,192,43398,128,0,43471:0:0:0:0:
469,192,43398,128,0,43471:0:0:0:0:
213,192,43471,128,0,43544:0:0:0:0:
128,192,43544,1,0,0:0:0:0:
298,192,43544,128,0,43617:0:0:0:0:
384,192,43617,128,0,43690:0:0:0:0:
42,192,43690,1,0,0:0:0:0:
213,192,43690,128,0,43835:0:0:0:0:
469,192,43690,128,0,43835:0:0:0:0:
384,192,43763,128,0,43908:0:0:0:0:
128,192,43835,1,0,0:0:0:0:
298,192,43835,128,0,43981:0:0:0:0:
213,192,43908,128,0,44054:0:0:0:0:
469,192,43981,1,0,0:0:0:0:
384,192,43981,128,0,44054:0:0:0:0:
42,192,43981,128,0,44054:0:0:0:0:
298,192,44054,128,0,44127:0:0:0:0:
384,192,44127,1,0,0:0:0:0:
213,192,44127,128,0,44199:0:0:0:0:
128,192,44199,128,0,44272:0:0:0:0:
42,192,44272,1,0,0:0:0:0:
469,192,44272,1,0,0:0:0:0:
298,192,44309,1,0,0:0:0:0:
384,192,44345,1,0,0:0:0:0:
469,192,44381,1,0,0:0:0:0:
298,192,44418,1,0,0:0:0:0:
213,192,44454,1,0,0:0:0:0:
42,192,44491,1,0,0:0:0:0:
469,192,44564,1,0,0:0:0:0:
298,192,44564,1,0,0:0:0:0:
384,192,44564,1,0,0:0:0:0:
128,192,44600,1,0,0:0:0:0:
213,192,44636,1,0,0:0:0:0:
298,192,44673,1,0,0:0:0:0:
384,192,44709,1,0,0:0:0:0:
213,192,44746,1,0,0:0:0:0:
128,192,44782,1,0,0:0:0:0:
469,192,44855,1,0,0:0:0:0:
42,192,44855,1,0,0:0:0:0:
298,192,44891,1,0,0:0:0:0:
384,192,44928,1,0,0:0:0:0:
469,192,44964,1,0,0:0:0:0:
213,192,45000,1,0,0:0:0:0:
298,192,45049,1,0,0:0:0:0:
213,192,45097,1,0,0:0:0:0:
469,192,45146,1,0,0:0:0:0:
128,192,45146,1,0,0:0:0:0:
42,192,45146,1,0,0:0:0:0:
384,192,45170,1,0,0:0:0:0:
298,192,45195,1,0,0:0:0:0:
128,192,45292,1,0,0:0:0:0:
213,192,45328,1,0,0:0:0:0:
298,192,45364,1,0,0:0:0:0:
469,192,45437,1,0,0:0:0:0:
42,192,45437,1,0,0:0:0:0:
298,192,45510,1,0,0:0:0:0:
469,192,45510,1,0,0:0:0:0:
213,192,45583,1,0,0:0:0:0:
42,192,45583,1,0,0:0:0:0:
469,192,45656,1,0,0:0:0:0:
298,192,45656,1,0,0:0:0:0:
128,192,45729,1,0,0:0:0:0:
42,192,45729,1,0,0:0:0:0:
384,192,45729,1,0,0:0:0:0:
213,192,45753,1,0,0:0:0:0:
298,192,45777,1,0,0:0:0:0:
384,192,45874,1,0,0:0:0:0:
298,192,45911,1,0,0:0:0:0:
213,192,45947,1,0,0:0:0:0:
42,192,46020,1,0,0:0:0:0:
469,192,46020,1,0,0:0:0:0:
213,192,46061,1,0,0:0:0:0:
298,192,46103,1,0,0:0:0:0:
384,192,46145,1,0,0:0:0:0:
128,192,46165,1,0,0:0:0:0:
469,192,46186,1,0,0:0:0:0:
213,192,46238,1,0,0:0:0:0:
42,192,46311,1,0,0:0:0:0:
469,192,46311,1,0,0:0:0:0:
298,192,46311,1,0,0:0:0:0:
128,192,46457,1,0,0:0:0:0:
42,192,46602,128,0,46894:0:0:0:0:
298,192,46602,1,0,0:0:0:0:
384,192,46602,1,0,0:0:0:0:
213,192,46675,1,0,0:0:0:0:
128,192,46748,1,0,0:0:0:0:
384,192,46748,1,0,0:0:0:0:
298,192,46821,1,0,0:0:0:0:
469,192,46894,128,0,47185:0:0:0:0:
213,192,46894,1,0,0:0:0:0:
128,192,46894,1,0,0:0:0:0:
298,192,46966,1,0,0:0:0:0:
384,192,47039,1,0,0:0:0:0:
128,192,47039,1,0,0:0:0:0:
213,192,47112,1,0,0:0:0:0:
42,192,47185,1,0,0:0:0:0:
298,192,47185,128,0,47258:0:0:0:0:
384,192,47185,128,0,47258:0:0:0:0:
128,192,47258,1,0,0:0:0:0:
298,192,47330,128,0,47403:0:0:0:0:
384,192,47330,128,0,47403:0:0:0:0:
128,192,47403,1,0,0:0:0:0:
42,192,47476,1,0,0:0:0:0:
384,192,47476,128,0,47549:0:0:0:0:
469,192,47476,128,0,47549:0:0:0:0:
213,192,47549,1,0,0:0:0:0:
384,192,47622,128,0,47695:0:0:0:0:
469,192,47622,128,0,47695:0:0:0:0:
213,192,47695,1,0,0:0:0:0:
298,192,47767,1,0,0:0:0:0:
469,192,47767,1,0,0:0:0:0:
42,192,47767,1,0,0:0:0:0:
384,192,47767,1,0,0:0:0:0:
213,192,47913,1,0,0:0:0:0:
42,192,47913,1,0,0:0:0:0:
469,192,47913,1,0,0:0:0:0:
128,192,47913,1,0,0:0:0:0:
298,192,48059,1,0,0:0:0:0:
384,192,48059,1,0,0:0:0:0:
128,192,48059,1,0,0:0:0:0:
469,192,48059,1,0,0:0:0:0:
213,192,48204,1,0,0:0:0:0:
128,192,48204,1,0,0:0:0:0:
384,192,48204,1,0,0:0:0:0:
42,192,48204,1,0,0:0:0:0:
469,192,48350,1,0,0:0:0:0:
42,192,48350,1,0,0:0:0:0:
298,192,48423,1,0,0:0:0:0:
469,192,48496,1,0,0:0:0:0:
128,192,48496,1,0,0:0:0:0:
298,192,48568,1,0,0:0:0:0:
469,192,48641,1,0,0:0:0:0:
213,192,48641,1,0,0:0:0:0:
128,192,48641,1,0,0:0:0:0:
42,192,48641,1,0,0:0:0:0:
298,192,48787,1,0,0:0:0:0:
469,192,48787,1,0,0:0:0:0:
384,192,48787,1,0,0:0:0:0:
384,192,48932,1,0,0:0:0:0:
42,192,48932,1,0,0:0:0:0:
469,192,48932,1,0,0:0:0:0:
213,192,48969,1,0,0:0:0:0:
128,192,49005,1,0,0:0:0:0:
42,192,49042,1,0,0:0:0:0:
213,192,49078,1,0,0:0:0:0:
298,192,49114,1,0,0:0:0:0:
469,192,49151,1,0,0:0:0:0:
42,192,49224,1,0,0:0:0:0:
384,192,49224,1,0,0:0:0:0:
128,192,49224,1,0,0:0:0:0:
298,192,49265,1,0,0:0:0:0:
213,192,49307,1,0,0:0:0:0:
128,192,49349,1,0,0:0:0:0:
384,192,49369,1,0,0:0:0:0:
42,192,49390,1,0,0:0:0:0:
469,192,49515,1,0,0:0:0:0:
128,192,49515,1,0,0:0:0:0:
298,192,49551,1,0,0:0:0:0:
384,192,49588,1,0,0:0:0:0:
469,192,49624,1,0,0:0:0:0:
298,192,49661,1,0,0:0:0:0:
213,192,49697,1,0,0:0:0:0:
42,192,49733,1,0,0:0:0:0:
384,192,49806,1,0,0:0:0:0:
469,192,49806,1,0,0:0:0:0:
128,192,49806,1,0,0:0:0:0:
213,192,49848,1,0,0:0:0:0:
298,192,49889,1,0,0:0:0:0:
384,192,49931,1,0,0:0:0:0:
128,192,49952,1,0,0:0:0:0:
469,192,49973,1,0,0:0:0:0:
42,192,50097,1,0,0:0:0:0:
213,192,50097,1,0,0:0:0:0:
384,192,50134,1,0,0:0:0:0:
128,192,50170,1,0,0:0:0:0:
298,192,50207,1,0,0:0:0:0:
42,192,50243,1,0,0:0:0:0:
213,192,50280,1,0,0:0:0:0:
298,192,50316,1,0,0:0:0:0:
384,192,50389,1,0,0:0:0:0:
469,192,50389,1,0,0:0:0:0:
42,192,50389,1,0,0:0:0:0:
128,192,50425,1,0,0:0:0:0:
213,192,50462,1,0,0:0:0:0:
384,192,50498,1,0,0:0:0:0:
298,192,50534,1,0,0:0:0:0:
128,192,50571,1,0,0:0:0:0:
42,192,50607,1,0,0:0:0:0:
469,192,50680,1,0,0:0:0:0:
298,192,50680,1,0,0:0:0:0:
128,192,50716,1,0,0:0:0:0:
384,192,50753,1,0,0:0:0:0:
213,192,50789,1,0,0:0:0:0:
469,192,50826,1,0,0:0:0:0:
298,192,50862,1,0,0:0:0:0:
213,192,50898,1,0,0:0:0:0:
128,192,50971,1,0,0:0:0:0:
42,192,50971,1,0,0:0:0:0:
384,192,50971,1,0,0:0:0:0:
298,192,51013,1,0,0:0:0:0:
213,192,51054,1,0,0:0:0:0:
128,192,51096,1,0,0:0:0:0:
384,192,51117,1,0,0:0:0:0:
42,192,51138,1,0,0:0:0:0:
469,192,51263,128,0,51554:0:0:0:0:
213,192,51263,1,0,0:0:0:0:
128,192,51263,1,0,0:0:0:0:
298,192,51335,1,0,0:0:0:0:
384,192,51408,1,0,0:0:0:0:
128,192,51408,1,0,0:0:0:0:
213,192,51481,1,0,0:0:0:0:
42,192,51554,128,0,51845:0:0:0:0:
298,192,51554,1,0,0:0:0:0:
384,192,51554,1,0,0:0:0:0:
213,192,51627,1,0,0:0:0:0:
128,192,51699,1,0,0:0:0:0:
384,192,51699,1,0,0:0:0:0:
298,192,51772,1,0,0:0:0:0:
469,192,51845,1,0,0:0:0:0:
213,192,51845,128,0,51918:0:0:0:0:
128,192,51845,128,0,51918:0:0:0:0:
384,192,51918,1,0,0:0:0:0:
213,192,51991,128,0,52064:0:0:0:0:
128,192,51991,128,0,52064:0:0:0:0:
384,192,52064,1,0,0:0:0:0:
469,192,52136,1,0,0:0:0:0:
128,192,52136,128,0,52209:0:0:0:0:
42,192,52136,128,0,52209:0:0:0:0:
298,192,52209,1,0,0:0:0:0:
128,192,52282,128,0,52355:0:0:0:0:
42,192,52282,128,0,52355:0:0:0:0:
298,192,52355,1,0,0:0:0:0:
42,192,52428,1,0,0:0:0:0:
469,192,52428,128,0,52573:0:0:0:0:
213,192,52428,128,0,52573:0:0:0:0:
384,192,52500,128,0,52646:0:0:0:0:
128,192,52573,1,0,0:0:0:0:
298,192,52573,128,0,52719:0:0:0:0:
213,192,52646,128,0,52792:0:0:0:0:
469,192,52719,1,0,0:0:0:0:
384,192,52719,128,0,52792:0:0:0:0:
42,192,52719,128,0,52792:0:0:0:0:
298,192,52792,128,0,52864:0:0:0:0:
384,192,52864,1,0,0:0:0:0:
213,192,52864,128,0,52937:0:0:0:0:
128,192,52937,128,0,53010:0:0:0:0:
469,192,53010,1,0,0:0:0:0:
298,192,53010,128,0,53156:0:0:0:0:
42,192,53010,128,0,53156:0:0:0:0:
128,192,53083,128,0,53229:0:0:0:0:
384,192,53156,1,0,0:0:0:0:
213,192,53156,128,0,53301:0:0:0:0:
298,192,53229,128,0,53374:0:0:0:0:
42,192,53301,1,0,0:0:0:0:
128,192,53301,128,0,53374:0:0:0:0:
469,192,53301,128,0,53374:0:0:0:0:
213,192,53374,128,0,53447:0:0:0:0:
128,192,53447,1,0,0:0:0:0:
298,192,53447,128,0,53520:0:0:0:0:
384,192,53520,128,0,53593:0:0:0:0:
128,192,53593,1,0,0:0:0:0:
42,192,53593,1,0,0:0:0:0:
469,192,53593,1,0,0:0:0:0:
213,192,53593,1,0,0:0:0:0:
384,192,53665,1,0,0:0:0:0:
128,192,53738,1,0,0:0:0:0:
42,192,53738,1,0,0:0:0:0:
298,192,53738,1,0,0:0:0:0:
469,192,53811,1,0,0:0:0:0:
128,192,53884,1,0,0:0:0:0:
42,192,53884,1,0,0:0:0:0:
298,192,53884,1,0,0:0:0:0:
213,192,53957,1,0,0:0:0:0:
128,192,54030,1,0,0:0:0:0:
42,192,54030,1,0,0:0:0:0:
384,192,54030,1,0,0:0:0:0:
298,192,54102,1,0,0:0:0:0:
384,192,54175,1,0,0:0:0:0:
469,192,54175,1,0,0:0:0:0:
42,192,54175,1,0,0:0:0:0:
128,192,54248,1,0,0:0:0:0:
213,192,54321,1,0,0:0:0:0:
384,192,54321,1,0,0:0:0:0:
469,192,54321,1,0,0:0:0:0:
42,192,54394,1,0,0:0:0:0:
213,192,54466,1,0,0:0:0:0:
384,192,54466,1,0,0:0:0:0:
469,192,54466,1,0,0:0:0:0:
298,192,54539,1,0,0:0:0:0:
384,192,54612,1,0,0:0:0:0:
469,192,54612,1,0,0:0:0:0:
128,192,54612,1,0,0:0:0:0:
298,192,54685,1,0,0:0:0:0:
213,192,54758,1,0,0:0:0:0:
42,192,54758,1,0,0:0:0:0:
469,192,54758,1,0,0:0:0:0:
128,192,54758,1,0,0:0:0:0:
384,192,54830,1,0,0:0:0:0:
213,192,54903,1,0,0:0:0:0:
42,192,54903,1,0,0:0:0:0:
298,192,54903,1,0,0:0:0:0:
469,192,54976,1,0,0:0:0:0:
213,192,55049,1,0,0:0:0:0:
42,192,55049,1,0,0:0:0:0:
384,192,55049,1,0,0:0:0:0:
469,192,55122,1,0,0:0:0:0:
213,192,55195,1,0,0:0:0:0:
42,192,55195,1,0,0:0:0:0:
298,192,55195,1,0,0:0:0:0:
384,192,55267,1,0,0:0:0:0:
298,192,55340,1,0,0:0:0:0:
42,192,55340,1,0,0:0:0:0:
469,192,55340,1,0,0:0:0:0:
128,192,55413,1,0,0:0:0:0:
213,192,55486,1,0,0:0:0:0:
469,192,55486,1,0,0:0:0:0:
298,192,55486,1,0,0:0:0:0:
42,192,55559,1,0,0:0:0:0:
128,192,55631,1,0,0:0:0:0:
298,192,55631,1,0,0:0:0:0:
469,192,55631,1,0,0:0:0:0:
42,192,55704,1,0,0:0:0:0:
469,192,55777,1,0,0:0:0:0:
213,192,55777,1,0,0:0:0:0:
298,192,55777,1,0,0:0:0:0:
128,192,55850,1,0,0:0:0:0:
384,192,55923,1,0,0:0:0:0:
469,192,55923,1,0,0:0:0:0:
42,192,55923,1,0,0:0:0:0:
298,192,55923,1,0,0:0:0:0:
213,192,55996,1,0,0:0:0:0:
128,192,55996,1,0,0:0:0:0:
42,192,56068,1,0,0:0:0:0:
384,192,56068,1,0,0:0:0:0:
298,192,56141,1,0,0:0:0:0:
213,192,56141,1,0,0:0:0:0:
42,192,56214,1,0,0:0:0:0:
469,192,56214,1,0,0:0:0:0:
128,192,56214,1,0,0:0:0:0:
298,192,56287,1,0,0:0:0:0:
384,192,56287,1,0,0:0:0:0:
469,192,56360,1,0,0:0:0:0:
128,192,56360,1,0,0:0:0:0:
298,192,56432,1,0,0:0:0:0:
213,192,56432,1,0,0:0:0:0:
384,192,56505,1,0,0:0:0:0:
469,192,56505,1,0,0:0:0:0:
128,192,56505,1,0,0:0:0:0:
42,192,56505,1,0,0:0:0:0:
42,192,56651,1,0,0:0:0:0:
298,192,56675,1,0,0:0:0:0:
128,192,56699,1,0,0:0:0:0:
384,192,56724,1,0,0:0:0:0:
213,192,56748,1,0,0:0:0:0:
469,192,56772,1,0,0:0:0:0:
298,192,56797,1,0,0:0:0:0:
128,192,56797,1,0,0:0:0:0:
42,192,56797,1,0,0:0:0:0:
469,192,56942,1,0,0:0:0:0:
213,192,56966,1,0,0:0:0:0:
384,192,56991,1,0,0:0:0:0:
128,192,57015,1,0,0:0:0:0:
298,192,57039,1,0,0:0:0:0:
42,192,57064,5,0,0:0:0:0:
384,192,57088,128,0,57233:0:0:0:0:
469,192,57088,128,0,57233:0:0:0:0:
213,192,57088,128,0,57233:0:0:0:0:
128,192,57161,1,0,0:0:0:0:
298,192,57233,1,0,0:0:0:0:
213,192,57306,128,0,57452:0:0:0:0:
42,192,57306,128,0,57452:0:0:0:0:
469,192,57306,128,0,57452:0:0:0:0:
298,192,57379,1,0,0:0:0:0:
384,192,57452,1,0,0:0:0:0:
298,192,57525,128,0,57670:0:0:0:0:
128,192,57525,128,0,57670:0:0:0:0:
42,192,57525,128,0,57670:0:0:0:0:
384,192,57597,1,0,0:0:0:0:
213,192,57670,1,0,0:0:0:0:
469,192,57743,128,0,57889:0:0:0:0:
298,192,57743,128,0,57889:0:0:0:0:
42,192,57743,128,0,57889:0:0:0:0:
213,192,57816,1,0,0:0:0:0:
128,192,57889,1,0,0:0:0:0:
213,192,57962,128,0,58034:0:0:0:0:
42,192,57962,128,0,58034:0:0:0:0:
298,192,57962,128,0,58034:0:0:0:0:
469,192,57962,128,0,58034:0:0:0:0:
469,192,58107,128,0,58180:0:0:0:0:
298,192,58107,128,0,58180:0:0:0:0:
213,192,58107,128,0,58180:0:0:0:0:
42,192,58107,128,0,58180:0:0:0:0:
298,192,58253,128,0,58398:0:0:0:0:
469,192,58253,128,0,58617:0:0:0:0:
128,192,58253,1,0,0:0:0:0:
42,192,58253,128,0,58326:0:0:0:0:
213,192,58326,128,0,58471:0:0:0:0:
384,192,58398,1,0,0:0:0:0:
128,192,58398,128,0,58617:0:0:0:0:
42,192,58544,1,0,0:0:0:0:
384,192,58544,128,0,58617:0:0:0:0:
298,192,58544,128,0,58763:0:0:0:0:
384,192,58690,128,0,58835:0:0:0:0:
128,192,58690,1,0,0:0:0:0:
469,192,58763,128,0,58981:0:0:0:0:
42,192,58835,1,0,0:0:0:0:
128,192,58835,128,0,59054:0:0:0:0:
298,192,58835,128,0,58908:0:0:0:0:
213,192,58908,128,0,58981:0:0:0:0:
42,192,58981,128,0,59199:0:0:0:0:
384,192,58981,128,0,59054:0:0:0:0:
298,192,59054,128,0,59127:0:0:0:0:
213,192,59127,128,0,59272:0:0:0:0:
469,192,59127,128,0,59199:0:0:0:0:
128,192,59127,1,0,0:0:0:0:
298,192,59199,128,0,59272:0:0:0:0:
128,192,59272,128,0,59418:0:0:0:0:
384,192,59272,128,0,59345:0:0:0:0:
213,192,59345,128,0,59418:0:0:0:0:
469,192,59418,128,0,59782:0:0:0:0:
298,192,59418,128,0,59564:0:0:0:0:
42,192,59418,128,0,59491:0:0:0:0:
213,192,59491,128,0,59636:0:0:0:0:
128,192,59564,128,0,59782:0:0:0:0:
384,192,59564,1,0,0:0:0:0:
298,192,59709,128,0,59928:0:0:0:0:
384,192,59709,128,0,59782:0:0:0:0:
42,192,59709,1,0,0:0:0:0:
128,192,59855,1,0,0:0:0:0:
384,192,59855,128,0,60000:0:0:0:0:
469,192,59928,128,0,60146:0:0:0:0:
128,192,60000,128,0,60219:0:0:0:0:
42,192,60000,1,0,0:0:0:0:
298,192,60000,128,0,60073:0:0:0:0:
213,192,60073,128,0,60146:0:0:0:0:
42,192,60146,128,0,60364:0:0:0:0:
384,192,60146,128,0,60219:0:0:0:0:
298,192,60219,128,0,60292:0:0:0:0:
128,192,60292,1,0,0:0:0:0:
469,192,60292,128,0,60364:0:0:0:0:
213,192,60292,128,0,60437:0:0:0:0:
298,192,60364,128,0,60437:0:0:0:0:
384,192,60437,128,0,60510:0:0:0:0:
128,192,60437,128,0,60583:0:0:0:0:
213,192,60510,128,0,60583:0:0:0:0:
298,192,60583,128,0,60729:0:0:0:0:
469,192,60583,128,0,60947:0:0:0:0:
42,192,60583,128,0,60656:0:0:0:0:
213,192,60656,128,0,60801:0:0:0:0:
384,192,60729,1,0,0:0:0:0:
128,192,60729,128,0,60947:0:0:0:0:
42,192,60874,1,0,0:0:0:0:
384,192,60874,128,0,60947:0:0:0:0:
298,192,60874,128,0,61093:0:0:0:0:
384,192,61020,128,0,61165:0:0:0:0:
128,192,61020,1,0,0:0:0:0:
469,192,61093,128,0,61311:0:0:0:0:
42,192,61165,1,0,0:0:0:0:
128,192,61165,128,0,61384:0:0:0:0:
298,192,61165,128,0,61238:0:0:0:0:
213,192,61238,128,0,61311:0:0:0:0:
42,192,61311,128,0,61530:0:0:0:0:
384,192,61311,128,0,61384:0:0:0:0:
298,192,61384,128,0,61457:0:0:0:0:
213,192,61457,128,0,61602:0:0:0:0:
469,192,61457,128,0,61530:0:0:0:0:
128,192,61457,1,0,0:0:0:0:
298,192,61530,128,0,61602:0:0:0:0:
128,192,61602,128,0,61748:0:0:0:0:
384,192,61602,128,0,61675:0:0:0:0:
213,192,61675,128,0,61748:0:0:0:0:
469,192,61748,128,0,62112:0:0:0:0:
298,192,61748,128,0,61894:0:0:0:0:
42,192,61748,128,0,61821:0:0:0:0:
213,192,61821,128,0,61966:0:0:0:0:
128,192,61894,128,0,62112:0:0:0:0:
384,192,61894,1,0,0:0:0:0:
298,192,62039,128,0,62258:0:0:0:0:
384,192,62039,128,0,62112:0:0:0:0:
42,192,62039,1,0,0:0:0:0:
128,192,62185,1,0,0:0:0:0:
384,192,62185,128,0,62330:0:0:0:0:
469,192,62258,128,0,62476:0:0:0:0:
128,192,62330,128,0,62549:0:0:0:0:
42,192,62330,1,0,0:0:0:0:
298,192,62330,128,0,62403:0:0:0:0:
213,192,62403,128,0,62476:0:0:0:0:
42,192,62476,128,0,62695:0:0:0:0:
384,192,62476,128,0,62549:0:0:0:0:
298,192,62549,128,0,62622:0:0:0:0:
128,192,62622,1,0,0:0:0:0:
469,192,62622,128,0,62695:0:0:0:0:
213,192,62622,128,0,62767:0:0:0:0:
298,192,62695,128,0,62767:0:0:0:0:
384,192,62767,128,0,62840:0:0:0:0:
128,192,62767,128,0,62913:0:0:0:0:
213,192,62840,128,0,62913:0:0:0:0:
42,192,62913,128,0,63277:0:0:0:0:
298,192,62913,128,0,63131:0:0:0:0:
469,192,62913,128,0,62986:0:0:0:0:
213,192,62986,128,0,63059:0:0:0:0:
384,192,63059,128,0,63277:0:0:0:0:
469,192,63059,1,0,0:0:0:0:
469,192,63204,128,0,63277:0:0:0:0:
298,192,63204,1,0,0:0:0:0:
128,192,63204,128,0,63496:0:0:0:0:
213,192,63350,128,0,63423:0:0:0:0:
384,192,63350,1,0,0:0:0:0:
42,192,63423,128,0,63641:0:0:0:0:
384,192,63496,1,0,0:0:0:0:
298,192,63496,128,0,63714:0:0:0:0:
469,192,63496,128,0,63568:0:0:0:0:
213,192,63568,128,0,63641:0:0:0:0:
384,192,63641,128,0,63787:0:0:0:0:
128,192,63641,128,0,63714:0:0:0:0:
469,192,63714,128,0,63932:0:0:0:0:
128,192,63787,1,0,0:0:0:0:
213,192,63787,128,0,63932:0:0:0:0:
42,192,63787,128,0,63860:0:0:0:0:
298,192,63860,128,0,63932:0:0:0:0:
128,192,63932,128,0,64078:0:0:0:0:
384,192,63932,128,0,64005:0:0:0:0:
213,192,64005,128,0,64078:0:0:0:0:
42,192,64078,128,0,64442:0:0:0:0:
298,192,64078,128,0,64297:0:0:0:0:
469,192,64078,128,0,64151:0:0:0:0:
213,192,64151,128,0,64224:0:0:0:0:
384,192,64224,128,0,64442:0:0:0:0:
469,192,64224,1,0,0:0:0:0:
469,192,64369,128,0,64442:0:0:0:0:
298,192,64369,1,0,0:0:0:0:
128,192,64369,128,0,64661:0:0:0:0:
213,192,64515,128,0,64588:0:0:0:0:
384,192,64515,1,0,0:0:0:0:
42,192,64588,128,0,64806:0:0:0:0:
384,192,64661,1,0,0:0:0:0:
298,192,64661,128,0,64879:0:0:0:0:
469,192,64661,128,0,64733:0:0:0:0:
213,192,64733,128,0,64806:0:0:0:0:
384,192,64806,128,0,64952:0:0:0:0:
128,192,64806,128,0,64879:0:0:0:0:
469,192,64879,128,0,65097:0:0:0:0:
128,192,64952,1,0,0:0:0:0:
213,192,64952,128,0,65097:0:0:0:0:
42,192,64952,128,0,65025:0:0:0:0:
298,192,65025,128,0,65097:0:0:0:0:
128,192,65097,128,0,65243:0:0:0:0:
384,192,65097,128,0,65170:0:0:0:0:
213,192,65170,128,0,65243:0:0:0:0:
42,192,65243,128,0,65316:0:0:0:0:
469,192,65243,128,0,65607:0:0:0:0:
298,192,65243,128,0,65389:0:0:0:0:
213,192,65316,128,0,65462:0:0:0:0:
128,192,65389,128,0,65607:0:0:0:0:
384,192,65389,1,0,0:0:0:0:
298,192,65534,128,0,65753:0:0:0:0:
384,192,65534,128,0,65607:0:0:0:0:
42,192,65534,1,0,0:0:0:0:
128,192,65680,1,0,0:0:0:0:
384,192,65680,128,0,65826:0:0:0:0:
469,192,65753,128,0,65971:0:0:0:0:
298,192,65826,128,0,65898:0:0:0:0:
128,192,65826,128,0,66044:0:0:0:0:
42,192,65826,1,0,0:0:0:0:
213,192,65898,128,0,65971:0:0:0:0:
384,192,65971,128,0,66044:0:0:0:0:
42,192,65971,128,0,66190:0:0:0:0:
298,192,66044,128,0,66117:0:0:0:0:
128,192,66117,1,0,0:0:0:0:
469,192,66117,128,0,66190:0:0:0:0:
213,192,66117,128,0,66263:0:0:0:0:
298,192,66190,128,0,66263:0:0:0:0:
384,192,66263,128,0,66335:0:0:0:0:
128,192,66263,128,0,66408:0:0:0:0:
213,192,66335,128,0,66408:0:0:0:0:
298,192,66408,128,0,66554:0:0:0:0:
469,192,66408,128,0,66772:0:0:0:0:
42,192,66408,128,0,66481:0:0:0:0:
213,192,66481,128,0,66627:0:0:0:0:
384,192,66554,1,0,0:0:0:0:
128,192,66554,128,0,66772:0:0:0:0:
42,192,66699,1,0,0:0:0:0:
384,192,66699,128,0,66772:0:0:0:0:
298,192,66699,128,0,66918:0:0:0:0:
384,192,66845,128,0,66991:0:0:0:0:
128,192,66845,1,0,0:0:0:0:
469,192,66918,128,0,67136:0:0:0:0:
42,192,66991,1,0,0:0:0:0:
128,192,66991,128,0,67209:0:0:0:0:
298,192,66991,128,0,67064:0:0:0:0:
213,192,67064,128,0,67136:0:0:0:0:
42,192,67136,128,0,67355:0:0:0:0:
384,192,67136,128,0,67209:0:0:0:0:
298,192,67209,128,0,67282:0:0:0:0:
469,192,67282,128,0,67355:0:0:0:0:
128,192,67282,1,0,0:0:0:0:
213,192,67282,128,0,67355:0:0:0:0:
298,192,67355,128,0,67428:0:0:0:0:
128,192,67428,1,0,0:0:0:0:
213,192,67428,1,0,0:0:0:0:
298,192,67500,1,0,0:0:0:0:
384,192,67500,1,0,0:0:0:0:
469,192,67573,128,0,67646:0:0:0:0:
213,192,67573,128,0,67719:0:0:0:0:
42,192,67573,128,0,67937:0:0:0:0:
298,192,67646,128,0,67792:0:0:0:0:
384,192,67719,128,0,67937:0:0:0:0:
128,192,67719,1,0,0:0:0:0:
213,192,67864,128,0,68083:0:0:0:0:
128,192,67864,128,0,67937:0:0:0:0:
469,192,67864,1,0,0:0:0:0:
384,192,68010,1,0,0:0:0:0:
128,192,68010,128,0,68156:0:0:0:0:
42,192,68083,128,0,68301:0:0:0:0:
213,192,68156,128,0,68229:0:0:0:0:
384,192,68156,128,0,68374:0:0:0:0:
469,192,68156,1,0,0:0:0:0:
298,192,68229,128,0,68301:0:0:0:0:
128,192,68301,128,0,68374:0:0:0:0:
469,192,68301,128,0,68520:0:0:0:0:
213,192,68374,128,0,68447:0:0:0:0:
384,192,68447,1,0,0:0:0:0:
42,192,68447,128,0,68520:0:0:0:0:
298,192,68447,128,0,68593:0:0:0:0:
213,192,68520,128,0,68593:0:0:0:0:
128,192,68593,128,0,68665:0:0:0:0:
384,192,68593,128,0,68738:0:0:0:0:
298,192,68665,128,0,68738:0:0:0:0:
469,192,68738,128,0,68811:0:0:0:0:
213,192,68738,128,0,68884:0:0:0:0:
42,192,68738,128,0,69102:0:0:0:0:
298,192,68811,128,0,68957:0:0:0:0:
128,192,68884,1,0,0:0:0:0:
384,192,68884,128,0,69102:0:0:0:0:
469,192,69030,1,0,0:0:0:0:
128,192,69030,128,0,69102:0:0:0:0:
213,192,69030,128,0,69248:0:0:0:0:
128,192,69175,128,0,69321:0:0:0:0:
384,192,69175,1,0,0:0:0:0:
42,192,69248,128,0,69466:0:0:0:0:
213,192,69321,128,0,69394:0:0:0:0:
469,192,69321,1,0,0:0:0:0:
384,192,69321,128,0,69539:0:0:0:0:
298,192,69394,128,0,69466:0:0:0:0:
128,192,69466,128,0,69539:0:0:0:0:
469,192,69466,128,0,69685:0:0:0:0:
213,192,69539,128,0,69612:0:0:0:0:
298,192,69612,128,0,69758:0:0:0:0:
42,192,69612,128,0,69685:0:0:0:0:
384,192,69612,1,0,0:0:0:0:
213,192,69685,128,0,69758:0:0:0:0:
384,192,69758,128,0,69903:0:0:0:0:
128,192,69758,128,0,69830:0:0:0:0:
298,192,69830,128,0,69903:0:0:0:0:
469,192,69903,128,0,69976:0:0:0:0:
42,192,69903,128,0,70267:0:0:0:0:
213,192,69903,128,0,70049:0:0:0:0:
298,192,69976,128,0,70122:0:0:0:0:
384,192,70049,128,0,70267:0:0:0:0:
128,192,70049,1,0,0:0:0:0:
213,192,70195,128,0,70413:0:0:0:0:
128,192,70195,128,0,70267:0:0:0:0:
469,192,70195,1,0,0:0:0:0:
384,192,70340,1,0,0:0:0:0:
128,192,70340,128,0,70486:0:0:0:0:
42,192,70413,128,0,70631:0:0:0:0:
213,192,70486,128,0,70559:0:0:0:0:
384,192,70486,128,0,70704:0:0:0:0:
469,192,70486,1,0,0:0:0:0:
298,192,70559,128,0,70631:0:0:0:0:
128,192,70631,128,0,70704:0:0:0:0:
469,192,70631,128,0,70850:0:0:0:0:
213,192,70704,128,0,70777:0:0:0:0:
384,192,70777,1,0,0:0:0:0:
42,192,70777,128,0,70850:0:0:0:0:
298,192,70777,128,0,70923:0:0:0:0:
213,192,70850,128,0,70923:0:0:0:0:
128,192,70923,128,0,70996:0:0:0:0:
384,192,70923,128,0,71068:0:0:0:0:
298,192,70996,128,0,71068:0:0:0:0:
469,192,71068,128,0,71141:0:0:0:0:
213,192,71068,128,0,71214:0:0:0:0:
42,192,71068,128,0,71432:0:0:0:0:
298,192,71141,128,0,71287:0:0:0:0:
128,192,71214,1,0,0:0:0:0:
384,192,71214,128,0,71432:0:0:0:0:
469,192,71360,1,0,0:0:0:0:
128,192,71360,128,0,71432:0:0:0:0:
213,192,71360,128,0,71578:0:0:0:0:
128,192,71505,128,0,71651:0:0:0:0:
384,192,71505,1,0,0:0:0:0:
42,192,71578,128,0,71797:0:0:0:0:
213,192,71651,128,0,71724:0:0:0:0:
469,192,71651,1,0,0:0:0:0:
384,192,71651,128,0,71869:0:0:0:0:
298,192,71724,128,0,71797:0:0:0:0:
128,192,71797,128,0,71869:0:0:0:0:
469,192,71797,128,0,72015:0:0:0:0:
213,192,71869,128,0,71942:0:0:0:0:
298,192,71942,128,0,72088:0:0:0:0:
42,192,71942,128,0,72015:0:0:0:0:
384,192,71942,1,0,0:0:0:0:
213,192,72015,128,0,72088:0:0:0:0:
384,192,72088,128,0,72233:0:0:0:0:
128,192,72088,128,0,72161:0:0:0:0:
298,192,72161,128,0,72233:0:0:0:0:
42,192,72233,128,0,72306:0:0:0:0:
213,192,72233,128,0,72452:0:0:0:0:
469,192,72233,128,0,72597:0:0:0:0:
298,192,72306,128,0,72379:0:0:0:0:
42,192,72379,1,0,0:0:0:0:
128,192,72379,128,0,72597:0:0:0:0:
384,192,72525,128,0,72816:0:0:0:0:
213,192,72525,1,0,0:0:0:0:
42,192,72525,128,0,72597:0:0:0:0:
128,192,72670,1,0,0:0:0:0:
298,192,72670,128,0,72743:0:0:0:0:
469,192,72743,128,0,72962:0:0:0:0:
42,192,72816,128,0,72889:0:0:0:0:
213,192,72816,128,0,73034:0:0:0:0:
128,192,72816,1,0,0:0:0:0:
298,192,72889,128,0,72962:0:0:0:0:
384,192,72962,128,0,73034:0:0:0:0:
128,192,72962,128,0,73107:0:0:0:0:
42,192,73034,128,0,73253:0:0:0:0:
469,192,73107,128,0,73180:0:0:0:0:
298,192,73107,128,0,73253:0:0:0:0:
384,192,73107,1,0,0:0:0:0:
213,192,73180,128,0,73253:0:0:0:0:
128,192,73253,128,0,73326:0:0:0:0:
384,192,73253,128,0,73398:0:0:0:0:
298,192,73326,128,0,73398:0:0:0:0:
42,192,73398,128,0,73471:0:0:0:0:
213,192,73398,128,0,73617:0:0:0:0:
469,192,73398,128,0,73763:0:0:0:0:
298,192,73471,128,0,73544:0:0:0:0:
42,192,73544,1,0,0:0:0:0:
128,192,73544,128,0,73763:0:0:0:0:
384,192,73690,128,0,73981:0:0:0:0:
213,192,73690,1,0,0:0:0:0:
42,192,73690,128,0,73763:0:0:0:0:
128,192,73835,1,0,0:0:0:0:
298,192,73835,128,0,73908:0:0:0:0:
469,192,73908,128,0,74127:0:0:0:0:
42,192,73981,128,0,74054:0:0:0:0:
213,192,73981,128,0,74199:0:0:0:0:
128,192,73981,1,0,0:0:0:0:
298,192,74054,128,0,74127:0:0:0:0:
384,192,74127,128,0,74199:0:0:0:0:
128,192,74127,128,0,74272:0:0:0:0:
42,192,74199,128,0,74418:0:0:0:0:
469,192,74272,128,0,74345:0:0:0:0:
298,192,74272,128,0,74418:0:0:0:0:
384,192,74272,1,0,0:0:0:0:
213,192,74345,128,0,74418:0:0:0:0:
128,192,74418,128,0,74491:0:0:0:0:
384,192,74418,128,0,74564:0:0:0:0:
298,192,74491,128,0,74564:0:0:0:0:
213,192,74564,128,0,74709:0:0:0:0:
42,192,74564,128,0,74928:0:0:0:0:
469,192,74564,128,0,74636:0:0:0:0:
298,192,74636,128,0,74782:0:0:0:0:
128,192,74709,1,0,0:0:0:0:
384,192,74709,128,0,74928:0:0:0:0:
469,192,74855,1,0,0:0:0:0:
128,192,74855,128,0,74928:0:0:0:0:
213,192,74855,128,0,75073:0:0:0:0:
128,192,75000,128,0,75146:0:0:0:0:
384,192,75000,1,0,0:0:0:0:
42,192,75073,128,0,75292:0:0:0:0:
469,192,75146,1,0,0:0:0:0:
384,192,75146,128,0,75364:0:0:0:0:
213,192,75146,128,0,75219:0:0:0:0:
298,192,75219,128,0,75292:0:0:0:0:
469,192,75292,128,0,75510:0:0:0:0:
128,192,75292,128,0,75364:0:0:0:0:
213,192,75364,128,0,75437:0:0:0:0:
298,192,75437,128,0,75583:0:0:0:0:
42,192,75437,128,0,75510:0:0:0:0:
384,192,75437,1,0,0:0:0:0:
213,192,75510,128,0,75583:0:0:0:0:
384,192,75583,128,0,75729:0:0:0:0:
128,192,75583,128,0,75656:0:0:0:0:
298,192,75656,128,0,75729:0:0:0:0:
469,192,75729,1,0,0:0:0:0:
42,192,75729,1,0,0:0:0:0:
213,192,75729,1,0,0:0:0:0:
213,192,75874,1,0,0:0:0:0:
42,192,75874,1,0,0:0:0:0:
469,192,76020,1,0,0:0:0:0:
384,192,76093,1,0,0:0:0:0:
469,192,76165,1,0,0:0:0:0:
384,192,76238,1,0,0:0:0:0:
213,192,76311,1,0,0:0:0:0:
42,192,76311,1,0,0:0:0:0:
128,192,76457,1,0,0:0:0:0:
42,192,76457,1,0,0:0:0:0:
298,192,76457,1,0,0:0:0:0:
213,192,76457,1,0,0:0:0:0:
213,192,76602,1,0,0:0:0:0:
384,192,76602,1,0,0:0:0:0:
469,192,76602,1,0,0:0:0:0:
298,192,76602,1,0,0:0:0:0:
298,192,76748,1,0,0:0:0:0:
469,192,76748,1,0,0:0:0:0:
128,192,76894,128,0,77039:0:0:0:0:
42,192,76894,128,0,76966:0:0:0:0:
384,192,76894,128,0,77039:0:0:0:0:
469,192,76894,128,0,77039:0:0:0:0:
213,192,76966,128,0,77112:0:0:0:0:
298,192,77039,128,0,77258:0:0:0:0:
42,192,77112,128,0,77258:0:0:0:0:
213,192,77185,128,0,77258:0:0:0:0:
128,192,77185,128,0,77258:0:0:0:0:
384,192,77185,128,0,77622:0:0:0:0:
469,192,77258,128,0,77330:0:0:0:0:
42,192,77330,128,0,77403:0:0:0:0:
128,192,77330,128,0,77403:0:0:0:0:
298,192,77403,128,0,77476:0:0:0:0:
213,192,77403,128,0,77476:0:0:0:0:
469,192,77476,128,0,77622:0:0:0:0:
42,192,77476,128,0,77622:0:0:0:0:
128,192,77476,128,0,77695:0:0:0:0:
213,192,77549,128,0,77767:0:0:0:0:
298,192,77622,128,0,77767:0:0:0:0:
384,192,77695,128,0,77986:0:0:0:0:
469,192,77767,128,0,77913:0:0:0:0:
128,192,77767,128,0,77913:0:0:0:0:
42,192,77767,128,0,77913:0:0:0:0:
298,192,77840,128,0,78059:0:0:0:0:
213,192,77913,128,0,78131:0:0:0:0:
128,192,77986,128,0,78204:0:0:0:0:
469,192,78059,128,0,78131:0:0:0:0:
384,192,78059,128,0,78204:0:0:0:0:
42,192,78059,128,0,78204:0:0:0:0:
298,192,78131,128,0,78277:0:0:0:0:
213,192,78204,128,0,78423:0:0:0:0:
469,192,78277,128,0,78423:0:0:0:0:
298,192,78350,128,0,78423:0:0:0:0:
384,192,78350,128,0,78423:0:0:0:0:
128,192,78350,128,0,78787:0:0:0:0:
42,192,78423,128,0,78496:0:0:0:0:
469,192,78496,128,0,78568:0:0:0:0:
384,192,78496,128,0,78568:0:0:0:0:
213,192,78568,128,0,78641:0:0:0:0:
298,192,78568,128,0,78641:0:0:0:0:
384,192,78641,128,0,78860:0:0:0:0:
469,192,78641,128,0,78787:0:0:0:0:
42,192,78641,128,0,78787:0:0:0:0:
298,192,78714,128,0,78932:0:0:0:0:
213,192,78787,128,0,79005:0:0:0:0:
128,192,78860,128,0,79078:0:0:0:0:
42,192,78932,128,0,79078:0:0:0:0:
469,192,78932,128,0,79078:0:0:0:0:
384,192,78932,128,0,79151:0:0:0:0:
298,192,79005,128,0,79224:0:0:0:0:
213,192,79078,128,0,79297:0:0:0:0:
128,192,79151,128,0,79369:0:0:0:0:
469,192,79224,128,0,79297:0:0:0:0:
384,192,79224,128,0,79369:0:0:0:0:
42,192,79224,128,0,79369:0:0:0:0:
298,192,79297,128,0,79442:0:0:0:0:
213,192,79369,128,0,79588:0:0:0:0:
469,192,79442,128,0,79588:0:0:0:0:
298,192,79515,128,0,79588:0:0:0:0:
128,192,79515,128,0,79952:0:0:0:0:
384,192,79515,128,0,79588:0:0:0:0:
42,192,79588,128,0,79661:0:0:0:0:
469,192,79661,128,0,79733:0:0:0:0:
384,192,79661,128,0,79733:0:0:0:0:
213,192,79733,128,0,79806:0:0:0:0:
298,192,79733,128,0,79806:0:0:0:0:
384,192,79806,128,0,80025:0:0:0:0:
469,192,79806,128,0,79952:0:0:0:0:
42,192,79806,128,0,79952:0:0:0:0:
298,192,79879,128,0,80097:0:0:0:0:
213,192,79952,128,0,80097:0:0:0:0:
128,192,80025,128,0,80316:0:0:0:0:
42,192,80097,128,0,80243:0:0:0:0:
469,192,80097,128,0,80243:0:0:0:0:
384,192,80097,128,0,80243:0:0:0:0:
213,192,80170,128,0,80389:0:0:0:0:
298,192,80243,128,0,80462:0:0:0:0:
384,192,80316,128,0,80534:0:0:0:0:
128,192,80389,128,0,80534:0:0:0:0:
42,192,80389,128,0,80462:0:0:0:0:
469,192,80389,128,0,80534:0:0:0:0:
213,192,80462,128,0,80607:0:0:0:0:
298,192,80534,128,0,80753:0:0:0:0:
42,192,80607,128,0,80753:0:0:0:0:
213,192,80680,128,0,80753:0:0:0:0:
384,192,80680,128,0,81117:0:0:0:0:
128,192,80680,128,0,80753:0:0:0:0:
469,192,80753,128,0,80826:0:0:0:0:
42,192,80826,128,0,80898:0:0:0:0:
128,192,80826,128,0,80898:0:0:0:0:
298,192,80898,128,0,80971:0:0:0:0:
213,192,80898,128,0,80971:0:0:0:0:
469,192,80971,128,0,81117:0:0:0:0:
42,192,80971,128,0,81117:0:0:0:0:
128,192,80971,128,0,81190:0:0:0:0:
213,192,81044,128,0,81263:0:0:0:0:
298,192,81117,128,0,81335:0:0:0:0:
384,192,81190,128,0,81408:0:0:0:0:
128,192,81263,128,0,81481:0:0:0:0:
42,192,81263,128,0,81408:0:0:0:0:
469,192,81263,128,0,81408:0:0:0:0:
213,192,81335,128,0,81554:0:0:0:0:
298,192,81408,128,0,81627:0:0:0:0:
384,192,81481,128,0,81699:0:0:0:0:
42,192,81554,128,0,81627:0:0:0:0:
469,192,81554,128,0,81699:0:0:0:0:
128,192,81554,128,0,81699:0:0:0:0:
213,192,81627,128,0,81772:0:0:0:0:
298,192,81699,128,0,81918:0:0:0:0:
42,192,81772,128,0,81918:0:0:0:0:
128,192,81845,128,0,81918:0:0:0:0:
213,192,81845,128,0,81918:0:0:0:0:
469,192,81845,128,0,82209:0:0:0:0:
384,192,81918,128,0,81991:0:0:0:0:
42,192,81991,128,0,82064:0:0:0:0:
128,192,81991,128,0,82064:0:0:0:0:
213,192,82064,128,0,82136:0:0:0:0:
298,192,82064,128,0,82136:0:0:0:0:
42,192,82136,128,0,82355:0:0:0:0:
128,192,82136,128,0,82209:0:0:0:0:
384,192,82136,128,0,82209:0:0:0:0:
298,192,82209,128,0,82355:0:0:0:0:
128,192,82282,128,0,82428:0:0:0:0:
213,192,82282,128,0,82355:0:0:0:0:
384,192,82355,128,0,82500:0:0:0:0:
213,192,82428,128,0,82500:0:0:0:0:
298,192,82428,128,0,82646:0:0:0:0:
42,192,82428,128,0,82500:0:0:0:0:
469,192,82500,128,0,82646:0:0:0:0:
128,192,82573,128,0,82646:0:0:0:0:
213,192,82573,128,0,82792:0:0:0:0:
384,192,82646,128,0,82864:0:0:0:0:
469,192,82719,128,0,82792:0:0:0:0:
42,192,82719,128,0,82864:0:0:0:0:
128,192,82719,128,0,82864:0:0:0:0:
298,192,82792,128,0,82937:0:0:0:0:
213,192,82864,128,0,83083:0:0:0:0:
469,192,82937,128,0,83083:0:0:0:0:
384,192,83010,128,0,83083:0:0:0:0:
42,192,83010,128,0,83374:0:0:0:0:
298,192,83010,128,0,83083:0:0:0:0:
128,192,83083,128,0,83156:0:0:0:0:
469,192,83156,128,0,83229:0:0:0:0:
384,192,83156,128,0,83229:0:0:0:0:
298,192,83229,128,0,83301:0:0:0:0:
213,192,83229,128,0,83301:0:0:0:0:
469,192,83301,128,0,83520:0:0:0:0:
384,192,83301,128,0,83374:0:0:0:0:
128,192,83301,128,0,83374:0:0:0:0:
213,192,83374,128,0,83520:0:0:0:0:
384,192,83447,128,0,83593:0:0:0:0:
298,192,83447,128,0,83520:0:0:0:0:
128,192,83520,128,0,83665:0:0:0:0:
298,192,83593,128,0,83665:0:0:0:0:
213,192,83593,128,0,83811:0:0:0:0:
469,192,83593,128,0,83665:0:0:0:0:
42,192,83665,128,0,83811:0:0:0:0:
384,192,83738,128,0,83811:0:0:0:0:
298,192,83738,128,0,83957:0:0:0:0:
128,192,83811,128,0,84030:0:0:0:0:
384,192,83884,128,0,84030:0:0:0:0:
42,192,83884,128,0,83957:0:0:0:0:
469,192,83884,128,0,84030:0:0:0:0:
213,192,83957,128,0,84102:0:0:0:0:
298,192,84030,128,0,84248:0:0:0:0:
42,192,84102,128,0,84248:0:0:0:0:
213,192,84175,128,0,84248:0:0:0:0:
384,192,84175,128,0,84466:0:0:0:0:
128,192,84175,128,0,84248:0:0:0:0:
469,192,84248,128,0,84321:0:0:0:0:
42,192,84321,128,0,84394:0:0:0:0:
128,192,84321,128,0,84394:0:0:0:0:
298,192,84394,128,0,84466:0:0:0:0:
213,192,84394,128,0,84466:0:0:0:0:
42,192,84466,128,0,84539:0:0:0:0:
128,192,84466,128,0,84685:0:0:0:0:
469,192,84466,128,0,84539:0:0:0:0:
298,192,84539,128,0,84612:0:0:0:0:
384,192,84539,128,0,84758:0:0:0:0:
213,192,84612,128,0,84976:0:0:0:0:
469,192,84685,128,0,84758:0:0:0:0:
298,192,84758,128,0,84830:0:0:0:0:
42,192,84758,128,0,84830:0:0:0:0:
469,192,84830,128,0,84903:0:0:0:0:
384,192,84830,128,0,85195:0:0:0:0:
128,192,84903,128,0,84976:0:0:0:0:
298,192,84976,128,0,85049:0:0:0:0:
128,192,85049,128,0,85195:0:0:0:0:
469,192,85049,128,0,85122:0:0:0:0:
42,192,85049,128,0,85195:0:0:0:0:
298,192,85122,128,0,85267:0:0:0:0:
213,192,85195,128,0,85413:0:0:0:0:
469,192,85267,128,0,85413:0:0:0:0:
298,192,85340,128,0,85413:0:0:0:0:
384,192,85340,128,0,85413:0:0:0:0:
128,192,85340,128,0,85631:0:0:0:0:
42,192,85413,128,0,85486:0:0:0:0:
469,192,85486,128,0,85559:0:0:0:0:
384,192,85486,128,0,85559:0:0:0:0:
298,192,85559,128,0,85631:0:0:0:0:
213,192,85559,128,0,85631:0:0:0:0:
469,192,85631,1,0,0:0:0:0:
384,192,85631,1,0,0:0:0:0:
128,192,85704,1,0,0:0:0:0:
42,192,85704,1,0,0:0:0:0:
298,192,85777,1,0,0:0:0:0:
384,192,85777,1,0,0:0:0:0:
128,192,85850,1,0,0:0:0:0:
42,192,85850,1,0,0:0:0:0:
213,192,85923,1,0,0:0:0:0:
298,192,85923,1,0,0:0:0:0:
469,192,85923,1,0,0:0:0:0:
384,192,86068,1,0,0:0:0:0:
469,192,86068,1,0,0:0:0:0:
213,192,86141,1,0,0:0:0:0:
128,192,86141,1,0,0:0:0:0:
298,192,86214,128,0,86287:0:0:0:0:
469,192,86214,128,0,86432:0:0:0:0:
42,192,86214,128,0,86360:0:0:0:0:
384,192,86214,128,0,86287:0:0:0:0:
128,192,86287,128,0,86432:0:0:0:0:
213,192,86360,128,0,86505:0:0:0:0:
384,192,86360,128,0,86432:0:0:0:0:
298,192,86432,128,0,86578:0:0:0:0:
384,192,86505,128,0,86578:0:0:0:0:
469,192,86505,128,0,86578:0:0:0:0:
42,192,86505,128,0,86724:0:0:0:0:
128,192,86505,128,0,86578:0:0:0:0:
298,192,86651,128,0,86724:0:0:0:0:
128,192,86651,128,0,86724:0:0:0:0:
384,192,86724,128,0,86942:0:0:0:0:
469,192,86797,128,0,86869:0:0:0:0:
213,192,86797,128,0,86869:0:0:0:0:
128,192,86797,128,0,86869:0:0:0:0:
42,192,86797,128,0,86869:0:0:0:0:
298,192,86869,128,0,87015:0:0:0:0:
213,192,86942,128,0,87088:0:0:0:0:
42,192,86942,1,0,0:0:0:0:
128,192,87015,128,0,87161:0:0:0:0:
298,192,87088,128,0,87161:0:0:0:0:
42,192,87088,1,0,0:0:0:0:
384,192,87088,128,0,87161:0:0:0:0:
469,192,87088,128,0,87161:0:0:0:0:
213,192,87161,128,0,87233:0:0:0:0:
298,192,87233,128,0,87306:0:0:0:0:
469,192,87233,1,0,0:0:0:0:
384,192,87306,128,0,87379:0:0:0:0:
213,192,87379,128,0,87452:0:0:0:0:
42,192,87379,128,0,87597:0:0:0:0:
469,192,87379,128,0,87525:0:0:0:0:
128,192,87379,128,0,87452:0:0:0:0:
384,192,87452,128,0,87597:0:0:0:0:
298,192,87525,128,0,87670:0:0:0:0:
128,192,87525,128,0,87597:0:0:0:0:
213,192,87597,128,0,87743:0:0:0:0:
128,192,87670,128,0,87743:0:0:0:0:
42,192,87670,128,0,87743:0:0:0:0:
469,192,87670,128,0,87889:0:0:0:0:
384,192,87670,128,0,87743:0:0:0:0:
213,192,87816,128,0,87889:0:0:0:0:
384,192,87816,128,0,87889:0:0:0:0:
128,192,87889,128,0,88107:0:0:0:0:
42,192,87962,128,0,88034:0:0:0:0:
298,192,87962,128,0,88034:0:0:0:0:
384,192,87962,128,0,88034:0:0:0:0:
469,192,87962,128,0,88034:0:0:0:0:
213,192,88034,128,0,88180:0:0:0:0:
298,192,88107,128,0,88253:0:0:0:0:
469,192,88107,1,0,0:0:0:0:
384,192,88180,128,0,88326:0:0:0:0:
42,192,88253,128,0,88326:0:0:0:0:
128,192,88253,128,0,88398:0:0:0:0:
469,192,88253,128,0,88398:0:0:0:0:
213,192,88326,128,0,88471:0:0:0:0:
298,192,88398,128,0,88544:0:0:0:0:
42,192,88398,1,0,0:0:0:0:
384,192,88471,128,0,88544:0:0:0:0:
213,192,88544,128,0,88617:0:0:0:0:
42,192,88544,128,0,88763:0:0:0:0:
469,192,88544,128,0,88690:0:0:0:0:
128,192,88544,128,0,88617:0:0:0:0:
384,192,88617,128,0,88763:0:0:0:0:
298,192,88690,128,0,88835:0:0:0:0:
128,192,88690,128,0,88763:0:0:0:0:
213,192,88763,128,0,88908:0:0:0:0:
128,192,88835,128,0,88908:0:0:0:0:
42,192,88835,128,0,88908:0:0:0:0:
469,192,88835,128,0,89054:0:0:0:0:
384,192,88835,128,0,88908:0:0:0:0:
213,192,88981,128,0,89054:0:0:0:0:
384,192,88981,128,0,89054:0:0:0:0:
128,192,89054,128,0,89272:0:0:0:0:
42,192,89127,128,0,89199:0:0:0:0:
298,192,89127,128,0,89199:0:0:0:0:
384,192,89127,128,0,89199:0:0:0:0:
469,192,89127,128,0,89199:0:0:0:0:
213,192,89199,128,0,89345:0:0:0:0:
298,192,89272,128,0,89418:0:0:0:0:
469,192,89272,1,0,0:0:0:0:
384,192,89345,128,0,89491:0:0:0:0:
213,192,89418,128,0,89491:0:0:0:0:
469,192,89418,1,0,0:0:0:0:
128,192,89418,128,0,89491:0:0:0:0:
42,192,89418,128,0,89491:0:0:0:0:
298,192,89491,128,0,89564:0:0:0:0:
213,192,89564,128,0,89636:0:0:0:0:
42,192,89564,1,0,0:0:0:0:
128,192,89636,128,0,89709:0:0:0:0:
298,192,89709,128,0,89782:0:0:0:0:
469,192,89709,128,0,89928:0:0:0:0:
42,192,89709,128,0,89855:0:0:0:0:
384,192,89709,128,0,89782:0:0:0:0:
128,192,89782,128,0,89928:0:0:0:0:
213,192,89855,128,0,90000:0:0:0:0:
384,192,89855,128,0,89928:0:0:0:0:
298,192,89928,128,0,90073:0:0:0:0:
384,192,90000,128,0,90073:0:0:0:0:
469,192,90000,128,0,90073:0:0:0:0:
42,192,90000,128,0,90219:0:0:0:0:
128,192,90000,128,0,90073:0:0:0:0:
298,192,90146,128,0,90219:0:0:0:0:
128,192,90146,128,0,90219:0:0:0:0:
384,192,90219,128,0,90437:0:0:0:0:
469,192,90292,128,0,90364:0:0:0:0:
213,192,90292,128,0,90364:0:0:0:0:
128,192,90292,128,0,90364:0:0:0:0:
42,192,90292,128,0,90364:0:0:0:0:
298,192,90364,128,0,90510:0:0:0:0:
213,192,90437,128,0,90583:0:0:0:0:
42,192,90437,1,0,0:0:0:0:
128,192,90510,128,0,90656:0:0:0:0:
469,192,90583,128,0,90656:0:0:0:0:
384,192,90583,128,0,90729:0:0:0:0:
42,192,90583,128,0,90729:0:0:0:0:
298,192,90656,128,0,90801:0:0:0:0:
213,192,90729,128,0,90874:0:0:0:0:
469,192,90729,1,0,0:0:0:0:
128,192,90801,128,0,90874:0:0:0:0:
298,192,90874,1,0,0:0:0:0:
469,192,90874,1,0,0:0:0:0:
42,192,90874,1,0,0:0:0:0:
384,192,90874,1,0,0:0:0:0:
213,192,90947,1,0,0:0:0:0:
128,192,90947,1,0,0:0:0:0:
384,192,91020,1,0,0:0:0:0:
42,192,91020,1,0,0:0:0:0:
298,192,91093,1,0,0:0:0:0:
213,192,91093,1,0,0:0:0:0:
128,192,91165,1,0,0:0:0:0:
469,192,91165,1,0,0:0:0:0:
42,192,91165,1,0,0:0:0:0:
384,192,91238,1,0,0:0:0:0:
298,192,91238,1,0,0:0:0:0:
128,192,91311,1,0,0:0:0:0:
469,192,91311,1,0,0:0:0:0:
298,192,91384,1,0,0:0:0:0:
213,192,91384,1,0,0:0:0:0:
384,192,91457,1,0,0:0:0:0:
469,192,91457,1,0,0:0:0:0:
42,192,91457,1,0,0:0:0:0:
213,192,91530,1,0,0:0:0:0:
128,192,91530,1,0,0:0:0:0:
298,192,91602,1,0,0:0:0:0:
384,192,91602,1,0,0:0:0:0:
213,192,91675,1,0,0:0:0:0:
128,192,91675,1,0,0:0:0:0:
42,192,91748,1,0,0:0:0:0:
384,192,91748,1,0,0:0:0:0:
469,192,91748,1,0,0:0:0:0:
213,192,92039,1,0,0:0:0:0:
42,192,92039,1,0,0:0:0:0:
469,192,92039,1,0,0:0:0:0:
128,192,92039,1,0,0:0:0:0:
298,192,92112,1,0,0:0:0:0:
384,192,92112,1,0,0:0:0:0:
128,192,92185,1,0,0:0:0:0:
469,192,92185,1,0,0:0:0:0:
213,192,92258,1,0,0:0:0:0:
298,192,92258,1,0,0:0:0:0:
384,192,92330,1,0,0:0:0:0:
42,192,92330,1,0,0:0:0:0:
469,192,92330,1,0,0:0:0:0:
128,192,92403,1,0,0:0:0:0:
213,192,92403,1,0,0:0:0:0:
384,192,92476,1,0,0:0:0:0:
42,192,92476,1,0,0:0:0:0:
213,192,92549,1,0,0:0:0:0:
298,192,92549,1,0,0:0:0:0:
128,192,92622,1,0,0:0:0:0:
42,192,92622,1,0,0:0:0:0:
469,192,92622,1,0,0:0:0:0:
298,192,92695,1,0,0:0:0:0:
384,192,92695,1,0,0:0:0:0:
213,192,92767,1,0,0:0:0:0:
128,192,92767,1,0,0:0:0:0:
298,192,92840,1,0,0:0:0:0:
384,192,92840,1,0,0:0:0:0:
469,192,92913,1,0,0:0:0:0:
128,192,92913,1,0,0:0:0:0:
42,192,92913,1,0,0:0:0:0:
42,192,93204,1,0,0:0:0:0:
128,192,93204,1,0,0:0:0:0:
384,192,93204,1,0,0:0:0:0:
469,192,93204,1,0,0:0:0:0:
298,192,93277,1,0,0:0:0:0:
213,192,93277,1,0,0:0:0:0:
128,192,93350,1,0,0:0:0:0:
469,192,93350,1,0,0:0:0:0:
384,192,93423,1,0,0:0:0:0:
298,192,93423,1,0,0:0:0:0:
213,192,93496,1,0,0:0:0:0:
128,192,93496,1,0,0:0:0:0:
42,192,93496,1,0,0:0:0:0:
298,192,93568,1,0,0:0:0:0:
384,192,93568,1,0,0:0:0:0:
128,192,93641,1,0,0:0:0:0:
469,192,93641,1,0,0:0:0:0:
298,192,93714,1,0,0:0:0:0:
213,192,93714,1,0,0:0:0:0:
384,192,93787,1,0,0:0:0:0:
469,192,93787,1,0,0:0:0:0:
42,192,93787,1,0,0:0:0:0:
128,192,93787,1,0,0:0:0:0:
469,192,93932,1,0,0:0:0:0:
213,192,93957,1,0,0:0:0:0:
384,192,93981,1,0,0:0:0:0:
128,192,94005,1,0,0:0:0:0:
298,192,94030,1,0,0:0:0:0:
42,192,94054,1,0,0:0:0:0:
213,192,94078,1,0,0:0:0:0:
384,192,94078,1,0,0:0:0:0:
469,192,94078,1,0,0:0:0:0:
42,192,94224,1,0,0:0:0:0:
298,192,94248,1,0,0:0:0:0:
128,192,94272,1,0,0:0:0:0:
384,192,94297,1,0,0:0:0:0:
213,192,94321,1,0,0:0:0:0:
469,192,94345,1,0,0:0:0:0:
128,192,94369,128,0,94515:0:0:0:0:
42,192,94369,128,0,94515:0:0:0:0:
298,192,94369,128,0,94515:0:0:0:0:
384,192,94442,1,0,0:0:0:0:
213,192,94515,1,0,0:0:0:0:
298,192,94588,128,0,94733:0:0:0:0:
469,192,94588,128,0,94733:0:0:0:0:
42,192,94588,128,0,94733:0:0:0:0:
213,192,94661,1,0,0:0:0:0:
128,192,94733,1,0,0:0:0:0:
213,192,94806,128,0,94952:0:0:0:0:
384,192,94806,128,0,94952:0:0:0:0:
469,192,94806,128,0,94952:0:0:0:0:
128,192,94879,1,0,0:0:0:0:
298,192,94952,1,0,0:0:0:0:
42,192,95025,128,0,95170:0:0:0:0:
213,192,95025,128,0,95170:0:0:0:0:
469,192,95025,128,0,95170:0:0:0:0:
298,192,95097,1,0,0:0:0:0:
384,192,95170,1,0,0:0:0:0:
298,192,95243,128,0,95316:0:0:0:0:
469,192,95243,128,0,95316:0:0:0:0:
213,192,95243,128,0,95316:0:0:0:0:
42,192,95243,128,0,95316:0:0:0:0:
42,192,95389,128,0,95462:0:0:0:0:
213,192,95389,128,0,95462:0:0:0:0:
298,192,95389,128,0,95462:0:0:0:0:
469,192,95389,128,0,95462:0:0:0:0:
384,192,95534,1,0,0:0:0:0:
469,192,95534,1,0,0:0:0:0:
42,192,95534,1,0,0:0:0:0:
128,192,95534,128,0,95680:0:0:0:0:
213,192,95607,128,0,95753:0:0:0:0:
298,192,95680,128,0,95826:0:0:0:0:
384,192,95753,128,0,95898:0:0:0:0:
128,192,95826,128,0,96044:0:0:0:0:
42,192,95898,128,0,95971:0:0:0:0:
213,192,95971,128,0,96190:0:0:0:0:
298,192,96044,128,0,96117:0:0:0:0:
469,192,96117,128,0,96263:0:0:0:0:
384,192,96190,128,0,96335:0:0:0:0:
298,192,96263,128,0,96408:0:0:0:0:
213,192,96335,128,0,96481:0:0:0:0:
384,192,96408,128,0,96481:0:0:0:0:
128,192,96481,128,0,96554:0:0:0:0:
298,192,96554,128,0,96627:0:0:0:0:
42,192,96627,128,0,96699:0:0:0:0:
384,192,96699,128,0,96845:0:0:0:0:
298,192,96772,128,0,96918:0:0:0:0:
213,192,96845,128,0,96991:0:0:0:0:
128,192,96918,128,0,97064:0:0:0:0:
384,192,96991,128,0,97209:0:0:0:0:
469,192,97064,128,0,97136:0:0:0:0:
298,192,97136,128,0,97355:0:0:0:0:
213,192,97209,128,0,97282:0:0:0:0:
42,192,97282,128,0,97428:0:0:0:0:
128,192,97355,128,0,97500:0:0:0:0:
213,192,97428,128,0,97573:0:0:0:0:
298,192,97500,128,0,97646:0:0:0:0:
128,192,97573,128,0,97646:0:0:0:0:
384,192,97646,128,0,97719:0:0:0:0:
213,192,97719,128,0,97792:0:0:0:0:
469,192,97792,128,0,97864:0:0:0:0:
298,192,97864,128,0,98083:0:0:0:0:
384,192,97937,128,0,98010:0:0:0:0:
213,192,98010,128,0,98229:0:0:0:0:
128,192,98083,128,0,98156:0:0:0:0:
469,192,98156,128,0,98229:0:0:0:0:
298,192,98229,128,0,98301:0:0:0:0:
128,192,98301,128,0,98374:0:0:0:0:
384,192,98374,128,0,98447:0:0:0:0:
42,192,98447,128,0,98593:0:0:0:0:
213,192,98520,128,0,98665:0:0:0:0:
298,192,98593,128,0,98738:0:0:0:0:
384,192,98665,128,0,98811:0:0:0:0:
128,192,98738,128,0,98811:0:0:0:0:
298,192,98811,128,0,98884:0:0:0:0:
384,192,98884,128,0,98957:0:0:0:0:
469,192,98957,128,0,99030:0:0:0:0:
213,192,99030,128,0,99248:0:0:0:0:
128,192,99102,128,0,99175:0:0:0:0:
298,192,99175,128,0,99394:0:0:0:0:
384,192,99248,128,0,99321:0:0:0:0:
42,192,99321,128,0,99394:0:0:0:0:
213,192,99394,128,0,99466:0:0:0:0:
384,192,99466,128,0,99539:0:0:0:0:
128,192,99539,128,0,99612:0:0:0:0:
469,192,99612,128,0,99758:0:0:0:0:
298,192,99685,128,0,99830:0:0:0:0:
213,192,99758,128,0,99903:0:0:0:0:
128,192,99830,128,0,99976:0:0:0:0:
384,192,99903,128,0,99976:0:0:0:0:
213,192,99976,128,0,100049:0:0:0:0:
128,192,100049,128,0,100122:0:0:0:0:
42,192,100122,128,0,100195:0:0:0:0:
384,192,100195,128,0,100413:0:0:0:0:
469,192,100267,128,0,100340:0:0:0:0:
213,192,100340,128,0,100413:0:0:0:0:
298,192,100413,128,0,100486:0:0:0:0:
128,192,100486,128,0,100559:0:0:0:0:
384,192,100559,128,0,100631:0:0:0:0:
298,192,100631,128,0,100704:0:0:0:0:
213,192,100704,128,0,100777:0:0:0:0:
42,192,100777,128,0,100996:0:0:0:0:
128,192,100850,128,0,100923:0:0:0:0:
298,192,100923,128,0,101141:0:0:0:0:
213,192,100996,128,0,101068:0:0:0:0:
469,192,101068,128,0,101141:0:0:0:0:
384,192,101141,128,0,101214:0:0:0:0:
298,192,101214,128,0,101287:0:0:0:0:
213,192,101287,128,0,101360:0:0:0:0:
128,192,101360,128,0,101578:0:0:0:0:
42,192,101432,128,0,101505:0:0:0:0:
298,192,101505,128,0,101578:0:0:0:0:
213,192,101578,128,0,101651:0:0:0:0:
384,192,101651,128,0,101724:0:0:0:0:
128,192,101724,128,0,101797:0:0:0:0:
213,192,101797,128,0,101869:0:0:0:0:
298,192,101869,128,0,101942:0:0:0:0:
469,192,101942,128,0,102161:0:0:0:0:
384,192,102015,128,0,102088:0:0:0:0:
213,192,102088,128,0,102306:0:0:0:0:
298,192,102161,128,0,102233:0:0:0:0:
42,192,102233,128,0,102306:0:0:0:0:
128,192,102306,128,0,102379:0:0:0:0:
213,192,102379,128,0,102452:0:0:0:0:
298,192,102452,128,0,102525:0:0:0:0:
469,192,102525,1,0,0:0:0:0:
384,192,102597,1,0,0:0:0:0:
298,192,102670,1,0,0:0:0:0:
469,192,102743,1,0,0:0:0:0:
213,192,102816,1,0,0:0:0:0:
42,192,102889,1,0,0:0:0:0:
213,192,102962,1,0,0:0:0:0:
384,192,103034,1,0,0:0:0:0:
128,192,103107,1,0,0:0:0:0:
213,192,103180,1,0,0:0:0:0:
298,192,103253,1,0,0:0:0:0:
213,192,103326,1,0,0:0:0:0:
469,192,103398,1,0,0:0:0:0:
384,192,103471,1,0,0:0:0:0:
298,192,103544,1,0,0:0:0:0:
213,192,103617,1,0,0:0:0:0:
42,192,103690,1,0,0:0:0:0:
128,192,103763,1,0,0:0:0:0:
213,192,103835,1,0,0:0:0:0:
42,192,103908,1,0,0:0:0:0:
298,192,103981,1,0,0:0:0:0:
469,192,104054,1,0,0:0:0:0:
298,192,104127,1,0,0:0:0:0:
128,192,104199,1,0,0:0:0:0:
384,192,104272,1,0,0:0:0:0:
298,192,104345,1,0,0:0:0:0:
213,192,104418,1,0,0:0:0:0:
298,192,104491,1,0,0:0:0:0:
42,192,104564,1,0,0:0:0:0:
128,192,104636,1,0,0:0:0:0:
213,192,104709,1,0,0:0:0:0:
298,192,104782,1,0,0:0:0:0:
469,192,104855,1,0,0:0:0:0:
42,192,104855,128,0,104928:0:0:0:0:
384,192,104928,1,0,0:0:0:0:
298,192,105000,1,0,0:0:0:0:
469,192,105073,1,0,0:0:0:0:
298,192,105146,1,0,0:0:0:0:
42,192,105146,128,0,105219:0:0:0:0:
128,192,105219,1,0,0:0:0:0:
213,192,105292,1,0,0:0:0:0:
384,192,105364,1,0,0:0:0:0:
128,192,105437,1,0,0:0:0:0:
42,192,105437,128,0,105510:0:0:0:0:
213,192,105510,1,0,0:0:0:0:
298,192,105583,1,0,0:0:0:0:
213,192,105656,1,0,0:0:0:0:
469,192,105729,1,0,0:0:0:0:
42,192,105729,128,0,105801:0:0:0:0:
384,192,105801,1,0,0:0:0:0:
298,192,105874,1,0,0:0:0:0:
213,192,105947,1,0,0:0:0:0:
469,192,106020,1,0,0:0:0:0:
42,192,106020,128,0,106165:0:0:0:0:
384,192,106093,1,0,0:0:0:0:
298,192,106165,1,0,0:0:0:0:
469,192,106238,1,0,0:0:0:0:
42,192,106311,128,0,106457:0:0:0:0:
298,192,106311,1,0,0:0:0:0:
128,192,106384,1,0,0:0:0:0:
213,192,106457,1,0,0:0:0:0:
384,192,106530,1,0,0:0:0:0:
128,192,106602,1,0,0:0:0:0:
42,192,106602,128,0,106748:0:0:0:0:
213,192,106675,1,0,0:0:0:0:
298,192,106748,1,0,0:0:0:0:
213,192,106821,1,0,0:0:0:0:
469,192,106894,1,0,0:0:0:0:
42,192,106894,128,0,107039:0:0:0:0:
384,192,106966,1,0,0:0:0:0:
298,192,107039,1,0,0:0:0:0:
213,192,107112,1,0,0:0:0:0:
42,192,107185,1,0,0:0:0:0:
469,192,107185,128,0,107403:0:0:0:0:
128,192,107258,1,0,0:0:0:0:
213,192,107330,1,0,0:0:0:0:
42,192,107403,1,0,0:0:0:0:
213,192,107476,1,0,0:0:0:0:
469,192,107476,128,0,107695:0:0:0:0:
384,192,107549,1,0,0:0:0:0:
298,192,107622,1,0,0:0:0:0:
128,192,107695,1,0,0:0:0:0:
384,192,107767,1,0,0:0:0:0:
469,192,107767,128,0,107986:0:0:0:0:
298,192,107840,1,0,0:0:0:0:
213,192,107913,1,0,0:0:0:0:
298,192,107986,1,0,0:0:0:0:
42,192,108059,1,0,0:0:0:0:
469,192,108059,128,0,108277:0:0:0:0:
128,192,108131,1,0,0:0:0:0:
213,192,108204,1,0,0:0:0:0:
298,192,108277,1,0,0:0:0:0:
42,192,108350,1,0,0:0:0:0:
469,192,108350,128,0,108568:0:0:0:0:
384,192,108350,128,0,108568:0:0:0:0:
128,192,108423,1,0,0:0:0:0:
213,192,108496,1,0,0:0:0:0:
42,192,108568,1,0,0:0:0:0:
213,192,108641,1,0,0:0:0:0:
384,192,108641,128,0,108860:0:0:0:0:
469,192,108641,128,0,108860:0:0:0:0:
298,192,108714,1,0,0:0:0:0:
213,192,108787,1,0,0:0:0:0:
128,192,108860,1,0,0:0:0:0:
384,192,108932,128,0,109151:0:0:0:0:
469,192,108932,128,0,109151:0:0:0:0:
42,192,108932,1,0,0:0:0:0:
298,192,109005,1,0,0:0:0:0:
213,192,109078,1,0,0:0:0:0:
298,192,109151,1,0,0:0:0:0:
42,192,109224,1,0,0:0:0:0:
384,192,109224,128,0,109442:0:0:0:0:
469,192,109224,128,0,109442:0:0:0:0:
128,192,109297,1,0,0:0:0:0:
213,192,109369,1,0,0:0:0:0:
298,192,109442,1,0,0:0:0:0:
128,192,109515,1,0,0:0:0:0:
42,192,109515,1,0,0:0:0:0:
469,192,109515,1,0,0:0:0:0:
384,192,109588,1,0,0:0:0:0:
128,192,109661,1,0,0:0:0:0:
42,192,109661,1,0,0:0:0:0:
298,192,109661,1,0,0:0:0:0:
469,192,109733,1,0,0:0:0:0:
128,192,109806,1,0,0:0:0:0:
42,192,109806,1,0,0:0:0:0:
298,192,109806,1,0,0:0:0:0:
213,192,109879,1,0,0:0:0:0:
128,192,109952,1,0,0:0:0:0:
42,192,109952,1,0,0:0:0:0:
384,192,109952,1,0,0:0:0:0:
298,192,110025,1,0,0:0:0:0:
384,192,110097,1,0,0:0:0:0:
469,192,110097,1,0,0:0:0:0:
42,192,110097,1,0,0:0:0:0:
128,192,110170,1,0,0:0:0:0:
213,192,110243,1,0,0:0:0:0:
384,192,110243,1,0,0:0:0:0:
469,192,110243,1,0,0:0:0:0:
42,192,110316,1,0,0:0:0:0:
213,192,110389,1,0,0:0:0:0:
384,192,110389,1,0,0:0:0:0:
469,192,110389,1,0,0:0:0:0:
298,192,110462,1,0,0:0:0:0:
384,192,110534,1,0,0:0:0:0:
469,192,110534,1,0,0:0:0:0:
128,192,110534,1,0,0:0:0:0:
298,192,110607,1,0,0:0:0:0:
213,192,110680,1,0,0:0:0:0:
42,192,110680,1,0,0:0:0:0:
469,192,110680,1,0,0:0:0:0:
384,192,110753,1,0,0:0:0:0:
213,192,110826,1,0,0:0:0:0:
42,192,110826,1,0,0:0:0:0:
298,192,110826,1,0,0:0:0:0:
469,192,110898,1,0,0:0:0:0:
213,192,110971,1,0,0:0:0:0:
42,192,110971,1,0,0:0:0:0:
384,192,110971,1,0,0:0:0:0:
469,192,111044,1,0,0:0:0:0:
213,192,111117,1,0,0:0:0:0:
42,192,111117,1,0,0:0:0:0:
298,192,111117,1,0,0:0:0:0:
384,192,111190,1,0,0:0:0:0:
298,192,111263,1,0,0:0:0:0:
42,192,111263,1,0,0:0:0:0:
469,192,111263,1,0,0:0:0:0:
128,192,111335,1,0,0:0:0:0:
213,192,111408,1,0,0:0:0:0:
469,192,111408,1,0,0:0:0:0:
298,192,111408,1,0,0:0:0:0:
42,192,111481,1,0,0:0:0:0:
128,192,111554,1,0,0:0:0:0:
298,192,111554,1,0,0:0:0:0:
469,192,111554,1,0,0:0:0:0:
42,192,111627,1,0,0:0:0:0:
469,192,111699,1,0,0:0:0:0:
213,192,111699,1,0,0:0:0:0:
298,192,111699,1,0,0:0:0:0:
128,192,111772,1,0,0:0:0:0:
384,192,111845,1,0,0:0:0:0:
469,192,111845,1,0,0:0:0:0:
42,192,111845,1,0,0:0:0:0:
298,192,111918,1,0,0:0:0:0:
213,192,111918,1,0,0:0:0:0:
128,192,111991,1,0,0:0:0:0:
469,192,111991,1,0,0:0:0:0:
384,192,112064,1,0,0:0:0:0:
298,192,112064,1,0,0:0:0:0:
213,192,112136,1,0,0:0:0:0:
42,192,112136,1,0,0:0:0:0:
469,192,112136,1,0,0:0:0:0:
298,192,112209,1,0,0:0:0:0:
384,192,112209,1,0,0:0:0:0:
128,192,112282,1,0,0:0:0:0:
42,192,112282,1,0,0:0:0:0:
298,192,112355,1,0,0:0:0:0:
213,192,112355,1,0,0:0:0:0:
384,192,112428,1,0,0:0:0:0:
469,192,112428,1,0,0:0:0:0:
42,192,112428,1,0,0:0:0:0:
213,192,112500,1,0,0:0:0:0:
128,192,112500,1,0,0:0:0:0:
298,192,112573,1,0,0:0:0:0:
384,192,112573,1,0,0:0:0:0:
213,192,112646,1,0,0:0:0:0:
128,192,112646,1,0,0:0:0:0:
298,192,112719,1,0,0:0:0:0:
469,192,112719,1,0,0:0:0:0:
42,192,112719,1,0,0:0:0:0:
213,192,112792,1,0,0:0:0:0:
128,192,112792,1,0,0:0:0:0:
384,192,112864,1,0,0:0:0:0:
469,192,112864,1,0,0:0:0:0:
298,192,112937,1,0,0:0:0:0:
213,192,112937,1,0,0:0:0:0:
469,192,113010,1,0,0:0:0:0:
42,192,113010,128,0,113617:0:0:0:0:
128,192,113047,128,0,113568:0:0:0:0:
213,192,113083,128,0,113520:0:0:0:0:
298,192,113119,128,0,113471:0:0:0:0:
384,192,113156,128,0,113423:0:0:0:0:
469,192,113192,128,0,113374:0:0:0:0:
469,192,113447,128,0,113665:0:0:0:0:
384,192,113496,128,0,113714:0:0:0:0:
298,192,113544,128,0,113763:0:0:0:0:
213,192,113593,128,0,113811:0:0:0:0:
128,192,113641,128,0,113860:0:0:0:0:
42,192,113690,128,0,113908:0:0:0:0:
469,192,113738,128,0,113957:0:0:0:0:
384,192,113787,128,0,114005:0:0:0:0:
298,192,113835,128,0,114054:0:0:0:0:
213,192,113884,128,0,114102:0:0:0:0:
128,192,113932,128,0,114102:0:0:0:0:
42,192,113981,128,0,114102:0:0:0:0:
469,192,114030,1,0,0:0:0:0:
384,192,114078,1,0,0:0:0:0:
298,192,114127,1,0,0:0:0:0:
213,192,114175,128,0,114539:0:0:0:0:
469,192,114175,128,0,114539:0:0:0:0:
128,192,114175,128,0,114248:0:0:0:0:
42,192,114175,128,0,114248:0:0:0:0:
298,192,114321,128,0,114394:0:0:0:0:
384,192,114321,128,0,114394:0:0:0:0:
128,192,114466,128,0,114539:0:0:0:0:
42,192,114466,128,0,114539:0:0:0:0:
213,192,114612,128,0,114685:0:0:0:0:
298,192,114612,128,0,114685:0:0:0:0:
298,192,114758,128,0,115122:0:0:0:0:
384,192,114758,128,0,114830:0:0:0:0:
469,192,114758,128,0,114830:0:0:0:0:
42,192,114758,128,0,114830:0:0:0:0:
128,192,114806,128,0,114879:0:0:0:0:
213,192,114855,128,0,114928:0:0:0:0:
384,192,114903,128,0,114976:0:0:0:0:
42,192,114903,128,0,114976:0:0:0:0:
128,192,114952,128,0,115025:0:0:0:0:
213,192,115000,128,0,115073:0:0:0:0:
42,192,115049,1,0,0:0:0:0:
384,192,115049,128,0,115122:0:0:0:0:
469,192,115049,128,0,115122:0:0:0:0:
42,192,115122,128,0,115195:0:0:0:0:
298,192,115195,1,0,0:0:0:0:
298,192,115267,128,0,115340:0:0:0:0:
42,192,115340,128,0,115777:0:0:0:0:
469,192,115340,128,0,115413:0:0:0:0:
128,192,115340,128,0,115413:0:0:0:0:
384,192,115377,128,0,115449:0:0:0:0:
298,192,115413,128,0,115486:0:0:0:0:
213,192,115449,128,0,115522:0:0:0:0:
128,192,115486,128,0,115559:0:0:0:0:
469,192,115486,128,0,115559:0:0:0:0:
384,192,115522,128,0,115595:0:0:0:0:
298,192,115559,128,0,115631:0:0:0:0:
213,192,115595,128,0,115668:0:0:0:0:
128,192,115631,128,0,115923:0:0:0:0:
384,192,115631,128,0,115923:0:0:0:0:
469,192,115631,128,0,115777:0:0:0:0:
298,192,115777,128,0,115923:0:0:0:0:
213,192,115923,128,0,115996:0:0:0:0:
42,192,115923,128,0,115996:0:0:0:0:
298,192,115996,128,0,116068:0:0:0:0:
469,192,115996,128,0,116068:0:0:0:0:
213,192,116068,128,0,116141:0:0:0:0:
42,192,116068,128,0,116141:0:0:0:0:
298,192,116141,128,0,116214:0:0:0:0:
469,192,116141,128,0,116214:0:0:0:0:
384,192,116214,1,0,0:0:0:0:
128,192,116214,128,0,116360:0:0:0:0:
42,192,116214,128,0,116360:0:0:0:0:
298,192,116360,128,0,116432:0:0:0:0:
384,192,116360,128,0,116432:0:0:0:0:
128,192,116432,128,0,116505:0:0:0:0:
298,192,116505,128,0,116869:0:0:0:0:
42,192,116505,128,0,116869:0:0:0:0:
469,192,116505,128,0,116578:0:0:0:0:
384,192,116505,128,0,116578:0:0:0:0:
128,192,116651,128,0,116724:0:0:0:0:
213,192,116651,128,0,116724:0:0:0:0:
384,192,116797,128,0,116869:0:0:0:0:
469,192,116797,128,0,116869:0:0:0:0:
298,192,116942,128,0,117015:0:0:0:0:
213,192,116942,128,0,117015:0:0:0:0:
213,192,117088,128,0,117452:0:0:0:0:
128,192,117088,128,0,117161:0:0:0:0:
42,192,117088,128,0,117161:0:0:0:0:
469,192,117088,128,0,117161:0:0:0:0:
384,192,117136,128,0,117209:0:0:0:0:
298,192,117185,128,0,117258:0:0:0:0:
42,192,117233,128,0,117306:0:0:0:0:
469,192,117233,128,0,117306:0:0:0:0:
384,192,117282,128,0,117355:0:0:0:0:
298,192,117330,128,0,117403:0:0:0:0:
469,192,117379,1,0,0:0:0:0:
42,192,117379,128,0,117452:0:0:0:0:
128,192,117379,128,0,117452:0:0:0:0:
469,192,117452,128,0,117525:0:0:0:0:
213,192,117525,1,0,0:0:0:0:
213,192,117597,128,0,117670:0:0:0:0:
469,192,117670,128,0,117889:0:0:0:0:
42,192,117670,128,0,117743:0:0:0:0:
384,192,117670,128,0,117743:0:0:0:0:
128,192,117707,128,0,117780:0:0:0:0:
213,192,117743,128,0,117816:0:0:0:0:
298,192,117780,128,0,117852:0:0:0:0:
384,192,117816,128,0,117889:0:0:0:0:
42,192,117816,128,0,117889:0:0:0:0:
128,192,117852,128,0,117925:0:0:0:0:
213,192,117889,128,0,117962:0:0:0:0:
298,192,117925,128,0,117962:0:0:0:0:
469,192,117962,128,0,118180:0:0:0:0:
42,192,117962,128,0,118034:0:0:0:0:
384,192,117998,128,0,118144:0:0:0:0:
298,192,118034,128,0,118107:0:0:0:0:
213,192,118071,1,0,0:0:0:0:
42,192,118107,128,0,118326:0:0:0:0:
128,192,118144,128,0,118289:0:0:0:0:
213,192,118180,128,0,118253:0:0:0:0:
298,192,118216,1,0,0:0:0:0:
469,192,118253,128,0,118398:0:0:0:0:
384,192,118289,128,0,118398:0:0:0:0:
298,192,118326,128,0,118398:0:0:0:0:
213,192,118398,128,0,118471:0:0:0:0:
128,192,118398,128,0,118471:0:0:0:0:
384,192,118471,128,0,118544:0:0:0:0:
298,192,118544,128,0,118835:0:0:0:0:
213,192,118544,128,0,118835:0:0:0:0:
128,192,118544,128,0,118690:0:0:0:0:
42,192,118544,128,0,118690:0:0:0:0:
384,192,118690,128,0,119127:0:0:0:0:
469,192,118690,128,0,118981:0:0:0:0:
42,192,118835,128,0,119054:0:0:0:0:
128,192,118835,128,0,119054:0:0:0:0:
213,192,118981,128,0,119199:0:0:0:0:
298,192,119030,128,0,119127:0:0:0:0:
469,192,119078,128,0,119127:0:0:0:0:
128,192,119127,128,0,119199:0:0:0:0:
42,192,119127,128,0,119199:0:0:0:0:
213,192,119272,128,0,119345:0:0:0:0:
298,192,119272,128,0,119345:0:0:0:0:
298,192,119418,128,0,119782:0:0:0:0:
384,192,119418,128,0,119491:0:0:0:0:
469,192,119418,128,0,119491:0:0:0:0:
42,192,119418,128,0,119491:0:0:0:0:
128,192,119466,128,0,119539:0:0:0:0:
213,192,119515,128,0,119588:0:0:0:0:
384,192,119564,128,0,119636:0:0:0:0:
42,192,119564,128,0,119636:0:0:0:0:
128,192,119612,128,0,119685:0:0:0:0:
213,192,119661,128,0,119733:0:0:0:0:
42,192,119709,1,0,0:0:0:0:
384,192,119709,128,0,119782:0:0:0:0:
469,192,119709,128,0,119782:0:0:0:0:
42,192,119782,128,0,119855:0:0:0:0:
298,192,119855,1,0,0:0:0:0:
298,192,119928,128,0,120000:0:0:0:0:
42,192,120000,128,0,120219:0:0:0:0:
469,192,120000,128,0,120073:0:0:0:0:
128,192,120000,128,0,120073:0:0:0:0:
384,192,120037,128,0,120110:0:0:0:0:
298,192,120073,128,0,120146:0:0:0:0:
213,192,120110,128,0,120182:0:0:0:0:
128,192,120146,128,0,120219:0:0:0:0:
469,192,120146,128,0,120219:0:0:0:0:
384,192,120182,128,0,120255:0:0:0:0:
298,192,120219,128,0,120292:0:0:0:0:
213,192,120255,128,0,120292:0:0:0:0:
128,192,120292,1,0,0:0:0:0:
42,192,120292,1,0,0:0:0:0:
128,192,120364,1,0,0:0:0:0:
42,192,120364,1,0,0:0:0:0:
384,192,120437,1,0,0:0:0:0:
298,192,120437,1,0,0:0:0:0:
384,192,120510,1,0,0:0:0:0:
298,192,120510,1,0,0:0:0:0:
213,192,120583,128,0,120656:0:0:0:0:
42,192,120583,128,0,120656:0:0:0:0:
298,192,120656,128,0,120729:0:0:0:0:
469,192,120656,128,0,120729:0:0:0:0:
42,192,120729,128,0,120801:0:0:0:0:
213,192,120729,128,0,120801:0:0:0:0:
298,192,120801,128,0,120874:0:0:0:0:
469,192,120801,128,0,120874:0:0:0:0:
42,192,120874,128,0,120923:0:0:0:0:
384,192,120874,1,0,0:0:0:0:
128,192,120898,128,0,120971:0:0:0:0:
213,192,120923,128,0,121020:0:0:0:0:
469,192,121020,128,0,121068:0:0:0:0:
384,192,121044,128,0,121117:0:0:0:0:
298,192,121068,128,0,121165:0:0:0:0:
42,192,121165,128,0,121238:0:0:0:0:
469,192,121165,128,0,121602:0:0:0:0:
384,192,121165,128,0,121238:0:0:0:0:
128,192,121202,128,0,121275:0:0:0:0:
213,192,121238,128,0,121311:0:0:0:0:
298,192,121275,128,0,121347:0:0:0:0:
42,192,121311,128,0,121384:0:0:0:0:
384,192,121311,128,0,121384:0:0:0:0:
128,192,121347,128,0,121420:0:0:0:0:
213,192,121384,128,0,121457:0:0:0:0:
298,192,121420,128,0,121493:0:0:0:0:
384,192,121457,128,0,121748:0:0:0:0:
42,192,121457,128,0,121602:0:0:0:0:
128,192,121457,128,0,121748:0:0:0:0:
213,192,121602,128,0,121748:0:0:0:0:
298,192,121748,128,0,121821:0:0:0:0:
469,192,121748,128,0,121821:0:0:0:0:
213,192,121821,128,0,121894:0:0:0:0:
42,192,121821,128,0,121894:0:0:0:0:
298,192,121894,128,0,121966:0:0:0:0:
469,192,121894,128,0,121966:0:0:0:0:
42,192,121966,128,0,122039:0:0:0:0:
213,192,121966,128,0,122039:0:0:0:0:
384,192,122039,128,0,122185:0:0:0:0:
128,192,122039,1,0,0:0:0:0:
469,192,122039,128,0,122185:0:0:0:0:
128,192,122185,128,0,122258:0:0:0:0:
213,192,122185,128,0,122258:0:0:0:0:
384,192,122258,128,0,122330:0:0:0:0:
42,192,122330,128,0,122476:0:0:0:0:
469,192,122330,1,0,0:0:0:0:
298,192,122330,1,0,0:0:0:0:
213,192,122403,128,0,122476:0:0:0:0:
128,192,122476,128,0,122622:0:0:0:0:
384,192,122476,1,0,0:0:0:0:
298,192,122549,128,0,122622:0:0:0:0:
213,192,122622,128,0,122767:0:0:0:0:
469,192,122622,1,0,0:0:0:0:
42,192,122622,1,0,0:0:0:0:
384,192,122695,128,0,122767:0:0:0:0:
298,192,122767,128,0,122913:0:0:0:0:
128,192,122767,1,0,0:0:0:0:
469,192,122840,128,0,122913:0:0:0:0:
384,192,122913,1,0,0:0:0:0:
42,192,122913,128,0,122962:0:0:0:0:
128,192,122962,128,0,123010:0:0:0:0:
213,192,123010,128,0,123059:0:0:0:0:
384,192,123059,128,0,123107:0:0:0:0:
42,192,123059,1,0,0:0:0:0:
298,192,123107,128,0,123156:0:0:0:0:
213,192,123156,128,0,123204:0:0:0:0:
42,192,123204,128,0,123447:0:0:0:0:
469,192,123204,128,0,123253:0:0:0:0:
384,192,123253,128,0,123301:0:0:0:0:
298,192,123301,128,0,123350:0:0:0:0:
469,192,123350,1,0,0:0:0:0:
128,192,123350,128,0,123398:0:0:0:0:
213,192,123398,128,0,123447:0:0:0:0:
298,192,123447,128,0,123496:0:0:0:0:
213,192,123496,128,0,123860:0:0:0:0:
469,192,123496,128,0,123860:0:0:0:0:
128,192,123496,128,0,123568:0:0:0:0:
42,192,123496,128,0,123568:0:0:0:0:
298,192,123641,128,0,123714:0:0:0:0:
384,192,123641,128,0,123714:0:0:0:0:
128,192,123787,128,0,123860:0:0:0:0:
42,192,123787,128,0,124005:0:0:0:0:
213,192,123932,128,0,124005:0:0:0:0:
298,192,123932,128,0,124005:0:0:0:0:
298,192,124078,128,0,124442:0:0:0:0:
384,192,124078,128,0,124151:0:0:0:0:
469,192,124078,128,0,124151:0:0:0:0:
42,192,124078,128,0,124151:0:0:0:0:
128,192,124127,128,0,124199:0:0:0:0:
213,192,124175,128,0,124248:0:0:0:0:
384,192,124224,128,0,124297:0:0:0:0:
42,192,124224,128,0,124297:0:0:0:0:
128,192,124272,128,0,124345:0:0:0:0:
213,192,124321,128,0,124394:0:0:0:0:
42,192,124369,1,0,0:0:0:0:
384,192,124369,128,0,124442:0:0:0:0:
469,192,124369,128,0,124588:0:0:0:0:
42,192,124442,128,0,124515:0:0:0:0:
298,192,124515,1,0,0:0:0:0:
298,192,124588,128,0,124661:0:0:0:0:
42,192,124661,128,0,125097:0:0:0:0:
469,192,124661,128,0,124733:0:0:0:0:
128,192,124661,128,0,124733:0:0:0:0:
384,192,124697,128,0,124770:0:0:0:0:
298,192,124733,128,0,124806:0:0:0:0:
213,192,124770,128,0,124843:0:0:0:0:
128,192,124806,128,0,124879:0:0:0:0:
469,192,124806,128,0,124879:0:0:0:0:
384,192,124843,128,0,124915:0:0:0:0:
298,192,124879,128,0,124952:0:0:0:0:
213,192,124915,128,0,124988:0:0:0:0:
128,192,124952,128,0,125243:0:0:0:0:
384,192,124952,128,0,125243:0:0:0:0:
469,192,124952,128,0,125097:0:0:0:0:
298,192,125097,128,0,125243:0:0:0:0:
213,192,125243,128,0,125316:0:0:0:0:
42,192,125243,128,0,125316:0:0:0:0:
298,192,125316,128,0,125389:0:0:0:0:
469,192,125316,128,0,125389:0:0:0:0:
42,192,125389,128,0,125462:0:0:0:0:
213,192,125389,128,0,125462:0:0:0:0:
298,192,125462,128,0,125534:0:0:0:0:
469,192,125462,128,0,125534:0:0:0:0:
384,192,125534,1,0,0:0:0:0:
128,192,125534,128,0,125680:0:0:0:0:
42,192,125534,128,0,125680:0:0:0:0:
384,192,125680,128,0,125753:0:0:0:0:
298,192,125680,128,0,125753:0:0:0:0:
128,192,125753,128,0,125826:0:0:0:0:
298,192,125826,128,0,126190:0:0:0:0:
42,192,125826,128,0,126190:0:0:0:0:
469,192,125826,128,0,125898:0:0:0:0:
384,192,125826,128,0,125898:0:0:0:0:
128,192,125971,128,0,126044:0:0:0:0:
213,192,125971,128,0,126044:0:0:0:0:
384,192,126117,128,0,126190:0:0:0:0:
469,192,126117,128,0,126335:0:0:0:0:
298,192,126263,128,0,126335:0:0:0:0:
213,192,126263,128,0,126335:0:0:0:0:
213,192,126408,128,0,126772:0:0:0:0:
128,192,126408,128,0,126481:0:0:0:0:
42,192,126408,128,0,126481:0:0:0:0:
469,192,126408,128,0,126481:0:0:0:0:
384,192,126457,128,0,126530:0:0:0:0:
298,192,126505,128,0,126578:0:0:0:0:
42,192,126554,128,0,126627:0:0:0:0:
469,192,126554,128,0,126627:0:0:0:0:
384,192,126602,128,0,126675:0:0:0:0:
298,192,126651,128,0,126724:0:0:0:0:
469,192,126699,1,0,0:0:0:0:
42,192,126699,128,0,126918:0:0:0:0:
128,192,126699,128,0,126772:0:0:0:0:
469,192,126772,128,0,126845:0:0:0:0:
213,192,126845,1,0,0:0:0:0:
213,192,126918,128,0,126991:0:0:0:0:
469,192,126991,128,0,127209:0:0:0:0:
42,192,126991,128,0,127064:0:0:0:0:
384,192,126991,128,0,127064:0:0:0:0:
128,192,127027,128,0,127100:0:0:0:0:
213,192,127064,128,0,127136:0:0:0:0:
298,192,127100,128,0,127173:0:0:0:0:
384,192,127136,128,0,127209:0:0:0:0:
42,192,127136,128,0,127209:0:0:0:0:
128,192,127173,128,0,127246:0:0:0:0:
213,192,127209,128,0,127282:0:0:0:0:
298,192,127246,128,0,127282:0:0:0:0:
469,192,127282,128,0,127500:0:0:0:0:
42,192,127282,128,0,127355:0:0:0:0:
384,192,127318,128,0,127464:0:0:0:0:
298,192,127355,128,0,127428:0:0:0:0:
213,192,127391,1,0,0:0:0:0:
42,192,127428,128,0,127646:0:0:0:0:
128,192,127464,128,0,127610:0:0:0:0:
213,192,127500,128,0,127573:0:0:0:0:
298,192,127537,1,0,0:0:0:0:
469,192,127573,128,0,127719:0:0:0:0:
384,192,127610,128,0,127719:0:0:0:0:
298,192,127646,128,0,127719:0:0:0:0:
213,192,127719,128,0,127792:0:0:0:0:
128,192,127719,128,0,127792:0:0:0:0:
384,192,127792,128,0,127864:0:0:0:0:
298,192,127864,128,0,128156:0:0:0:0:
213,192,127864,128,0,128156:0:0:0:0:
128,192,127864,128,0,128010:0:0:0:0:
42,192,127864,128,0,128010:0:0:0:0:
469,192,128010,128,0,128301:0:0:0:0:
384,192,128010,128,0,128156:0:0:0:0:
128,192,128156,1,0,0:0:0:0:
42,192,128156,128,0,128301:0:0:0:0:
213,192,128301,128,0,128520:0:0:0:0:
298,192,128350,128,0,128447:0:0:0:0:
469,192,128398,128,0,128447:0:0:0:0:
128,192,128447,128,0,128520:0:0:0:0:
42,192,128447,128,0,128665:0:0:0:0:
384,192,128447,1,0,0:0:0:0:
213,192,128593,128,0,128665:0:0:0:0:
298,192,128593,128,0,128665:0:0:0:0:
298,192,128738,128,0,129102:0:0:0:0:
42,192,128738,128,0,128811:0:0:0:0:
384,192,128738,128,0,128811:0:0:0:0:
469,192,128738,128,0,128811:0:0:0:0:
128,192,128787,128,0,128860:0:0:0:0:
213,192,128835,128,0,128908:0:0:0:0:
42,192,128884,128,0,128957:0:0:0:0:
128,192,128932,128,0,129005:0:0:0:0:
213,192,128981,128,0,129054:0:0:0:0:
42,192,129030,1,0,0:0:0:0:
384,192,129030,128,0,129102:0:0:0:0:
469,192,129030,128,0,129248:0:0:0:0:
42,192,129102,128,0,129175:0:0:0:0:
298,192,129175,1,0,0:0:0:0:
298,192,129248,128,0,129321:0:0:0:0:
469,192,129321,128,0,129539:0:0:0:0:
42,192,129321,128,0,129394:0:0:0:0:
384,192,129321,128,0,129394:0:0:0:0:
128,192,129357,128,0,129430:0:0:0:0:
213,192,129394,128,0,129466:0:0:0:0:
298,192,129430,128,0,129503:0:0:0:0:
384,192,129466,128,0,129539:0:0:0:0:
42,192,129466,128,0,129539:0:0:0:0:
128,192,129503,128,0,129576:0:0:0:0:
213,192,129539,128,0,129612:0:0:0:0:
298,192,129576,128,0,129612:0:0:0:0:
384,192,129612,1,0,0:0:0:0:
469,192,129612,1,0,0:0:0:0:
384,192,129685,1,0,0:0:0:0:
469,192,129685,1,0,0:0:0:0:
128,192,129758,1,0,0:0:0:0:
213,192,129758,1,0,0:0:0:0:
128,192,129830,1,0,0:0:0:0:
213,192,129830,1,0,0:0:0:0:
298,192,129903,128,0,129976:0:0:0:0:
469,192,129903,128,0,129976:0:0:0:0:
213,192,129976,128,0,130049:0:0:0:0:
42,192,129976,128,0,130049:0:0:0:0:
298,192,130049,128,0,130122:0:0:0:0:
469,192,130049,128,0,130122:0:0:0:0:
213,192,130122,128,0,130195:0:0:0:0:
42,192,130122,128,0,130195:0:0:0:0:
469,192,130195,128,0,130243:0:0:0:0:
128,192,130195,1,0,0:0:0:0:
384,192,130219,128,0,130292:0:0:0:0:
298,192,130243,128,0,130340:0:0:0:0:
42,192,130340,128,0,130389:0:0:0:0:
128,192,130364,128,0,130437:0:0:0:0:
213,192,130389,128,0,130486:0:0:0:0:
469,192,130486,128,0,130559:0:0:0:0:
42,192,130486,128,0,130923:0:0:0:0:
128,192,130486,128,0,130559:0:0:0:0:
384,192,130522,128,0,130595:0:0:0:0:
298,192,130559,128,0,130631:0:0:0:0:
213,192,130595,128,0,130668:0:0:0:0:
469,192,130631,128,0,130704:0:0:0:0:
128,192,130631,128,0,130704:0:0:0:0:
384,192,130668,128,0,130741:0:0:0:0:
298,192,130704,128,0,130777:0:0:0:0:
213,192,130741,128,0,130814:0:0:0:0:
128,192,130777,128,0,131068:0:0:0:0:
469,192,130777,128,0,130923:0:0:0:0:
384,192,130777,128,0,131068:0:0:0:0:
298,192,130923,128,0,131068:0:0:0:0:
213,192,131068,128,0,131141:0:0:0:0:
42,192,131068,128,0,131141:0:0:0:0:
298,192,131141,128,0,131214:0:0:0:0:
469,192,131141,128,0,131214:0:0:0:0:
42,192,131214,128,0,131287:0:0:0:0:
213,192,131214,128,0,131287:0:0:0:0:
298,192,131287,128,0,131360:0:0:0:0:
469,192,131287,128,0,131360:0:0:0:0:
384,192,131360,1,0,0:0:0:0:
128,192,131360,128,0,131505:0:0:0:0:
213,192,131360,128,0,131651:0:0:0:0:
298,192,131505,128,0,131651:0:0:0:0:
469,192,131651,1,0,0:0:0:0:
42,192,131651,128,0,131797:0:0:0:0:
128,192,131724,128,0,131869:0:0:0:0:
298,192,131797,128,0,131942:0:0:0:0:
384,192,131869,128,0,132015:0:0:0:0:
128,192,131942,128,0,132088:0:0:0:0:
213,192,132015,128,0,132161:0:0:0:0:
384,192,132088,128,0,132233:0:0:0:0:
469,192,132161,128,0,132306:0:0:0:0:
42,192,132233,128,0,132282:0:0:0:0:
213,192,132282,128,0,132330:0:0:0:0:
298,192,132330,128,0,132379:0:0:0:0:
128,192,132379,128,0,132428:0:0:0:0:
298,192,132428,128,0,132476:0:0:0:0:
384,192,132476,128,0,132525:0:0:0:0:
469,192,132525,128,0,132573:0:0:0:0:
298,192,132573,128,0,132622:0:0:0:0:
213,192,132622,128,0,132670:0:0:0:0:
384,192,132670,128,0,132719:0:0:0:0:
213,192,132719,128,0,132767:0:0:0:0:
128,192,132767,128,0,132816:0:0:0:0:
42,192,132816,1,0,0:0:0:0:
298,192,132816,1,0,0:0:0:0:
384,192,132816,1,0,0:0:0:0:
469,192,132816,1,0,0:0:0:0:
128,192,133398,1,0,0:0:0:0:
384,192,133544,1,0,0:0:0:0:
213,192,133690,1,0,0:0:0:0:
469,192,133835,1,0,0:0:0:0:
42,192,133981,1,0,0:0:0:0:
384,192,133981,1,0,0:0:0:0:
128,192,133981,1,0,0:0:0:0:
298,192,134418,1,0,0:0:0:0:
213,192,134855,1,0,0:0:0:0:
213,192,135146,1,0,0:0:0:0:
42,192,135146,1,0,0:0:0:0:
469,192,135146,1,0,0:0:0:0:
298,192,135583,1,0,0:0:0:0:
469,192,135583,1,0,0:0:0:0:
469,192,136894,1,0,0:0:0:0:
384,192,137039,1,0,0:0:0:0:
213,192,137185,1,0,0:0:0:0:
42,192,137330,1,0,0:0:0:0:
128,192,137476,1,0,0:0:0:0:
298,192,137476,1,0,0:0:0:0:
469,192,137476,1,0,0:0:0:0:
42,192,138059,1,0,0:0:0:0:
213,192,138204,1,0,0:0:0:0:
298,192,138350,1,0,0:0:0:0:
384,192,138496,1,0,0:0:0:0:
469,192,138641,1,0,0:0:0:0:
213,192,138641,1,0,0:0:0:0:
42,192,138641,1,0,0:0:0:0:
298,192,139078,1,0,0:0:0:0:
469,192,139515,1,0,0:0:0:0:
469,192,139806,1,0,0:0:0:0:
298,192,139806,1,0,0:0:0:0:
128,192,139806,1,0,0:0:0:0:
384,192,140097,1,0,0:0:0:0:
384,192,140243,1,0,0:0:0:0:
128,192,140243,1,0,0:0:0:0:
42,192,141554,1,0,0:0:0:0:
128,192,141699,1,0,0:0:0:0:
298,192,141845,1,0,0:0:0:0:
384,192,141991,1,0,0:0:0:0:
42,192,142136,1,0,0:0:0:0:
213,192,142136,1,0,0:0:0:0:
469,192,142136,1,0,0:0:0:0:
128,192,142719,1,0,0:0:0:0:
384,192,142864,1,0,0:0:0:0:
213,192,143010,1,0,0:0:0:0:
469,192,143156,1,0,0:0:0:0:
128,192,143301,1,0,0:0:0:0:
384,192,143301,1,0,0:0:0:0:
42,192,143301,1,0,0:0:0:0:
213,192,143738,1,0,0:0:0:0:
469,192,144175,1,0,0:0:0:0:
42,192,144466,1,0,0:0:0:0:
213,192,144466,1,0,0:0:0:0:
384,192,144466,1,0,0:0:0:0:
298,192,144903,1,0,0:0:0:0:
42,192,144903,1,0,0:0:0:0:
213,192,145340,1,0,0:0:0:0:
42,192,145340,1,0,0:0:0:0:
298,192,145923,1,0,0:0:0:0:
469,192,146214,1,0,0:0:0:0:
298,192,146360,1,0,0:0:0:0:
213,192,146505,1,0,0:0:0:0:
128,192,146651,1,0,0:0:0:0:
469,192,146797,1,0,0:0:0:0:
298,192,146797,1,0,0:0:0:0:
42,192,146797,1,0,0:0:0:0:
42,192,147379,1,0,0:0:0:0:
213,192,147525,1,0,0:0:0:0:
298,192,147670,1,0,0:0:0:0:
384,192,147816,1,0,0:0:0:0:
469,192,147962,1,0,0:0:0:0:
213,192,147962,1,0,0:0:0:0:
42,192,147962,1,0,0:0:0:0:
298,192,148398,1,0,0:0:0:0:
384,192,148835,1,0,0:0:0:0:
42,192,149127,1,0,0:0:0:0:
384,192,149127,1,0,0:0:0:0:
128,192,149127,1,0,0:0:0:0:
384,192,149418,1,0,0:0:0:0:
469,192,149564,1,0,0:0:0:0:
213,192,149564,1,0,0:0:0:0:
384,192,150000,1,0,0:0:0:0:
469,192,150292,1,0,0:0:0:0:
42,192,150292,128,0,150364:0:0:0:0:
128,192,150364,128,0,150437:0:0:0:0:
298,192,150437,128,0,150510:0:0:0:0:
384,192,150510,128,0,150583:0:0:0:0:
128,192,150583,128,0,150656:0:0:0:0:
213,192,150656,128,0,150729:0:0:0:0:
384,192,150729,128,0,150801:0:0:0:0:
469,192,150801,128,0,150874:0:0:0:0:
42,192,150874,128,0,150923:0:0:0:0:
213,192,150923,128,0,150971:0:0:0:0:
298,192,150971,128,0,151020:0:0:0:0:
128,192,151020,128,0,151068:0:0:0:0:
298,192,151068,128,0,151117:0:0:0:0:
384,192,151117,128,0,151165:0:0:0:0:
469,192,151165,128,0,151214:0:0:0:0:
298,192,151214,128,0,151263:0:0:0:0:
213,192,151263,128,0,151311:0:0:0:0:
384,192,151311,128,0,151360:0:0:0:0:
213,192,151360,128,0,151408:0:0:0:0:
128,192,151408,128,0,151457:0:0:0:0:
42,192,151457,1,0,0:0:0:0:
298,192,151457,1,0,0:0:0:0:
384,192,151457,1,0,0:0:0:0:
469,192,151457,1,0,0:0:0:0:
42,192,151748,1,0,0:0:0:0:
213,192,151748,1,0,0:0:0:0:
42,192,151894,1,0,0:0:0:0:
42,192,152039,1,0,0:0:0:0:
213,192,152039,1,0,0:0:0:0:
298,192,152112,1,0,0:0:0:0:
384,192,152185,1,0,0:0:0:0:
42,192,152330,1,0,0:0:0:0:
298,192,152330,1,0,0:0:0:0:
213,192,152476,1,0,0:0:0:0:
469,192,152476,1,0,0:0:0:0:
128,192,152622,1,0,0:0:0:0:
384,192,152622,1,0,0:0:0:0:
298,192,152622,1,0,0:0:0:0:
128,192,152767,1,0,0:0:0:0:
128,192,152913,1,0,0:0:0:0:
384,192,152913,1,0,0:0:0:0:
128,192,153059,1,0,0:0:0:0:
384,192,153059,1,0,0:0:0:0:
128,192,153204,1,0,0:0:0:0:
469,192,153350,1,0,0:0:0:0:
298,192,153423,1,0,0:0:0:0:
128,192,153496,1,0,0:0:0:0:
469,192,153496,1,0,0:0:0:0:
128,192,153641,1,0,0:0:0:0:
384,192,153641,1,0,0:0:0:0:
42,192,153787,1,0,0:0:0:0:
128,192,153787,1,0,0:0:0:0:
213,192,153787,1,0,0:0:0:0:
469,192,153787,1,0,0:0:0:0:
42,192,154078,1,0,0:0:0:0:
298,192,154078,1,0,0:0:0:0:
42,192,154224,1,0,0:0:0:0:
298,192,154224,1,0,0:0:0:0:
469,192,154224,1,0,0:0:0:0:
42,192,154369,1,0,0:0:0:0:
384,192,154515,1,0,0:0:0:0:
469,192,154588,1,0,0:0:0:0:
42,192,154661,1,0,0:0:0:0:
384,192,154661,1,0,0:0:0:0:
298,192,154806,1,0,0:0:0:0:
128,192,154952,1,0,0:0:0:0:
469,192,154952,1,0,0:0:0:0:
298,192,155025,1,0,0:0:0:0:
128,192,155097,1,0,0:0:0:0:
384,192,155097,1,0,0:0:0:0:
213,192,155170,1,0,0:0:0:0:
128,192,155243,1,0,0:0:0:0:
469,192,155243,1,0,0:0:0:0:
384,192,155316,1,0,0:0:0:0:
128,192,155389,1,0,0:0:0:0:
298,192,155389,1,0,0:0:0:0:
213,192,155462,1,0,0:0:0:0:
128,192,155534,1,0,0:0:0:0:
384,192,155534,1,0,0:0:0:0:
469,192,155607,1,0,0:0:0:0:
384,192,155680,1,0,0:0:0:0:
298,192,155753,1,0,0:0:0:0:
128,192,155826,1,0,0:0:0:0:
384,192,155826,1,0,0:0:0:0:
213,192,155898,1,0,0:0:0:0:
298,192,155971,1,0,0:0:0:0:
384,192,156044,1,0,0:0:0:0:
42,192,156117,1,0,0:0:0:0:
469,192,156117,1,0,0:0:0:0:
128,192,156117,1,0,0:0:0:0:
298,192,156117,1,0,0:0:0:0:
469,192,156408,1,0,0:0:0:0:
213,192,156408,1,0,0:0:0:0:
469,192,156554,1,0,0:0:0:0:
469,192,156699,1,0,0:0:0:0:
213,192,156699,1,0,0:0:0:0:
298,192,156772,1,0,0:0:0:0:
384,192,156845,1,0,0:0:0:0:
469,192,156991,1,0,0:0:0:0:
128,192,156991,1,0,0:0:0:0:
298,192,157136,1,0,0:0:0:0:
384,192,157282,1,0,0:0:0:0:
213,192,157282,1,0,0:0:0:0:
42,192,157282,1,0,0:0:0:0:
384,192,157428,1,0,0:0:0:0:
128,192,157428,1,0,0:0:0:0:
384,192,157573,1,0,0:0:0:0:
213,192,157573,1,0,0:0:0:0:
384,192,157719,1,0,0:0:0:0:
42,192,157719,1,0,0:0:0:0:
384,192,157864,1,0,0:0:0:0:
42,192,158010,1,0,0:0:0:0:
384,192,158156,1,0,0:0:0:0:
128,192,158156,1,0,0:0:0:0:
384,192,158301,1,0,0:0:0:0:
213,192,158301,1,0,0:0:0:0:
298,192,158447,1,0,0:0:0:0:
384,192,158447,1,0,0:0:0:0:
469,192,158447,1,0,0:0:0:0:
128,192,158447,1,0,0:0:0:0:
469,192,158738,1,0,0:0:0:0:
213,192,158738,1,0,0:0:0:0:
469,192,158884,1,0,0:0:0:0:
213,192,158884,1,0,0:0:0:0:
42,192,158884,1,0,0:0:0:0:
469,192,159030,1,0,0:0:0:0:
128,192,159175,1,0,0:0:0:0:
469,192,159321,1,0,0:0:0:0:
213,192,159321,1,0,0:0:0:0:
298,192,159466,1,0,0:0:0:0:
384,192,159612,1,0,0:0:0:0:
42,192,159612,1,0,0:0:0:0:
128,192,159685,1,0,0:0:0:0:
384,192,159758,1,0,0:0:0:0:
213,192,159758,1,0,0:0:0:0:
298,192,159830,1,0,0:0:0:0:
384,192,159903,1,0,0:0:0:0:
42,192,159903,1,0,0:0:0:0:
213,192,159976,1,0,0:0:0:0:
384,192,160049,1,0,0:0:0:0:
128,192,160049,1,0,0:0:0:0:
298,192,160122,1,0,0:0:0:0:
384,192,160195,1,0,0:0:0:0:
128,192,160195,1,0,0:0:0:0:
42,192,160267,1,0,0:0:0:0:
128,192,160340,1,0,0:0:0:0:
213,192,160413,1,0,0:0:0:0:
384,192,160486,1,0,0:0:0:0:
42,192,160486,1,0,0:0:0:0:
128,192,160559,1,0,0:0:0:0:
384,192,160631,1,0,0:0:0:0:
213,192,160631,1,0,0:0:0:0:
298,192,160704,1,0,0:0:0:0:
128,192,160777,1,0,0:0:0:0:
42,192,160777,1,0,0:0:0:0:
469,192,160777,1,0,0:0:0:0:
213,192,160777,1,0,0:0:0:0:
384,192,160777,1,0,0:0:0:0:
42,192,161068,1,0,0:0:0:0:
42,192,161214,1,0,0:0:0:0:
384,192,161214,1,0,0:0:0:0:
469,192,161287,1,0,0:0:0:0:
42,192,161360,1,0,0:0:0:0:
298,192,161360,1,0,0:0:0:0:
213,192,161505,1,0,0:0:0:0:
42,192,161651,1,0,0:0:0:0:
298,192,161651,1,0,0:0:0:0:
469,192,161797,1,0,0:0:0:0:
128,192,161942,1,0,0:0:0:0:
384,192,161942,1,0,0:0:0:0:
298,192,161942,1,0,0:0:0:0:
128,192,162088,1,0,0:0:0:0:
128,192,162233,1,0,0:0:0:0:
298,192,162233,1,0,0:0:0:0:
384,192,162306,1,0,0:0:0:0:
128,192,162379,1,0,0:0:0:0:
469,192,162379,1,0,0:0:0:0:
128,192,162525,1,0,0:0:0:0:
384,192,162525,1,0,0:0:0:0:
298,192,162597,1,0,0:0:0:0:
213,192,162670,1,0,0:0:0:0:
128,192,162816,1,0,0:0:0:0:
384,192,162816,1,0,0:0:0:0:
128,192,162962,1,0,0:0:0:0:
298,192,162962,1,0,0:0:0:0:
213,192,163107,1,0,0:0:0:0:
128,192,163107,1,0,0:0:0:0:
42,192,163107,1,0,0:0:0:0:
384,192,163107,1,0,0:0:0:0:
298,192,163253,1,0,0:0:0:0:
213,192,163326,1,0,0:0:0:0:
42,192,163398,1,0,0:0:0:0:
384,192,163398,1,0,0:0:0:0:
42,192,163544,1,0,0:0:0:0:
298,192,163544,1,0,0:0:0:0:
469,192,163544,1,0,0:0:0:0:
42,192,163690,1,0,0:0:0:0:
384,192,163690,1,0,0:0:0:0:
213,192,163763,1,0,0:0:0:0:
298,192,163835,1,0,0:0:0:0:
384,192,163908,1,0,0:0:0:0:
42,192,163981,1,0,0:0:0:0:
469,192,163981,1,0,0:0:0:0:
213,192,163981,1,0,0:0:0:0:
298,192,164127,1,0,0:0:0:0:
469,192,164199,1,0,0:0:0:0:
128,192,164272,1,0,0:0:0:0:
384,192,164272,1,0,0:0:0:0:
298,192,164345,1,0,0:0:0:0:
128,192,164418,1,0,0:0:0:0:
469,192,164418,1,0,0:0:0:0:
384,192,164491,1,0,0:0:0:0:
128,192,164564,1,0,0:0:0:0:
213,192,164564,1,0,0:0:0:0:
128,192,164709,1,0,0:0:0:0:
384,192,164709,1,0,0:0:0:0:
298,192,164782,1,0,0:0:0:0:
128,192,164855,1,0,0:0:0:0:
469,192,164855,1,0,0:0:0:0:
384,192,165000,1,0,0:0:0:0:
128,192,165146,1,0,0:0:0:0:
298,192,165146,1,0,0:0:0:0:
128,192,165292,1,0,0:0:0:0:
384,192,165292,1,0,0:0:0:0:
213,192,165437,1,0,0:0:0:0:
42,192,165437,1,0,0:0:0:0:
298,192,165437,1,0,0:0:0:0:
469,192,165437,1,0,0:0:0:0:
469,192,165729,1,0,0:0:0:0:
213,192,165729,1,0,0:0:0:0:
469,192,165874,1,0,0:0:0:0:
469,192,166020,1,0,0:0:0:0:
42,192,166020,1,0,0:0:0:0:
128,192,166165,1,0,0:0:0:0:
469,192,166311,1,0,0:0:0:0:
213,192,166311,1,0,0:0:0:0:
298,192,166457,1,0,0:0:0:0:
384,192,166602,1,0,0:0:0:0:
213,192,166602,1,0,0:0:0:0:
128,192,166602,1,0,0:0:0:0:
384,192,166748,1,0,0:0:0:0:
42,192,166748,1,0,0:0:0:0:
213,192,166821,1,0,0:0:0:0:
384,192,166894,1,0,0:0:0:0:
42,192,166894,1,0,0:0:0:0:
384,192,167039,1,0,0:0:0:0:
128,192,167039,1,0,0:0:0:0:
384,192,167185,1,0,0:0:0:0:
213,192,167330,1,0,0:0:0:0:
298,192,167403,1,0,0:0:0:0:
384,192,167476,1,0,0:0:0:0:
128,192,167476,1,0,0:0:0:0:
384,192,167622,1,0,0:0:0:0:
298,192,167767,1,0,0:0:0:0:
469,192,167767,1,0,0:0:0:0:
384,192,167767,1,0,0:0:0:0:
128,192,167767,1,0,0:0:0:0:
469,192,168059,1,0,0:0:0:0:
42,192,168059,1,0,0:0:0:0:
469,192,168204,1,0,0:0:0:0:
298,192,168204,1,0,0:0:0:0:
469,192,168350,1,0,0:0:0:0:
298,192,168496,1,0,0:0:0:0:
469,192,168641,1,0,0:0:0:0:
42,192,168641,1,0,0:0:0:0:
469,192,168932,1,0,0:0:0:0:
42,192,168932,128,0,169005:0:0:0:0:
128,192,169005,128,0,169078:0:0:0:0:
213,192,169078,128,0,169151:0:0:0:0:
469,192,169078,1,0,0:0:0:0:
298,192,169151,128,0,169224:0:0:0:0:
128,192,169224,128,0,169297:0:0:0:0:
469,192,169224,1,0,0:0:0:0:
213,192,169297,128,0,169369:0:0:0:0:
298,192,169369,128,0,169442:0:0:0:0:
469,192,169369,1,0,0:0:0:0:
384,192,169442,128,0,169515:0:0:0:0:
469,192,169515,128,0,169588:0:0:0:0:
42,192,169515,1,0,0:0:0:0:
384,192,169588,128,0,169661:0:0:0:0:
298,192,169661,128,0,169733:0:0:0:0:
213,192,169733,128,0,169806:0:0:0:0:
384,192,169806,128,0,169879:0:0:0:0:
42,192,169806,1,0,0:0:0:0:
298,192,169879,128,0,169952:0:0:0:0:
213,192,169952,128,0,170025:0:0:0:0:
42,192,169952,1,0,0:0:0:0:
128,192,170025,128,0,170097:0:0:0:0:
42,192,170097,1,0,0:0:0:0:
469,192,170097,1,0,0:0:0:0:
384,192,170170,1,0,0:0:0:0:
298,192,170243,1,0,0:0:0:0:
469,192,170316,1,0,0:0:0:0:
213,192,170389,1,0,0:0:0:0:
42,192,170462,1,0,0:0:0:0:
213,192,170534,1,0,0:0:0:0:
384,192,170607,1,0,0:0:0:0:
128,192,170680,1,0,0:0:0:0:
213,192,170753,1,0,0:0:0:0:
298,192,170826,1,0,0:0:0:0:
213,192,170898,1,0,0:0:0:0:
469,192,170971,1,0,0:0:0:0:
384,192,171044,1,0,0:0:0:0:
298,192,171117,1,0,0:0:0:0:
213,192,171190,1,0,0:0:0:0:
42,192,171263,1,0,0:0:0:0:
128,192,171335,1,0,0:0:0:0:
213,192,171408,1,0,0:0:0:0:
42,192,171481,1,0,0:0:0:0:
298,192,171554,1,0,0:0:0:0:
469,192,171627,1,0,0:0:0:0:
298,192,171699,1,0,0:0:0:0:
128,192,171772,1,0,0:0:0:0:
384,192,171845,1,0,0:0:0:0:
298,192,171918,1,0,0:0:0:0:
213,192,171991,1,0,0:0:0:0:
298,192,172064,1,0,0:0:0:0:
42,192,172136,1,0,0:0:0:0:
128,192,172209,1,0,0:0:0:0:
213,192,172282,1,0,0:0:0:0:
298,192,172355,1,0,0:0:0:0:
469,192,172428,1,0,0:0:0:0:
384,192,172500,1,0,0:0:0:0:
298,192,172573,1,0,0:0:0:0:
469,192,172646,1,0,0:0:0:0:
213,192,172719,1,0,0:0:0:0:
42,192,172792,1,0,0:0:0:0:
213,192,172864,1,0,0:0:0:0:
384,192,172937,1,0,0:0:0:0:
128,192,173010,1,0,0:0:0:0:
213,192,173083,1,0,0:0:0:0:
298,192,173156,1,0,0:0:0:0:
213,192,173229,1,0,0:0:0:0:
469,192,173301,1,0,0:0:0:0:
384,192,173374,1,0,0:0:0:0:
298,192,173447,1,0,0:0:0:0:
213,192,173520,1,0,0:0:0:0:
42,192,173593,1,0,0:0:0:0:
128,192,173665,1,0,0:0:0:0:
213,192,173738,1,0,0:0:0:0:
42,192,173811,1,0,0:0:0:0:
298,192,173884,1,0,0:0:0:0:
469,192,173957,1,0,0:0:0:0:
298,192,174030,1,0,0:0:0:0:
128,192,174102,1,0,0:0:0:0:
384,192,174175,1,0,0:0:0:0:
298,192,174248,1,0,0:0:0:0:
213,192,174321,1,0,0:0:0:0:
298,192,174394,1,0,0:0:0:0:
42,192,174466,1,0,0:0:0:0:
128,192,174539,1,0,0:0:0:0:
213,192,174612,1,0,0:0:0:0:
298,192,174685,1,0,0:0:0:0:
384,192,174758,128,0,174976:0:0:0:0:
469,192,174830,128,0,174903:0:0:0:0:
213,192,174903,128,0,174976:0:0:0:0:
298,192,174976,128,0,175049:0:0:0:0:
128,192,175049,128,0,175122:0:0:0:0:
384,192,175122,128,0,175195:0:0:0:0:
298,192,175195,128,0,175267:0:0:0:0:
213,192,175267,128,0,175340:0:0:0:0:
42,192,175340,128,0,175559:0:0:0:0:
128,192,175413,128,0,175486:0:0:0:0:
298,192,175486,128,0,175704:0:0:0:0:
213,192,175559,128,0,175631:0:0:0:0:
469,192,175631,128,0,175704:0:0:0:0:
384,192,175704,128,0,175777:0:0:0:0:
298,192,175777,128,0,175850:0:0:0:0:
213,192,175850,128,0,175923:0:0:0:0:
128,192,175923,128,0,176141:0:0:0:0:
42,192,175996,128,0,176068:0:0:0:0:
298,192,176068,128,0,176141:0:0:0:0:
213,192,176141,128,0,176214:0:0:0:0:
384,192,176214,128,0,176287:0:0:0:0:
128,192,176287,128,0,176360:0:0:0:0:
213,192,176360,128,0,176432:0:0:0:0:
298,192,176432,128,0,176505:0:0:0:0:
469,192,176505,128,0,176724:0:0:0:0:
384,192,176578,128,0,176651:0:0:0:0:
213,192,176651,128,0,176869:0:0:0:0:
298,192,176724,128,0,176797:0:0:0:0:
42,192,176797,128,0,176869:0:0:0:0:
128,192,176869,128,0,176942:0:0:0:0:
213,192,176942,128,0,177015:0:0:0:0:
298,192,177015,128,0,177088:0:0:0:0:
384,192,177088,128,0,177306:0:0:0:0:
469,192,177161,128,0,177233:0:0:0:0:
213,192,177233,128,0,177306:0:0:0:0:
298,192,177306,128,0,177379:0:0:0:0:
128,192,177379,128,0,177452:0:0:0:0:
384,192,177452,128,0,177525:0:0:0:0:
298,192,177525,128,0,177597:0:0:0:0:
213,192,177597,128,0,177670:0:0:0:0:
42,192,177670,128,0,177889:0:0:0:0:
128,192,177743,128,0,177816:0:0:0:0:
298,192,177816,128,0,178034:0:0:0:0:
213,192,177889,128,0,177962:0:0:0:0:
469,192,177962,128,0,178034:0:0:0:0:
384,192,178034,128,0,178107:0:0:0:0:
298,192,178107,128,0,178180:0:0:0:0:
213,192,178180,128,0,178253:0:0:0:0:
128,192,178253,128,0,178471:0:0:0:0:
42,192,178326,128,0,178398:0:0:0:0:
298,192,178398,128,0,178471:0:0:0:0:
213,192,178471,128,0,178544:0:0:0:0:
384,192,178544,128,0,178617:0:0:0:0:
128,192,178617,128,0,178690:0:0:0:0:
213,192,178690,128,0,178763:0:0:0:0:
298,192,178763,128,0,178835:0:0:0:0:
469,192,178835,128,0,179054:0:0:0:0:
384,192,178908,128,0,178981:0:0:0:0:
213,192,178981,128,0,179199:0:0:0:0:
298,192,179054,128,0,179127:0:0:0:0:
42,192,179127,128,0,179199:0:0:0:0:
128,192,179199,128,0,179272:0:0:0:0:
213,192,179272,128,0,179345:0:0:0:0:
298,192,179345,128,0,179418:0:0:0:0:
213,192,179418,128,0,179636:0:0:0:0:
128,192,179491,128,0,179564:0:0:0:0:
298,192,179564,128,0,179782:0:0:0:0:
384,192,179636,128,0,179709:0:0:0:0:
42,192,179709,128,0,179782:0:0:0:0:
213,192,179782,128,0,179855:0:0:0:0:
384,192,179855,128,0,179928:0:0:0:0:
128,192,179928,128,0,180000:0:0:0:0:
469,192,180000,128,0,180146:0:0:0:0:
298,192,180073,128,0,180219:0:0:0:0:
213,192,180146,128,0,180292:0:0:0:0:
128,192,180219,128,0,180364:0:0:0:0:
384,192,180292,128,0,180364:0:0:0:0:
213,192,180364,128,0,180437:0:0:0:0:
128,192,180437,128,0,180510:0:0:0:0:
42,192,180510,128,0,180583:0:0:0:0:
298,192,180583,128,0,180801:0:0:0:0:
384,192,180656,128,0,180729:0:0:0:0:
213,192,180729,128,0,180947:0:0:0:0:
128,192,180801,128,0,180874:0:0:0:0:
469,192,180874,128,0,180947:0:0:0:0:
298,192,180947,128,0,181020:0:0:0:0:
128,192,181020,128,0,181093:0:0:0:0:
384,192,181093,128,0,181165:0:0:0:0:
42,192,181165,128,0,181311:0:0:0:0:
213,192,181238,128,0,181384:0:0:0:0:
298,192,181311,128,0,181457:0:0:0:0:
384,192,181384,128,0,181530:0:0:0:0:
128,192,181457,128,0,181530:0:0:0:0:
298,192,181530,128,0,181602:0:0:0:0:
384,192,181602,128,0,181675:0:0:0:0:
469,192,181675,128,0,181748:0:0:0:0:
213,192,181748,128,0,181966:0:0:0:0:
128,192,181821,128,0,181894:0:0:0:0:
298,192,181894,128,0,182112:0:0:0:0:
384,192,181966,128,0,182039:0:0:0:0:
42,192,182039,128,0,182112:0:0:0:0:
213,192,182112,128,0,182185:0:0:0:0:
384,192,182185,128,0,182258:0:0:0:0:
128,192,182258,128,0,182330:0:0:0:0:
469,192,182330,128,0,182476:0:0:0:0:
298,192,182403,128,0,182549:0:0:0:0:
213,192,182476,128,0,182622:0:0:0:0:
128,192,182549,128,0,182695:0:0:0:0:
384,192,182622,128,0,182695:0:0:0:0:
213,192,182695,128,0,182767:0:0:0:0:
128,192,182767,128,0,182840:0:0:0:0:
42,192,182840,128,0,182913:0:0:0:0:
298,192,182913,128,0,183131:0:0:0:0:
384,192,182986,128,0,183059:0:0:0:0:
213,192,183059,128,0,183277:0:0:0:0:
128,192,183131,128,0,183204:0:0:0:0:
469,192,183204,128,0,183277:0:0:0:0:
298,192,183277,128,0,183350:0:0:0:0:
128,192,183350,128,0,183423:0:0:0:0:
384,192,183423,128,0,183496:0:0:0:0:
42,192,183496,128,0,183641:0:0:0:0:
213,192,183568,128,0,183714:0:0:0:0:
298,192,183641,128,0,183787:0:0:0:0:
384,192,183714,128,0,183860:0:0:0:0:
128,192,183787,128,0,183860:0:0:0:0:
298,192,183860,128,0,183932:0:0:0:0:
384,192,183932,128,0,184005:0:0:0:0:
469,192,184005,128,0,184078:0:0:0:0:
128,192,184078,128,0,184224:0:0:0:0:
213,192,184151,128,0,184297:0:0:0:0:
298,192,184224,128,0,184369:0:0:0:0:
384,192,184297,128,0,184442:0:0:0:0:
128,192,184369,128,0,184588:0:0:0:0:
42,192,184442,128,0,184515:0:0:0:0:
213,192,184515,128,0,184733:0:0:0:0:
298,192,184588,128,0,184661:0:0:0:0:
469,192,184661,128,0,184806:0:0:0:0:
384,192,184733,128,0,184879:0:0:0:0:
298,192,184806,128,0,184952:0:0:0:0:
213,192,184879,128,0,185025:0:0:0:0:
384,192,184952,128,0,185025:0:0:0:0:
128,192,185025,128,0,185097:0:0:0:0:
298,192,185097,128,0,185170:0:0:0:0:
42,192,185170,128,0,185243:0:0:0:0:
384,192,185243,128,0,185389:0:0:0:0:
298,192,185316,128,0,185462:0:0:0:0:
213,192,185389,128,0,185534:0:0:0:0:
128,192,185462,128,0,185607:0:0:0:0:
384,192,185534,128,0,185753:0:0:0:0:
469,192,185607,128,0,185680:0:0:0:0:
298,192,185680,128,0,185898:0:0:0:0:
213,192,185753,128,0,185826:0:0:0:0:
42,192,185826,128,0,185971:0:0:0:0:
128,192,185898,128,0,186044:0:0:0:0:
213,192,185971,128,0,186117:0:0:0:0:
298,192,186044,128,0,186190:0:0:0:0:
128,192,186117,128,0,186190:0:0:0:0:
384,192,186190,128,0,186263:0:0:0:0:
213,192,186263,128,0,186335:0:0:0:0:
469,192,186335,128,0,186408:0:0:0:0:
128,192,186408,128,0,186554:0:0:0:0:
213,192,186481,128,0,186627:0:0:0:0:
298,192,186554,128,0,186699:0:0:0:0:
384,192,186627,128,0,186772:0:0:0:0:
128,192,186699,128,0,186918:0:0:0:0:
42,192,186772,128,0,186845:0:0:0:0:
213,192,186845,128,0,187064:0:0:0:0:
298,192,186918,128,0,186991:0:0:0:0:
469,192,186991,128,0,187136:0:0:0:0:
384,192,187064,128,0,187209:0:0:0:0:
298,192,187136,128,0,187282:0:0:0:0:
213,192,187209,128,0,187355:0:0:0:0:
384,192,187282,128,0,187355:0:0:0:0:
128,192,187355,128,0,187428:0:0:0:0:
298,192,187428,128,0,187500:0:0:0:0:
42,192,187500,128,0,187573:0:0:0:0:
384,192,187573,128,0,187719:0:0:0:0:
298,192,187646,128,0,187792:0:0:0:0:
213,192,187719,128,0,187864:0:0:0:0:
128,192,187792,128,0,187937:0:0:0:0:
384,192,187864,128,0,188083:0:0:0:0:
469,192,187937,128,0,188010:0:0:0:0:
298,192,188010,128,0,188229:0:0:0:0:
213,192,188083,128,0,188156:0:0:0:0:
42,192,188156,128,0,188301:0:0:0:0:
128,192,188229,128,0,188374:0:0:0:0:
213,192,188301,128,0,188447:0:0:0:0:
298,192,188374,128,0,188520:0:0:0:0:
128,192,188447,128,0,188520:0:0:0:0:
384,192,188520,128,0,188593:0:0:0:0:
213,192,188593,128,0,188665:0:0:0:0:
469,192,188665,128,0,188738:0:0:0:0:
213,192,188738,1,0,0:0:0:0:
128,192,188738,1,0,0:0:0:0:
42,192,188738,1,0,0:0:0:0:
298,192,188738,1,0,0:0:0:0:
42,192,188884,128,0,189030:0:0:0:0:
298,192,188957,1,0,0:0:0:0:
42,192,189175,128,0,189321:0:0:0:0:
384,192,189175,1,0,0:0:0:0:
384,192,189394,1,0,0:0:0:0:
42,192,189466,128,0,189612:0:0:0:0:
469,192,189612,1,0,0:0:0:0:
42,192,189758,128,0,189903:0:0:0:0:
384,192,189758,1,0,0:0:0:0:
213,192,189903,1,0,0:0:0:0:
469,192,190049,128,0,190195:0:0:0:0:
128,192,190122,1,0,0:0:0:0:
469,192,190340,128,0,190486:0:0:0:0:
42,192,190340,1,0,0:0:0:0:
128,192,190559,1,0,0:0:0:0:
469,192,190631,128,0,190777:0:0:0:0:
42,192,190777,1,0,0:0:0:0:
128,192,190777,1,0,0:0:0:0:
213,192,190777,1,0,0:0:0:0:
298,192,190777,1,0,0:0:0:0:
384,192,190923,1,0,0:0:0:0:
469,192,191068,1,0,0:0:0:0:
213,192,191068,1,0,0:0:0:0:
298,192,191068,1,0,0:0:0:0:
384,192,191068,1,0,0:0:0:0:
469,192,191214,128,0,191360:0:0:0:0:
213,192,191287,1,0,0:0:0:0:
128,192,191505,1,0,0:0:0:0:
469,192,191505,128,0,191651:0:0:0:0:
128,192,191724,1,0,0:0:0:0:
469,192,191797,128,0,191942:0:0:0:0:
42,192,191942,1,0,0:0:0:0:
128,192,192088,1,0,0:0:0:0:
469,192,192088,128,0,192233:0:0:0:0:
298,192,192233,128,0,192525:0:0:0:0:
42,192,192379,128,0,192525:0:0:0:0:
469,192,192379,128,0,192525:0:0:0:0:
213,192,192525,128,0,192816:0:0:0:0:
42,192,192670,128,0,192816:0:0:0:0:
384,192,192670,128,0,192816:0:0:0:0:
128,192,192816,128,0,193107:0:0:0:0:
42,192,192962,128,0,193107:0:0:0:0:
298,192,192962,128,0,193107:0:0:0:0:
213,192,193107,1,0,0:0:0:0:
384,192,193107,1,0,0:0:0:0:
469,192,193107,1,0,0:0:0:0:
384,192,193253,1,0,0:0:0:0:
469,192,193253,1,0,0:0:0:0:
213,192,193253,1,0,0:0:0:0:
213,192,193398,1,0,0:0:0:0:
128,192,193398,1,0,0:0:0:0:
42,192,193398,1,0,0:0:0:0:
298,192,193398,1,0,0:0:0:0:
469,192,193471,1,0,0:0:0:0:
42,192,193544,128,0,193690:0:0:0:0:
298,192,193544,1,0,0:0:0:0:
384,192,193690,1,0,0:0:0:0:
213,192,193763,1,0,0:0:0:0:
42,192,193835,128,0,193981:0:0:0:0:
384,192,193835,1,0,0:0:0:0:
469,192,193908,1,0,0:0:0:0:
298,192,193981,1,0,0:0:0:0:
42,192,194127,128,0,194272:0:0:0:0:
298,192,194127,1,0,0:0:0:0:
384,192,194199,1,0,0:0:0:0:
384,192,194345,1,0,0:0:0:0:
42,192,194418,128,0,194564:0:0:0:0:
469,192,194418,1,0,0:0:0:0:
213,192,194564,1,0,0:0:0:0:
42,192,194636,1,0,0:0:0:0:
469,192,194709,128,0,194855:0:0:0:0:
213,192,194709,1,0,0:0:0:0:
128,192,194855,1,0,0:0:0:0:
298,192,194928,1,0,0:0:0:0:
469,192,195000,128,0,195146:0:0:0:0:
128,192,195000,1,0,0:0:0:0:
42,192,195073,1,0,0:0:0:0:
213,192,195146,1,0,0:0:0:0:
469,192,195292,128,0,195437:0:0:0:0:
128,192,195292,1,0,0:0:0:0:
298,192,195364,1,0,0:0:0:0:
213,192,195437,1,0,0:0:0:0:
128,192,195437,1,0,0:0:0:0:
42,192,195437,1,0,0:0:0:0:
298,192,195510,1,0,0:0:0:0:
384,192,195510,1,0,0:0:0:0:
469,192,195510,1,0,0:0:0:0:
213,192,195583,1,0,0:0:0:0:
128,192,195583,1,0,0:0:0:0:
42,192,195583,1,0,0:0:0:0:
469,192,195729,1,0,0:0:0:0:
213,192,195729,1,0,0:0:0:0:
298,192,195729,1,0,0:0:0:0:
384,192,195729,1,0,0:0:0:0:
42,192,195801,1,0,0:0:0:0:
469,192,195874,128,0,196020:0:0:0:0:
298,192,195874,1,0,0:0:0:0:
128,192,196020,1,0,0:0:0:0:
298,192,196093,1,0,0:0:0:0:
128,192,196165,1,0,0:0:0:0:
469,192,196165,128,0,196311:0:0:0:0:
42,192,196238,1,0,0:0:0:0:
213,192,196311,1,0,0:0:0:0:
469,192,196457,128,0,196602:0:0:0:0:
213,192,196457,1,0,0:0:0:0:
128,192,196530,1,0,0:0:0:0:
128,192,196675,1,0,0:0:0:0:
469,192,196748,128,0,196894:0:0:0:0:
213,192,196748,1,0,0:0:0:0:
298,192,196894,1,0,0:0:0:0:
213,192,196894,1,0,0:0:0:0:
128,192,196894,1,0,0:0:0:0:
42,192,196894,1,0,0:0:0:0:
384,192,196966,1,0,0:0:0:0:
298,192,197039,1,0,0:0:0:0:
213,192,197112,1,0,0:0:0:0:
384,192,197185,1,0,0:0:0:0:
469,192,197185,1,0,0:0:0:0:
128,192,197185,1,0,0:0:0:0:
42,192,197185,1,0,0:0:0:0:
298,192,197258,1,0,0:0:0:0:
213,192,197330,1,0,0:0:0:0:
128,192,197403,1,0,0:0:0:0:
213,192,197476,1,0,0:0:0:0:
298,192,197476,1,0,0:0:0:0:
384,192,197476,1,0,0:0:0:0:
469,192,197476,1,0,0:0:0:0:
384,192,197622,1,0,0:0:0:0:
469,192,197622,1,0,0:0:0:0:
213,192,197622,1,0,0:0:0:0:
298,192,197622,1,0,0:0:0:0:
42,192,197695,1,0,0:0:0:0:
384,192,197767,1,0,0:0:0:0:
469,192,197767,1,0,0:0:0:0:
213,192,197767,1,0,0:0:0:0:
298,192,197767,1,0,0:0:0:0:
384,192,197913,1,0,0:0:0:0:
298,192,197913,1,0,0:0:0:0:
213,192,197913,1,0,0:0:0:0:
128,192,197913,1,0,0:0:0:0:
469,192,197986,1,0,0:0:0:0:
298,192,198059,1,0,0:0:0:0:
213,192,198059,1,0,0:0:0:0:
128,192,198059,1,0,0:0:0:0:
42,192,198059,1,0,0:0:0:0:
42,192,198204,1,0,0:0:0:0:
128,192,198204,1,0,0:0:0:0:
298,192,198277,1,0,0:0:0:0:
384,192,198277,1,0,0:0:0:0:
213,192,198350,1,0,0:0:0:0:
42,192,198350,1,0,0:0:0:0:
469,192,198350,1,0,0:0:0:0:
384,192,198423,1,0,0:0:0:0:
298,192,198423,1,0,0:0:0:0:
42,192,198496,1,0,0:0:0:0:
128,192,198496,1,0,0:0:0:0:
469,192,198641,1,0,0:0:0:0:
384,192,198641,1,0,0:0:0:0:
213,192,198641,1,0,0:0:0:0:
42,192,198714,1,0,0:0:0:0:
298,192,198714,1,0,0:0:0:0:
384,192,198787,1,0,0:0:0:0:
128,192,198787,1,0,0:0:0:0:
213,192,198860,1,0,0:0:0:0:
469,192,198860,1,0,0:0:0:0:
298,192,198932,1,0,0:0:0:0:
128,192,198932,1,0,0:0:0:0:
42,192,198932,1,0,0:0:0:0:
384,192,199005,1,0,0:0:0:0:
469,192,199005,1,0,0:0:0:0:
128,192,199078,1,0,0:0:0:0:
42,192,199078,1,0,0:0:0:0:
298,192,199224,1,0,0:0:0:0:
469,192,199224,1,0,0:0:0:0:
42,192,199224,1,0,0:0:0:0:
469,192,199369,1,0,0:0:0:0:
384,192,199369,1,0,0:0:0:0:
213,192,199442,1,0,0:0:0:0:
128,192,199442,1,0,0:0:0:0:
298,192,199515,1,0,0:0:0:0:
469,192,199515,1,0,0:0:0:0:
42,192,199515,1,0,0:0:0:0:
384,192,199588,1,0,0:0:0:0:
213,192,199588,1,0,0:0:0:0:
298,192,199661,1,0,0:0:0:0:
128,192,199661,1,0,0:0:0:0:
42,192,199806,1,0,0:0:0:0:
298,192,199806,1,0,0:0:0:0:
469,192,199806,1,0,0:0:0:0:
213,192,199952,1,0,0:0:0:0:
128,192,199952,1,0,0:0:0:0:
298,192,200025,1,0,0:0:0:0:
384,192,200025,1,0,0:0:0:0:
128,192,200097,1,0,0:0:0:0:
42,192,200097,1,0,0:0:0:0:
469,192,200097,1,0,0:0:0:0:
213,192,200170,1,0,0:0:0:0:
298,192,200170,1,0,0:0:0:0:
384,192,200243,1,0,0:0:0:0:
42,192,200243,1,0,0:0:0:0:
42,192,200389,5,0,0:0:0:0:
469,192,200389,1,0,0:0:0:0:
298,192,200389,1,0,0:0:0:0:
128,192,200389,1,0,0:0:0:0:
469,192,200534,1,0,0:0:0:0:
384,192,200534,1,0,0:0:0:0:
213,192,200607,1,0,0:0:0:0:
128,192,200607,1,0,0:0:0:0:
298,192,200680,1,0,0:0:0:0:
469,192,200680,1,0,0:0:0:0:
42,192,200680,1,0,0:0:0:0:
128,192,200753,1,0,0:0:0:0:
213,192,200753,1,0,0:0:0:0:
469,192,200826,1,0,0:0:0:0:
384,192,200826,1,0,0:0:0:0:
42,192,200971,1,0,0:0:0:0:
128,192,200971,1,0,0:0:0:0:
384,192,200971,1,0,0:0:0:0:
469,192,201044,1,0,0:0:0:0:
213,192,201044,1,0,0:0:0:0:
128,192,201117,1,0,0:0:0:0:
384,192,201117,1,0,0:0:0:0:
298,192,201190,1,0,0:0:0:0:
42,192,201190,1,0,0:0:0:0:
213,192,201263,1,0,0:0:0:0:
384,192,201263,1,0,0:0:0:0:
469,192,201263,1,0,0:0:0:0:
128,192,201335,1,0,0:0:0:0:
42,192,201335,1,0,0:0:0:0:
298,192,201408,1,0,0:0:0:0:
469,192,201408,1,0,0:0:0:0:
42,192,201554,1,0,0:0:0:0:
298,192,201554,1,0,0:0:0:0:
469,192,201554,1,0,0:0:0:0:
213,192,201627,1,0,0:0:0:0:
128,192,201627,1,0,0:0:0:0:
298,192,201699,1,0,0:0:0:0:
384,192,201699,1,0,0:0:0:0:
42,192,201845,1,0,0:0:0:0:
469,192,201845,1,0,0:0:0:0:
213,192,201845,1,0,0:0:0:0:
384,192,201918,1,0,0:0:0:0:
298,192,201918,1,0,0:0:0:0:
128,192,201991,1,0,0:0:0:0:
213,192,201991,1,0,0:0:0:0:
298,192,202136,1,0,0:0:0:0:
469,192,202136,1,0,0:0:0:0:
42,192,202136,1,0,0:0:0:0:
213,192,202209,1,0,0:0:0:0:
384,192,202209,1,0,0:0:0:0:
298,192,202282,1,0,0:0:0:0:
128,192,202282,1,0,0:0:0:0:
213,192,202355,1,0,0:0:0:0:
384,192,202355,1,0,0:0:0:0:
469,192,202428,1,0,0:0:0:0:
42,192,202428,1,0,0:0:0:0:
298,192,202428,1,0,0:0:0:0:
213,192,202500,1,0,0:0:0:0:
128,192,202500,1,0,0:0:0:0:
298,192,202573,1,0,0:0:0:0:
384,192,202573,1,0,0:0:0:0:
213,192,202719,1,0,0:0:0:0:
128,192,202719,1,0,0:0:0:0:
42,192,202719,1,0,0:0:0:0:
384,192,202792,1,0,0:0:0:0:
469,192,202792,1,0,0:0:0:0:
298,192,202864,1,0,0:0:0:0:
128,192,202864,1,0,0:0:0:0:
42,192,202864,1,0,0:0:0:0:
384,192,202937,1,0,0:0:0:0:
469,192,202937,1,0,0:0:0:0:
213,192,203010,1,0,0:0:0:0:
42,192,203010,1,0,0:0:0:0:
128,192,203010,1,0,0:0:0:0:
384,192,203083,1,0,0:0:0:0:
469,192,203083,1,0,0:0:0:0:
298,192,203156,1,0,0:0:0:0:
42,192,203156,1,0,0:0:0:0:
128,192,203156,1,0,0:0:0:0:
384,192,203229,1,0,0:0:0:0:
469,192,203229,1,0,0:0:0:0:
213,192,203301,1,0,0:0:0:0:
128,192,203301,1,0,0:0:0:0:
42,192,203301,1,0,0:0:0:0:
298,192,203374,1,0,0:0:0:0:
384,192,203374,1,0,0:0:0:0:
469,192,203447,1,0,0:0:0:0:
128,192,203447,1,0,0:0:0:0:
42,192,203447,1,0,0:0:0:0:
213,192,203520,1,0,0:0:0:0:
298,192,203520,1,0,0:0:0:0:
128,192,203593,128,0,203665:0:0:0:0:
384,192,203593,128,0,203665:0:0:0:0:
384,192,203738,128,0,203811:0:0:0:0:
128,192,203738,128,0,203811:0:0:0:0:
298,192,203884,1,0,0:0:0:0:
384,192,203884,1,0,0:0:0:0:
469,192,203884,1,0,0:0:0:0:
128,192,203957,1,0,0:0:0:0:
42,192,203957,1,0,0:0:0:0:
213,192,204030,1,0,0:0:0:0:
384,192,204030,1,0,0:0:0:0:
469,192,204030,1,0,0:0:0:0:
128,192,204102,1,0,0:0:0:0:
42,192,204102,1,0,0:0:0:0:
298,192,204175,1,0,0:0:0:0:
384,192,204175,1,0,0:0:0:0:
469,192,204175,1,0,0:0:0:0:
213,192,204248,1,0,0:0:0:0:
128,192,204248,1,0,0:0:0:0:
42,192,204248,1,0,0:0:0:0:
298,192,204321,1,0,0:0:0:0:
384,192,204321,1,0,0:0:0:0:
469,192,204321,1,0,0:0:0:0:
128,192,204394,1,0,0:0:0:0:
42,192,204394,1,0,0:0:0:0:
298,192,204466,1,0,0:0:0:0:
384,192,204466,1,0,0:0:0:0:
469,192,204466,1,0,0:0:0:0:
213,192,204539,1,0,0:0:0:0:
128,192,204539,1,0,0:0:0:0:
42,192,204612,1,0,0:0:0:0:
384,192,204612,1,0,0:0:0:0:
469,192,204612,1,0,0:0:0:0:
298,192,204685,1,0,0:0:0:0:
213,192,204685,1,0,0:0:0:0:
128,192,204758,128,0,204830:0:0:0:0:
384,192,204830,128,0,204903:0:0:0:0:
128,192,204903,128,0,204976:0:0:0:0:
384,192,204976,128,0,205049:0:0:0:0:
213,192,205049,1,0,0:0:0:0:
128,192,205049,1,0,0:0:0:0:
42,192,205049,1,0,0:0:0:0:
298,192,205049,1,0,0:0:0:0:
469,192,205049,1,0,0:0:0:0:
469,192,205195,1,0,0:0:0:0:
213,192,205219,1,0,0:0:0:0:
384,192,205243,1,0,0:0:0:0:
128,192,205267,1,0,0:0:0:0:
298,192,205292,1,0,0:0:0:0:
42,192,205316,1,0,0:0:0:0:
213,192,205340,1,0,0:0:0:0:
469,192,205340,1,0,0:0:0:0:
42,192,205486,1,0,0:0:0:0:
298,192,205510,1,0,0:0:0:0:
128,192,205534,1,0,0:0:0:0:
384,192,205559,1,0,0:0:0:0:
213,192,205583,1,0,0:0:0:0:
469,192,205607,1,0,0:0:0:0:
128,192,205631,1,0,0:0:0:0:
42,192,205631,1,0,0:0:0:0:
298,192,205631,1,0,0:0:0:0:
384,192,205704,1,0,0:0:0:0:
469,192,205704,1,0,0:0:0:0:
128,192,205777,1,0,0:0:0:0:
42,192,205777,1,0,0:0:0:0:
384,192,205850,1,0,0:0:0:0:
469,192,205850,1,0,0:0:0:0:
213,192,205923,1,0,0:0:0:0:
128,192,205923,1,0,0:0:0:0:
298,192,205996,1,0,0:0:0:0:
384,192,205996,1,0,0:0:0:0:
42,192,206068,1,0,0:0:0:0:
298,192,206093,1,0,0:0:0:0:
128,192,206117,1,0,0:0:0:0:
384,192,206141,1,0,0:0:0:0:
213,192,206165,1,0,0:0:0:0:
469,192,206190,1,0,0:0:0:0:
42,192,206214,128,0,206287:0:0:0:0:
128,192,206287,128,0,206360:0:0:0:0:
298,192,206360,128,0,206432:0:0:0:0:
384,192,206432,128,0,206505:0:0:0:0:
128,192,206505,128,0,206578:0:0:0:0:
213,192,206578,128,0,206651:0:0:0:0:
384,192,206651,128,0,206724:0:0:0:0:
469,192,206724,128,0,206797:0:0:0:0:
42,192,206797,128,0,206845:0:0:0:0:
213,192,206845,128,0,206894:0:0:0:0:
298,192,206894,128,0,206942:0:0:0:0:
128,192,206942,128,0,206991:0:0:0:0:
298,192,206991,128,0,207039:0:0:0:0:
384,192,207039,128,0,207088:0:0:0:0:
469,192,207088,128,0,207136:0:0:0:0:
298,192,207136,128,0,207185:0:0:0:0:
213,192,207185,128,0,207233:0:0:0:0:
384,192,207233,128,0,207282:0:0:0:0:
213,192,207282,128,0,207330:0:0:0:0:
128,192,207330,128,0,207379:0:0:0:0:
42,192,207379,5,0,0:0:0:0:
469,192,207379,1,0,0:0:0:0:
298,192,207379,1,0,0:0:0:0:
384,192,207379,1,0,0:0:0:0:
469,192,207525,1,0,0:0:0:0:
384,192,207525,1,0,0:0:0:0:
213,192,207597,1,0,0:0:0:0:
128,192,207597,1,0,0:0:0:0:
298,192,207670,1,0,0:0:0:0:
469,192,207670,1,0,0:0:0:0:
42,192,207670,1,0,0:0:0:0:
128,192,207743,1,0,0:0:0:0:
213,192,207743,1,0,0:0:0:0:
469,192,207816,1,0,0:0:0:0:
384,192,207816,1,0,0:0:0:0:
42,192,207962,1,0,0:0:0:0:
128,192,207962,1,0,0:0:0:0:
298,192,207962,1,0,0:0:0:0:
469,192,208034,1,0,0:0:0:0:
213,192,208034,1,0,0:0:0:0:
128,192,208107,1,0,0:0:0:0:
384,192,208107,1,0,0:0:0:0:
298,192,208180,1,0,0:0:0:0:
42,192,208180,1,0,0:0:0:0:
213,192,208253,1,0,0:0:0:0:
384,192,208253,1,0,0:0:0:0:
469,192,208253,1,0,0:0:0:0:
128,192,208326,1,0,0:0:0:0:
42,192,208326,1,0,0:0:0:0:
384,192,208398,1,0,0:0:0:0:
469,192,208398,1,0,0:0:0:0:
213,192,208544,1,0,0:0:0:0:
42,192,208544,1,0,0:0:0:0:
469,192,208544,1,0,0:0:0:0:
42,192,208690,1,0,0:0:0:0:
128,192,208690,1,0,0:0:0:0:
298,192,208763,1,0,0:0:0:0:
384,192,208763,1,0,0:0:0:0:
213,192,208835,1,0,0:0:0:0:
42,192,208835,1,0,0:0:0:0:
469,192,208835,1,0,0:0:0:0:
128,192,208908,1,0,0:0:0:0:
298,192,208908,1,0,0:0:0:0:
213,192,208981,1,0,0:0:0:0:
384,192,208981,1,0,0:0:0:0:
469,192,209127,1,0,0:0:0:0:
384,192,209127,1,0,0:0:0:0:
213,192,209127,1,0,0:0:0:0:
128,192,209199,1,0,0:0:0:0:
42,192,209199,1,0,0:0:0:0:
298,192,209272,1,0,0:0:0:0:
384,192,209272,1,0,0:0:0:0:
213,192,209345,1,0,0:0:0:0:
128,192,209345,1,0,0:0:0:0:
384,192,209418,1,0,0:0:0:0:
469,192,209418,1,0,0:0:0:0:
42,192,209418,1,0,0:0:0:0:
298,192,209491,1,0,0:0:0:0:
213,192,209491,1,0,0:0:0:0:
128,192,209564,1,0,0:0:0:0:
469,192,209564,1,0,0:0:0:0:
469,192,209709,5,0,0:0:0:0:
42,192,209709,1,0,0:0:0:0:
213,192,209709,1,0,0:0:0:0:
42,192,209855,1,0,0:0:0:0:
128,192,209855,1,0,0:0:0:0:
298,192,209928,1,0,0:0:0:0:
384,192,209928,1,0,0:0:0:0:
213,192,210000,1,0,0:0:0:0:
42,192,210000,1,0,0:0:0:0:
469,192,210000,1,0,0:0:0:0:
384,192,210073,1,0,0:0:0:0:
298,192,210073,1,0,0:0:0:0:
42,192,210146,1,0,0:0:0:0:
128,192,210146,1,0,0:0:0:0:
469,192,210292,1,0,0:0:0:0:
384,192,210292,1,0,0:0:0:0:
213,192,210292,1,0,0:0:0:0:
42,192,210364,1,0,0:0:0:0:
298,192,210364,1,0,0:0:0:0:
384,192,210437,1,0,0:0:0:0:
128,192,210437,1,0,0:0:0:0:
213,192,210510,1,0,0:0:0:0:
469,192,210510,1,0,0:0:0:0:
298,192,210583,1,0,0:0:0:0:
128,192,210583,1,0,0:0:0:0:
42,192,210583,1,0,0:0:0:0:
384,192,210656,1,0,0:0:0:0:
469,192,210656,1,0,0:0:0:0:
128,192,210729,1,0,0:0:0:0:
42,192,210729,1,0,0:0:0:0:
42,192,210874,1,0,0:0:0:0:
298,192,210874,1,0,0:0:0:0:
469,192,210874,1,0,0:0:0:0:
213,192,210947,1,0,0:0:0:0:
128,192,210947,1,0,0:0:0:0:
298,192,211020,1,0,0:0:0:0:
384,192,211020,1,0,0:0:0:0:
42,192,211165,1,0,0:0:0:0:
469,192,211165,1,0,0:0:0:0:
213,192,211165,1,0,0:0:0:0:
384,192,211238,1,0,0:0:0:0:
298,192,211238,1,0,0:0:0:0:
128,192,211311,1,0,0:0:0:0:
213,192,211311,1,0,0:0:0:0:
298,192,211457,1,0,0:0:0:0:
469,192,211457,1,0,0:0:0:0:
42,192,211457,1,0,0:0:0:0:
213,192,211530,1,0,0:0:0:0:
384,192,211530,1,0,0:0:0:0:
298,192,211602,1,0,0:0:0:0:
128,192,211602,1,0,0:0:0:0:
213,192,211675,1,0,0:0:0:0:
384,192,211675,1,0,0:0:0:0:
469,192,211748,1,0,0:0:0:0:
42,192,211748,1,0,0:0:0:0:
298,192,211748,1,0,0:0:0:0:
213,192,211821,1,0,0:0:0:0:
128,192,211821,1,0,0:0:0:0:
298,192,211894,1,0,0:0:0:0:
384,192,211894,1,0,0:0:0:0:
213,192,212039,1,0,0:0:0:0:
42,192,212039,1,0,0:0:0:0:
469,192,212039,1,0,0:0:0:0:
298,192,212112,1,0,0:0:0:0:
128,192,212112,1,0,0:0:0:0:
213,192,212185,1,0,0:0:0:0:
384,192,212185,1,0,0:0:0:0:
384,192,212330,1,0,0:0:0:0:
469,192,212330,1,0,0:0:0:0:
213,192,212330,1,0,0:0:0:0:
128,192,212403,1,0,0:0:0:0:
42,192,212403,1,0,0:0:0:0:
298,192,212476,1,0,0:0:0:0:
384,192,212476,1,0,0:0:0:0:
213,192,212549,1,0,0:0:0:0:
128,192,212549,1,0,0:0:0:0:
298,192,212622,1,0,0:0:0:0:
469,192,212622,1,0,0:0:0:0:
42,192,212622,1,0,0:0:0:0:
384,192,212767,1,0,0:0:0:0:
298,192,212767,1,0,0:0:0:0:
213,192,212840,1,0,0:0:0:0:
42,192,212840,1,0,0:0:0:0:
384,192,212913,1,0,0:0:0:0:
469,192,212913,1,0,0:0:0:0:
128,192,212913,1,0,0:0:0:0:
298,192,212986,1,0,0:0:0:0:
213,192,212986,1,0,0:0:0:0:
42,192,213059,1,0,0:0:0:0:
384,192,213059,1,0,0:0:0:0:
298,192,213204,1,0,0:0:0:0:
469,192,213204,1,0,0:0:0:0:
42,192,213204,1,0,0:0:0:0:
213,192,213277,1,0,0:0:0:0:
384,192,213277,1,0,0:0:0:0:
298,192,213350,1,0,0:0:0:0:
128,192,213350,1,0,0:0:0:0:
128,192,213496,1,0,0:0:0:0:
42,192,213496,1,0,0:0:0:0:
298,192,213496,1,0,0:0:0:0:
384,192,213568,1,0,0:0:0:0:
469,192,213568,1,0,0:0:0:0:
213,192,213641,1,0,0:0:0:0:
128,192,213641,1,0,0:0:0:0:
298,192,213714,1,0,0:0:0:0:
384,192,213714,1,0,0:0:0:0:
213,192,213787,1,0,0:0:0:0:
42,192,213787,1,0,0:0:0:0:
469,192,213787,1,0,0:0:0:0:
128,192,213932,1,0,0:0:0:0:
213,192,213932,1,0,0:0:0:0:
298,192,214005,1,0,0:0:0:0:
469,192,214005,1,0,0:0:0:0:
128,192,214078,1,0,0:0:0:0:
42,192,214078,1,0,0:0:0:0:
384,192,214078,1,0,0:0:0:0:
213,192,214151,1,0,0:0:0:0:
298,192,214151,1,0,0:0:0:0:
469,192,214224,1,0,0:0:0:0:
128,192,214224,1,0,0:0:0:0:
469,192,214369,1,0,0:0:0:0:
42,192,214369,1,0,0:0:0:0:
213,192,214369,1,0,0:0:0:0:
128,192,214442,1,0,0:0:0:0:
298,192,214442,1,0,0:0:0:0:
384,192,214515,1,0,0:0:0:0:
213,192,214515,1,0,0:0:0:0:
213,192,214661,1,0,0:0:0:0:
469,192,214661,1,0,0:0:0:0:
384,192,214661,1,0,0:0:0:0:
42,192,214733,1,0,0:0:0:0:
128,192,214733,1,0,0:0:0:0:
384,192,214806,1,0,0:0:0:0:
298,192,214806,1,0,0:0:0:0:
128,192,214879,1,0,0:0:0:0:
213,192,214879,1,0,0:0:0:0:
42,192,214952,1,0,0:0:0:0:
469,192,214952,1,0,0:0:0:0:
298,192,214952,1,0,0:0:0:0:
298,192,215097,1,0,0:0:0:0:
384,192,215097,1,0,0:0:0:0:
42,192,215170,1,0,0:0:0:0:
213,192,215170,1,0,0:0:0:0:
128,192,215243,1,0,0:0:0:0:
469,192,215243,1,0,0:0:0:0:
384,192,215243,1,0,0:0:0:0:
213,192,215316,1,0,0:0:0:0:
298,192,215316,1,0,0:0:0:0:
384,192,215389,1,0,0:0:0:0:
42,192,215389,1,0,0:0:0:0:
469,192,215534,1,0,0:0:0:0:
298,192,215534,1,0,0:0:0:0:
42,192,215534,1,0,0:0:0:0:
384,192,215680,1,0,0:0:0:0:
469,192,215680,1,0,0:0:0:0:
213,192,215753,1,0,0:0:0:0:
128,192,215753,1,0,0:0:0:0:
298,192,215826,1,0,0:0:0:0:
469,192,215826,1,0,0:0:0:0:
42,192,215826,1,0,0:0:0:0:
128,192,215898,1,0,0:0:0:0:
384,192,215898,1,0,0:0:0:0:
213,192,215971,1,0,0:0:0:0:
42,192,215971,1,0,0:0:0:0:
298,192,216044,1,0,0:0:0:0:
128,192,216044,1,0,0:0:0:0:
213,192,216117,1,0,0:0:0:0:
384,192,216117,1,0,0:0:0:0:
469,192,216117,1,0,0:0:0:0:
298,192,216263,1,0,0:0:0:0:
128,192,216263,1,0,0:0:0:0:
384,192,216335,1,0,0:0:0:0:
469,192,216335,1,0,0:0:0:0:
213,192,216408,1,0,0:0:0:0:
128,192,216408,1,0,0:0:0:0:
42,192,216408,1,0,0:0:0:0:
298,192,216481,1,0,0:0:0:0:
469,192,216481,1,0,0:0:0:0:
128,192,216554,1,0,0:0:0:0:
42,192,216554,1,0,0:0:0:0:
213,192,216627,1,0,0:0:0:0:
384,192,216627,1,0,0:0:0:0:
298,192,216699,1,0,0:0:0:0:
469,192,216699,1,0,0:0:0:0:
42,192,216699,1,0,0:0:0:0:
298,192,216845,1,0,0:0:0:0:
42,192,216845,1,0,0:0:0:0:
469,192,216845,1,0,0:0:0:0:
213,192,216918,1,0,0:0:0:0:
384,192,216918,1,0,0:0:0:0:
298,192,216991,1,0,0:0:0:0:
128,192,216991,1,0,0:0:0:0:
42,192,216991,1,0,0:0:0:0:
384,192,217064,1,0,0:0:0:0:
469,192,217064,1,0,0:0:0:0:
213,192,217136,1,0,0:0:0:0:
128,192,217136,1,0,0:0:0:0:
298,192,217136,1,0,0:0:0:0:
213,192,217282,1,0,0:0:0:0:
384,192,217282,1,0,0:0:0:0:
469,192,217282,1,0,0:0:0:0:
298,192,217355,1,0,0:0:0:0:
128,192,217355,1,0,0:0:0:0:
213,192,217428,1,0,0:0:0:0:
42,192,217428,1,0,0:0:0:0:
469,192,217428,1,0,0:0:0:0:
384,192,217500,1,0,0:0:0:0:
298,192,217500,1,0,0:0:0:0:
128,192,217573,1,0,0:0:0:0:
42,192,217573,1,0,0:0:0:0:
469,192,217573,1,0,0:0:0:0:
298,192,217646,1,0,0:0:0:0:
213,192,217646,1,0,0:0:0:0:
384,192,217719,1,0,0:0:0:0:
469,192,217719,1,0,0:0:0:0:
128,192,217719,1,0,0:0:0:0:
298,192,217864,1,0,0:0:0:0:
384,192,217864,1,0,0:0:0:0:
42,192,217864,1,0,0:0:0:0:
469,192,218010,1,0,0:0:0:0:
213,192,218010,1,0,0:0:0:0:
42,192,218010,1,0,0:0:0:0:
298,192,218083,1,0,0:0:0:0:
128,192,218083,1,0,0:0:0:0:
213,192,218156,1,0,0:0:0:0:
42,192,218156,1,0,0:0:0:0:
469,192,218156,1,0,0:0:0:0:
384,192,218229,1,0,0:0:0:0:
298,192,218229,1,0,0:0:0:0:
128,192,218301,1,0,0:0:0:0:
42,192,218301,1,0,0:0:0:0:
213,192,218301,1,0,0:0:0:0:
384,192,218447,1,0,0:0:0:0:
469,192,218447,1,0,0:0:0:0:
128,192,218447,1,0,0:0:0:0:
298,192,218593,1,0,0:0:0:0:
128,192,218593,1,0,0:0:0:0:
469,192,218593,1,0,0:0:0:0:
384,192,218665,1,0,0:0:0:0:
213,192,218665,1,0,0:0:0:0:
298,192,218738,1,0,0:0:0:0:
469,192,218738,1,0,0:0:0:0:
42,192,218738,1,0,0:0:0:0:
213,192,218811,1,0,0:0:0:0:
128,192,218811,1,0,0:0:0:0:
42,192,218884,1,0,0:0:0:0:
384,192,218884,1,0,0:0:0:0:
469,192,218884,1,0,0:0:0:0:
213,192,219030,1,0,0:0:0:0:
128,192,219030,1,0,0:0:0:0:
384,192,219030,1,0,0:0:0:0:
42,192,219175,1,0,0:0:0:0:
298,192,219175,1,0,0:0:0:0:
469,192,219175,1,0,0:0:0:0:
384,192,219248,1,0,0:0:0:0:
213,192,219248,1,0,0:0:0:0:
298,192,219321,1,0,0:0:0:0:
128,192,219321,1,0,0:0:0:0:
42,192,219321,1,0,0:0:0:0:
384,192,219394,1,0,0:0:0:0:
469,192,219394,1,0,0:0:0:0:
298,192,219466,1,0,0:0:0:0:
213,192,219466,1,0,0:0:0:0:
128,192,219466,1,0,0:0:0:0:
469,192,219612,1,0,0:0:0:0:
384,192,219612,1,0,0:0:0:0:
213,192,219612,1,0,0:0:0:0:
298,192,219685,1,0,0:0:0:0:
128,192,219685,1,0,0:0:0:0:
469,192,219758,1,0,0:0:0:0:
213,192,219758,1,0,0:0:0:0:
42,192,219758,1,0,0:0:0:0:
384,192,219830,1,0,0:0:0:0:
298,192,219830,1,0,0:0:0:0:
469,192,219903,1,0,0:0:0:0:
128,192,219903,1,0,0:0:0:0:
42,192,219903,1,0,0:0:0:0:
298,192,219976,1,0,0:0:0:0:
213,192,219976,1,0,0:0:0:0:
384,192,220049,1,0,0:0:0:0:
469,192,220049,1,0,0:0:0:0:
128,192,220049,1,0,0:0:0:0:
298,192,220195,1,0,0:0:0:0:
42,192,220195,1,0,0:0:0:0:
469,192,220195,1,0,0:0:0:0:
213,192,220267,1,0,0:0:0:0:
128,192,220267,1,0,0:0:0:0:
298,192,220340,1,0,0:0:0:0:
384,192,220340,1,0,0:0:0:0:
469,192,220340,1,0,0:0:0:0:
213,192,220486,1,0,0:0:0:0:
42,192,220486,1,0,0:0:0:0:
469,192,220486,1,0,0:0:0:0:
384,192,220559,1,0,0:0:0:0:
298,192,220559,1,0,0:0:0:0:
213,192,220631,1,0,0:0:0:0:
128,192,220631,1,0,0:0:0:0:
42,192,220631,1,0,0:0:0:0:
298,192,220777,1,0,0:0:0:0:
469,192,220777,1,0,0:0:0:0:
42,192,220777,1,0,0:0:0:0:
213,192,220850,1,0,0:0:0:0:
128,192,220850,1,0,0:0:0:0:
384,192,220923,1,0,0:0:0:0:
469,192,220923,1,0,0:0:0:0:
42,192,220923,1,0,0:0:0:0:
298,192,220996,1,0,0:0:0:0:
213,192,220996,1,0,0:0:0:0:
128,192,221068,1,0,0:0:0:0:
42,192,221068,1,0,0:0:0:0:
469,192,221068,1,0,0:0:0:0:
384,192,221141,1,0,0:0:0:0:
298,192,221141,1,0,0:0:0:0:
128,192,221214,1,0,0:0:0:0:
213,192,221214,1,0,0:0:0:0:
469,192,221214,1,0,0:0:0:0:
128,192,221360,1,0,0:0:0:0:
42,192,221360,1,0,0:0:0:0:
384,192,221360,1,0,0:0:0:0:
298,192,221432,1,0,0:0:0:0:
469,192,221432,1,0,0:0:0:0:
384,192,221505,1,0,0:0:0:0:
213,192,221505,1,0,0:0:0:0:
42,192,221505,1,0,0:0:0:0:
128,192,221651,1,0,0:0:0:0:
384,192,221651,1,0,0:0:0:0:
469,192,221651,1,0,0:0:0:0:
213,192,221724,1,0,0:0:0:0:
42,192,221724,1,0,0:0:0:0:
298,192,221797,1,0,0:0:0:0:
128,192,221797,1,0,0:0:0:0:
469,192,221797,1,0,0:0:0:0:
213,192,221869,1,0,0:0:0:0:
384,192,221869,1,0,0:0:0:0:
298,192,221942,1,0,0:0:0:0:
469,192,221942,1,0,0:0:0:0:
42,192,221942,1,0,0:0:0:0:
384,192,222088,1,0,0:0:0:0:
213,192,222088,1,0,0:0:0:0:
42,192,222088,1,0,0:0:0:0:
298,192,222161,1,0,0:0:0:0:
128,192,222161,1,0,0:0:0:0:
213,192,222233,1,0,0:0:0:0:
42,192,222233,1,0,0:0:0:0:
469,192,222233,1,0,0:0:0:0:
384,192,222306,1,0,0:0:0:0:
298,192,222306,1,0,0:0:0:0:
128,192,222379,1,0,0:0:0:0:
42,192,222379,1,0,0:0:0:0:
469,192,222379,1,0,0:0:0:0:
384,192,222525,1,0,0:0:0:0:
469,192,222525,1,0,0:0:0:0:
128,192,222525,1,0,0:0:0:0:
213,192,222597,1,0,0:0:0:0:
42,192,222597,1,0,0:0:0:0:
128,192,222670,1,0,0:0:0:0:
298,192,222670,1,0,0:0:0:0:
469,192,222670,1,0,0:0:0:0:
384,192,222816,1,0,0:0:0:0:
128,192,222816,1,0,0:0:0:0:
42,192,222816,1,0,0:0:0:0:
298,192,222889,1,0,0:0:0:0:
469,192,222889,1,0,0:0:0:0:
213,192,222962,1,0,0:0:0:0:
384,192,222962,1,0,0:0:0:0:
42,192,222962,1,0,0:0:0:0:
298,192,223034,1,0,0:0:0:0:
128,192,223034,1,0,0:0:0:0:
213,192,223107,1,0,0:0:0:0:
42,192,223107,1,0,0:0:0:0:
469,192,223107,1,0,0:0:0:0:
128,192,223253,1,0,0:0:0:0:
298,192,223253,1,0,0:0:0:0:
469,192,223253,1,0,0:0:0:0:
213,192,223326,1,0,0:0:0:0:
384,192,223326,1,0,0:0:0:0:
298,192,223398,1,0,0:0:0:0:
469,192,223398,1,0,0:0:0:0:
42,192,223398,1,0,0:0:0:0:
128,192,223471,1,0,0:0:0:0:
213,192,223471,1,0,0:0:0:0:
384,192,223544,1,0,0:0:0:0:
469,192,223544,1,0,0:0:0:0:
42,192,223544,1,0,0:0:0:0:
128,192,223690,1,0,0:0:0:0:
42,192,223690,1,0,0:0:0:0:
384,192,223690,1,0,0:0:0:0:
298,192,223763,1,0,0:0:0:0:
469,192,223763,1,0,0:0:0:0:
384,192,223835,1,0,0:0:0:0:
213,192,223835,1,0,0:0:0:0:
42,192,223835,1,0,0:0:0:0:
128,192,223981,1,0,0:0:0:0:
384,192,223981,1,0,0:0:0:0:
469,192,223981,1,0,0:0:0:0:
213,192,224054,1,0,0:0:0:0:
42,192,224054,1,0,0:0:0:0:
298,192,224127,1,0,0:0:0:0:
128,192,224127,1,0,0:0:0:0:
469,192,224127,1,0,0:0:0:0:
213,192,224199,1,0,0:0:0:0:
384,192,224199,1,0,0:0:0:0:
298,192,224272,1,0,0:0:0:0:
469,192,224272,1,0,0:0:0:0:
42,192,224272,1,0,0:0:0:0:
384,192,224418,1,0,0:0:0:0:
213,192,224418,1,0,0:0:0:0:
42,192,224418,1,0,0:0:0:0:
298,192,224491,1,0,0:0:0:0:
128,192,224491,1,0,0:0:0:0:
213,192,224564,1,0,0:0:0:0:
42,192,224564,1,0,0:0:0:0:
469,192,224564,1,0,0:0:0:0:
384,192,224636,1,0,0:0:0:0:
298,192,224636,1,0,0:0:0:0:
128,192,224709,1,0,0:0:0:0:
42,192,224709,1,0,0:0:0:0:
469,192,224709,1,0,0:0:0:0:
213,192,224855,1,0,0:0:0:0:
384,192,224855,1,0,0:0:0:0:
128,192,224855,1,0,0:0:0:0:
298,192,225000,1,0,0:0:0:0:
384,192,225000,1,0,0:0:0:0:
42,192,225000,1,0,0:0:0:0:
128,192,225073,1,0,0:0:0:0:
213,192,225073,1,0,0:0:0:0:
42,192,225146,1,0,0:0:0:0:
384,192,225146,1,0,0:0:0:0:
469,192,225146,1,0,0:0:0:0:
213,192,225219,1,0,0:0:0:0:
298,192,225219,1,0,0:0:0:0:
469,192,225292,1,0,0:0:0:0:
128,192,225292,1,0,0:0:0:0:
42,192,225292,1,0,0:0:0:0:
298,192,225364,1,0,0:0:0:0:
384,192,225364,1,0,0:0:0:0:
213,192,225437,1,0,0:0:0:0:
469,192,225437,1,0,0:0:0:0:
42,192,225437,1,0,0:0:0:0:
213,192,225583,1,0,0:0:0:0:
42,192,225583,1,0,0:0:0:0:
384,192,225583,1,0,0:0:0:0:
469,192,225656,1,0,0:0:0:0:
384,192,225729,1,0,0:0:0:0:
213,192,225729,1,0,0:0:0:0:
42,192,225729,1,0,0:0:0:0:
298,192,225801,1,0,0:0:0:0:
384,192,225874,1,0,0:0:0:0:
213,192,225874,1,0,0:0:0:0:
42,192,225874,1,0,0:0:0:0:
298,192,225947,1,0,0:0:0:0:
213,192,226020,128,0,226384:0:0:0:0:
128,192,226020,128,0,226093:0:0:0:0:
42,192,226020,128,0,226093:0:0:0:0:
469,192,226020,128,0,226165:0:0:0:0:
298,192,226165,128,0,226238:0:0:0:0:
384,192,226165,1,0,0:0:0:0:
128,192,226238,128,0,226311:0:0:0:0:
298,192,226311,128,0,226530:0:0:0:0:
384,192,226311,1,0,0:0:0:0:
42,192,226311,128,0,226457:0:0:0:0:
469,192,226384,128,0,226457:0:0:0:0:
384,192,226457,128,0,226675:0:0:0:0:
128,192,226457,128,0,226675:0:0:0:0:
213,192,226602,128,0,226821:0:0:0:0:
469,192,226602,128,0,226748:0:0:0:0:
42,192,226602,128,0,226675:0:0:0:0:
298,192,226675,128,0,226748:0:0:0:0:
128,192,226748,128,0,227112:0:0:0:0:
384,192,226748,1,0,0:0:0:0:
298,192,226821,128,0,226894:0:0:0:0:
42,192,226894,128,0,226966:0:0:0:0:
384,192,226894,128,0,227039:0:0:0:0:
469,192,226894,1,0,0:0:0:0:
213,192,226966,128,0,227039:0:0:0:0:
42,192,227039,128,0,227258:0:0:0:0:
298,192,227039,128,0,227258:0:0:0:0:
384,192,227185,128,0,227549:0:0:0:0:
213,192,227185,128,0,227258:0:0:0:0:
469,192,227185,128,0,227330:0:0:0:0:
128,192,227330,128,0,227403:0:0:0:0:
42,192,227330,1,0,0:0:0:0:
298,192,227403,128,0,227476:0:0:0:0:
469,192,227476,128,0,227622:0:0:0:0:
128,192,227476,128,0,227695:0:0:0:0:
213,192,227476,1,0,0:0:0:0:
42,192,227549,128,0,227622:0:0:0:0:
213,192,227622,128,0,227840:0:0:0:0:
384,192,227622,128,0,227840:0:0:0:0:
42,192,227767,128,0,227913:0:0:0:0:
298,192,227767,128,0,227986:0:0:0:0:
128,192,227767,128,0,227840:0:0:0:0:
469,192,227840,128,0,227913:0:0:0:0:
128,192,227913,1,0,0:0:0:0:
384,192,227913,128,0,228131:0:0:0:0:
213,192,227986,128,0,228059:0:0:0:0:
298,192,228059,128,0,228204:0:0:0:0:
469,192,228059,1,0,0:0:0:0:
42,192,228059,128,0,228204:0:0:0:0:
128,192,228131,128,0,228423:0:0:0:0:
213,192,228204,128,0,228277:0:0:0:0:
384,192,228204,128,0,228423:0:0:0:0:
42,192,228350,128,0,228423:0:0:0:0:
469,192,228350,128,0,228496:0:0:0:0:
298,192,228350,128,0,228714:0:0:0:0:
128,192,228496,1,0,0:0:0:0:
384,192,228496,128,0,228568:0:0:0:0:
213,192,228568,128,0,228641:0:0:0:0:
384,192,228641,128,0,228860:0:0:0:0:
128,192,228641,128,0,228787:0:0:0:0:
42,192,228641,1,0,0:0:0:0:
469,192,228714,128,0,228787:0:0:0:0:
213,192,228787,128,0,229005:0:0:0:0:
42,192,228787,128,0,229005:0:0:0:0:
128,192,228932,128,0,229078:0:0:0:0:
384,192,228932,128,0,229151:0:0:0:0:
469,192,228932,128,0,229005:0:0:0:0:
298,192,229005,128,0,229078:0:0:0:0:
469,192,229078,128,0,229442:0:0:0:0:
42,192,229078,1,0,0:0:0:0:
213,192,229151,128,0,229224:0:0:0:0:
384,192,229224,1,0,0:0:0:0:
42,192,229224,128,0,229369:0:0:0:0:
298,192,229224,128,0,229297:0:0:0:0:
128,192,229297,128,0,229442:0:0:0:0:
384,192,229369,128,0,229588:0:0:0:0:
213,192,229369,128,0,229442:0:0:0:0:
469,192,229515,128,0,229588:0:0:0:0:
42,192,229515,128,0,229588:0:0:0:0:
213,192,229515,128,0,229733:0:0:0:0:
298,192,229588,128,0,229661:0:0:0:0:
128,192,229661,128,0,229879:0:0:0:0:
42,192,229661,128,0,229733:0:0:0:0:
42,192,229806,128,0,229879:0:0:0:0:
298,192,229806,128,0,230025:0:0:0:0:
469,192,229806,128,0,229879:0:0:0:0:
213,192,229879,128,0,229952:0:0:0:0:
384,192,229952,128,0,230170:0:0:0:0:
469,192,229952,128,0,230025:0:0:0:0:
469,192,230097,128,0,230170:0:0:0:0:
42,192,230097,128,0,230170:0:0:0:0:
213,192,230097,128,0,230316:0:0:0:0:
298,192,230170,128,0,230243:0:0:0:0:
128,192,230243,128,0,230462:0:0:0:0:
42,192,230243,128,0,230316:0:0:0:0:
469,192,230316,128,0,230389:0:0:0:0:
384,192,230316,128,0,230607:0:0:0:0:
42,192,230389,128,0,230607:0:0:0:0:
213,192,230389,128,0,230462:0:0:0:0:
298,192,230462,128,0,230607:0:0:0:0:
469,192,230462,128,0,230607:0:0:0:0:
128,192,230534,128,0,230607:0:0:0:0:
213,192,230534,128,0,230607:0:0:0:0:
213,192,230680,128,0,230898:0:0:0:0:
384,192,230680,128,0,230753:0:0:0:0:
469,192,230680,128,0,230753:0:0:0:0:
42,192,230680,128,0,231044:0:0:0:0:
128,192,230753,128,0,230826:0:0:0:0:
298,192,230826,128,0,230971:0:0:0:0:
469,192,230826,1,0,0:0:0:0:
128,192,230971,128,0,231117:0:0:0:0:
384,192,230971,128,0,231044:0:0:0:0:
213,192,231044,128,0,231190:0:0:0:0:
469,192,231044,128,0,231117:0:0:0:0:
298,192,231117,128,0,231263:0:0:0:0:
42,192,231117,128,0,231190:0:0:0:0:
384,192,231190,128,0,231335:0:0:0:0:
128,192,231190,128,0,231263:0:0:0:0:
469,192,231263,128,0,231481:0:0:0:0:
213,192,231263,128,0,231627:0:0:0:0:
42,192,231263,128,0,231335:0:0:0:0:
128,192,231408,1,0,0:0:0:0:
298,192,231408,128,0,231481:0:0:0:0:
384,192,231481,128,0,231554:0:0:0:0:
128,192,231554,128,0,231627:0:0:0:0:
469,192,231554,128,0,231627:0:0:0:0:
42,192,231554,128,0,231918:0:0:0:0:
384,192,231627,128,0,231699:0:0:0:0:
128,192,231699,1,0,0:0:0:0:
298,192,231699,128,0,231772:0:0:0:0:
298,192,231845,128,0,232064:0:0:0:0:
128,192,231845,128,0,231918:0:0:0:0:
469,192,231845,128,0,232209:0:0:0:0:
384,192,231918,128,0,231991:0:0:0:0:
213,192,231991,128,0,232136:0:0:0:0:
42,192,231991,1,0,0:0:0:0:
384,192,232136,128,0,232282:0:0:0:0:
128,192,232136,128,0,232209:0:0:0:0:
298,192,232209,128,0,232355:0:0:0:0:
42,192,232209,128,0,232282:0:0:0:0:
213,192,232282,128,0,232428:0:0:0:0:
469,192,232282,128,0,232355:0:0:0:0:
128,192,232355,128,0,232500:0:0:0:0:
384,192,232355,128,0,232428:0:0:0:0:
42,192,232428,128,0,232646:0:0:0:0:
298,192,232428,128,0,232792:0:0:0:0:
469,192,232428,128,0,232500:0:0:0:0:
384,192,232573,1,0,0:0:0:0:
213,192,232573,128,0,232646:0:0:0:0:
128,192,232646,128,0,232719:0:0:0:0:
384,192,232719,128,0,232792:0:0:0:0:
42,192,232719,128,0,232792:0:0:0:0:
469,192,232719,128,0,233083:0:0:0:0:
128,192,232792,128,0,232864:0:0:0:0:
384,192,232864,1,0,0:0:0:0:
213,192,232864,128,0,232937:0:0:0:0:
213,192,233010,128,0,233229:0:0:0:0:
384,192,233010,128,0,233083:0:0:0:0:
42,192,233010,128,0,233374:0:0:0:0:
128,192,233083,128,0,233156:0:0:0:0:
298,192,233156,128,0,233301:0:0:0:0:
469,192,233156,1,0,0:0:0:0:
128,192,233301,128,0,233447:0:0:0:0:
384,192,233301,128,0,233374:0:0:0:0:
213,192,233374,128,0,233520:0:0:0:0:
469,192,233374,128,0,233447:0:0:0:0:
298,192,233447,128,0,233593:0:0:0:0:
42,192,233447,128,0,233520:0:0:0:0:
384,192,233520,128,0,233665:0:0:0:0:
128,192,233520,128,0,233593:0:0:0:0:
469,192,233593,128,0,233811:0:0:0:0:
213,192,233593,128,0,233957:0:0:0:0:
42,192,233593,128,0,233665:0:0:0:0:
128,192,233738,1,0,0:0:0:0:
298,192,233738,128,0,233811:0:0:0:0:
384,192,233811,128,0,233884:0:0:0:0:
128,192,233884,128,0,233957:0:0:0:0:
469,192,233884,128,0,233957:0:0:0:0:
42,192,233884,128,0,234248:0:0:0:0:
384,192,233957,128,0,234030:0:0:0:0:
128,192,234030,1,0,0:0:0:0:
298,192,234030,128,0,234102:0:0:0:0:
213,192,234175,128,0,234248:0:0:0:0:
384,192,234175,128,0,234248:0:0:0:0:
469,192,234175,128,0,234321:0:0:0:0:
298,192,234321,128,0,234539:0:0:0:0:
128,192,234321,1,0,0:0:0:0:
384,192,234394,128,0,234466:0:0:0:0:
213,192,234466,128,0,234685:0:0:0:0:
42,192,234466,1,0,0:0:0:0:
469,192,234466,1,0,0:0:0:0:
128,192,234539,128,0,234612:0:0:0:0:
469,192,234612,1,0,0:0:0:0:
298,192,234612,128,0,234830:0:0:0:0:
384,192,234685,128,0,234758:0:0:0:0:
128,192,234758,128,0,234830:0:0:0:0:
42,192,234758,128,0,234903:0:0:0:0:
469,192,234758,128,0,234830:0:0:0:0:
298,192,234903,128,0,235122:0:0:0:0:
128,192,234903,1,0,0:0:0:0:
384,192,234976,128,0,235049:0:0:0:0:
213,192,235049,128,0,235195:0:0:0:0:
469,192,235049,1,0,0:0:0:0:
42,192,235049,1,0,0:0:0:0:
128,192,235122,128,0,235195:0:0:0:0:
298,192,235195,1,0,0:0:0:0:
384,192,235195,1,0,0:0:0:0:
213,192,235267,1,0,0:0:0:0:
128,192,235267,1,0,0:0:0:0:
298,192,235340,128,0,235704:0:0:0:0:
384,192,235340,128,0,235413:0:0:0:0:
469,192,235340,128,0,235413:0:0:0:0:
42,192,235340,128,0,235486:0:0:0:0:
213,192,235486,128,0,235559:0:0:0:0:
128,192,235486,1,0,0:0:0:0:
384,192,235559,128,0,235631:0:0:0:0:
213,192,235631,128,0,235850:0:0:0:0:
128,192,235631,1,0,0:0:0:0:
469,192,235631,128,0,235777:0:0:0:0:
42,192,235704,128,0,235777:0:0:0:0:
128,192,235777,128,0,235996:0:0:0:0:
384,192,235777,128,0,235996:0:0:0:0:
298,192,235923,128,0,236141:0:0:0:0:
42,192,235923,128,0,236068:0:0:0:0:
469,192,235923,128,0,235996:0:0:0:0:
213,192,235996,128,0,236068:0:0:0:0:
384,192,236068,128,0,236432:0:0:0:0:
128,192,236068,1,0,0:0:0:0:
213,192,236141,128,0,236214:0:0:0:0:
469,192,236214,128,0,236287:0:0:0:0:
128,192,236214,128,0,236360:0:0:0:0:
42,192,236214,1,0,0:0:0:0:
298,192,236287,128,0,236360:0:0:0:0:
469,192,236360,128,0,236578:0:0:0:0:
213,192,236360,128,0,236578:0:0:0:0:
128,192,236505,128,0,236869:0:0:0:0:
298,192,236505,128,0,236578:0:0:0:0:
42,192,236505,128,0,236651:0:0:0:0:
384,192,236651,128,0,236724:0:0:0:0:
469,192,236651,1,0,0:0:0:0:
213,192,236724,128,0,236797:0:0:0:0:
42,192,236797,128,0,236942:0:0:0:0:
384,192,236797,128,0,237015:0:0:0:0:
298,192,236797,1,0,0:0:0:0:
469,192,236869,128,0,236942:0:0:0:0:
298,192,236942,128,0,237161:0:0:0:0:
128,192,236942,128,0,237161:0:0:0:0:
469,192,237088,128,0,237233:0:0:0:0:
213,192,237088,128,0,237306:0:0:0:0:
384,192,237088,128,0,237161:0:0:0:0:
42,192,237161,128,0,237233:0:0:0:0:
384,192,237233,1,0,0:0:0:0:
128,192,237233,128,0,237452:0:0:0:0:
298,192,237306,128,0,237379:0:0:0:0:
213,192,237379,128,0,237525:0:0:0:0:
42,192,237379,1,0,0:0:0:0:
469,192,237379,128,0,237525:0:0:0:0:
384,192,237452,128,0,237743:0:0:0:0:
298,192,237525,128,0,237597:0:0:0:0:
128,192,237525,128,0,237743:0:0:0:0:
469,192,237670,128,0,237743:0:0:0:0:
42,192,237670,128,0,237816:0:0:0:0:
213,192,237670,128,0,238034:0:0:0:0:
298,192,237670,128,0,237743:0:0:0:0:
384,192,237816,1,0,0:0:0:0:
128,192,237816,128,0,237889:0:0:0:0:
298,192,237889,128,0,237962:0:0:0:0:
128,192,237962,128,0,238180:0:0:0:0:
384,192,237962,128,0,238107:0:0:0:0:
469,192,237962,1,0,0:0:0:0:
42,192,238034,128,0,238107:0:0:0:0:
298,192,238107,128,0,238326:0:0:0:0:
469,192,238107,1,0,0:0:0:0:
384,192,238253,128,0,238398:0:0:0:0:
128,192,238253,128,0,238471:0:0:0:0:
42,192,238253,128,0,238326:0:0:0:0:
213,192,238326,128,0,238398:0:0:0:0:
42,192,238398,128,0,238763:0:0:0:0:
469,192,238398,1,0,0:0:0:0:
298,192,238471,128,0,238544:0:0:0:0:
128,192,238544,1,0,0:0:0:0:
469,192,238544,128,0,238690:0:0:0:0:
213,192,238544,128,0,238617:0:0:0:0:
384,192,238617,128,0,238763:0:0:0:0:
128,192,238690,128,0,238908:0:0:0:0:
298,192,238690,128,0,238763:0:0:0:0:
42,192,238835,128,0,238908:0:0:0:0:
469,192,238835,128,0,238908:0:0:0:0:
298,192,238835,128,0,239054:0:0:0:0:
213,192,238908,128,0,238981:0:0:0:0:
384,192,238981,128,0,239199:0:0:0:0:
469,192,238981,128,0,239054:0:0:0:0:
469,192,239127,128,0,239199:0:0:0:0:
213,192,239127,128,0,239345:0:0:0:0:
42,192,239127,128,0,239199:0:0:0:0:
298,192,239199,128,0,239272:0:0:0:0:
128,192,239272,128,0,239491:0:0:0:0:
42,192,239272,128,0,239345:0:0:0:0:
42,192,239418,128,0,239491:0:0:0:0:
469,192,239418,128,0,239491:0:0:0:0:
298,192,239418,128,0,239636:0:0:0:0:
213,192,239491,128,0,239564:0:0:0:0:
384,192,239564,128,0,239782:0:0:0:0:
469,192,239564,128,0,239636:0:0:0:0:
42,192,239636,128,0,239709:0:0:0:0:
128,192,239636,128,0,239928:0:0:0:0:
469,192,239709,128,0,239928:0:0:0:0:
298,192,239709,128,0,239782:0:0:0:0:
213,192,239782,128,0,239928:0:0:0:0:
42,192,239782,128,0,239928:0:0:0:0:
384,192,239855,128,0,239928:0:0:0:0:
298,192,239855,128,0,239928:0:0:0:0:
298,192,240000,128,0,240219:0:0:0:0:
128,192,240000,128,0,240073:0:0:0:0:
42,192,240000,128,0,240073:0:0:0:0:
469,192,240000,128,0,240364:0:0:0:0:
384,192,240073,128,0,240146:0:0:0:0:
213,192,240146,128,0,240292:0:0:0:0:
42,192,240146,1,0,0:0:0:0:
384,192,240292,128,0,240437:0:0:0:0:
128,192,240292,128,0,240364:0:0:0:0:
298,192,240364,128,0,240510:0:0:0:0:
42,192,240364,128,0,240437:0:0:0:0:
213,192,240437,128,0,240583:0:0:0:0:
469,192,240437,128,0,240510:0:0:0:0:
128,192,240510,128,0,240656:0:0:0:0:
384,192,240510,128,0,240583:0:0:0:0:
42,192,240583,128,0,240801:0:0:0:0:
298,192,240583,128,0,240947:0:0:0:0:
469,192,240583,128,0,240656:0:0:0:0:
384,192,240729,1,0,0:0:0:0:
213,192,240729,128,0,240801:0:0:0:0:
128,192,240801,128,0,240874:0:0:0:0:
384,192,240874,128,0,240947:0:0:0:0:
42,192,240874,128,0,240947:0:0:0:0:
469,192,240874,128,0,241093:0:0:0:0:
128,192,240947,128,0,241020:0:0:0:0:
384,192,241020,1,0,0:0:0:0:
213,192,241020,128,0,241093:0:0:0:0:
213,192,241165,128,0,241384:0:0:0:0:
384,192,241165,128,0,241238:0:0:0:0:
42,192,241165,128,0,241530:0:0:0:0:
469,192,241165,128,0,241238:0:0:0:0:
128,192,241238,128,0,241311:0:0:0:0:
298,192,241311,128,0,241457:0:0:0:0:
469,192,241311,1,0,0:0:0:0:
128,192,241457,128,0,241602:0:0:0:0:
384,192,241457,128,0,241530:0:0:0:0:
213,192,241530,128,0,241675:0:0:0:0:
469,192,241530,128,0,241602:0:0:0:0:
298,192,241602,128,0,241748:0:0:0:0:
42,192,241602,128,0,241675:0:0:0:0:
384,192,241675,128,0,241821:0:0:0:0:
128,192,241675,128,0,241748:0:0:0:0:
469,192,241748,128,0,241966:0:0:0:0:
213,192,241748,128,0,242112:0:0:0:0:
42,192,241748,128,0,241821:0:0:0:0:
128,192,241894,1,0,0:0:0:0:
298,192,241894,128,0,241966:0:0:0:0:
384,192,241966,128,0,242039:0:0:0:0:
128,192,242039,128,0,242112:0:0:0:0:
469,192,242039,128,0,242112:0:0:0:0:
42,192,242039,128,0,242258:0:0:0:0:
384,192,242112,128,0,242185:0:0:0:0:
128,192,242185,1,0,0:0:0:0:
298,192,242185,128,0,242258:0:0:0:0:
128,192,242330,1,0,0:0:0:0:
42,192,242330,1,0,0:0:0:0:
298,192,242330,128,0,242840:0:0:0:0:
384,192,242330,128,0,242403:0:0:0:0:
469,192,242330,128,0,242840:0:0:0:0:
384,192,242476,128,0,242549:0:0:0:0:
384,192,242622,128,0,242695:0:0:0:0:
128,192,242767,1,0,0:0:0:0:
42,192,242767,1,0,0:0:0:0:
384,192,242767,128,0,242840:0:0:0:0:
469,192,242913,1,0,0:0:0:0:
42,192,242913,1,0,0:0:0:0:
128,192,242913,1,0,0:0:0:0:
298,192,242913,1,0,0:0:0:0:
213,192,242986,1,0,0:0:0:0:
384,192,243059,1,0,0:0:0:0:
128,192,243059,1,0,0:0:0:0:
298,192,243131,1,0,0:0:0:0:
384,192,243204,1,0,0:0:0:0:
469,192,243204,1,0,0:0:0:0:
213,192,243204,128,0,243350:0:0:0:0:
128,192,243204,128,0,243350:0:0:0:0:
42,192,243204,128,0,243350:0:0:0:0:
298,192,243350,1,0,0:0:0:0:
384,192,243350,1,0,0:0:0:0:
128,192,243423,1,0,0:0:0:0:
42,192,243423,1,0,0:0:0:0:
213,192,243496,128,0,243714:0:0:0:0:
384,192,243496,128,0,243714:0:0:0:0:
469,192,243496,128,0,244297:0:0:0:0:
128,192,243641,1,0,0:0:0:0:
42,192,243641,1,0,0:0:0:0:
298,192,243641,1,0,0:0:0:0:
384,192,243787,128,0,244297:0:0:0:0:
298,192,243787,128,0,244005:0:0:0:0:
128,192,243787,128,0,244005:0:0:0:0:
298,192,244078,128,0,244297:0:0:0:0:
213,192,244078,128,0,244151:0:0:0:0:
42,192,244078,128,0,244151:0:0:0:0:
213,192,244224,128,0,244297:0:0:0:0:
42,192,244224,128,0,244297:0:0:0:0:
384,192,244369,1,0,0:0:0:0:
469,192,244369,1,0,0:0:0:0:
42,192,244369,1,0,0:0:0:0:
128,192,244369,1,0,0:0:0:0:
298,192,244442,1,0,0:0:0:0:
42,192,244515,1,0,0:0:0:0:
128,192,244515,1,0,0:0:0:0:
298,192,244588,1,0,0:0:0:0:
128,192,244661,1,0,0:0:0:0:
42,192,244661,1,0,0:0:0:0:
469,192,244661,1,0,0:0:0:0:
213,192,244661,1,0,0:0:0:0:
384,192,244733,1,0,0:0:0:0:
213,192,244806,1,0,0:0:0:0:
469,192,244879,1,0,0:0:0:0:
128,192,244952,1,0,0:0:0:0:
298,192,245025,1,0,0:0:0:0:
128,192,245097,1,0,0:0:0:0:
384,192,245170,1,0,0:0:0:0:
42,192,245243,1,0,0:0:0:0:
213,192,245316,1,0,0:0:0:0:
42,192,245389,1,0,0:0:0:0:
298,192,245462,1,0,0:0:0:0:
128,192,245534,1,0,0:0:0:0:
42,192,245534,1,0,0:0:0:0:
213,192,245534,1,0,0:0:0:0:
42,192,245680,128,0,245753:0:0:0:0:
128,192,245680,128,0,245753:0:0:0:0:
298,192,245680,128,0,245753:0:0:0:0:
384,192,245680,128,0,245753:0:0:0:0:
213,192,245971,128,0,246044:0:0:0:0:
128,192,245971,128,0,246044:0:0:0:0:
384,192,245971,128,0,246044:0:0:0:0:
469,192,245971,128,0,246044:0:0:0:0:
213,192,246263,128,0,246335:0:0:0:0:
42,192,246263,128,0,246335:0:0:0:0:
469,192,246263,128,0,246335:0:0:0:0:
298,192,246263,128,0,246335:0:0:0:0:
298,192,246554,128,0,246627:0:0:0:0:
469,192,246554,128,0,246627:0:0:0:0:
128,192,246554,128,0,246627:0:0:0:0:
42,192,246554,128,0,246627:0:0:0:0:
128,192,246699,128,0,246772:0:0:0:0:
42,192,246699,128,0,246772:0:0:0:0:
298,192,246699,128,0,246772:0:0:0:0:
469,192,246699,128,0,246772:0:0:0:0:
213,192,246845,128,0,246918:0:0:0:0:
42,192,246845,128,0,246918:0:0:0:0:
384,192,246845,128,0,246918:0:0:0:0:
469,192,246845,128,0,246918:0:0:0:0:
128,192,246991,1,0,0:0:0:0:
42,192,246991,1,0,0:0:0:0:
384,192,246991,1,0,0:0:0:0:
469,192,246991,1,0,0:0:0:0:
128,192,247136,128,0,247209:0:0:0:0:
384,192,247136,1,0,0:0:0:0:
298,192,247209,128,0,247282:0:0:0:0:
469,192,247282,1,0,0:0:0:0:
384,192,247282,128,0,247428:0:0:0:0:
128,192,247282,128,0,247500:0:0:0:0:
213,192,247282,1,0,0:0:0:0:
42,192,247355,128,0,247428:0:0:0:0:
469,192,247428,128,0,247646:0:0:0:0:
298,192,247428,128,0,247646:0:0:0:0:
42,192,247573,128,0,247646:0:0:0:0:
128,192,247573,128,0,247792:0:0:0:0:
384,192,247573,128,0,247719:0:0:0:0:
213,192,247646,128,0,247719:0:0:0:0:
469,192,247719,1,0,0:0:0:0:
42,192,247719,128,0,248083:0:0:0:0:
298,192,247792,128,0,247864:0:0:0:0:
213,192,247864,128,0,247937:0:0:0:0:
469,192,247864,128,0,248010:0:0:0:0:
128,192,247864,1,0,0:0:0:0:
384,192,247937,128,0,248083:0:0:0:0:
298,192,248010,128,0,248083:0:0:0:0:
128,192,248010,128,0,248229:0:0:0:0:
298,192,248156,128,0,248374:0:0:0:0:
469,192,248156,128,0,248229:0:0:0:0:
42,192,248156,128,0,248229:0:0:0:0:
213,192,248229,128,0,248301:0:0:0:0:
469,192,248301,128,0,248374:0:0:0:0:
384,192,248301,128,0,248520:0:0:0:0:
42,192,248447,128,0,248520:0:0:0:0:
213,192,248447,128,0,248665:0:0:0:0:
469,192,248447,128,0,248520:0:0:0:0:
298,192,248520,128,0,248593:0:0:0:0:
42,192,248593,128,0,248665:0:0:0:0:
128,192,248593,128,0,248811:0:0:0:0:
298,192,248738,128,0,248957:0:0:0:0:
469,192,248738,128,0,248811:0:0:0:0:
42,192,248738,128,0,248811:0:0:0:0:
213,192,248811,128,0,248884:0:0:0:0:
469,192,248884,128,0,248957:0:0:0:0:
384,192,248884,128,0,249102:0:0:0:0:
128,192,248957,128,0,249248:0:0:0:0:
42,192,248957,128,0,249030:0:0:0:0:
298,192,249030,128,0,249102:0:0:0:0:
469,192,249030,128,0,249248:0:0:0:0:
42,192,249102,128,0,249248:0:0:0:0:
213,192,249102,128,0,249248:0:0:0:0:
298,192,249175,128,0,249248:0:0:0:0:
384,192,249175,128,0,249248:0:0:0:0:
42,192,249321,128,0,249394:0:0:0:0:
469,192,249321,128,0,249636:0:0:0:0:
298,192,249321,128,0,249539:0:0:0:0:
213,192,249321,1,0,0:0:0:0:
384,192,249394,128,0,249466:0:0:0:0:
42,192,249466,1,0,0:0:0:0:
213,192,249466,128,0,249636:0:0:0:0:
42,192,249612,128,0,249685:0:0:0:0:
298,192,249612,128,0,249685:0:0:0:0:
128,192,249661,128,0,249733:0:0:0:0:
384,192,249661,128,0,249733:0:0:0:0:
213,192,249709,128,0,249782:0:0:0:0:
469,192,249709,128,0,249782:0:0:0:0:
42,192,249758,128,0,249830:0:0:0:0:
298,192,249758,128,0,249830:0:0:0:0:
128,192,249806,128,0,249879:0:0:0:0:
384,192,249806,128,0,249879:0:0:0:0:
213,192,249855,128,0,249928:0:0:0:0:
469,192,249855,128,0,249928:0:0:0:0:
298,192,249903,128,0,250267:0:0:0:0:
42,192,249903,128,0,250122:0:0:0:0:
213,192,250049,128,0,250122:0:0:0:0:
384,192,250049,1,0,0:0:0:0:
128,192,250122,128,0,250267:0:0:0:0:
469,192,250195,128,0,250559:0:0:0:0:
42,192,250195,128,0,250267:0:0:0:0:
384,192,250195,128,0,250267:0:0:0:0:
213,192,250267,128,0,250340:0:0:0:0:
128,192,250340,1,0,0:0:0:0:
384,192,250340,128,0,250486:0:0:0:0:
42,192,250486,128,0,250801:0:0:0:0:
213,192,250486,128,0,250704:0:0:0:0:
298,192,250486,1,0,0:0:0:0:
128,192,250559,128,0,250631:0:0:0:0:
469,192,250631,1,0,0:0:0:0:
298,192,250631,128,0,250801:0:0:0:0:
213,192,250777,128,0,250850:0:0:0:0:
469,192,250777,128,0,250850:0:0:0:0:
128,192,250826,128,0,250898:0:0:0:0:
384,192,250826,128,0,250898:0:0:0:0:
42,192,250874,128,0,250947:0:0:0:0:
298,192,250874,128,0,250947:0:0:0:0:
469,192,250923,128,0,250996:0:0:0:0:
213,192,250923,128,0,250996:0:0:0:0:
384,192,250971,128,0,251044:0:0:0:0:
128,192,250971,128,0,251044:0:0:0:0:
298,192,251020,128,0,251093:0:0:0:0:
42,192,251020,128,0,251093:0:0:0:0:
213,192,251068,128,0,251432:0:0:0:0:
469,192,251068,128,0,251287:0:0:0:0:
298,192,251214,128,0,251287:0:0:0:0:
128,192,251214,1,0,0:0:0:0:
384,192,251287,128,0,251432:0:0:0:0:
469,192,251360,128,0,251432:0:0:0:0:
128,192,251360,128,0,251432:0:0:0:0:
42,192,251360,128,0,251724:0:0:0:0:
298,192,251432,128,0,251505:0:0:0:0:
384,192,251505,1,0,0:0:0:0:
128,192,251505,128,0,251651:0:0:0:0:
469,192,251651,128,0,251942:0:0:0:0:
298,192,251651,128,0,251869:0:0:0:0:
213,192,251651,1,0,0:0:0:0:
384,192,251724,128,0,251797:0:0:0:0:
42,192,251797,1,0,0:0:0:0:
213,192,251797,128,0,251942:0:0:0:0:
384,192,251942,128,0,252088:0:0:0:0:
128,192,251942,128,0,252015:0:0:0:0:
298,192,252015,128,0,252161:0:0:0:0:
42,192,252015,128,0,252088:0:0:0:0:
213,192,252088,128,0,252233:0:0:0:0:
469,192,252088,128,0,252161:0:0:0:0:
128,192,252161,128,0,252306:0:0:0:0:
384,192,252161,128,0,252233:0:0:0:0:
298,192,252233,128,0,252597:0:0:0:0:
42,192,252233,128,0,252379:0:0:0:0:
469,192,252233,128,0,252306:0:0:0:0:
213,192,252379,128,0,252452:0:0:0:0:
384,192,252379,1,0,0:0:0:0:
128,192,252452,128,0,252597:0:0:0:0:
469,192,252525,128,0,252889:0:0:0:0:
42,192,252525,128,0,252597:0:0:0:0:
384,192,252525,128,0,252597:0:0:0:0:
213,192,252597,128,0,252670:0:0:0:0:
128,192,252670,1,0,0:0:0:0:
384,192,252670,128,0,252816:0:0:0:0:
42,192,252816,128,0,252962:0:0:0:0:
128,192,252816,128,0,252889:0:0:0:0:
298,192,252816,128,0,252889:0:0:0:0:
384,192,252962,1,0,0:0:0:0:
213,192,252962,128,0,253180:0:0:0:0:
128,192,253034,128,0,253107:0:0:0:0:
42,192,253107,1,0,0:0:0:0:
469,192,253107,1,0,0:0:0:0:
298,192,253107,128,0,253326:0:0:0:0:
384,192,253180,128,0,253253:0:0:0:0:
213,192,253253,128,0,253471:0:0:0:0:
42,192,253253,1,0,0:0:0:0:
128,192,253326,128,0,253398:0:0:0:0:
42,192,253398,128,0,253471:0:0:0:0:
469,192,253398,128,0,253544:0:0:0:0:
384,192,253398,128,0,253471:0:0:0:0:
128,192,253544,1,0,0:0:0:0:
298,192,253544,128,0,253763:0:0:0:0:
384,192,253617,128,0,253714:0:0:0:0:
469,192,253690,1,0,0:0:0:0:
42,192,253690,1,0,0:0:0:0:
213,192,253738,128,0,253811:0:0:0:0:
128,192,253787,128,0,253860:0:0:0:0:
42,192,253835,128,0,253908:0:0:0:0:
469,192,253835,128,0,253908:0:0:0:0:
384,192,253884,128,0,253957:0:0:0:0:
298,192,253932,128,0,254005:0:0:0:0:
42,192,253981,128,0,254054:0:0:0:0:
469,192,253981,128,0,254127:0:0:0:0:
213,192,253981,128,0,254345:0:0:0:0:
128,192,253981,128,0,254054:0:0:0:0:
384,192,254127,1,0,0:0:0:0:
298,192,254127,128,0,254199:0:0:0:0:
128,192,254199,128,0,254272:0:0:0:0:
42,192,254272,128,0,254418:0:0:0:0:
384,192,254272,1,0,0:0:0:0:
298,192,254272,128,0,254491:0:0:0:0:
469,192,254345,128,0,254418:0:0:0:0:
128,192,254418,128,0,254636:0:0:0:0:
384,192,254418,128,0,254636:0:0:0:0:
42,192,254564,128,0,254636:0:0:0:0:
469,192,254564,128,0,254709:0:0:0:0:
213,192,254564,128,0,254782:0:0:0:0:
298,192,254636,128,0,254709:0:0:0:0:
384,192,254709,1,0,0:0:0:0:
128,192,254709,128,0,255073:0:0:0:0:
298,192,254782,128,0,254855:0:0:0:0:
469,192,254855,1,0,0:0:0:0:
384,192,254855,128,0,255000:0:0:0:0:
42,192,254855,128,0,254928:0:0:0:0:
213,192,254928,128,0,255000:0:0:0:0:
298,192,255000,128,0,255219:0:0:0:0:
42,192,255000,128,0,255219:0:0:0:0:
469,192,255146,128,0,255292:0:0:0:0:
213,192,255146,128,0,255219:0:0:0:0:
384,192,255146,128,0,255510:0:0:0:0:
42,192,255292,1,0,0:0:0:0:
128,192,255292,128,0,255364:0:0:0:0:
298,192,255364,128,0,255437:0:0:0:0:
213,192,255437,1,0,0:0:0:0:
128,192,255437,128,0,255656:0:0:0:0:
469,192,255437,128,0,255583:0:0:0:0:
42,192,255510,128,0,255583:0:0:0:0:
384,192,255583,128,0,255801:0:0:0:0:
213,192,255583,128,0,255801:0:0:0:0:
128,192,255729,128,0,255801:0:0:0:0:
298,192,255729,128,0,255947:0:0:0:0:
42,192,255729,128,0,255874:0:0:0:0:
469,192,255801,128,0,255874:0:0:0:0:
384,192,255874,128,0,256020:0:0:0:0:
128,192,255874,1,0,0:0:0:0:
213,192,255947,128,0,256020:0:0:0:0:
298,192,256020,128,0,256093:0:0:0:0:
42,192,256020,128,0,256093:0:0:0:0:
384,192,256068,128,0,256141:0:0:0:0:
128,192,256068,128,0,256141:0:0:0:0:
213,192,256117,128,0,256190:0:0:0:0:
469,192,256117,128,0,256190:0:0:0:0:
298,192,256165,128,0,256238:0:0:0:0:
42,192,256165,128,0,256238:0:0:0:0:
128,192,256214,128,0,256287:0:0:0:0:
384,192,256214,128,0,256287:0:0:0:0:
469,192,256263,128,0,256384:0:0:0:0:
213,192,256263,128,0,256384:0:0:0:0:
298,192,256311,128,0,256675:0:0:0:0:
42,192,256311,128,0,256384:0:0:0:0:
384,192,256457,128,0,256530:0:0:0:0:
128,192,256457,1,0,0:0:0:0:
213,192,256530,128,0,256602:0:0:0:0:
42,192,256602,1,0,0:0:0:0:
128,192,256602,128,0,256748:0:0:0:0:
384,192,256602,128,0,256821:0:0:0:0:
469,192,256675,128,0,256748:0:0:0:0:
42,192,256748,1,0,0:0:0:0:
213,192,256748,128,0,256966:0:0:0:0:
469,192,256894,128,0,256966:0:0:0:0:
384,192,256894,128,0,257112:0:0:0:0:
128,192,256894,128,0,257039:0:0:0:0:
298,192,256966,128,0,257039:0:0:0:0:
42,192,257039,1,0,0:0:0:0:
469,192,257039,128,0,257403:0:0:0:0:
213,192,257112,128,0,257185:0:0:0:0:
298,192,257185,128,0,257258:0:0:0:0:
42,192,257185,128,0,257330:0:0:0:0:
384,192,257185,1,0,0:0:0:0:
128,192,257258,128,0,257403:0:0:0:0:
213,192,257330,128,0,257403:0:0:0:0:
384,192,257330,128,0,257549:0:0:0:0:
213,192,257476,128,0,257695:0:0:0:0:
42,192,257476,128,0,257549:0:0:0:0:
469,192,257476,128,0,257549:0:0:0:0:
298,192,257549,128,0,257622:0:0:0:0:
42,192,257622,128,0,257695:0:0:0:0:
128,192,257622,128,0,257840:0:0:0:0:
469,192,257767,128,0,257840:0:0:0:0:
298,192,257767,128,0,257986:0:0:0:0:
42,192,257767,128,0,257840:0:0:0:0:
213,192,257840,128,0,257913:0:0:0:0:
469,192,257913,128,0,257986:0:0:0:0:
384,192,257913,128,0,258131:0:0:0:0:
213,192,258059,128,0,258277:0:0:0:0:
42,192,258059,128,0,258131:0:0:0:0:
469,192,258059,128,0,258131:0:0:0:0:
298,192,258131,128,0,258204:0:0:0:0:
42,192,258204,128,0,258277:0:0:0:0:
128,192,258204,128,0,258423:0:0:0:0:
384,192,258277,128,0,258568:0:0:0:0:
469,192,258277,128,0,258350:0:0:0:0:
213,192,258350,128,0,258423:0:0:0:0:
42,192,258350,128,0,258568:0:0:0:0:
469,192,258423,128,0,258568:0:0:0:0:
298,192,258423,128,0,258568:0:0:0:0:
213,192,258496,128,0,258568:0:0:0:0:
128,192,258496,128,0,258568:0:0:0:0:
469,192,258641,128,0,258714:0:0:0:0:
42,192,258641,128,0,258957:0:0:0:0:
213,192,258641,128,0,258860:0:0:0:0:
298,192,258641,1,0,0:0:0:0:
128,192,258714,128,0,258787:0:0:0:0:
469,192,258787,1,0,0:0:0:0:
298,192,258787,128,0,258957:0:0:0:0:
469,192,258932,128,0,259005:0:0:0:0:
213,192,258932,128,0,259005:0:0:0:0:
384,192,258981,128,0,259054:0:0:0:0:
128,192,258981,128,0,259054:0:0:0:0:
298,192,259030,128,0,259102:0:0:0:0:
42,192,259030,128,0,259102:0:0:0:0:
469,192,259078,128,0,259151:0:0:0:0:
213,192,259078,128,0,259151:0:0:0:0:
384,192,259127,128,0,259199:0:0:0:0:
128,192,259127,128,0,259199:0:0:0:0:
298,192,259175,128,0,259248:0:0:0:0:
42,192,259175,128,0,259248:0:0:0:0:
213,192,259224,128,0,259588:0:0:0:0:
469,192,259224,128,0,259442:0:0:0:0:
298,192,259369,128,0,259442:0:0:0:0:
128,192,259369,1,0,0:0:0:0:
384,192,259442,128,0,259588:0:0:0:0:
469,192,259515,128,0,259588:0:0:0:0:
128,192,259515,128,0,259588:0:0:0:0:
42,192,259515,128,0,259879:0:0:0:0:
298,192,259588,128,0,259661:0:0:0:0:
384,192,259661,1,0,0:0:0:0:
128,192,259661,128,0,259806:0:0:0:0:
469,192,259806,128,0,260122:0:0:0:0:
298,192,259806,128,0,260025:0:0:0:0:
213,192,259806,1,0,0:0:0:0:
384,192,259879,128,0,259952:0:0:0:0:
42,192,259952,1,0,0:0:0:0:
213,192,259952,128,0,260122:0:0:0:0:
42,192,260097,128,0,260170:0:0:0:0:
298,192,260097,128,0,260170:0:0:0:0:
384,192,260146,128,0,260219:0:0:0:0:
128,192,260146,128,0,260219:0:0:0:0:
469,192,260195,128,0,260267:0:0:0:0:
213,192,260195,128,0,260267:0:0:0:0:
42,192,260243,128,0,260316:0:0:0:0:
298,192,260243,128,0,260316:0:0:0:0:
384,192,260292,128,0,260364:0:0:0:0:
128,192,260292,128,0,260364:0:0:0:0:
469,192,260340,128,0,260413:0:0:0:0:
213,192,260340,128,0,260413:0:0:0:0:
298,192,260389,128,0,260753:0:0:0:0:
42,192,260389,128,0,260607:0:0:0:0:
213,192,260534,128,0,260607:0:0:0:0:
384,192,260534,1,0,0:0:0:0:
128,192,260607,128,0,260753:0:0:0:0:
469,192,260680,128,0,261044:0:0:0:0:
42,192,260680,128,0,260753:0:0:0:0:
384,192,260680,128,0,260753:0:0:0:0:
213,192,260753,1,0,0:0:0:0:
128,192,260826,1,0,0:0:0:0:
384,192,260826,128,0,260971:0:0:0:0:
42,192,260971,128,0,261263:0:0:0:0:
213,192,260971,128,0,261190:0:0:0:0:
298,192,260971,1,0,0:0:0:0:
128,192,261044,128,0,261117:0:0:0:0:
469,192,261117,1,0,0:0:0:0:
298,192,261117,128,0,261263:0:0:0:0:
128,192,261263,128,0,261408:0:0:0:0:
384,192,261263,128,0,261335:0:0:0:0:
213,192,261335,128,0,261481:0:0:0:0:
469,192,261335,128,0,261408:0:0:0:0:
298,192,261408,128,0,261554:0:0:0:0:
42,192,261408,128,0,261481:0:0:0:0:
384,192,261481,128,0,261627:0:0:0:0:
128,192,261481,128,0,261554:0:0:0:0:
213,192,261554,128,0,261918:0:0:0:0:
469,192,261554,128,0,261699:0:0:0:0:
42,192,261554,128,0,261627:0:0:0:0:
298,192,261699,128,0,261772:0:0:0:0:
128,192,261699,1,0,0:0:0:0:
384,192,261772,128,0,261918:0:0:0:0:
42,192,261845,128,0,262209:0:0:0:0:
469,192,261845,128,0,261918:0:0:0:0:
128,192,261845,128,0,261918:0:0:0:0:
298,192,261918,128,0,261991:0:0:0:0:
384,192,261991,1,0,0:0:0:0:
128,192,261991,128,0,262136:0:0:0:0:
469,192,262136,128,0,262282:0:0:0:0:
384,192,262136,128,0,262209:0:0:0:0:
213,192,262136,128,0,262209:0:0:0:0:
128,192,262282,1,0,0:0:0:0:
298,192,262282,128,0,262500:0:0:0:0:
384,192,262355,128,0,262428:0:0:0:0:
469,192,262428,1,0,0:0:0:0:
42,192,262428,1,0,0:0:0:0:
213,192,262428,128,0,262646:0:0:0:0:
128,192,262500,128,0,262573:0:0:0:0:
469,192,262573,1,0,0:0:0:0:
298,192,262573,128,0,262719:0:0:0:0:
384,192,262646,128,0,262792:0:0:0:0:
128,192,262719,128,0,262792:0:0:0:0:
469,192,262719,128,0,262792:0:0:0:0:
42,192,262719,128,0,263083:0:0:0:0:
298,192,262792,128,0,262864:0:0:0:0:
213,192,262864,128,0,263131:0:0:0:0:
384,192,262913,128,0,263034:0:0:0:0:
469,192,262962,128,0,263229:0:0:0:0:
128,192,263010,128,0,263229:0:0:0:0:
298,192,263059,128,0,263180:0:0:0:0:
384,192,263107,128,0,263229:0:0:0:0:
42,192,263156,128,0,263229:0:0:0:0:
213,192,263204,128,0,263374:0:0:0:0:
298,192,263253,128,0,263374:0:0:0:0:
128,192,263301,128,0,263374:0:0:0:0:
42,192,263301,128,0,263374:0:0:0:0:
384,192,263301,128,0,263374:0:0:0:0:
469,192,263301,128,0,263374:0:0:0:0:
469,192,263447,128,0,263593:0:0:0:0:
42,192,263447,1,0,0:0:0:0:
213,192,263520,1,0,0:0:0:0:
42,192,263665,1,0,0:0:0:0:
469,192,263738,128,0,263884:0:0:0:0:
128,192,263738,1,0,0:0:0:0:
42,192,263884,1,0,0:0:0:0:
128,192,263957,1,0,0:0:0:0:
469,192,264030,128,0,264175:0:0:0:0:
42,192,264102,1,0,0:0:0:0:
213,192,264175,1,0,0:0:0:0:
42,192,264248,1,0,0:0:0:0:
469,192,264321,128,0,264466:0:0:0:0:
128,192,264321,1,0,0:0:0:0:
298,192,264466,1,0,0:0:0:0:
42,192,264612,128,0,264758:0:0:0:0:
469,192,264612,1,0,0:0:0:0:
384,192,264685,1,0,0:0:0:0:
469,192,264830,1,0,0:0:0:0:
42,192,264903,128,0,265049:0:0:0:0:
298,192,264903,1,0,0:0:0:0:
469,192,265049,1,0,0:0:0:0:
384,192,265122,1,0,0:0:0:0:
42,192,265195,128,0,265340:0:0:0:0:
469,192,265267,1,0,0:0:0:0:
298,192,265340,1,0,0:0:0:0:
469,192,265413,1,0,0:0:0:0:
42,192,265486,128,0,265631:0:0:0:0:
384,192,265486,1,0,0:0:0:0:
213,192,265631,1,0,0:0:0:0:
469,192,265777,128,0,265923:0:0:0:0:
42,192,265777,1,0,0:0:0:0:
213,192,265850,1,0,0:0:0:0:
42,192,265996,1,0,0:0:0:0:
469,192,266068,128,0,266214:0:0:0:0:
128,192,266068,1,0,0:0:0:0:
42,192,266214,1,0,0:0:0:0:
128,192,266287,1,0,0:0:0:0:
469,192,266360,128,0,266505:0:0:0:0:
42,192,266432,1,0,0:0:0:0:
213,192,266505,1,0,0:0:0:0:
42,192,266578,1,0,0:0:0:0:
469,192,266651,128,0,266797:0:0:0:0:
128,192,266651,1,0,0:0:0:0:
384,192,266797,1,0,0:0:0:0:
298,192,266845,1,0,0:0:0:0:
213,192,266894,1,0,0:0:0:0:
42,192,266942,128,0,267088:0:0:0:0:
384,192,266942,1,0,0:0:0:0:
469,192,267088,1,0,0:0:0:0:
384,192,267136,1,0,0:0:0:0:
298,192,267185,1,0,0:0:0:0:
42,192,267233,128,0,267379:0:0:0:0:
469,192,267233,1,0,0:0:0:0:
384,192,267379,1,0,0:0:0:0:
298,192,267452,1,0,0:0:0:0:
42,192,267525,128,0,267670:0:0:0:0:
469,192,267525,1,0,0:0:0:0:
298,192,267597,1,0,0:0:0:0:
384,192,267670,1,0,0:0:0:0:
298,192,267743,1,0,0:0:0:0:
42,192,267816,128,0,267962:0:0:0:0:
213,192,267816,1,0,0:0:0:0:
298,192,267962,1,0,0:0:0:0:
128,192,268034,1,0,0:0:0:0:
469,192,268107,128,0,268253:0:0:0:0:
213,192,268107,1,0,0:0:0:0:
42,192,268253,1,0,0:0:0:0:
128,192,268301,1,0,0:0:0:0:
213,192,268350,1,0,0:0:0:0:
469,192,268398,128,0,268544:0:0:0:0:
298,192,268398,1,0,0:0:0:0:
213,192,268447,1,0,0:0:0:0:
128,192,268496,1,0,0:0:0:0:
42,192,268544,1,0,0:0:0:0:
469,192,268690,128,0,268835:0:0:0:0:
298,192,268690,1,0,0:0:0:0:
128,192,268763,1,0,0:0:0:0:
213,192,268908,1,0,0:0:0:0:
469,192,268981,128,0,269127:0:0:0:0:
42,192,268981,1,0,0:0:0:0:
213,192,269127,1,0,0:0:0:0:
384,192,269199,1,0,0:0:0:0:
42,192,269272,128,0,269418:0:0:0:0:
298,192,269272,1,0,0:0:0:0:
469,192,269418,1,0,0:0:0:0:
384,192,269466,1,0,0:0:0:0:
298,192,269515,1,0,0:0:0:0:
42,192,269564,128,0,269709:0:0:0:0:
213,192,269564,1,0,0:0:0:0:
298,192,269612,1,0,0:0:0:0:
384,192,269661,1,0,0:0:0:0:
469,192,269709,1,0,0:0:0:0:
42,192,269855,128,0,270000:0:0:0:0:
213,192,269855,1,0,0:0:0:0:
384,192,269928,1,0,0:0:0:0:
298,192,270073,1,0,0:0:0:0:
42,192,270146,128,0,270292:0:0:0:0:
469,192,270146,1,0,0:0:0:0:
298,192,270292,1,0,0:0:0:0:
128,192,270364,1,0,0:0:0:0:
469,192,270437,128,0,270583:0:0:0:0:
213,192,270437,1,0,0:0:0:0:
42,192,270583,1,0,0:0:0:0:
213,192,270656,1,0,0:0:0:0:
469,192,270729,128,0,270874:0:0:0:0:
298,192,270729,1,0,0:0:0:0:
213,192,270801,1,0,0:0:0:0:
42,192,270874,1,0,0:0:0:0:
469,192,271020,128,0,271165:0:0:0:0:
298,192,271020,1,0,0:0:0:0:
128,192,271093,1,0,0:0:0:0:
213,192,271238,1,0,0:0:0:0:
469,192,271311,128,0,271457:0:0:0:0:
42,192,271311,1,0,0:0:0:0:
128,192,271457,5,0,0:0:0:0:
213,192,271530,1,0,0:0:0:0:
42,192,271602,128,0,271748:0:0:0:0:
298,192,271602,1,0,0:0:0:0:
384,192,271675,1,0,0:0:0:0:
469,192,271748,1,0,0:0:0:0:
384,192,271821,1,0,0:0:0:0:
42,192,271894,128,0,272039:0:0:0:0:
298,192,271894,1,0,0:0:0:0:
213,192,271966,1,0,0:0:0:0:
384,192,272039,1,0,0:0:0:0:
298,192,272112,1,0,0:0:0:0:
213,192,272185,1,0,0:0:0:0:
469,192,272185,128,0,272330:0:0:0:0:
128,192,272258,1,0,0:0:0:0:
42,192,272330,1,0,0:0:0:0:
128,192,272403,1,0,0:0:0:0:
469,192,272476,128,0,272695:0:0:0:0:
213,192,272476,1,0,0:0:0:0:
298,192,272549,1,0,0:0:0:0:
213,192,272622,128,0,272695:0:0:0:0:
42,192,272622,128,0,272840:0:0:0:0:
128,192,272622,128,0,272695:0:0:0:0:
384,192,272622,128,0,272695:0:0:0:0:
128,192,272767,1,0,0:0:0:0:
298,192,272767,128,0,272840:0:0:0:0:
213,192,272840,128,0,272913:0:0:0:0:
298,192,272913,128,0,273131:0:0:0:0:
384,192,272913,128,0,272986:0:0:0:0:
469,192,272913,128,0,272986:0:0:0:0:
42,192,272913,128,0,272986:0:0:0:0:
128,192,272986,128,0,273059:0:0:0:0:
469,192,273059,1,0,0:0:0:0:
213,192,273059,128,0,273131:0:0:0:0:
384,192,273204,128,0,273423:0:0:0:0:
213,192,273204,128,0,273277:0:0:0:0:
42,192,273204,128,0,273423:0:0:0:0:
128,192,273204,128,0,273277:0:0:0:0:
469,192,273277,128,0,273350:0:0:0:0:
298,192,273350,128,0,273496:0:0:0:0:
128,192,273350,1,0,0:0:0:0:
213,192,273423,128,0,273641:0:0:0:0:
42,192,273496,1,0,0:0:0:0:
128,192,273496,128,0,273568:0:0:0:0:
384,192,273496,1,0,0:0:0:0:
469,192,273496,128,0,273714:0:0:0:0:
298,192,273568,128,0,273714:0:0:0:0:
384,192,273641,128,0,273714:0:0:0:0:
42,192,273641,128,0,273860:0:0:0:0:
128,192,273787,128,0,273860:0:0:0:0:
298,192,273787,128,0,273860:0:0:0:0:
384,192,273787,128,0,273860:0:0:0:0:
469,192,273787,128,0,274005:0:0:0:0:
42,192,273932,1,0,0:0:0:0:
213,192,273932,128,0,274078:0:0:0:0:
298,192,274005,128,0,274297:0:0:0:0:
384,192,274078,128,0,274151:0:0:0:0:
469,192,274078,128,0,274151:0:0:0:0:
128,192,274078,128,0,274151:0:0:0:0:
42,192,274078,128,0,274297:0:0:0:0:
213,192,274151,128,0,274224:0:0:0:0:
384,192,274224,128,0,274442:0:0:0:0:
213,192,274369,128,0,274442:0:0:0:0:
128,192,274369,128,0,274442:0:0:0:0:
42,192,274369,128,0,274442:0:0:0:0:
469,192,274369,128,0,274588:0:0:0:0:
128,192,274515,1,0,0:0:0:0:
298,192,274515,128,0,274588:0:0:0:0:
384,192,274588,128,0,274661:0:0:0:0:
469,192,274661,128,0,274733:0:0:0:0:
213,192,274661,128,0,274830:0:0:0:0:
128,192,274661,128,0,274782:0:0:0:0:
42,192,274661,128,0,274733:0:0:0:0:
298,192,274709,128,0,274879:0:0:0:0:
384,192,274758,128,0,274879:0:0:0:0:
469,192,274806,128,0,274879:0:0:0:0:
42,192,274806,1,0,0:0:0:0:
128,192,274855,1,0,0:0:0:0:
213,192,274903,1,0,0:0:0:0:
469,192,274952,128,0,275170:0:0:0:0:
384,192,274952,128,0,275025:0:0:0:0:
42,192,274952,128,0,275025:0:0:0:0:
298,192,274952,128,0,275025:0:0:0:0:
384,192,275097,1,0,0:0:0:0:
213,192,275097,128,0,275170:0:0:0:0:
298,192,275170,128,0,275243:0:0:0:0:
213,192,275243,128,0,275462:0:0:0:0:
128,192,275243,128,0,275316:0:0:0:0:
42,192,275243,128,0,275316:0:0:0:0:
469,192,275243,128,0,275316:0:0:0:0:
384,192,275316,128,0,275389:0:0:0:0:
42,192,275389,1,0,0:0:0:0:
298,192,275389,128,0,275462:0:0:0:0:
128,192,275534,128,0,275753:0:0:0:0:
298,192,275534,128,0,275607:0:0:0:0:
469,192,275534,128,0,275753:0:0:0:0:
384,192,275534,128,0,275607:0:0:0:0:
42,192,275607,128,0,275680:0:0:0:0:
213,192,275680,128,0,275826:0:0:0:0:
384,192,275680,1,0,0:0:0:0:
298,192,275753,128,0,275971:0:0:0:0:
469,192,275826,1,0,0:0:0:0:
384,192,275826,128,0,275898:0:0:0:0:
128,192,275826,1,0,0:0:0:0:
42,192,275826,128,0,276044:0:0:0:0:
213,192,275898,128,0,276044:0:0:0:0:
128,192,275971,128,0,276044:0:0:0:0:
469,192,275971,128,0,276190:0:0:0:0:
213,192,276117,128,0,276335:0:0:0:0:
42,192,276117,128,0,276190:0:0:0:0:
384,192,276117,128,0,276263:0:0:0:0:
298,192,276190,128,0,276335:0:0:0:0:
42,192,276263,128,0,276335:0:0:0:0:
128,192,276263,128,0,276554:0:0:0:0:
469,192,276408,128,0,276481:0:0:0:0:
298,192,276408,128,0,276627:0:0:0:0:
42,192,276408,128,0,276481:0:0:0:0:
213,192,276481,128,0,276627:0:0:0:0:
469,192,276554,128,0,276627:0:0:0:0:
384,192,276554,128,0,276845:0:0:0:0:
213,192,276699,128,0,276918:0:0:0:0:
42,192,276699,128,0,276772:0:0:0:0:
469,192,276699,128,0,276772:0:0:0:0:
298,192,276772,128,0,276918:0:0:0:0:
42,192,276845,128,0,276918:0:0:0:0:
128,192,276845,128,0,277064:0:0:0:0:
384,192,276918,128,0,277209:0:0:0:0:
469,192,276918,128,0,276991:0:0:0:0:
213,192,276991,128,0,277064:0:0:0:0:
42,192,276991,128,0,277209:0:0:0:0:
469,192,277064,128,0,277209:0:0:0:0:
298,192,277064,128,0,277209:0:0:0:0:
213,192,277136,128,0,277209:0:0:0:0:
128,192,277136,128,0,277209:0:0:0:0:
42,192,277282,128,0,277500:0:0:0:0:
128,192,277282,128,0,277355:0:0:0:0:
213,192,277282,128,0,277355:0:0:0:0:
384,192,277282,128,0,277355:0:0:0:0:
128,192,277428,128,0,277500:0:0:0:0:
213,192,277428,128,0,277646:0:0:0:0:
384,192,277428,128,0,277500:0:0:0:0:
128,192,277573,128,0,277646:0:0:0:0:
42,192,277573,128,0,277792:0:0:0:0:
469,192,277573,128,0,277646:0:0:0:0:
384,192,277622,128,0,277695:0:0:0:0:
298,192,277670,128,0,277743:0:0:0:0:
128,192,277719,128,0,277792:0:0:0:0:
469,192,277719,128,0,277792:0:0:0:0:
213,192,277767,128,0,277840:0:0:0:0:
298,192,277816,128,0,277937:0:0:0:0:
384,192,277864,128,0,277937:0:0:0:0:
469,192,277864,128,0,278083:0:0:0:0:
42,192,277864,128,0,277937:0:0:0:0:
384,192,278010,128,0,278083:0:0:0:0:
298,192,278010,128,0,278229:0:0:0:0:
128,192,278010,128,0,278083:0:0:0:0:
42,192,278083,128,0,278156:0:0:0:0:
384,192,278156,128,0,278229:0:0:0:0:
469,192,278156,128,0,278374:0:0:0:0:
42,192,278229,128,0,278301:0:0:0:0:
384,192,278301,128,0,278374:0:0:0:0:
298,192,278301,128,0,278374:0:0:0:0:
128,192,278301,128,0,278374:0:0:0:0:
42,192,278447,128,0,278665:0:0:0:0:
128,192,278447,128,0,278520:0:0:0:0:
213,192,278447,128,0,278520:0:0:0:0:
384,192,278447,128,0,278520:0:0:0:0:
128,192,278593,128,0,278665:0:0:0:0:
213,192,278593,128,0,278811:0:0:0:0:
384,192,278593,128,0,278665:0:0:0:0:
128,192,278738,128,0,278811:0:0:0:0:
42,192,278738,128,0,278957:0:0:0:0:
469,192,278738,128,0,278811:0:0:0:0:
384,192,278787,128,0,278860:0:0:0:0:
298,192,278835,128,0,278908:0:0:0:0:
128,192,278884,128,0,278957:0:0:0:0:
469,192,278884,128,0,278957:0:0:0:0:
213,192,278932,128,0,279005:0:0:0:0:
298,192,278981,128,0,279102:0:0:0:0:
384,192,279030,128,0,279102:0:0:0:0:
469,192,279030,128,0,279248:0:0:0:0:
128,192,279030,128,0,279102:0:0:0:0:
384,192,279175,128,0,279248:0:0:0:0:
298,192,279175,128,0,279394:0:0:0:0:
42,192,279175,128,0,279248:0:0:0:0:
213,192,279248,128,0,279321:0:0:0:0:
128,192,279248,128,0,279321:0:0:0:0:
384,192,279321,128,0,279394:0:0:0:0:
469,192,279321,128,0,279539:0:0:0:0:
42,192,279321,128,0,279394:0:0:0:0:
384,192,279466,128,0,279539:0:0:0:0:
298,192,279466,128,0,279539:0:0:0:0:
42,192,279466,128,0,279539:0:0:0:0:
128,192,279539,128,0,279612:0:0:0:0:
213,192,279539,128,0,279612:0:0:0:0:
298,192,279612,1,0,0:0:0:0:
384,192,279612,1,0,0:0:0:0:
469,192,279612,1,0,0:0:0:0:
42,192,279612,1,0,0:0:0:0:
469,192,279758,1,0,0:0:0:0:
213,192,279782,1,0,0:0:0:0:
384,192,279806,1,0,0:0:0:0:
128,192,279830,1,0,0:0:0:0:
298,192,279855,1,0,0:0:0:0:
42,192,279879,1,0,0:0:0:0:
213,192,279903,1,0,0:0:0:0:
384,192,279903,1,0,0:0:0:0:
469,192,279903,1,0,0:0:0:0:
42,192,280049,1,0,0:0:0:0:
298,192,280073,1,0,0:0:0:0:
128,192,280097,1,0,0:0:0:0:
384,192,280122,1,0,0:0:0:0:
213,192,280146,1,0,0:0:0:0:
469,192,280170,1,0,0:0:0:0:
42,192,280195,1,0,0:0:0:0:
298,192,280195,1,0,0:0:0:0:
128,192,280195,1,0,0:0:0:0:
384,192,280267,1,0,0:0:0:0:
469,192,280267,1,0,0:0:0:0:
128,192,280340,1,0,0:0:0:0:
42,192,280340,1,0,0:0:0:0:
384,192,280413,1,0,0:0:0:0:
469,192,280413,1,0,0:0:0:0:
213,192,280486,1,0,0:0:0:0:
128,192,280486,1,0,0:0:0:0:
298,192,280559,1,0,0:0:0:0:
384,192,280559,1,0,0:0:0:0:
42,192,280631,1,0,0:0:0:0:
469,192,280631,1,0,0:0:0:0:
128,192,280656,1,0,0:0:0:0:
213,192,280680,1,0,0:0:0:0:
298,192,280704,1,0,0:0:0:0:
384,192,280729,1,0,0:0:0:0:
469,192,280753,1,0,0:0:0:0:
42,192,280777,1,0,0:0:0:0:
128,192,280850,1,0,0:0:0:0:
298,192,280923,1,0,0:0:0:0:
384,192,280996,1,0,0:0:0:0:
128,192,281068,1,0,0:0:0:0:
213,192,281141,1,0,0:0:0:0:
384,192,281214,1,0,0:0:0:0:
469,192,281287,1,0,0:0:0:0:
42,192,281360,1,0,0:0:0:0:
298,192,281408,1,0,0:0:0:0:
384,192,281457,1,0,0:0:0:0:
128,192,281505,1,0,0:0:0:0:
213,192,281554,1,0,0:0:0:0:
298,192,281602,1,0,0:0:0:0:
469,192,281651,1,0,0:0:0:0:
213,192,281699,1,0,0:0:0:0:
128,192,281748,1,0,0:0:0:0:
384,192,281797,1,0,0:0:0:0:
298,192,281845,1,0,0:0:0:0:
213,192,281894,1,0,0:0:0:0:
384,192,281942,128,0,282233:0:0:0:0:
469,192,281942,128,0,282015:0:0:0:0:
42,192,281942,1,0,0:0:0:0:
128,192,281942,128,0,282233:0:0:0:0:
298,192,282015,128,0,282088:0:0:0:0:
469,192,282088,128,0,282161:0:0:0:0:
298,192,282161,128,0,282452:0:0:0:0:
42,192,282161,128,0,282452:0:0:0:0:
213,192,282233,128,0,282306:0:0:0:0:
469,192,282233,1,0,0:0:0:0:
384,192,282306,128,0,282379:0:0:0:0:
213,192,282379,128,0,282670:0:0:0:0:
469,192,282379,128,0,282670:0:0:0:0:
128,192,282452,128,0,282525:0:0:0:0:
298,192,282525,128,0,282597:0:0:0:0:
42,192,282525,1,0,0:0:0:0:
128,192,282597,128,0,282889:0:0:0:0:
384,192,282597,128,0,282962:0:0:0:0:
42,192,282670,128,0,282743:0:0:0:0:
213,192,282743,128,0,282816:0:0:0:0:
42,192,282816,128,0,282962:0:0:0:0:
469,192,282816,128,0,282889:0:0:0:0:
298,192,282889,128,0,283034:0:0:0:0:
213,192,282962,128,0,283107:0:0:0:0:
469,192,282962,1,0,0:0:0:0:
128,192,283034,128,0,283398:0:0:0:0:
42,192,283107,128,0,283180:0:0:0:0:
384,192,283107,128,0,283398:0:0:0:0:
469,192,283107,1,0,0:0:0:0:
213,192,283180,128,0,283253:0:0:0:0:
42,192,283253,128,0,283326:0:0:0:0:
213,192,283326,128,0,283617:0:0:0:0:
469,192,283326,128,0,283617:0:0:0:0:
298,192,283398,128,0,283471:0:0:0:0:
42,192,283398,1,0,0:0:0:0:
128,192,283471,128,0,283544:0:0:0:0:
298,192,283544,128,0,283835:0:0:0:0:
42,192,283544,128,0,283835:0:0:0:0:
384,192,283617,128,0,283690:0:0:0:0:
213,192,283690,128,0,283763:0:0:0:0:
469,192,283690,1,0,0:0:0:0:
384,192,283763,128,0,284054:0:0:0:0:
128,192,283763,128,0,284127:0:0:0:0:
469,192,283835,128,0,283908:0:0:0:0:
298,192,283908,128,0,283981:0:0:0:0:
469,192,283981,128,0,284127:0:0:0:0:
42,192,283981,128,0,284054:0:0:0:0:
213,192,284054,128,0,284199:0:0:0:0:
298,192,284127,128,0,284272:0:0:0:0:
42,192,284127,1,0,0:0:0:0:
384,192,284199,128,0,284491:0:0:0:0:
469,192,284272,128,0,284345:0:0:0:0:
42,192,284272,1,0,0:0:0:0:
128,192,284272,128,0,284418:0:0:0:0:
298,192,284345,128,0,284418:0:0:0:0:
213,192,284418,128,0,284491:0:0:0:0:
298,192,284491,128,0,284709:0:0:0:0:
42,192,284491,128,0,284636:0:0:0:0:
213,192,284564,128,0,284636:0:0:0:0:
469,192,284564,1,0,0:0:0:0:
128,192,284636,128,0,284928:0:0:0:0:
42,192,284709,128,0,284782:0:0:0:0:
384,192,284709,128,0,284855:0:0:0:0:
213,192,284782,128,0,284855:0:0:0:0:
298,192,284855,128,0,284928:0:0:0:0:
42,192,284855,1,0,0:0:0:0:
213,192,284928,128,0,285146:0:0:0:0:
469,192,284928,128,0,285073:0:0:0:0:
298,192,285000,128,0,285073:0:0:0:0:
384,192,285073,128,0,285146:0:0:0:0:
128,192,285146,128,0,285219:0:0:0:0:
469,192,285146,128,0,285219:0:0:0:0:
298,192,285219,1,0,0:0:0:0:
384,192,285292,128,0,285364:0:0:0:0:
42,192,285292,128,0,285364:0:0:0:0:
213,192,285364,1,0,0:0:0:0:
42,192,285437,128,0,285510:0:0:0:0:
298,192,285437,128,0,285583:0:0:0:0:
384,192,285437,1,0,0:0:0:0:
128,192,285510,128,0,285583:0:0:0:0:
213,192,285583,128,0,285729:0:0:0:0:
298,192,285656,1,0,0:0:0:0:
128,192,285729,128,0,285801:0:0:0:0:
384,192,285729,128,0,285874:0:0:0:0:
469,192,285729,1,0,0:0:0:0:
213,192,285801,128,0,285874:0:0:0:0:
298,192,285874,128,0,286020:0:0:0:0:
384,192,285947,1,0,0:0:0:0:
128,192,286020,1,0,0:0:0:0:
469,192,286020,128,0,286093:0:0:0:0:
213,192,286020,128,0,286165:0:0:0:0:
384,192,286093,128,0,286165:0:0:0:0:
298,192,286165,128,0,286311:0:0:0:0:
469,192,286238,128,0,286311:0:0:0:0:
213,192,286311,128,0,286457:0:0:0:0:
42,192,286311,1,0,0:0:0:0:
128,192,286311,1,0,0:0:0:0:
384,192,286384,128,0,286457:0:0:0:0:
128,192,286457,128,0,286602:0:0:0:0:
298,192,286530,128,0,286602:0:0:0:0:
42,192,286602,1,0,0:0:0:0:
384,192,286602,128,0,286675:0:0:0:0:
469,192,286602,128,0,286675:0:0:0:0:
128,192,286675,1,0,0:0:0:0:
213,192,286748,1,0,0:0:0:0:
384,192,286748,1,0,0:0:0:0:
128,192,286821,1,0,0:0:0:0:
42,192,286894,1,0,0:0:0:0:
298,192,286894,1,0,0:0:0:0:
469,192,286894,1,0,0:0:0:0:
213,192,286966,1,0,0:0:0:0:
298,192,287039,1,0,0:0:0:0:
128,192,287039,1,0,0:0:0:0:
384,192,287112,1,0,0:0:0:0:
469,192,287185,1,0,0:0:0:0:
42,192,287185,128,0,287258:0:0:0:0:
128,192,287185,128,0,287258:0:0:0:0:
298,192,287258,1,0,0:0:0:0:
128,192,287330,128,0,287403:0:0:0:0:
213,192,287330,128,0,287403:0:0:0:0:
384,192,287403,1,0,0:0:0:0:
42,192,287476,1,0,0:0:0:0:
213,192,287476,128,0,287549:0:0:0:0:
298,192,287476,128,0,287549:0:0:0:0:
469,192,287549,1,0,0:0:0:0:
298,192,287622,128,0,287695:0:0:0:0:
384,192,287622,128,0,287695:0:0:0:0:
213,192,287695,1,0,0:0:0:0:
42,192,287767,1,0,0:0:0:0:
384,192,287767,128,0,287840:0:0:0:0:
469,192,287767,128,0,287840:0:0:0:0:
128,192,287840,1,0,0:0:0:0:
213,192,287913,1,0,0:0:0:0:
384,192,287913,1,0,0:0:0:0:
128,192,287986,1,0,0:0:0:0:
42,192,288059,1,0,0:0:0:0:
298,192,288059,1,0,0:0:0:0:
469,192,288059,1,0,0:0:0:0:
213,192,288131,1,0,0:0:0:0:
384,192,288204,128,0,288277:0:0:0:0:
128,192,288204,128,0,288277:0:0:0:0:
298,192,288277,1,0,0:0:0:0:
42,192,288350,1,0,0:0:0:0:
213,192,288350,1,0,0:0:0:0:
298,192,288423,1,0,0:0:0:0:
384,192,288496,1,0,0:0:0:0:
128,192,288496,1,0,0:0:0:0:
213,192,288568,1,0,0:0:0:0:
384,192,288641,128,0,288714:0:0:0:0:
469,192,288641,128,0,288714:0:0:0:0:
42,192,288641,1,0,0:0:0:0:
213,192,288714,1,0,0:0:0:0:
128,192,288787,1,0,0:0:0:0:
384,192,288787,1,0,0:0:0:0:
298,192,288860,1,0,0:0:0:0:
384,192,288932,128,0,289005:0:0:0:0:
469,192,288932,128,0,289005:0:0:0:0:
42,192,288932,1,0,0:0:0:0:
128,192,289005,1,0,0:0:0:0:
213,192,289078,1,0,0:0:0:0:
469,192,289078,1,0,0:0:0:0:
298,192,289151,1,0,0:0:0:0:
128,192,289224,128,0,289297:0:0:0:0:
42,192,289224,128,0,289297:0:0:0:0:
384,192,289224,1,0,0:0:0:0:
298,192,289297,1,0,0:0:0:0:
128,192,289369,128,0,289442:0:0:0:0:
42,192,289369,128,0,289442:0:0:0:0:
298,192,289442,1,0,0:0:0:0:
213,192,289515,1,0,0:0:0:0:
42,192,289515,1,0,0:0:0:0:
469,192,289515,1,0,0:0:0:0:
384,192,289588,1,0,0:0:0:0:
298,192,289661,1,0,0:0:0:0:
128,192,289661,1,0,0:0:0:0:
384,192,289733,1,0,0:0:0:0:
469,192,289806,1,0,0:0:0:0:
213,192,289806,1,0,0:0:0:0:
42,192,289806,1,0,0:0:0:0:
298,192,289879,1,0,0:0:0:0:
384,192,289952,1,0,0:0:0:0:
128,192,289952,1,0,0:0:0:0:
213,192,290025,1,0,0:0:0:0:
298,192,290097,1,0,0:0:0:0:
469,192,290097,1,0,0:0:0:0:
42,192,290097,1,0,0:0:0:0:
128,192,290170,1,0,0:0:0:0:
213,192,290243,1,0,0:0:0:0:
384,192,290243,1,0,0:0:0:0:
128,192,290316,1,0,0:0:0:0:
298,192,290389,1,0,0:0:0:0:
469,192,290389,1,0,0:0:0:0:
42,192,290389,1,0,0:0:0:0:
213,192,290462,1,0,0:0:0:0:
128,192,290534,1,0,0:0:0:0:
384,192,290534,1,0,0:0:0:0:
298,192,290607,1,0,0:0:0:0:
213,192,290680,1,0,0:0:0:0:
42,192,290680,1,0,0:0:0:0:
469,192,290680,1,0,0:0:0:0:
384,192,290753,1,0,0:0:0:0:
298,192,290826,1,0,0:0:0:0:
128,192,290826,1,0,0:0:0:0:
384,192,290898,1,0,0:0:0:0:
469,192,290971,1,0,0:0:0:0:
213,192,290971,1,0,0:0:0:0:
42,192,290971,1,0,0:0:0:0:
298,192,291044,1,0,0:0:0:0:
384,192,291117,1,0,0:0:0:0:
128,192,291117,1,0,0:0:0:0:
213,192,291190,1,0,0:0:0:0:
298,192,291263,1,0,0:0:0:0:
384,192,291263,1,0,0:0:0:0:
469,192,291263,1,0,0:0:0:0:
42,192,291263,1,0,0:0:0:0:
128,192,291335,1,0,0:0:0:0:
298,192,291408,1,0,0:0:0:0:
384,192,291408,1,0,0:0:0:0:
213,192,291481,1,0,0:0:0:0:
298,192,291554,1,0,0:0:0:0:
469,192,291554,1,0,0:0:0:0:
42,192,291554,1,0,0:0:0:0:
128,192,291554,1,0,0:0:0:0:
384,192,291627,1,0,0:0:0:0:
469,192,291699,1,0,0:0:0:0:
213,192,291699,1,0,0:0:0:0:
298,192,291772,1,0,0:0:0:0:
384,192,291845,1,0,0:0:0:0:
469,192,291845,1,0,0:0:0:0:
128,192,291845,1,0,0:0:0:0:
42,192,291845,1,0,0:0:0:0:
213,192,291918,1,0,0:0:0:0:
384,192,291991,1,0,0:0:0:0:
128,192,291991,1,0,0:0:0:0:
298,192,292064,1,0,0:0:0:0:
213,192,292136,1,0,0:0:0:0:
42,192,292136,1,0,0:0:0:0:
128,192,292136,1,0,0:0:0:0:
469,192,292136,1,0,0:0:0:0:
384,192,292209,1,0,0:0:0:0:
42,192,292282,1,0,0:0:0:0:
213,192,292282,1,0,0:0:0:0:
298,192,292355,1,0,0:0:0:0:
213,192,292428,1,0,0:0:0:0:
128,192,292428,1,0,0:0:0:0:
42,192,292428,1,0,0:0:0:0:
469,192,292428,1,0,0:0:0:0:
384,192,292500,1,0,0:0:0:0:
128,192,292573,1,0,0:0:0:0:
469,192,292573,1,0,0:0:0:0:
213,192,292646,1,0,0:0:0:0:
42,192,292719,1,0,0:0:0:0:
469,192,292719,1,0,0:0:0:0:
384,192,292719,1,0,0:0:0:0:
298,192,292719,1,0,0:0:0:0:
128,192,292792,1,0,0:0:0:0:
42,192,292864,1,0,0:0:0:0:
298,192,292864,1,0,0:0:0:0:
213,192,292937,1,0,0:0:0:0:
128,192,293010,1,0,0:0:0:0:
42,192,293010,1,0,0:0:0:0:
384,192,293010,1,0,0:0:0:0:
469,192,293010,1,0,0:0:0:0:
298,192,293083,1,0,0:0:0:0:
128,192,293156,1,0,0:0:0:0:
384,192,293156,1,0,0:0:0:0:
213,192,293229,1,0,0:0:0:0:
298,192,293301,1,0,0:0:0:0:
384,192,293301,1,0,0:0:0:0:
469,192,293301,1,0,0:0:0:0:
42,192,293301,1,0,0:0:0:0:
128,192,293374,1,0,0:0:0:0:
298,192,293447,1,0,0:0:0:0:
469,192,293447,1,0,0:0:0:0:
213,192,293520,1,0,0:0:0:0:
469,192,293593,5,0,0:0:0:0:
42,192,293593,1,0,0:0:0:0:
128,192,293593,1,0,0:0:0:0:
384,192,293593,1,0,0:0:0:0:
298,192,293665,1,0,0:0:0:0:
42,192,293738,1,0,0:0:0:0:
128,192,293738,1,0,0:0:0:0:
298,192,293811,1,0,0:0:0:0:
384,192,293811,1,0,0:0:0:0:
213,192,293884,1,0,0:0:0:0:
42,192,293884,1,0,0:0:0:0:
469,192,293884,1,0,0:0:0:0:
384,192,293957,1,0,0:0:0:0:
298,192,293957,1,0,0:0:0:0:
42,192,294030,1,0,0:0:0:0:
128,192,294030,1,0,0:0:0:0:
298,192,294102,1,0,0:0:0:0:
469,192,294175,1,0,0:0:0:0:
384,192,294175,1,0,0:0:0:0:
213,192,294175,1,0,0:0:0:0:
42,192,294248,1,0,0:0:0:0:
298,192,294248,1,0,0:0:0:0:
384,192,294321,1,0,0:0:0:0:
128,192,294321,1,0,0:0:0:0:
213,192,294394,1,0,0:0:0:0:
469,192,294394,1,0,0:0:0:0:
298,192,294466,1,0,0:0:0:0:
128,192,294466,1,0,0:0:0:0:
42,192,294466,1,0,0:0:0:0:
384,192,294539,1,0,0:0:0:0:
469,192,294539,1,0,0:0:0:0:
128,192,294612,1,0,0:0:0:0:
42,192,294612,1,0,0:0:0:0:
213,192,294685,1,0,0:0:0:0:
42,192,294758,1,0,0:0:0:0:
298,192,294758,1,0,0:0:0:0:
469,192,294758,1,0,0:0:0:0:
213,192,294830,1,0,0:0:0:0:
128,192,294830,1,0,0:0:0:0:
298,192,294903,1,0,0:0:0:0:
384,192,294903,1,0,0:0:0:0:
128,192,294976,1,0,0:0:0:0:
42,192,295049,1,0,0:0:0:0:
469,192,295049,1,0,0:0:0:0:
213,192,295049,1,0,0:0:0:0:
384,192,295122,1,0,0:0:0:0:
298,192,295122,1,0,0:0:0:0:
128,192,295195,1,0,0:0:0:0:
213,192,295195,1,0,0:0:0:0:
384,192,295267,1,0,0:0:0:0:
298,192,295340,1,0,0:0:0:0:
469,192,295340,1,0,0:0:0:0:
42,192,295340,1,0,0:0:0:0:
213,192,295413,1,0,0:0:0:0:
128,192,295413,1,0,0:0:0:0:
384,192,295486,1,0,0:0:0:0:
469,192,295486,1,0,0:0:0:0:
213,192,295559,1,0,0:0:0:0:
298,192,295559,1,0,0:0:0:0:
469,192,295631,1,0,0:0:0:0:
42,192,295631,1,0,0:0:0:0:
128,192,295631,1,0,0:0:0:0:
384,192,295704,1,0,0:0:0:0:
298,192,295704,1,0,0:0:0:0:
213,192,295777,1,0,0:0:0:0:
128,192,295777,1,0,0:0:0:0:
384,192,295850,1,0,0:0:0:0:
42,192,295923,1,0,0:0:0:0:
128,192,295923,1,0,0:0:0:0:
213,192,295923,1,0,0:0:0:0:
469,192,295996,1,0,0:0:0:0:
384,192,295996,1,0,0:0:0:0:
42,192,296068,1,0,0:0:0:0:
298,192,296068,1,0,0:0:0:0:
213,192,296068,1,0,0:0:0:0:
128,192,296141,1,0,0:0:0:0:
42,192,296214,1,0,0:0:0:0:
469,192,296214,1,0,0:0:0:0:
384,192,296214,1,0,0:0:0:0:
213,192,296287,1,0,0:0:0:0:
298,192,296287,1,0,0:0:0:0:
128,192,296360,1,0,0:0:0:0:
469,192,296360,1,0,0:0:0:0:
384,192,296360,1,0,0:0:0:0:
213,192,296432,1,0,0:0:0:0:
298,192,296432,1,0,0:0:0:0:
469,192,296505,1,0,0:0:0:0:
42,192,296505,1,0,0:0:0:0:
384,192,296505,1,0,0:0:0:0:
128,192,296578,1,0,0:0:0:0:
213,192,296651,1,0,0:0:0:0:
42,192,296651,1,0,0:0:0:0:
298,192,296651,1,0,0:0:0:0:
384,192,296724,1,0,0:0:0:0:
469,192,296724,1,0,0:0:0:0:
213,192,296797,1,0,0:0:0:0:
128,192,296797,1,0,0:0:0:0:
42,192,296797,1,0,0:0:0:0:
298,192,296869,1,0,0:0:0:0:
384,192,296869,1,0,0:0:0:0:
469,192,296942,1,0,0:0:0:0:
128,192,296942,1,0,0:0:0:0:
42,192,296942,1,0,0:0:0:0:
213,192,297015,1,0,0:0:0:0:
469,192,297088,1,0,0:0:0:0:
384,192,297088,1,0,0:0:0:0:
298,192,297088,1,0,0:0:0:0:
42,192,297161,1,0,0:0:0:0:
128,192,297161,1,0,0:0:0:0:
469,192,297233,1,0,0:0:0:0:
213,192,297233,1,0,0:0:0:0:
298,192,297233,1,0,0:0:0:0:
384,192,297306,1,0,0:0:0:0:
469,192,297379,1,0,0:0:0:0:
42,192,297379,1,0,0:0:0:0:
128,192,297379,1,0,0:0:0:0:
298,192,297452,1,0,0:0:0:0:
213,192,297452,1,0,0:0:0:0:
384,192,297525,1,0,0:0:0:0:
42,192,297525,1,0,0:0:0:0:
128,192,297525,1,0,0:0:0:0:
298,192,297597,1,0,0:0:0:0:
213,192,297597,1,0,0:0:0:0:
42,192,297670,1,0,0:0:0:0:
469,192,297670,1,0,0:0:0:0:
128,192,297670,1,0,0:0:0:0:
384,192,297743,1,0,0:0:0:0:
298,192,297816,1,0,0:0:0:0:
469,192,297816,1,0,0:0:0:0:
213,192,297816,1,0,0:0:0:0:
128,192,297889,1,0,0:0:0:0:
42,192,297889,1,0,0:0:0:0:
298,192,297962,1,0,0:0:0:0:
384,192,297962,1,0,0:0:0:0:
469,192,297962,1,0,0:0:0:0:
213,192,298034,1,0,0:0:0:0:
128,192,298034,1,0,0:0:0:0:
42,192,298107,1,0,0:0:0:0:
384,192,298107,1,0,0:0:0:0:
469,192,298107,1,0,0:0:0:0:
298,192,298180,1,0,0:0:0:0:
213,192,298253,1,0,0:0:0:0:
42,192,298253,1,0,0:0:0:0:
128,192,298253,1,0,0:0:0:0:
469,192,298326,1,0,0:0:0:0:
384,192,298326,1,0,0:0:0:0:
42,192,298398,1,0,0:0:0:0:
128,192,298398,1,0,0:0:0:0:
298,192,298398,1,0,0:0:0:0:
469,192,298471,1,0,0:0:0:0:
384,192,298471,1,0,0:0:0:0:
42,192,298544,1,0,0:0:0:0:
128,192,298544,1,0,0:0:0:0:
213,192,298544,1,0,0:0:0:0:
384,192,298617,1,0,0:0:0:0:
298,192,298617,1,0,0:0:0:0:
42,192,298690,1,0,0:0:0:0:
128,192,298690,1,0,0:0:0:0:
469,192,298690,1,0,0:0:0:0:
213,192,298763,1,0,0:0:0:0:
298,192,298763,1,0,0:0:0:0:
42,192,298835,1,0,0:0:0:0:
469,192,298835,1,0,0:0:0:0:
384,192,298835,1,0,0:0:0:0:
213,192,298908,1,0,0:0:0:0:
128,192,298908,1,0,0:0:0:0:
298,192,298981,1,0,0:0:0:0:
384,192,298981,1,0,0:0:0:0:
469,192,298981,1,0,0:0:0:0:
213,192,299054,1,0,0:0:0:0:
128,192,299054,1,0,0:0:0:0:
469,192,299127,1,0,0:0:0:0:
42,192,299127,1,0,0:0:0:0:
384,192,299127,1,0,0:0:0:0:
298,192,299199,1,0,0:0:0:0:
213,192,299199,1,0,0:0:0:0:
42,192,299272,1,0,0:0:0:0:
469,192,299272,1,0,0:0:0:0:
384,192,299272,1,0,0:0:0:0:
213,192,299345,1,0,0:0:0:0:
128,192,299345,1,0,0:0:0:0:
469,192,299418,1,0,0:0:0:0:
42,192,299418,128,0,299491:0:0:0:0:
384,192,299418,1,0,0:0:0:0:
298,192,299418,1,0,0:0:0:0:
128,192,299491,128,0,299564:0:0:0:0:
298,192,299564,128,0,299636:0:0:0:0:
384,192,299636,128,0,299709:0:0:0:0:
128,192,299709,128,0,299782:0:0:0:0:
213,192,299782,128,0,299855:0:0:0:0:
384,192,299855,128,0,299928:0:0:0:0:
469,192,299928,128,0,300000:0:0:0:0:
42,192,300000,128,0,300049:0:0:0:0:
213,192,300049,128,0,300097:0:0:0:0:
298,192,300097,128,0,300146:0:0:0:0:
128,192,300146,128,0,300195:0:0:0:0:
298,192,300195,128,0,300243:0:0:0:0:
384,192,300243,128,0,300292:0:0:0:0:
469,192,300292,128,0,300340:0:0:0:0:
298,192,300340,128,0,300389:0:0:0:0:
213,192,300389,128,0,300437:0:0:0:0:
384,192,300437,128,0,300486:0:0:0:0:
213,192,300486,128,0,300534:0:0:0:0:
128,192,300534,128,0,300583:0:0:0:0:
384,192,300583,128,0,300656:0:0:0:0:
42,192,300583,128,0,300801:0:0:0:0:
298,192,300583,1,0,0:0:0:0:
469,192,300583,128,0,300729:0:0:0:0:
213,192,300656,128,0,300729:0:0:0:0:
298,192,300729,128,0,300947:0:0:0:0:
128,192,300729,128,0,300801:0:0:0:0:
384,192,300801,128,0,300874:0:0:0:0:
213,192,300874,128,0,301020:0:0:0:0:
42,192,300874,128,0,300947:0:0:0:0:
469,192,300874,128,0,301093:0:0:0:0:
128,192,300947,128,0,301093:0:0:0:0:
42,192,301020,128,0,301311:0:0:0:0:
384,192,301020,128,0,301093:0:0:0:0:
298,192,301093,128,0,301165:0:0:0:0:
469,192,301165,128,0,301384:0:0:0:0:
213,192,301165,1,0,0:0:0:0:
128,192,301165,128,0,301238:0:0:0:0:
298,192,301238,128,0,301384:0:0:0:0:
384,192,301311,128,0,301530:0:0:0:0:
128,192,301311,1,0,0:0:0:0:
213,192,301384,128,0,301530:0:0:0:0:
298,192,301457,128,0,301675:0:0:0:0:
469,192,301457,128,0,301530:0:0:0:0:
42,192,301457,1,0,0:0:0:0:
128,192,301530,128,0,301675:0:0:0:0:
213,192,301602,128,0,301821:0:0:0:0:
384,192,301602,1,0,0:0:0:0:
42,192,301675,128,0,301821:0:0:0:0:
298,192,301748,128,0,302039:0:0:0:0:
128,192,301748,128,0,301821:0:0:0:0:
469,192,301748,1,0,0:0:0:0:
384,192,301821,128,0,301894:0:0:0:0:
213,192,301894,128,0,301966:0:0:0:0:
42,192,301894,128,0,301966:0:0:0:0:
384,192,301966,128,0,302258:0:0:0:0:
469,192,302039,128,0,302112:0:0:0:0:
128,192,302039,128,0,302112:0:0:0:0:
42,192,302039,128,0,302258:0:0:0:0:
298,192,302112,128,0,302185:0:0:0:0:
469,192,302185,128,0,302476:0:0:0:0:
213,192,302185,1,0,0:0:0:0:
298,192,302258,128,0,302330:0:0:0:0:
42,192,302330,128,0,302403:0:0:0:0:
213,192,302330,128,0,302549:0:0:0:0:
128,192,302330,128,0,302403:0:0:0:0:
298,192,302403,128,0,302476:0:0:0:0:
128,192,302476,128,0,302695:0:0:0:0:
384,192,302476,128,0,302549:0:0:0:0:
42,192,302549,128,0,302622:0:0:0:0:
298,192,302622,128,0,302840:0:0:0:0:
469,192,302622,128,0,302695:0:0:0:0:
384,192,302622,1,0,0:0:0:0:
213,192,302695,128,0,302767:0:0:0:0:
384,192,302767,128,0,302913:0:0:0:0:
42,192,302767,128,0,302840:0:0:0:0:
469,192,302840,128,0,303059:0:0:0:0:
128,192,302913,128,0,303204:0:0:0:0:
42,192,302913,1,0,0:0:0:0:
213,192,302913,128,0,302986:0:0:0:0:
298,192,302986,128,0,303059:0:0:0:0:
42,192,303059,128,0,303131:0:0:0:0:
384,192,303059,128,0,303131:0:0:0:0:
298,192,303131,128,0,303350:0:0:0:0:
213,192,303204,128,0,303277:0:0:0:0:
42,192,303204,128,0,303277:0:0:0:0:
469,192,303204,128,0,303277:0:0:0:0:
384,192,303277,128,0,303423:0:0:0:0:
128,192,303350,128,0,303568:0:0:0:0:
469,192,303350,1,0,0:0:0:0:
213,192,303423,128,0,303496:0:0:0:0:
42,192,303496,128,0,303860:0:0:0:0:
298,192,303496,128,0,303641:0:0:0:0:
384,192,303496,128,0,303568:0:0:0:0:
213,192,303568,128,0,303714:0:0:0:0:
384,192,303641,128,0,303714:0:0:0:0:
469,192,303641,128,0,303714:0:0:0:0:
298,192,303714,128,0,303787:0:0:0:0:
384,192,303787,128,0,303860:0:0:0:0:
469,192,303787,128,0,303932:0:0:0:0:
128,192,303787,128,0,303932:0:0:0:0:
213,192,303860,128,0,304005:0:0:0:0:
42,192,303932,128,0,304005:0:0:0:0:
298,192,303932,128,0,304078:0:0:0:0:
469,192,304005,128,0,304078:0:0:0:0:
213,192,304078,128,0,304151:0:0:0:0:
128,192,304078,128,0,304297:0:0:0:0:
384,192,304078,128,0,304297:0:0:0:0:
42,192,304151,128,0,304224:0:0:0:0:
213,192,304224,128,0,304442:0:0:0:0:
469,192,304224,128,0,304297:0:0:0:0:
42,192,304297,128,0,304369:0:0:0:0:
298,192,304369,128,0,304442:0:0:0:0:
384,192,304369,128,0,304588:0:0:0:0:
128,192,304369,128,0,304588:0:0:0:0:
469,192,304442,128,0,304515:0:0:0:0:
298,192,304515,128,0,304733:0:0:0:0:
42,192,304515,128,0,304588:0:0:0:0:
469,192,304588,128,0,304661:0:0:0:0:
128,192,304661,128,0,304879:0:0:0:0:
384,192,304661,128,0,304879:0:0:0:0:
213,192,304661,1,0,0:0:0:0:
42,192,304733,128,0,304806:0:0:0:0:
213,192,304806,128,0,304952:0:0:0:0:
469,192,304806,1,0,0:0:0:0:
298,192,304879,128,0,305025:0:0:0:0:
42,192,304952,1,0,0:0:0:0:
128,192,304952,128,0,305025:0:0:0:0:
384,192,304952,128,0,305170:0:0:0:0:
469,192,305025,128,0,305097:0:0:0:0:
128,192,305097,1,0,0:0:0:0:
298,192,305097,128,0,305243:0:0:0:0:
213,192,305170,128,0,305316:0:0:0:0:
469,192,305243,128,0,305462:0:0:0:0:
42,192,305243,128,0,305389:0:0:0:0:
384,192,305243,1,0,0:0:0:0:
298,192,305316,128,0,305389:0:0:0:0:
213,192,305389,128,0,305607:0:0:0:0:
384,192,305389,128,0,305462:0:0:0:0:
128,192,305462,128,0,305534:0:0:0:0:
298,192,305534,128,0,305680:0:0:0:0:
469,192,305534,128,0,305607:0:0:0:0:
42,192,305534,128,0,305753:0:0:0:0:
384,192,305607,128,0,305753:0:0:0:0:
469,192,305680,128,0,305971:0:0:0:0:
128,192,305680,128,0,305753:0:0:0:0:
213,192,305753,128,0,305826:0:0:0:0:
42,192,305826,128,0,306044:0:0:0:0:
298,192,305826,1,0,0:0:0:0:
384,192,305826,128,0,305898:0:0:0:0:
213,192,305898,128,0,306044:0:0:0:0:
128,192,305971,128,0,306190:0:0:0:0:
384,192,305971,1,0,0:0:0:0:
298,192,306044,128,0,306190:0:0:0:0:
213,192,306117,128,0,306335:0:0:0:0:
42,192,306117,128,0,306190:0:0:0:0:
469,192,306117,1,0,0:0:0:0:
384,192,306190,128,0,306335:0:0:0:0:
298,192,306263,128,0,306481:0:0:0:0:
128,192,306263,1,0,0:0:0:0:
469,192,306335,128,0,306481:0:0:0:0:
213,192,306408,128,0,306699:0:0:0:0:
384,192,306408,128,0,306481:0:0:0:0:
42,192,306408,1,0,0:0:0:0:
128,192,306481,128,0,306554:0:0:0:0:
298,192,306554,128,0,306627:0:0:0:0:
469,192,306554,128,0,306627:0:0:0:0:
128,192,306627,128,0,306918:0:0:0:0:
42,192,306699,128,0,306772:0:0:0:0:
384,192,306699,128,0,306772:0:0:0:0:
469,192,306699,128,0,306918:0:0:0:0:
213,192,306772,128,0,306845:0:0:0:0:
42,192,306845,128,0,307136:0:0:0:0:
298,192,306845,1,0,0:0:0:0:
213,192,306918,128,0,306991:0:0:0:0:
469,192,306991,128,0,307064:0:0:0:0:
298,192,306991,128,0,307209:0:0:0:0:
384,192,306991,128,0,307064:0:0:0:0:
213,192,307064,128,0,307136:0:0:0:0:
384,192,307136,128,0,307355:0:0:0:0:
128,192,307136,128,0,307209:0:0:0:0:
469,192,307209,128,0,307282:0:0:0:0:
213,192,307282,128,0,307500:0:0:0:0:
42,192,307282,128,0,307355:0:0:0:0:
128,192,307282,1,0,0:0:0:0:
298,192,307355,128,0,307428:0:0:0:0:
128,192,307428,128,0,307573:0:0:0:0:
469,192,307428,128,0,307500:0:0:0:0:
42,192,307500,128,0,307719:0:0:0:0:
298,192,307573,128,0,307646:0:0:0:0:
384,192,307573,128,0,307864:0:0:0:0:
469,192,307573,1,0,0:0:0:0:
213,192,307646,128,0,307719:0:0:0:0:
469,192,307719,128,0,307792:0:0:0:0:
128,192,307719,128,0,307792:0:0:0:0:
213,192,307792,128,0,308010:0:0:0:0:
298,192,307864,128,0,307937:0:0:0:0:
469,192,307864,128,0,308010:0:0:0:0:
42,192,307864,1,0,0:0:0:0:
128,192,307937,128,0,308083:0:0:0:0:
384,192,308010,128,0,308229:0:0:0:0:
42,192,308010,1,0,0:0:0:0:
298,192,308083,128,0,308156:0:0:0:0:
469,192,308156,128,0,308520:0:0:0:0:
213,192,308156,128,0,308301:0:0:0:0:
128,192,308156,128,0,308229:0:0:0:0:
298,192,308229,128,0,308374:0:0:0:0:
128,192,308301,128,0,308374:0:0:0:0:
42,192,308301,128,0,308374:0:0:0:0:
213,192,308374,128,0,308447:0:0:0:0:
128,192,308447,128,0,308520:0:0:0:0:
42,192,308447,128,0,308593:0:0:0:0:
384,192,308447,128,0,308593:0:0:0:0:
298,192,308520,128,0,308665:0:0:0:0:
469,192,308593,128,0,308665:0:0:0:0:
213,192,308593,128,0,308738:0:0:0:0:
128,192,308665,128,0,308811:0:0:0:0:
384,192,308738,128,0,308811:0:0:0:0:
42,192,308738,128,0,308811:0:0:0:0:
469,192,308738,128,0,308957:0:0:0:0:
298,192,308811,128,0,308884:0:0:0:0:
128,192,308884,128,0,309102:0:0:0:0:
384,192,308884,128,0,309102:0:0:0:0:
213,192,308957,128,0,309030:0:0:0:0:
42,192,309030,128,0,309248:0:0:0:0:
298,192,309030,128,0,309102:0:0:0:0:
469,192,309030,128,0,309175:0:0:0:0:
213,192,309102,128,0,309175:0:0:0:0:
384,192,309175,128,0,309394:0:0:0:0:
128,192,309175,128,0,309394:0:0:0:0:
298,192,309248,128,0,309321:0:0:0:0:
469,192,309321,128,0,309539:0:0:0:0:
42,192,309321,128,0,309466:0:0:0:0:
213,192,309321,1,0,0:0:0:0:
298,192,309394,128,0,309466:0:0:0:0:
128,192,309466,128,0,309685:0:0:0:0:
384,192,309466,128,0,309539:0:0:0:0:
213,192,309539,128,0,309612:0:0:0:0:
42,192,309612,128,0,309685:0:0:0:0:
298,192,309612,128,0,309758:0:0:0:0:
469,192,309612,1,0,0:0:0:0:
384,192,309612,128,0,309685:0:0:0:0:
213,192,309685,128,0,309830:0:0:0:0:
128,192,309758,128,0,309903:0:0:0:0:
384,192,309758,1,0,0:0:0:0:
42,192,309830,128,0,309903:0:0:0:0:
298,192,309903,1,0,0:0:0:0:
469,192,309903,1,0,0:0:0:0:
384,192,309903,1,0,0:0:0:0:
213,192,309903,1,0,0:0:0:0:
128,192,309976,1,0,0:0:0:0:
298,192,310049,1,0,0:0:0:0:
384,192,310049,1,0,0:0:0:0:
469,192,310049,1,0,0:0:0:0:
128,192,310122,1,0,0:0:0:0:
469,192,310195,1,0,0:0:0:0:
213,192,310219,1,0,0:0:0:0:
384,192,310243,1,0,0:0:0:0:
128,192,310267,1,0,0:0:0:0:
298,192,310292,1,0,0:0:0:0:
42,192,310316,1,0,0:0:0:0:
213,192,310340,1,0,0:0:0:0:
469,192,310340,1,0,0:0:0:0:
384,192,310413,1,0,0:0:0:0:
213,192,310486,1,0,0:0:0:0:
128,192,310486,1,0,0:0:0:0:
42,192,310486,1,0,0:0:0:0:
384,192,310559,1,0,0:0:0:0:
42,192,310631,1,0,0:0:0:0:
298,192,310656,1,0,0:0:0:0:
128,192,310680,1,0,0:0:0:0:
384,192,310704,1,0,0:0:0:0:
213,192,310729,1,0,0:0:0:0:
469,192,310753,1,0,0:0:0:0:
298,192,310777,1,0,0:0:0:0:
42,192,310777,1,0,0:0:0:0:
128,192,310850,1,0,0:0:0:0:
298,192,310923,1,0,0:0:0:0:
384,192,310923,1,0,0:0:0:0:
469,192,310923,1,0,0:0:0:0:
213,192,310996,1,0,0:0:0:0:
128,192,310996,1,0,0:0:0:0:
42,192,310996,1,0,0:0:0:0:
384,192,311068,1,0,0:0:0:0:
298,192,311068,1,0,0:0:0:0:
469,192,311068,1,0,0:0:0:0:
128,192,311141,1,0,0:0:0:0:
469,192,311214,1,0,0:0:0:0:
213,192,311238,1,0,0:0:0:0:
384,192,311263,1,0,0:0:0:0:
128,192,311287,1,0,0:0:0:0:
298,192,311311,1,0,0:0:0:0:
42,192,311335,1,0,0:0:0:0:
469,192,311360,1,0,0:0:0:0:
213,192,311360,1,0,0:0:0:0:
384,192,311432,1,0,0:0:0:0:
213,192,311505,1,0,0:0:0:0:
128,192,311505,1,0,0:0:0:0:
298,192,311505,1,0,0:0:0:0:
469,192,311578,1,0,0:0:0:0:
213,192,311651,1,0,0:0:0:0:
128,192,311651,1,0,0:0:0:0:
42,192,311651,1,0,0:0:0:0:
384,192,311724,1,0,0:0:0:0:
298,192,311797,1,0,0:0:0:0:
128,192,311797,1,0,0:0:0:0:
42,192,311797,1,0,0:0:0:0:
213,192,311869,1,0,0:0:0:0:
384,192,311869,1,0,0:0:0:0:
469,192,311869,1,0,0:0:0:0:
42,192,311942,1,0,0:0:0:0:
298,192,311966,1,0,0:0:0:0:
128,192,311991,1,0,0:0:0:0:
384,192,312015,1,0,0:0:0:0:
213,192,312039,1,0,0:0:0:0:
469,192,312064,1,0,0:0:0:0:
42,192,312088,1,0,0:0:0:0:
298,192,312088,1,0,0:0:0:0:
128,192,312161,1,0,0:0:0:0:
213,192,312233,1,0,0:0:0:0:
384,192,312233,1,0,0:0:0:0:
469,192,312233,1,0,0:0:0:0:
42,192,312233,1,0,0:0:0:0:
298,192,312306,1,0,0:0:0:0:
128,192,312379,1,0,0:0:0:0:
384,192,312379,1,0,0:0:0:0:
213,192,312452,1,0,0:0:0:0:
298,192,312525,1,0,0:0:0:0:
469,192,312525,1,0,0:0:0:0:
384,192,312525,1,0,0:0:0:0:
128,192,312597,1,0,0:0:0:0:
469,192,312670,1,0,0:0:0:0:
213,192,312695,1,0,0:0:0:0:
384,192,312719,1,0,0:0:0:0:
128,192,312743,1,0,0:0:0:0:
298,192,312767,1,0,0:0:0:0:
42,192,312792,1,0,0:0:0:0:
213,192,312816,1,0,0:0:0:0:
469,192,312816,1,0,0:0:0:0:
384,192,312889,1,0,0:0:0:0:
213,192,312962,1,0,0:0:0:0:
128,192,312962,1,0,0:0:0:0:
298,192,312962,1,0,0:0:0:0:
469,192,313034,1,0,0:0:0:0:
128,192,313107,1,0,0:0:0:0:
42,192,313107,1,0,0:0:0:0:
213,192,313107,1,0,0:0:0:0:
384,192,313180,1,0,0:0:0:0:
128,192,313253,1,0,0:0:0:0:
42,192,313253,1,0,0:0:0:0:
469,192,313253,1,0,0:0:0:0:
298,192,313326,1,0,0:0:0:0:
469,192,313398,1,0,0:0:0:0:
213,192,313423,1,0,0:0:0:0:
384,192,313447,1,0,0:0:0:0:
128,192,313471,1,0,0:0:0:0:
298,192,313496,1,0,0:0:0:0:
42,192,313520,1,0,0:0:0:0:
469,192,313544,1,0,0:0:0:0:
213,192,313544,1,0,0:0:0:0:
384,192,313617,1,0,0:0:0:0:
213,192,313690,1,0,0:0:0:0:
128,192,313690,1,0,0:0:0:0:
42,192,313690,1,0,0:0:0:0:
384,192,313763,1,0,0:0:0:0:
42,192,313835,1,0,0:0:0:0:
298,192,313860,1,0,0:0:0:0:
128,192,313884,1,0,0:0:0:0:
384,192,313908,1,0,0:0:0:0:
213,192,313932,1,0,0:0:0:0:
469,192,313957,1,0,0:0:0:0:
298,192,313981,1,0,0:0:0:0:
42,192,313981,1,0,0:0:0:0:
128,192,314054,1,0,0:0:0:0:
298,192,314127,1,0,0:0:0:0:
384,192,314127,1,0,0:0:0:0:
469,192,314127,1,0,0:0:0:0:
213,192,314199,1,0,0:0:0:0:
128,192,314199,1,0,0:0:0:0:
42,192,314199,1,0,0:0:0:0:
298,192,314272,1,0,0:0:0:0:
384,192,314272,1,0,0:0:0:0:
469,192,314272,1,0,0:0:0:0:
128,192,314345,1,0,0:0:0:0:
469,192,314418,1,0,0:0:0:0:
213,192,314418,1,0,0:0:0:0:
384,192,314491,1,0,0:0:0:0:
213,192,314564,1,0,0:0:0:0:
128,192,314564,1,0,0:0:0:0:
42,192,314564,1,0,0:0:0:0:
298,192,314564,1,0,0:0:0:0:
384,192,314636,1,0,0:0:0:0:
469,192,314636,1,0,0:0:0:0:
128,192,314709,1,0,0:0:0:0:
42,192,314709,1,0,0:0:0:0:
213,192,314709,1,0,0:0:0:0:
213,192,314855,1,0,0:0:0:0:
298,192,314855,1,0,0:0:0:0:
128,192,314855,1,0,0:0:0:0:
42,192,314928,1,0,0:0:0:0:
469,192,314928,1,0,0:0:0:0:
384,192,315000,1,0,0:0:0:0:
298,192,315000,1,0,0:0:0:0:
213,192,315000,1,0,0:0:0:0:
128,192,315073,1,0,0:0:0:0:
42,192,315073,1,0,0:0:0:0:
298,192,315146,1,0,0:0:0:0:
384,192,315146,1,0,0:0:0:0:
469,192,315146,1,0,0:0:0:0:
213,192,315219,1,0,0:0:0:0:
128,192,315219,1,0,0:0:0:0:
42,192,315292,1,0,0:0:0:0:
384,192,315292,1,0,0:0:0:0:
469,192,315292,1,0,0:0:0:0:
298,192,315364,1,0,0:0:0:0:
213,192,315364,1,0,0:0:0:0:
128,192,315437,1,0,0:0:0:0:
42,192,315437,1,0,0:0:0:0:
469,192,315437,1,0,0:0:0:0:
298,192,315729,1,0,0:0:0:0:
384,192,315729,1,0,0:0:0:0:
469,192,315729,1,0,0:0:0:0:
213,192,315729,1,0,0:0:0:0:
128,192,315801,1,0,0:0:0:0:
42,192,315801,1,0,0:0:0:0:
384,192,315874,1,0,0:0:0:0:
469,192,315874,1,0,0:0:0:0:
298,192,315874,1,0,0:0:0:0:
298,192,316020,1,0,0:0:0:0:
213,192,316020,1,0,0:0:0:0:
384,192,316020,1,0,0:0:0:0:
469,192,316093,1,0,0:0:0:0:
42,192,316093,1,0,0:0:0:0:
128,192,316165,1,0,0:0:0:0:
213,192,316165,1,0,0:0:0:0:
298,192,316165,1,0,0:0:0:0:
384,192,316238,1,0,0:0:0:0:
469,192,316238,1,0,0:0:0:0:
213,192,316311,1,0,0:0:0:0:
128,192,316311,1,0,0:0:0:0:
42,192,316311,1,0,0:0:0:0:
298,192,316384,1,0,0:0:0:0:
384,192,316384,1,0,0:0:0:0:
469,192,316457,1,0,0:0:0:0:
128,192,316457,1,0,0:0:0:0:
42,192,316457,1,0,0:0:0:0:
213,192,316530,1,0,0:0:0:0:
298,192,316530,1,0,0:0:0:0:
384,192,316602,1,0,0:0:0:0:
469,192,316602,1,0,0:0:0:0:
42,192,316602,1,0,0:0:0:0:
384,192,316894,1,0,0:0:0:0:
469,192,316894,1,0,0:0:0:0:
128,192,316894,1,0,0:0:0:0:
42,192,316894,1,0,0:0:0:0:
298,192,316966,1,0,0:0:0:0:
213,192,316966,1,0,0:0:0:0:
384,192,317039,1,0,0:0:0:0:
469,192,317039,1,0,0:0:0:0:
42,192,317039,1,0,0:0:0:0:
213,192,317112,1,0,0:0:0:0:
128,192,317112,1,0,0:0:0:0:
42,192,317185,1,0,0:0:0:0:
384,192,317185,1,0,0:0:0:0:
469,192,317185,1,0,0:0:0:0:
298,192,317258,1,0,0:0:0:0:
213,192,317258,1,0,0:0:0:0:
128,192,317330,1,0,0:0:0:0:
42,192,317330,1,0,0:0:0:0:
469,192,317330,1,0,0:0:0:0:
384,192,317403,1,0,0:0:0:0:
298,192,317403,1,0,0:0:0:0:
213,192,317476,1,0,0:0:0:0:
128,192,317476,1,0,0:0:0:0:
42,192,317476,1,0,0:0:0:0:
469,192,317476,1,0,0:0:0:0:
42,192,317622,1,0,0:0:0:0:
298,192,317646,1,0,0:0:0:0:
128,192,317670,1,0,0:0:0:0:
384,192,317695,1,0,0:0:0:0:
213,192,317719,1,0,0:0:0:0:
469,192,317743,1,0,0:0:0:0:
298,192,317767,1,0,0:0:0:0:
42,192,317767,1,0,0:0:0:0:
469,192,317913,1,0,0:0:0:0:
213,192,317937,1,0,0:0:0:0:
384,192,317962,1,0,0:0:0:0:
128,192,317986,1,0,0:0:0:0:
298,192,318010,1,0,0:0:0:0:
42,192,318034,1,0,0:0:0:0:
384,192,318059,128,0,318204:0:0:0:0:
469,192,318059,128,0,318204:0:0:0:0:
213,192,318059,128,0,318204:0:0:0:0:
128,192,318131,1,0,0:0:0:0:
298,192,318204,1,0,0:0:0:0:
213,192,318277,128,0,318423:0:0:0:0:
42,192,318277,128,0,318423:0:0:0:0:
469,192,318277,128,0,318423:0:0:0:0:
298,192,318350,1,0,0:0:0:0:
384,192,318423,1,0,0:0:0:0:
298,192,318496,128,0,318641:0:0:0:0:
128,192,318496,128,0,318641:0:0:0:0:
42,192,318496,1,0,0:0:0:0:
384,192,318568,1,0,0:0:0:0:
213,192,318641,1,0,0:0:0:0:
469,192,318714,128,0,318860:0:0:0:0:
298,192,318714,128,0,318860:0:0:0:0:
42,192,318714,128,0,318860:0:0:0:0:
213,192,318787,1,0,0:0:0:0:
128,192,318860,1,0,0:0:0:0:
213,192,318932,128,0,319005:0:0:0:0:
42,192,318932,128,0,319005:0:0:0:0:
298,192,318932,128,0,319005:0:0:0:0:
469,192,318932,128,0,319005:0:0:0:0:
469,192,319078,128,0,319151:0:0:0:0:
298,192,319078,128,0,319151:0:0:0:0:
213,192,319078,128,0,319151:0:0:0:0:
42,192,319078,128,0,319151:0:0:0:0:
128,192,319224,1,0,0:0:0:0:
42,192,319224,1,0,0:0:0:0:
384,192,319224,1,0,0:0:0:0:
469,192,319224,1,0,0:0:0:0:
128,192,320389,1,0,0:0:0:0:
42,192,320389,1,0,0:0:0:0:
384,192,320462,1,0,0:0:0:0:
469,192,320462,1,0,0:0:0:0:
128,192,320534,1,0,0:0:0:0:
42,192,320534,1,0,0:0:0:0:
384,192,320607,1,0,0:0:0:0:
469,192,320607,1,0,0:0:0:0:
213,192,320680,1,0,0:0:0:0:
128,192,320680,1,0,0:0:0:0:
298,192,320753,1,0,0:0:0:0:
384,192,320753,1,0,0:0:0:0:
213,192,320826,1,0,0:0:0:0:
128,192,320826,1,0,0:0:0:0:
298,192,320898,1,0,0:0:0:0:
384,192,320898,1,0,0:0:0:0:
128,192,320971,1,0,0:0:0:0:
42,192,320971,1,0,0:0:0:0:
384,192,321044,1,0,0:0:0:0:
469,192,321044,1,0,0:0:0:0:
128,192,321117,1,0,0:0:0:0:
42,192,321117,1,0,0:0:0:0:
384,192,321190,1,0,0:0:0:0:
469,192,321190,1,0,0:0:0:0:
213,192,321263,1,0,0:0:0:0:
128,192,321263,1,0,0:0:0:0:
298,192,321335,1,0,0:0:0:0:
384,192,321335,1,0,0:0:0:0:
213,192,321408,1,0,0:0:0:0:
128,192,321408,1,0,0:0:0:0:
298,192,321481,1,0,0:0:0:0:
384,192,321481,1,0,0:0:0:0:
213,192,321554,128,0,321699:0:0:0:0:
42,192,321554,128,0,321918:0:0:0:0:
469,192,321554,128,0,321627:0:0:0:0:
128,192,321554,1,0,0:0:0:0:
298,192,321627,128,0,321772:0:0:0:0:
128,192,321699,1,0,0:0:0:0:
384,192,321699,128,0,321918:0:0:0:0:
469,192,321845,1,0,0:0:0:0:
128,192,321845,128,0,321918:0:0:0:0:
213,192,321845,128,0,322064:0:0:0:0:
128,192,321991,128,0,322136:0:0:0:0:
384,192,321991,1,0,0:0:0:0:
42,192,322064,128,0,322282:0:0:0:0:
469,192,322136,1,0,0:0:0:0:
384,192,322136,128,0,322355:0:0:0:0:
213,192,322136,128,0,322209:0:0:0:0:
298,192,322209,128,0,322282:0:0:0:0:
469,192,322282,128,0,322500:0:0:0:0:
128,192,322282,128,0,322355:0:0:0:0:
213,192,322355,128,0,322428:0:0:0:0:
298,192,322428,128,0,322573:0:0:0:0:
42,192,322428,128,0,322500:0:0:0:0:
384,192,322428,1,0,0:0:0:0:
213,192,322500,128,0,322573:0:0:0:0:
384,192,322573,128,0,322719:0:0:0:0:
128,192,322573,128,0,322646:0:0:0:0:
298,192,322646,128,0,322719:0:0:0:0:
42,192,322719,128,0,323083:0:0:0:0:
213,192,322719,128,0,322864:0:0:0:0:
469,192,322719,128,0,322792:0:0:0:0:
298,192,322792,128,0,322937:0:0:0:0:
384,192,322864,128,0,323083:0:0:0:0:
128,192,322864,1,0,0:0:0:0:
213,192,323010,128,0,323229:0:0:0:0:
128,192,323010,128,0,323083:0:0:0:0:
469,192,323010,1,0,0:0:0:0:
384,192,323156,1,0,0:0:0:0:
128,192,323156,128,0,323301:0:0:0:0:
42,192,323229,128,0,323447:0:0:0:0:
384,192,323301,128,0,323520:0:0:0:0:
469,192,323301,1,0,0:0:0:0:
213,192,323301,128,0,323374:0:0:0:0:
298,192,323374,128,0,323447:0:0:0:0:
469,192,323447,128,0,323665:0:0:0:0:
128,192,323447,128,0,323520:0:0:0:0:
213,192,323520,128,0,323593:0:0:0:0:
384,192,323593,1,0,0:0:0:0:
42,192,323593,128,0,323665:0:0:0:0:
298,192,323593,128,0,323738:0:0:0:0:
213,192,323665,128,0,323738:0:0:0:0:
128,192,323738,128,0,323811:0:0:0:0:
384,192,323738,128,0,323884:0:0:0:0:
298,192,323811,128,0,323884:0:0:0:0:
213,192,323884,128,0,324030:0:0:0:0:
42,192,323884,128,0,324248:0:0:0:0:
469,192,323884,128,0,324102:0:0:0:0:
298,192,323957,128,0,324102:0:0:0:0:
128,192,324030,1,0,0:0:0:0:
384,192,324030,128,0,324248:0:0:0:0:
128,192,324175,128,0,324248:0:0:0:0:
213,192,324175,128,0,324394:0:0:0:0:
469,192,324175,128,0,324321:0:0:0:0:
128,192,324321,128,0,324466:0:0:0:0:
384,192,324321,1,0,0:0:0:0:
42,192,324394,128,0,324612:0:0:0:0:
469,192,324466,1,0,0:0:0:0:
384,192,324466,128,0,324685:0:0:0:0:
213,192,324466,128,0,324612:0:0:0:0:
298,192,324539,128,0,324612:0:0:0:0:
469,192,324612,128,0,324830:0:0:0:0:
128,192,324612,128,0,324758:0:0:0:0:
213,192,324685,128,0,324758:0:0:0:0:
298,192,324758,128,0,324903:0:0:0:0:
42,192,324758,128,0,324976:0:0:0:0:
384,192,324758,1,0,0:0:0:0:
213,192,324830,128,0,324903:0:0:0:0:
384,192,324903,128,0,325049:0:0:0:0:
128,192,324903,128,0,324976:0:0:0:0:
298,192,324976,128,0,325049:0:0:0:0:
42,192,325049,128,0,325413:0:0:0:0:
213,192,325049,128,0,325195:0:0:0:0:
469,192,325049,128,0,325267:0:0:0:0:
298,192,325122,128,0,325267:0:0:0:0:
384,192,325195,128,0,325413:0:0:0:0:
128,192,325195,1,0,0:0:0:0:
213,192,325340,128,0,325559:0:0:0:0:
128,192,325340,128,0,325413:0:0:0:0:
469,192,325340,128,0,325486:0:0:0:0:
384,192,325486,1,0,0:0:0:0:
128,192,325486,128,0,325631:0:0:0:0:
42,192,325559,128,0,325777:0:0:0:0:
384,192,325631,128,0,325850:0:0:0:0:
469,192,325631,1,0,0:0:0:0:
213,192,325631,128,0,325777:0:0:0:0:
298,192,325704,128,0,325777:0:0:0:0:
469,192,325777,128,0,325996:0:0:0:0:
128,192,325777,128,0,325923:0:0:0:0:
213,192,325850,128,0,325923:0:0:0:0:
384,192,325923,1,0,0:0:0:0:
42,192,325923,128,0,326141:0:0:0:0:
298,192,325923,128,0,326068:0:0:0:0:
213,192,325996,128,0,326068:0:0:0:0:
128,192,326068,128,0,326141:0:0:0:0:
384,192,326068,128,0,326214:0:0:0:0:
298,192,326141,128,0,326214:0:0:0:0:
469,192,326214,128,0,326578:0:0:0:0:
213,192,326214,128,0,326432:0:0:0:0:
42,192,326214,128,0,326287:0:0:0:0:
298,192,326287,128,0,326360:0:0:0:0:
128,192,326360,128,0,326578:0:0:0:0:
42,192,326360,1,0,0:0:0:0:
42,192,326505,128,0,326578:0:0:0:0:
213,192,326505,1,0,0:0:0:0:
384,192,326505,128,0,326797:0:0:0:0:
298,192,326651,128,0,326724:0:0:0:0:
128,192,326651,1,0,0:0:0:0:
469,192,326724,128,0,326942:0:0:0:0:
128,192,326797,1,0,0:0:0:0:
213,192,326797,128,0,327015:0:0:0:0:
42,192,326797,128,0,326869:0:0:0:0:
298,192,326869,128,0,326942:0:0:0:0:
128,192,326942,128,0,327088:0:0:0:0:
384,192,326942,128,0,327015:0:0:0:0:
42,192,327015,128,0,327233:0:0:0:0:
384,192,327088,1,0,0:0:0:0:
298,192,327088,128,0,327233:0:0:0:0:
469,192,327088,128,0,327161:0:0:0:0:
213,192,327161,128,0,327233:0:0:0:0:
384,192,327233,128,0,327379:0:0:0:0:
128,192,327233,128,0,327306:0:0:0:0:
298,192,327306,128,0,327379:0:0:0:0:
469,192,327379,128,0,327743:0:0:0:0:
213,192,327379,128,0,327597:0:0:0:0:
42,192,327379,128,0,327452:0:0:0:0:
298,192,327452,128,0,327525:0:0:0:0:
128,192,327525,128,0,327743:0:0:0:0:
42,192,327525,1,0,0:0:0:0:
42,192,327670,128,0,327743:0:0:0:0:
213,192,327670,1,0,0:0:0:0:
384,192,327670,128,0,327962:0:0:0:0:
298,192,327816,128,0,327889:0:0:0:0:
128,192,327816,1,0,0:0:0:0:
469,192,327889,128,0,328107:0:0:0:0:
128,192,327962,1,0,0:0:0:0:
213,192,327962,128,0,328180:0:0:0:0:
42,192,327962,128,0,328034:0:0:0:0:
298,192,328034,128,0,328107:0:0:0:0:
128,192,328107,128,0,328253:0:0:0:0:
384,192,328107,128,0,328180:0:0:0:0:
42,192,328180,128,0,328398:0:0:0:0:
384,192,328253,1,0,0:0:0:0:
298,192,328253,128,0,328398:0:0:0:0:
469,192,328253,128,0,328326:0:0:0:0:
213,192,328326,128,0,328398:0:0:0:0:
384,192,328398,128,0,328544:0:0:0:0:
128,192,328398,128,0,328471:0:0:0:0:
298,192,328471,128,0,328544:0:0:0:0:
469,192,328544,128,0,328763:0:0:0:0:
42,192,328544,128,0,328908:0:0:0:0:
213,192,328544,128,0,328690:0:0:0:0:
298,192,328617,128,0,328763:0:0:0:0:
384,192,328690,128,0,328908:0:0:0:0:
128,192,328690,1,0,0:0:0:0:
213,192,328835,128,0,329054:0:0:0:0:
128,192,328835,128,0,328908:0:0:0:0:
469,192,328835,128,0,328981:0:0:0:0:
384,192,328981,1,0,0:0:0:0:
128,192,328981,128,0,329127:0:0:0:0:
42,192,329054,128,0,329272:0:0:0:0:
213,192,329127,128,0,329272:0:0:0:0:
384,192,329127,128,0,329345:0:0:0:0:
469,192,329127,1,0,0:0:0:0:
298,192,329199,128,0,329272:0:0:0:0:
128,192,329272,128,0,329418:0:0:0:0:
469,192,329272,128,0,329491:0:0:0:0:
213,192,329345,128,0,329418:0:0:0:0:
384,192,329418,1,0,0:0:0:0:
42,192,329418,128,0,329636:0:0:0:0:
298,192,329418,128,0,329564:0:0:0:0:
213,192,329491,128,0,329564:0:0:0:0:
128,192,329564,128,0,329636:0:0:0:0:
384,192,329564,128,0,329709:0:0:0:0:
298,192,329636,128,0,329709:0:0:0:0:
213,192,329709,128,0,329855:0:0:0:0:
42,192,329709,128,0,330073:0:0:0:0:
469,192,329709,128,0,329928:0:0:0:0:
298,192,329782,128,0,329928:0:0:0:0:
128,192,329855,1,0,0:0:0:0:
384,192,329855,128,0,330073:0:0:0:0:
128,192,330000,128,0,330073:0:0:0:0:
213,192,330000,128,0,330219:0:0:0:0:
469,192,330000,128,0,330146:0:0:0:0:
128,192,330146,128,0,330292:0:0:0:0:
384,192,330146,1,0,0:0:0:0:
42,192,330219,128,0,330437:0:0:0:0:
469,192,330292,1,0,0:0:0:0:
384,192,330292,128,0,330510:0:0:0:0:
213,192,330292,128,0,330437:0:0:0:0:
298,192,330364,128,0,330437:0:0:0:0:
469,192,330437,128,0,330656:0:0:0:0:
128,192,330437,128,0,330583:0:0:0:0:
213,192,330510,128,0,330583:0:0:0:0:
42,192,330583,128,0,330801:0:0:0:0:
384,192,330583,1,0,0:0:0:0:
298,192,330583,128,0,330729:0:0:0:0:
213,192,330656,128,0,330729:0:0:0:0:
128,192,330729,128,0,330801:0:0:0:0:
384,192,330729,128,0,330874:0:0:0:0:
298,192,330801,128,0,330874:0:0:0:0:
469,192,330874,128,0,330947:0:0:0:0:
213,192,330874,128,0,331020:0:0:0:0:
42,192,330874,128,0,331238:0:0:0:0:
128,192,330874,1,0,0:0:0:0:
298,192,330947,128,0,331093:0:0:0:0:
384,192,331020,128,0,331238:0:0:0:0:
128,192,331020,1,0,0:0:0:0:
213,192,331165,128,0,331384:0:0:0:0:
128,192,331165,128,0,331238:0:0:0:0:
469,192,331165,1,0,0:0:0:0:
384,192,331311,1,0,0:0:0:0:
128,192,331311,128,0,331457:0:0:0:0:
42,192,331384,128,0,331602:0:0:0:0:
213,192,331457,128,0,331530:0:0:0:0:
384,192,331457,128,0,331675:0:0:0:0:
469,192,331457,1,0,0:0:0:0:
298,192,331530,128,0,331602:0:0:0:0:
128,192,331602,128,0,331675:0:0:0:0:
469,192,331602,128,0,331821:0:0:0:0:
213,192,331675,128,0,331748:0:0:0:0:
384,192,331748,1,0,0:0:0:0:
42,192,331748,128,0,331821:0:0:0:0:
298,192,331748,128,0,331894:0:0:0:0:
213,192,331821,128,0,331894:0:0:0:0:
128,192,331894,128,0,331966:0:0:0:0:
384,192,331894,128,0,332039:0:0:0:0:
298,192,331966,128,0,332039:0:0:0:0:
469,192,332039,128,0,332112:0:0:0:0:
213,192,332039,128,0,332185:0:0:0:0:
42,192,332039,128,0,332403:0:0:0:0:
298,192,332112,128,0,332258:0:0:0:0:
128,192,332185,1,0,0:0:0:0:
384,192,332185,128,0,332403:0:0:0:0:
469,192,332330,1,0,0:0:0:0:
128,192,332330,128,0,332403:0:0:0:0:
213,192,332330,128,0,332549:0:0:0:0:
128,192,332476,128,0,332622:0:0:0:0:
384,192,332476,1,0,0:0:0:0:
42,192,332549,128,0,332767:0:0:0:0:
213,192,332622,128,0,332695:0:0:0:0:
469,192,332622,1,0,0:0:0:0:
384,192,332622,128,0,332840:0:0:0:0:
298,192,332695,128,0,332767:0:0:0:0:
128,192,332767,128,0,332840:0:0:0:0:
469,192,332767,128,0,332986:0:0:0:0:
213,192,332840,128,0,332913:0:0:0:0:
298,192,332913,128,0,333059:0:0:0:0:
42,192,332913,128,0,332986:0:0:0:0:
384,192,332913,1,0,0:0:0:0:
213,192,332986,128,0,333059:0:0:0:0:
384,192,333059,128,0,333204:0:0:0:0:
128,192,333059,128,0,333131:0:0:0:0:
298,192,333131,128,0,333204:0:0:0:0:
469,192,333204,128,0,333423:0:0:0:0:
42,192,333204,128,0,333568:0:0:0:0:
213,192,333204,128,0,333350:0:0:0:0:
298,192,333277,128,0,333423:0:0:0:0:
384,192,333350,128,0,333568:0:0:0:0:
128,192,333350,1,0,0:0:0:0:
213,192,333496,128,0,333714:0:0:0:0:
128,192,333496,128,0,333568:0:0:0:0:
469,192,333496,128,0,333641:0:0:0:0:
384,192,333641,1,0,0:0:0:0:
128,192,333641,128,0,333787:0:0:0:0:
42,192,333714,128,0,333932:0:0:0:0:
213,192,333787,128,0,333932:0:0:0:0:
384,192,333787,128,0,334005:0:0:0:0:
469,192,333787,1,0,0:0:0:0:
298,192,333860,128,0,333932:0:0:0:0:
128,192,333932,128,0,334078:0:0:0:0:
469,192,333932,128,0,334151:0:0:0:0:
213,192,334005,128,0,334078:0:0:0:0:
384,192,334078,1,0,0:0:0:0:
42,192,334078,128,0,334297:0:0:0:0:
298,192,334078,128,0,334224:0:0:0:0:
213,192,334151,128,0,334224:0:0:0:0:
128,192,334224,128,0,334297:0:0:0:0:
384,192,334224,128,0,334369:0:0:0:0:
298,192,334297,128,0,334369:0:0:0:0:
469,192,334369,128,0,334588:0:0:0:0:
213,192,334369,128,0,334515:0:0:0:0:
42,192,334369,128,0,334733:0:0:0:0:
298,192,334442,128,0,334588:0:0:0:0:
128,192,334515,1,0,0:0:0:0:
384,192,334515,128,0,334733:0:0:0:0:
128,192,334661,128,0,334733:0:0:0:0:
213,192,334661,128,0,334879:0:0:0:0:
469,192,334661,128,0,334806:0:0:0:0:
128,192,334806,128,0,334952:0:0:0:0:
384,192,334806,1,0,0:0:0:0:
42,192,334879,128,0,335097:0:0:0:0:
213,192,334952,128,0,335097:0:0:0:0:
469,192,334952,1,0,0:0:0:0:
384,192,334952,128,0,335170:0:0:0:0:
298,192,335025,128,0,335097:0:0:0:0:
128,192,335097,128,0,335243:0:0:0:0:
469,192,335097,128,0,335316:0:0:0:0:
213,192,335170,128,0,335243:0:0:0:0:
384,192,335243,1,0,0:0:0:0:
298,192,335243,1,0,0:0:0:0:
42,192,335243,128,0,335316:0:0:0:0:
213,192,335316,128,0,335389:0:0:0:0:
128,192,335389,1,0,0:0:0:0:
298,192,335389,1,0,0:0:0:0:
42,192,335389,128,0,335462:0:0:0:0:
469,192,335462,1,0,0:0:0:0:
213,192,335462,128,0,335534:0:0:0:0:
298,192,335534,1,0,0:0:0:0:
128,192,335534,1,0,0:0:0:0:
42,192,335534,1,0,0:0:0:0:
384,192,335607,1,0,0:0:0:0:
469,192,335607,1,0,0:0:0:0:
213,192,335680,1,0,0:0:0:0:
128,192,335680,1,0,0:0:0:0:
298,192,335753,1,0,0:0:0:0:
384,192,335753,1,0,0:0:0:0:
213,192,335826,1,0,0:0:0:0:
42,192,335826,1,0,0:0:0:0:
469,192,335826,1,0,0:0:0:0:
298,192,335898,1,0,0:0:0:0:
384,192,335898,1,0,0:0:0:0:
128,192,335971,1,0,0:0:0:0:
42,192,335971,1,0,0:0:0:0:
213,192,336044,1,0,0:0:0:0:
298,192,336044,1,0,0:0:0:0:
384,192,336117,1,0,0:0:0:0:
469,192,336117,1,0,0:0:0:0:
42,192,336117,1,0,0:0:0:0:
128,192,336190,1,0,0:0:0:0:
213,192,336190,1,0,0:0:0:0:
298,192,336263,1,0,0:0:0:0:
469,192,336263,1,0,0:0:0:0:
128,192,336335,1,0,0:0:0:0:
42,192,336335,1,0,0:0:0:0:
469,192,336408,1,0,0:0:0:0:
213,192,336432,1,0,0:0:0:0:
384,192,336457,1,0,0:0:0:0:
128,192,336481,1,0,0:0:0:0:
298,192,336505,1,0,0:0:0:0:
42,192,336530,1,0,0:0:0:0:
469,192,336554,1,0,0:0:0:0:
213,192,336554,1,0,0:0:0:0:
213,192,336699,1,0,0:0:0:0:
384,192,336699,1,0,0:0:0:0:
469,192,336699,1,0,0:0:0:0:
128,192,336772,1,0,0:0:0:0:
42,192,336772,1,0,0:0:0:0:
298,192,336845,1,0,0:0:0:0:
384,192,336845,1,0,0:0:0:0:
213,192,336918,1,0,0:0:0:0:
128,192,336918,1,0,0:0:0:0:
298,192,336991,1,0,0:0:0:0:
469,192,336991,1,0,0:0:0:0:
42,192,337015,1,0,0:0:0:0:
128,192,337039,1,0,0:0:0:0:
213,192,337064,1,0,0:0:0:0:
384,192,337136,1,0,0:0:0:0:
128,192,337161,1,0,0:0:0:0:
213,192,337185,1,0,0:0:0:0:
298,192,337209,1,0,0:0:0:0:
128,192,337282,1,0,0:0:0:0:
42,192,337282,1,0,0:0:0:0:
469,192,337282,1,0,0:0:0:0:
298,192,337355,1,0,0:0:0:0:
384,192,337355,1,0,0:0:0:0:
213,192,337428,1,0,0:0:0:0:
128,192,337428,1,0,0:0:0:0:
384,192,337500,1,0,0:0:0:0:
469,192,337500,1,0,0:0:0:0:
42,192,337573,1,0,0:0:0:0:
298,192,337597,1,0,0:0:0:0:
128,192,337622,1,0,0:0:0:0:
384,192,337646,1,0,0:0:0:0:
213,192,337670,1,0,0:0:0:0:
469,192,337695,1,0,0:0:0:0:
42,192,337719,1,0,0:0:0:0:
298,192,337719,1,0,0:0:0:0:
298,192,337864,1,0,0:0:0:0:
469,192,337864,1,0,0:0:0:0:
42,192,337864,1,0,0:0:0:0:
128,192,337937,1,0,0:0:0:0:
213,192,337937,1,0,0:0:0:0:
384,192,338010,1,0,0:0:0:0:
42,192,338010,1,0,0:0:0:0:
213,192,338083,1,0,0:0:0:0:
298,192,338083,1,0,0:0:0:0:
128,192,338156,1,0,0:0:0:0:
42,192,338156,1,0,0:0:0:0:
469,192,338156,1,0,0:0:0:0:
298,192,338229,1,0,0:0:0:0:
384,192,338229,1,0,0:0:0:0:
213,192,338301,1,0,0:0:0:0:
128,192,338301,1,0,0:0:0:0:
298,192,338374,1,0,0:0:0:0:
384,192,338374,1,0,0:0:0:0:
128,192,338447,1,0,0:0:0:0:
42,192,338447,1,0,0:0:0:0:
469,192,338447,1,0,0:0:0:0:
469,192,338593,1,0,0:0:0:0:
213,192,338617,1,0,0:0:0:0:
384,192,338641,1,0,0:0:0:0:
128,192,338665,1,0,0:0:0:0:
298,192,338690,1,0,0:0:0:0:
42,192,338714,1,0,0:0:0:0:
213,192,338738,1,0,0:0:0:0:
384,192,338738,1,0,0:0:0:0:
469,192,338738,1,0,0:0:0:0:
42,192,338884,1,0,0:0:0:0:
298,192,338908,1,0,0:0:0:0:
128,192,338932,1,0,0:0:0:0:
384,192,338957,1,0,0:0:0:0:
213,192,338981,1,0,0:0:0:0:
469,192,339005,1,0,0:0:0:0:
42,192,339030,1,0,0:0:0:0:
128,192,339030,1,0,0:0:0:0:
298,192,339030,128,0,339102:0:0:0:0:
469,192,339102,128,0,339175:0:0:0:0:
128,192,339175,128,0,339248:0:0:0:0:
298,192,339248,128,0,339321:0:0:0:0:
384,192,339321,128,0,339394:0:0:0:0:
213,192,339394,128,0,339466:0:0:0:0:
384,192,339466,128,0,339539:0:0:0:0:
469,192,339539,128,0,339612:0:0:0:0:
128,192,339612,128,0,339685:0:0:0:0:
213,192,339685,128,0,339758:0:0:0:0:
298,192,339758,128,0,339830:0:0:0:0:
42,192,339830,128,0,339903:0:0:0:0:
469,192,339903,128,0,339976:0:0:0:0:
213,192,339976,128,0,340049:0:0:0:0:
298,192,340049,128,0,340122:0:0:0:0:
384,192,340122,128,0,340195:0:0:0:0:
