osu file format v14

[General]
AudioFilename: audio.mp3
AudioLeadIn: 0
PreviewTime: 52975
Countdown: 0
SampleSet: Normal
StackLeniency: 0.7
Mode: 1
LetterboxInBreaks: 0
WidescreenStoryboard: 1

[Editor]
Bookmarks: 11292,22596,33900,53682,64986,86181,97485,117267,138463,149767,173788,197809
DistanceSpacing: 2.2
BeatDivisor: 4
GridSize: 32
TimelineZoom: 1.1

[Metadata]
Title:Sakuranbo
TitleUnicode:さくらんぼ
Artist:Tsukimi Eiko (VO: 96neko)
ArtistUnicode:月見英子 (VO: 96猫)
Creator:gaston_2199
Version:Futsuu
Source:パリピ孔明
Tags:Paripi Koumei Ya Boy Kongming! 大塚愛 Otsuka Ai Cherry kuroneko cover japanese pop jpop j-pop SenSenko Santi199
BeatmapID:4402792
BeatmapSetID:2089066

[Difficulty]
HPDrainRate:7
CircleSize:2
OverallDifficulty:4
ApproachRate:10
SliderMultiplier:1.4
SliderTickRate:1

[Events]
//Background and Video events
0,0,"BG.jpg",0,0
//Break Periods
//Storyboard Layer 0 (Background)
//Storyboard Layer 1 (Fail)
//Storyboard Layer 2 (Pass)
//Storyboard Layer 3 (Foreground)
//Storyboard Layer 4 (Overlay)
//Storyboard Sound Samples

[TimingPoints]
-12,353.25287017957,4,1,0,60,1,0
164,-111.111111111111,4,1,0,60,0,0
9790,-111.111111111111,4,1,0,70,0,0
11287,-100,4,1,0,70,0,0
22507,-100,4,1,0,80,0,0
49438,-100,4,1,0,80,0,0
53682,-95.2380952380952,4,1,0,90,0,1
64280,-95.2380952380952,4,1,0,90,0,0
64986,-95.2380952380952,4,1,0,90,0,1
74877,-100,4,1,0,70,0,0
86093,-100,4,1,0,80,0,0
113023,-100.000015,4,1,0,80,0,0
117267,-95.2380952380952,4,1,0,90,0,1
127865,-95.2380952380952,4,1,0,90,0,0
128572,-95.2380952380952,4,1,0,90,0,1
138463,-100,4,1,0,80,0,0
144110,-100,4,1,0,90,0,0
146764,-100,4,1,0,80,0,0
148349,-100,4,1,0,80,0,0
149232,-100,4,1,0,80,0,0
149767,-95.2380952380952,4,1,0,90,0,1
160364,-95.2380952380952,4,1,0,90,0,0
161071,-95.2380952380952,4,1,0,90,0,1
170962,-100,4,1,0,80,0,0
173788,-95.2380952380952,4,1,0,90,0,1
184385,-95.2380952380952,4,1,0,90,0,0
185092,-95.2380952380952,4,1,0,90,0,1
194983,-95.2380952380952,4,1,0,80,0,0
195160,-100,4,1,0,70,0,0
196391,-100,4,1,0,71,0,0
196479,-100,4,1,0,72,0,0
196568,-100,4,1,0,74,0,0
196656,-100,4,1,0,75,0,0
196744,-100,4,1,0,76,0,0
196921,-100,4,1,0,78,0,0
197009,-100,4,1,0,79,0,0
197098,-100,4,1,0,81,0,0
197274,-100,4,1,0,83,0,0
197451,-100,4,1,0,85,0,0
197539,-100,4,1,0,86,0,0
197627,-100,4,1,0,88,0,0
197809,-95.2380952380952,4,1,0,90,0,1
208407,-95.2380952380952,4,1,0,90,0,0
209113,-95.2380952380952,4,1,0,90,0,1
219004,-100,4,1,0,70,0,0

[HitObjects]
108,136,9879,5,8,0:0:0:0:
108,136,10232,1,8,0:0:0:0:
108,136,10585,1,8,0:0:0:0:
108,136,10938,1,8,0:0:0:0:
108,136,11292,1,4,0:0:0:0:
108,136,11645,1,12,0:0:0:0:
294,216,12351,1,8,0:0:0:0:
294,216,12528,1,8,0:0:0:0:
294,216,12705,1,0,0:0:0:0:
294,216,13058,1,8,0:0:0:0:
286,216,13411,1,8,0:0:0:0:
261,226,13764,1,8,0:0:0:0:
260,224,14118,1,4,0:0:0:0:
261,226,14471,1,12,0:0:0:0:
270,222,15177,1,0,0:0:0:0:
270,222,15354,1,8,0:0:0:0:
270,222,15531,1,0,0:0:0:0:
270,222,15884,1,8,0:0:0:0:
270,222,16237,1,0,0:0:0:0:
270,222,16590,1,8,0:0:0:0:
270,222,16767,1,8,0:0:0:0:
270,222,16944,1,4,0:0:0:0:
270,222,17297,1,12,0:0:0:0:
270,222,18003,1,0,0:0:0:0:
270,222,18180,1,8,0:0:0:0:
270,222,18357,1,0,0:0:0:0:
270,222,18710,1,8,0:0:0:0:
270,222,19063,1,0,0:0:0:0:
270,222,19416,1,8,0:0:0:0:
270,222,19770,1,4,0:0:0:0:
270,222,20123,1,12,0:0:0:0:
106,112,20829,1,8,0:0:0:0:
106,112,21006,1,4,0:0:0:0:
106,112,22066,1,8,0:0:0:0:
106,112,22242,1,8,0:0:0:0:
106,112,22419,1,8,0:0:0:0:
106,112,22596,1,4,0:0:0:0:
167,97,22949,1,8,0:0:0:0:
207,145,23126,1,0,0:0:0:0:
207,145,23655,1,8,0:0:0:0:
207,145,24009,1,0,0:0:0:0:
207,145,24362,1,8,0:0:0:0:
207,145,24539,1,8,0:0:0:0:
207,145,24715,1,0,0:0:0:0:
256,152,25245,1,0,0:0:0:0:
360,247,25422,1,0,0:0:0:0:
203,75,25775,1,8,0:0:0:0:
223,59,25952,1,0,0:0:0:0:
294,192,26305,1,0,0:0:0:0:
213,50,26658,1,8,0:0:0:0:
257,136,27188,1,0,0:0:0:0:
294,192,27365,1,8,0:0:0:0:
314,251,27541,1,0,0:0:0:0:
294,192,28248,1,0,0:0:0:0:
227,85,28601,1,8,0:0:0:0:
314,251,28778,1,0,0:0:0:0:
217,87,29131,1,0,0:0:0:0:
396,289,29307,1,8,0:0:0:0:
396,289,29661,1,0,0:0:0:0:
165,116,30014,1,8,0:0:0:0:
165,116,30191,1,0,0:0:0:0:
165,116,30367,1,8,0:0:0:0:
194,71,31074,1,0,0:0:0:0:
206,97,31250,1,0,0:0:0:0:
165,116,31427,1,8,0:0:0:0:
165,116,31604,1,0,0:0:0:0:
131,109,32134,1,8,0:0:0:0:
131,109,32310,1,8,0:0:0:0:
131,109,32487,1,0,0:0:0:0:
320,205,32840,1,8,0:0:0:0:
320,205,33193,1,0,0:0:0:0:
320,205,33900,1,4,0:0:0:0:
267,101,34253,1,8,0:0:0:0:
320,205,34430,1,0,0:0:0:0:
320,205,34960,1,8,0:0:0:0:
320,205,35313,1,0,0:0:0:0:
320,205,35489,1,0,0:0:0:0:
320,205,35666,1,8,0:0:0:0:
320,205,36019,1,8,0:0:0:0:
320,205,36196,1,0,0:0:0:0:
320,205,36373,1,8,0:0:0:0:
163,127,36726,1,0,0:0:0:0:
163,127,37079,1,8,0:0:0:0:
163,127,37256,1,0,0:0:0:0:
167,117,37609,1,0,0:0:0:0:
167,117,37786,1,8,0:0:0:0:
167,117,37962,1,0,0:0:0:0:
197,91,38315,1,0,0:0:0:0:
167,117,38492,1,8,0:0:0:0:
208,107,38845,1,0,0:0:0:0:
344,250,39552,1,0,0:0:0:0:
193,73,39728,1,0,0:0:0:0:
344,250,39905,1,8,0:0:0:0:
344,250,40082,1,0,0:0:0:0:
344,250,40612,1,8,0:0:0:0:
344,250,40965,1,0,0:0:0:0:
344,250,41318,1,8,0:0:0:0:
137,142,41495,1,8,0:0:0:0:
60,134,42025,1,0,0:0:0:0:
60,134,42378,1,8,0:0:0:0:
60,134,42554,1,8,0:0:0:0:
203,130,42731,1,8,0:0:0:0:
117,136,42908,1,0,0:0:0:0:
117,136,43261,1,8,0:0:0:0:
117,136,43438,1,8,0:0:0:0:
117,136,43791,1,0,0:0:0:0:
117,136,44144,1,8,0:0:0:0:
117,136,44497,1,0,0:0:0:0:
117,136,44851,1,8,0:0:0:0:
117,136,45027,1,8,0:0:0:0:
117,136,45204,1,4,0:0:0:0:
209,129,45557,1,8,0:0:0:0:
342,231,45910,1,0,0:0:0:0:
342,231,46264,1,8,0:0:0:0:
342,231,46440,1,0,0:0:0:0:
342,231,46617,1,8,0:0:0:0:
342,231,46794,1,0,0:0:0:0:
342,231,47323,1,0,0:0:0:0:
342,231,47500,1,8,0:0:0:0:
342,231,48030,1,0,0:0:0:0:
211,69,48207,1,0,0:0:0:0:
342,231,48383,1,8,0:0:0:0:
342,231,48560,1,0,0:0:0:0:
342,231,48913,1,0,0:0:0:0:
342,231,49090,1,8,0:0:0:0:
342,231,49443,1,12,0:0:0:0:
342,231,49796,1,12,0:0:0:0:
342,231,50149,1,12,0:0:0:0:
342,231,50503,1,8,0:0:0:0:
205,90,50679,1,8,0:0:0:0:
342,231,50856,1,4,0:0:0:0:
167,158,51209,1,8,0:0:0:0:
167,158,51562,1,0,0:0:0:0:
167,158,51739,1,8,0:0:0:0:
167,158,51916,1,8,0:0:0:0:
167,158,52092,1,8,0:0:0:0:
167,158,52269,1,4,0:0:0:0:
167,158,53682,1,4,0:0:0:0:
242,152,54035,1,8,0:0:0:0:
242,152,54742,1,8,0:0:0:0:
242,152,54918,1,0,0:0:0:0:
242,152,55095,1,8,0:0:0:0:
242,152,55448,1,8,0:0:0:0:
242,152,55801,1,0,0:0:0:0:
242,152,55978,1,0,0:0:0:0:
242,152,56155,1,8,0:0:0:0:
242,152,56508,1,0,0:0:0:0:
242,152,56861,1,8,0:0:0:0:
288,132,57391,1,8,0:0:0:0:
288,132,57568,1,0,0:0:0:0:
288,132,57744,1,0,0:0:0:0:
288,132,57921,1,8,0:0:0:0:
159,129,58274,1,0,0:0:0:0:
288,132,58451,1,8,0:0:0:0:
337,194,58627,1,0,0:0:0:0:
337,194,59334,1,0,0:0:0:0:
255,75,59687,1,8,0:0:0:0:
255,75,60040,1,0,0:0:0:0:
206,38,60217,1,0,0:0:0:0:
206,38,60394,1,8,0:0:0:0:
202,149,60570,1,8,0:0:0:0:
205,38,60747,1,0,0:0:0:0:
206,116,61100,1,8,0:0:0:0:
206,116,61453,1,0,0:0:0:0:
206,116,61983,1,0,0:0:0:0:
206,116,62160,1,8,0:0:0:0:
206,116,62513,1,8,0:0:0:0:
206,116,62867,1,0,0:0:0:0:
206,116,63220,1,8,0:0:0:0:
197,66,63396,1,0,0:0:0:0:
206,116,63573,1,8,0:0:0:0:
206,116,63750,1,8,0:0:0:0:
206,116,63926,1,0,0:0:0:0:
174,121,64280,1,8,0:0:0:0:
181,81,64633,1,8,0:0:0:0:
181,81,64809,1,8,0:0:0:0:
304,75,64986,1,4,0:0:0:0:
242,152,65339,1,8,0:0:0:0:
242,152,66046,1,0,0:0:0:0:
242,152,66222,1,0,0:0:0:0:
242,152,66399,1,8,0:0:0:0:
242,152,66752,1,0,0:0:0:0:
242,152,67106,1,8,0:0:0:0:
242,152,67282,1,0,0:0:0:0:
242,152,67459,1,8,0:0:0:0:
242,152,67812,1,0,0:0:0:0:
242,152,68165,1,8,0:0:0:0:
288,132,68695,1,8,0:0:0:0:
288,132,68872,1,8,0:0:0:0:
288,132,69048,1,0,0:0:0:0:
288,132,69225,1,8,0:0:0:0:
159,129,69578,1,8,0:0:0:0:
288,132,69755,1,8,0:0:0:0:
337,194,69932,1,0,0:0:0:0:
337,194,70638,1,0,0:0:0:0:
255,75,70991,1,8,0:0:0:0:
255,75,71345,1,0,0:0:0:0:
206,38,71521,1,0,0:0:0:0:
206,38,71698,1,8,0:0:0:0:
202,149,71874,1,8,0:0:0:0:
205,38,72051,1,0,0:0:0:0:
206,116,72404,1,8,0:0:0:0:
206,116,72758,1,8,0:0:0:0:
185,92,73111,1,8,0:0:0:0:
206,116,73464,1,0,0:0:0:0:
206,116,73817,1,8,0:0:0:0:
182,101,73994,1,8,0:0:0:0:
206,116,74171,1,0,0:0:0:0:
208,100,74347,1,0,0:0:0:0:
206,116,74524,1,8,0:0:0:0:
108,136,74877,1,4,0:0:0:0:
108,136,75230,1,12,0:0:0:0:
294,216,75937,1,8,0:0:0:0:
294,216,76113,1,8,0:0:0:0:
294,216,76290,1,0,0:0:0:0:
294,216,76643,1,8,0:0:0:0:
286,216,76997,1,8,0:0:0:0:
261,226,77350,1,8,0:0:0:0:
260,224,77703,1,4,0:0:0:0:
261,226,78056,1,12,0:0:0:0:
270,222,78763,1,0,0:0:0:0:
270,222,78940,1,8,0:0:0:0:
270,222,79116,1,0,0:0:0:0:
270,222,79469,1,8,0:0:0:0:
270,222,79823,1,0,0:0:0:0:
270,222,80176,1,8,0:0:0:0:
270,222,80353,1,8,0:0:0:0:
270,222,80529,1,4,0:0:0:0:
270,222,80882,1,12,0:0:0:0:
270,222,81589,1,0,0:0:0:0:
270,222,81766,1,8,0:0:0:0:
270,222,81942,1,0,0:0:0:0:
270,222,82295,1,8,0:0:0:0:
270,222,82649,1,0,0:0:0:0:
270,222,83002,1,8,0:0:0:0:
270,222,83355,1,4,0:0:0:0:
270,222,83708,1,12,0:0:0:0:
106,112,84415,1,8,0:0:0:0:
106,112,84592,1,4,0:0:0:0:
106,112,85651,1,8,0:0:0:0:
106,112,85828,5,0,0:0:0:0:
106,112,86005,1,8,0:0:0:0:
106,112,86181,1,4,0:0:0:0:
207,145,86534,1,8,0:0:0:0:
207,145,86711,1,0,0:0:0:0:
207,145,87241,1,8,0:0:0:0:
207,145,87594,1,0,0:0:0:0:
207,145,87947,1,8,0:0:0:0:
207,145,88124,1,0,0:0:0:0:
207,145,88301,1,0,0:0:0:0:
207,145,88831,1,0,0:0:0:0:
360,247,89007,1,8,0:0:0:0:
360,247,89360,1,8,0:0:0:0:
223,59,89537,1,0,0:0:0:0:
294,192,89890,1,8,0:0:0:0:
184,117,90244,1,0,0:0:0:0:
294,192,90773,1,8,0:0:0:0:
294,192,90950,1,8,0:0:0:0:
314,251,91127,1,0,0:0:0:0:
294,192,91833,1,0,0:0:0:0:
172,99,92186,1,8,0:0:0:0:
314,251,92363,1,0,0:0:0:0:
396,289,92716,1,8,0:0:0:0:
396,289,92893,1,8,0:0:0:0:
396,289,93246,1,0,0:0:0:0:
204,114,93423,1,0,0:0:0:0:
165,116,93600,1,8,0:0:0:0:
165,116,93776,1,0,0:0:0:0:
194,71,94659,1,8,0:0:0:0:
194,71,94836,1,0,0:0:0:0:
165,116,95013,1,8,0:0:0:0:
165,116,95189,1,0,0:0:0:0:
131,109,95719,1,8,0:0:0:0:
131,109,95896,1,8,0:0:0:0:
131,109,96072,1,0,0:0:0:0:
320,205,96426,1,8,0:0:0:0:
320,205,96779,1,0,0:0:0:0:
131,109,97132,1,8,0:0:0:0:
320,205,97309,1,8,0:0:0:0:
320,205,97485,1,4,0:0:0:0:
320,205,97839,1,8,0:0:0:0:
320,205,98015,1,0,0:0:0:0:
320,205,98545,1,8,0:0:0:0:
320,205,98898,1,0,0:0:0:0:
320,205,99252,1,8,0:0:0:0:
320,205,99428,1,0,0:0:0:0:
320,205,99605,1,0,0:0:0:0:
163,127,100311,1,0,0:0:0:0:
163,127,100665,1,8,0:0:0:0:
163,127,100841,1,0,0:0:0:0:
167,117,101194,1,8,0:0:0:0:
167,117,101548,1,0,0:0:0:0:
272,113,101901,1,8,0:0:0:0:
167,117,102078,1,8,0:0:0:0:
245,108,102431,1,0,0:0:0:0:
344,250,103137,1,0,0:0:0:0:
227,82,103314,1,0,0:0:0:0:
344,250,103491,1,8,0:0:0:0:
344,250,103667,1,0,0:0:0:0:
344,250,104197,1,8,0:0:0:0:
208,38,104374,1,8,0:0:0:0:
344,250,104550,1,0,0:0:0:0:
344,250,104904,1,8,0:0:0:0:
137,142,105080,1,8,0:0:0:0:
60,134,105610,1,0,0:0:0:0:
60,134,105963,1,8,0:0:0:0:
60,134,106140,1,0,0:0:0:0:
203,130,106317,1,8,0:0:0:0:
117,136,106493,1,0,0:0:0:0:
117,136,107023,1,8,0:0:0:0:
117,136,107376,1,0,0:0:0:0:
117,136,107730,1,8,0:0:0:0:
117,136,108083,1,0,0:0:0:0:
117,136,108436,1,8,0:0:0:0:
117,136,108613,1,8,0:0:0:0:
117,136,108789,1,4,0:0:0:0:
209,129,109143,1,8,0:0:0:0:
342,231,109496,1,0,0:0:0:0:
342,231,109849,1,8,0:0:0:0:
342,231,110026,1,8,0:0:0:0:
342,231,110202,1,0,0:0:0:0:
342,231,110379,1,8,0:0:0:0:
342,231,110909,1,0,0:0:0:0:
342,231,111262,1,8,0:0:0:0:
342,231,111615,1,0,0:0:0:0:
211,69,111792,1,8,0:0:0:0:
342,231,111969,1,8,0:0:0:0:
342,231,112145,1,0,0:0:0:0:
342,231,112499,1,0,0:0:0:0:
342,231,112675,1,8,0:0:0:0:
342,231,113028,1,12,0:0:0:0:
342,231,113382,1,12,0:0:0:0:
342,231,113735,1,12,0:0:0:0:
342,231,114088,1,8,0:0:0:0:
208,88,114265,1,8,0:0:0:0:
342,231,114441,1,4,0:0:0:0:
167,158,114795,1,8,0:0:0:0:
167,158,115148,1,0,0:0:0:0:
167,158,115325,1,0,0:0:0:0:
167,158,115501,1,8,0:0:0:0:
167,158,115854,1,0,0:0:0:0:
167,158,117267,1,4,0:0:0:0:
242,152,117621,1,8,0:0:0:0:
242,152,118327,1,8,0:0:0:0:
242,152,118504,1,0,0:0:0:0:
242,152,118680,1,8,0:0:0:0:
242,152,119034,1,8,0:0:0:0:
242,152,119387,1,0,0:0:0:0:
242,152,119564,1,0,0:0:0:0:
242,152,119740,1,8,0:0:0:0:
242,152,120093,1,0,0:0:0:0:
242,152,120447,1,8,0:0:0:0:
288,132,120977,1,8,0:0:0:0:
288,132,121153,1,8,0:0:0:0:
288,132,121330,1,0,0:0:0:0:
288,132,121506,1,8,0:0:0:0:
159,129,121860,1,0,0:0:0:0:
288,132,122036,1,8,0:0:0:0:
337,194,122213,1,0,0:0:0:0:
337,194,122919,1,0,0:0:0:0:
255,75,123273,1,8,0:0:0:0:
255,75,123626,1,8,0:0:0:0:
206,38,123803,1,0,0:0:0:0:
206,38,123979,1,8,0:0:0:0:
202,149,124156,1,8,0:0:0:0:
205,38,124333,1,0,0:0:0:0:
206,116,124686,1,8,0:0:0:0:
206,116,125039,1,0,0:0:0:0:
206,116,125569,1,0,0:0:0:0:
206,116,125746,1,8,0:0:0:0:
206,116,126099,1,8,0:0:0:0:
206,116,126452,1,0,0:0:0:0:
206,116,126805,1,8,0:0:0:0:
197,66,126982,1,8,0:0:0:0:
206,116,127159,1,0,0:0:0:0:
206,116,127335,1,8,0:0:0:0:
206,116,127512,1,0,0:0:0:0:
174,121,127865,1,8,0:0:0:0:
181,81,128218,1,8,0:0:0:0:
181,81,128395,1,8,0:0:0:0:
304,75,128572,1,4,0:0:0:0:
242,152,128925,1,8,0:0:0:0:
242,152,129631,1,0,0:0:0:0:
242,152,129808,1,0,0:0:0:0:
242,152,129985,1,8,0:0:0:0:
242,152,130338,1,0,0:0:0:0:
242,152,130691,1,8,0:0:0:0:
242,152,130868,1,0,0:0:0:0:
242,152,131044,1,8,0:0:0:0:
242,152,131398,1,0,0:0:0:0:
242,152,131751,1,8,0:0:0:0:
288,132,132281,1,8,0:0:0:0:
288,132,132457,1,0,0:0:0:0:
288,132,132634,1,0,0:0:0:0:
288,132,132811,1,8,0:0:0:0:
159,129,133164,1,8,0:0:0:0:
288,132,133340,1,8,0:0:0:0:
337,194,133517,1,0,0:0:0:0:
337,194,134224,1,0,0:0:0:0:
255,75,134577,1,8,0:0:0:0:
255,75,134930,1,0,0:0:0:0:
206,38,135107,1,0,0:0:0:0:
206,38,135283,1,8,0:0:0:0:
202,149,135460,1,8,0:0:0:0:
205,38,135637,1,0,0:0:0:0:
206,116,135990,1,8,0:0:0:0:
206,116,136343,1,8,0:0:0:0:
185,92,136696,1,8,0:0:0:0:
206,116,137050,1,0,0:0:0:0:
206,116,137403,1,8,0:0:0:0:
182,101,137579,1,8,0:0:0:0:
206,116,137756,1,0,0:0:0:0:
273,171,137933,1,0,0:0:0:0:
206,116,138109,5,8,0:0:0:0:
108,136,138463,5,4,0:0:0:0:
197,94,138816,1,8,0:0:0:0:
195,139,138993,1,0,0:0:0:0:
195,139,139522,1,8,0:0:0:0:
501,177,139876,1,0,0:0:0:0:
144,101,140229,1,8,0:0:0:0:
173,83,140582,1,0,0:0:0:0:
487,121,140935,1,8,0:0:0:0:
335,125,141112,1,8,0:0:0:0:
173,83,141289,1,4,0:0:0:0:
188,68,141642,1,8,0:0:0:0:
173,83,141819,1,0,0:0:0:0:
173,83,142348,1,8,0:0:0:0:
185,69,142702,1,0,0:0:0:0:
173,83,143055,1,8,0:0:0:0:
173,83,143408,1,8,0:0:0:0:
185,69,143585,1,0,0:0:0:0:
173,83,143761,1,8,0:0:0:0:
173,83,144115,1,12,0:0:0:0:
245,160,144645,1,12,0:0:0:0:
173,83,145174,1,12,0:0:0:0:
173,83,145704,1,12,0:0:0:0:
173,83,146234,1,12,0:0:0:0:
173,83,146941,1,4,0:0:0:0:
173,83,147294,1,8,0:0:0:0:
173,83,147647,1,0,0:0:0:0:
173,83,147824,1,0,0:0:0:0:
173,83,148000,1,0,0:0:0:0:
173,83,148177,1,0,0:0:0:0:
173,83,148354,1,12,0:0:0:0:
167,158,149767,1,4,0:0:0:0:
242,152,150120,1,8,0:0:0:0:
242,152,150826,1,8,0:0:0:0:
242,152,151003,1,0,0:0:0:0:
242,152,151180,1,8,0:0:0:0:
242,152,151533,1,8,0:0:0:0:
242,152,151886,1,0,0:0:0:0:
242,152,152063,1,0,0:0:0:0:
242,152,152239,1,8,0:0:0:0:
242,152,152593,1,0,0:0:0:0:
242,152,152946,1,8,0:0:0:0:
288,132,153476,1,8,0:0:0:0:
288,132,153652,1,0,0:0:0:0:
288,132,153829,1,0,0:0:0:0:
288,132,154006,1,8,0:0:0:0:
159,129,154359,1,0,0:0:0:0:
288,132,154536,1,8,0:0:0:0:
337,194,154712,1,0,0:0:0:0:
337,194,155419,1,0,0:0:0:0:
255,75,155772,1,8,0:0:0:0:
255,75,156125,1,0,0:0:0:0:
206,38,156302,1,0,0:0:0:0:
206,38,156479,1,8,0:0:0:0:
202,149,156655,1,8,0:0:0:0:
205,38,156832,1,0,0:0:0:0:
206,116,157185,1,8,0:0:0:0:
206,116,157538,1,0,0:0:0:0:
206,116,158068,1,0,0:0:0:0:
206,116,158245,1,8,0:0:0:0:
206,116,158598,1,8,0:0:0:0:
206,116,158951,1,0,0:0:0:0:
206,116,159305,1,8,0:0:0:0:
197,66,159481,1,0,0:0:0:0:
206,116,159658,1,8,0:0:0:0:
206,116,159834,1,8,0:0:0:0:
206,116,160011,1,0,0:0:0:0:
174,121,160364,1,8,0:0:0:0:
181,81,160718,1,8,0:0:0:0:
181,81,160894,1,8,0:0:0:0:
304,75,161071,1,4,0:0:0:0:
242,152,161424,1,8,0:0:0:0:
242,152,162131,1,0,0:0:0:0:
242,152,162307,1,0,0:0:0:0:
242,152,162484,1,8,0:0:0:0:
242,152,162837,1,0,0:0:0:0:
242,152,163190,1,8,0:0:0:0:
242,152,163367,1,0,0:0:0:0:
242,152,163544,1,8,0:0:0:0:
242,152,163897,1,0,0:0:0:0:
242,152,164250,1,8,0:0:0:0:
288,132,164780,1,8,0:0:0:0:
288,132,164957,1,8,0:0:0:0:
288,132,165133,1,0,0:0:0:0:
288,132,165310,1,8,0:0:0:0:
159,129,165663,1,8,0:0:0:0:
288,132,165840,1,8,0:0:0:0:
337,194,166016,1,0,0:0:0:0:
337,194,166723,1,0,0:0:0:0:
255,75,167076,1,8,0:0:0:0:
255,75,167429,1,0,0:0:0:0:
206,38,167606,1,0,0:0:0:0:
206,38,167783,1,8,0:0:0:0:
202,149,167959,1,8,0:0:0:0:
205,38,168136,1,0,0:0:0:0:
206,116,168489,1,8,0:0:0:0:
206,116,168842,1,8,0:0:0:0:
185,92,169196,1,8,0:0:0:0:
206,116,169549,1,0,0:0:0:0:
206,116,169902,1,8,0:0:0:0:
182,101,170079,1,8,0:0:0:0:
206,116,170255,1,0,0:0:0:0:
285,221,170432,1,0,0:0:0:0:
206,116,170609,1,8,0:0:0:0:
108,136,170962,5,4,0:0:0:0:
108,136,171315,1,8,0:0:0:0:
319,189,171492,1,8,0:0:0:0:
319,189,171668,1,0,0:0:0:0:
319,189,172022,1,8,0:0:0:0:
319,189,172375,1,4,0:0:0:0:
305,191,172728,1,0,0:0:0:0:
319,189,173081,1,8,0:0:0:0:
326,174,173258,1,0,0:0:0:0:
326,174,173435,1,8,0:0:0:0:
167,157,173788,1,4,0:0:0:0:
242,151,174141,1,8,0:0:0:0:
242,151,174848,1,8,0:0:0:0:
242,151,175024,1,0,0:0:0:0:
242,151,175201,1,8,0:0:0:0:
242,151,175554,1,8,0:0:0:0:
242,151,175907,1,0,0:0:0:0:
242,151,176084,1,0,0:0:0:0:
242,151,176261,1,8,0:0:0:0:
242,151,176614,1,0,0:0:0:0:
242,151,176967,1,8,0:0:0:0:
272,106,177320,1,0,0:0:0:0:
288,131,177497,1,8,0:0:0:0:
288,131,177674,1,8,0:0:0:0:
288,131,177850,1,0,0:0:0:0:
288,131,178027,1,8,0:0:0:0:
159,128,178380,1,0,0:0:0:0:
288,131,178557,1,8,0:0:0:0:
337,193,178733,1,0,0:0:0:0:
337,193,179440,1,0,0:0:0:0:
255,74,179793,1,8,0:0:0:0:
255,74,180146,1,8,0:0:0:0:
206,37,180323,1,0,0:0:0:0:
206,37,180500,1,8,0:0:0:0:
202,148,180676,1,8,0:0:0:0:
205,37,180853,1,0,0:0:0:0:
206,115,181206,1,8,0:0:0:0:
206,115,181559,1,0,0:0:0:0:
206,115,182089,1,0,0:0:0:0:
206,115,182266,1,8,0:0:0:0:
206,115,182619,1,8,0:0:0:0:
206,115,182972,1,0,0:0:0:0:
206,115,183326,1,8,0:0:0:0:
197,65,183502,1,8,0:0:0:0:
206,115,183679,1,0,0:0:0:0:
206,115,183856,1,8,0:0:0:0:
206,115,184032,1,0,0:0:0:0:
174,120,184385,1,8,0:0:0:0:
181,80,184739,1,8,0:0:0:0:
181,80,184915,1,8,0:0:0:0:
304,74,185092,1,4,0:0:0:0:
242,151,185445,1,8,0:0:0:0:
242,151,186152,1,0,0:0:0:0:
242,151,186328,1,0,0:0:0:0:
242,151,186505,1,8,0:0:0:0:
242,151,186858,1,0,0:0:0:0:
242,151,187212,1,8,0:0:0:0:
242,151,187388,1,0,0:0:0:0:
242,151,187565,1,8,0:0:0:0:
242,151,187918,1,0,0:0:0:0:
242,151,188271,1,8,0:0:0:0:
247,111,188625,1,0,0:0:0:0:
288,131,188801,1,8,0:0:0:0:
288,131,188978,1,0,0:0:0:0:
288,131,189154,1,0,0:0:0:0:
288,131,189331,1,8,0:0:0:0:
159,128,189684,1,8,0:0:0:0:
288,131,189861,1,8,0:0:0:0:
337,193,190038,1,0,0:0:0:0:
337,193,190744,1,0,0:0:0:0:
255,74,191097,1,8,0:0:0:0:
255,74,191451,1,0,0:0:0:0:
206,37,191627,1,0,0:0:0:0:
206,37,191804,1,8,0:0:0:0:
202,148,191980,1,8,0:0:0:0:
205,37,192157,1,0,0:0:0:0:
206,115,192510,1,8,0:0:0:0:
206,115,192864,1,8,0:0:0:0:
185,91,193217,1,8,0:0:0:0:
206,115,193570,1,0,0:0:0:0:
206,115,193923,1,8,0:0:0:0:
182,100,194100,1,8,0:0:0:0:
206,115,194277,1,0,0:0:0:0:
263,168,194453,1,0,0:0:0:0:
218,112,194630,1,8,0:0:0:0:
218,112,194983,1,4,0:0:0:0:
256,192,196396,12,8,197632,0:0:0:0:
304,74,197809,5,4,0:0:0:0:
242,151,198162,1,8,0:0:0:0:
242,151,198869,1,0,0:0:0:0:
242,151,199045,1,0,0:0:0:0:
242,151,199222,1,8,0:0:0:0:
242,151,199575,1,0,0:0:0:0:
242,151,199929,1,8,0:0:0:0:
242,151,200105,1,0,0:0:0:0:
242,151,200282,1,8,0:0:0:0:
242,151,200635,1,0,0:0:0:0:
242,151,200988,1,8,0:0:0:0:
247,111,201342,1,0,0:0:0:0:
288,131,201518,1,8,0:0:0:0:
288,131,201695,1,0,0:0:0:0:
288,131,201872,1,0,0:0:0:0:
288,131,202048,1,8,0:0:0:0:
159,128,202401,1,8,0:0:0:0:
288,131,202578,1,8,0:0:0:0:
337,193,202755,1,0,0:0:0:0:
244,93,203108,1,8,0:0:0:0:
255,75,203814,1,4,0:0:0:0:
255,75,204168,1,12,0:0:0:0:
255,75,204521,1,4,0:0:0:0:
255,75,205227,1,4,0:0:0:0:
255,75,205581,1,12,0:0:0:0:
255,75,205934,1,4,0:0:0:0:
166,109,206994,1,0,0:0:0:0:
208,50,207170,1,0,0:0:0:0:
166,109,207347,1,8,0:0:0:0:
166,109,207700,1,0,0:0:0:0:
216,44,208053,1,8,0:0:0:0:
216,44,208407,1,8,0:0:0:0:
216,44,208583,1,0,0:0:0:0:
216,44,208760,1,8,0:0:0:0:
304,74,209113,1,4,0:0:0:0:
242,151,209466,1,8,0:0:0:0:
242,151,210173,1,0,0:0:0:0:
242,151,210350,1,0,0:0:0:0:
242,151,210526,1,8,0:0:0:0:
242,151,210879,1,0,0:0:0:0:
242,151,211233,1,8,0:0:0:0:
242,151,211409,1,0,0:0:0:0:
242,151,211586,1,8,0:0:0:0:
242,151,211939,1,0,0:0:0:0:
242,151,212292,1,8,0:0:0:0:
247,111,212646,1,0,0:0:0:0:
288,131,212822,1,8,0:0:0:0:
288,131,212999,1,0,0:0:0:0:
288,131,213176,1,0,0:0:0:0:
288,131,213352,1,8,0:0:0:0:
159,128,213705,1,8,0:0:0:0:
288,131,213882,1,8,0:0:0:0:
337,193,214059,1,0,0:0:0:0:
337,193,214765,1,0,0:0:0:0:
255,74,215118,1,8,0:0:0:0:
255,74,215472,1,0,0:0:0:0:
206,37,215648,1,0,0:0:0:0:
206,37,215825,1,8,0:0:0:0:
202,148,216002,1,8,0:0:0:0:
205,37,216178,1,0,0:0:0:0:
206,115,216532,1,8,0:0:0:0:
206,115,216885,1,8,0:0:0:0:
185,91,217238,1,8,0:0:0:0:
206,115,217591,1,0,0:0:0:0:
206,115,217945,1,8,0:0:0:0:
182,100,218121,1,8,0:0:0:0:
206,115,218298,1,0,0:0:0:0:
242,181,218474,1,0,0:0:0:0:
218,112,218651,1,8,0:0:0:0:
108,136,219004,1,4,0:0:0:0:
108,136,219358,1,12,0:0:0:0:
294,216,220064,1,8,0:0:0:0:
294,216,220241,1,8,0:0:0:0:
294,216,220417,1,0,0:0:0:0:
294,216,220771,1,8,0:0:0:0:
286,216,221124,1,8,0:0:0:0:
261,226,221477,1,8,0:0:0:0:
260,224,221830,1,4,0:0:0:0:
261,226,222184,1,12,0:0:0:0:
270,222,222890,1,0,0:0:0:0:
270,222,223067,1,8,0:0:0:0:
270,222,223243,1,0,0:0:0:0:
270,222,223597,1,8,0:0:0:0:
270,222,223950,1,8,0:0:0:0:
270,222,224303,1,8,0:0:0:0:
270,222,224480,1,8,0:0:0:0:
270,222,224656,1,4,0:0:0:0:
270,222,225010,1,12,0:0:0:0:
270,222,225716,1,0,0:0:0:0:
270,222,225893,1,8,0:0:0:0:
270,222,226069,1,0,0:0:0:0:
270,222,226423,1,8,0:0:0:0:
270,222,226776,1,8,0:0:0:0:
270,222,227129,1,8,0:0:0:0:
270,222,227482,1,4,0:0:0:0:
270,222,227836,1,12,0:0:0:0:
106,112,228542,1,8,0:0:0:0:
106,112,228719,1,4,0:0:0:0:
