osu file format v14

[General]
AudioFilename: audio.mp3
AudioLeadIn: 0
PreviewTime: 53028
Countdown: 0
SampleSet: Soft
StackLeniency: 0.7
Mode: 0
LetterboxInBreaks: 0
WidescreenStoryboard: 1

[Editor]
DistanceSpacing: 1
BeatDivisor: 4
GridSize: 4
TimelineZoom: 1.7

[Metadata]
Title:Hotarubi
TitleUnicode:蛍火
Artist:Tsukiko
ArtistUnicode:月子
Creator:Mirash
Version:Normal
Source:東方永夜抄 ~ Imperishable Night.
Tags:PandaHero Kalibe Yales Kamishirasawa Keine Ex-Keine Light of a Firefly TatshMusicCircle Tatsh FAR EAST OF EAST 懐かしき東方の血 Old World Nostalgic Blood of the East ZUN touhou c76 doujin collaboration
BeatmapID:1707876
BeatmapSetID:724098

[Difficulty]
HPDrainRate:4
CircleSize:3
OverallDifficulty:4
ApproachRate:4
SliderMultiplier:1
SliderTickRate:1

[Events]
//Background and Video events
0,0,"touhoubg.jpg",0,0
//Break Periods
2,153455,164402
2,179748,190896
//Storyboard Layer 0 (Background)
//Storyboard Layer 1 (Fail)
//Storyboard Layer 2 (Pass)
//Storyboard Layer 3 (Foreground)
//Storyboard Sound Samples

[TimingPoints]
3645,389.61038961039,4,1,1,70,1,0
16112,-100,4,2,1,55,0,0
41047,-100,4,2,1,50,0,0
46891,-100,4,2,1,55,0,0
47281,-100,4,2,1,55,0,0
53125,-100,4,1,1,55,0,0
53515,-100,4,2,1,60,0,1
78450,-100,4,1,1,70,0,0
90917,-100,4,2,1,55,0,0
115852,-100,4,2,1,50,0,0
121696,-100,4,2,1,55,0,0
122086,-100,4,2,1,55,0,0
127930,-100,4,1,1,55,0,0
128320,-100,4,2,1,60,0,1
153255,-100,4,2,1,50,0,0
153352,-100,4,2,1,55,0,0
192216,-100,4,2,1,60,0,1
203125,-100,4,2,1,60,0,0
204683,-100,4,2,1,60,0,1
214813,-100,4,2,1,60,0,0
217151,-100,4,1,1,70,0,0

[Colours]
Combo1 : 89,183,126
Combo2 : 27,105,175
Combo3 : 204,60,92
Combo4 : 83,204,204

[HitObjects]
390,67,3644,6,0,P|397:132|396:189,1,100,4|8,0:0|0:0,0:0:0:0:
338,248,4424,2,0,P|289:250|227:261,1,100,2|8,0:2|0:0,0:0:0:0:
161,321,5203,1,4,0:0:0:0:
83,257,5593,1,8,0:0:0:0:
142,176,5982,2,0,P|141:118|136:68,1,100,2|10,0:3|0:3,0:0:0:0:
226,31,6761,6,0,P|307:36|339:47,2,100,4|8|2,0:0|0:0|0:2,0:0:0:0:
137,76,7930,1,8,0:0:0:0:
37,64,8320,2,0,P|22:112|13:167,1,100,4|8,0:2|0:0,0:0:0:0:
84,231,9099,1,2,0:2:0:0:
279,274,9878,6,0,P|333:258|376:221,1,100,4|8,0:0|0:0,0:0:0:0:
331,137,10657,1,2,0:2:0:0:
250,77,11047,2,0,P|188:91|149:113,2,100,8|2|8,0:0|0:2|0:0,0:0:0:0:
326,12,12216,2,0,L|432:31,1,100,2|10,0:3|0:3,0:0:0:0:
488,106,12995,6,0,P|475:154|474:221,1,100,4|8,0:0|0:0,0:0:0:0:
411,283,13774,1,2,0:2:0:0:
313,261,14164,1,8,0:0:0:0:
249,338,14554,2,0,L|144:328,1,100,8|8,0:0|0:0,0:0:0:0:
51,347,15333,1,12,3:2:0:0:
80,149,16112,6,0,P|156:154|221:265,1,200,4|2,1:2|1:2,0:0:0:0:
299,312,17281,1,8,1:2:0:0:
397,293,17670,2,0,P|379:234|378:185,1,100,2|8,1:2|1:2,0:0:0:0:
288,148,18450,2,0,P|300:98|300:40,1,100,2|8,1:2|1:2,0:0:0:0:
265,13,19034,1,0,1:0:0:0:
265,13,19229,6,0,P|181:21|126:125,1,200,2|0,1:2|0:0,0:0:0:0:
162,206,20398,1,8,1:2:0:0:
240,267,20787,2,0,P|305:240|346:232,2,100,2|8|2,1:2|1:2|1:2,0:0:0:0:
187,352,21956,1,8,1:2:0:0:
88,333,22346,6,0,P|29:258|46:143,1,200,4|2,1:0|1:2,0:0:0:0:
104,84,23515,1,8,0:0:0:0:
104,84,23709,1,0,1:0:0:0:
104,84,23904,2,0,L|266:103,2,150,2|2|8,1:2|1:2|1:2,0:0:0:0:
41,162,25463,6,0,P|68:200|127:226,1,100,4|8,1:2|1:2,0:0:0:0:
202,175,26242,2,0,P|250:167|305:174,1,100,2|8,1:2|1:2,0:0:0:0:
379,234,27021,2,0,P|360:314|356:347,2,100,2|8|0,1:2|1:2|1:0,0:0:0:0:
450,164,28190,1,8,1:2:0:0:
390,83,28580,6,0,B|272:82|318:19|189:28,1,200,4|2,1:0|1:2,0:0:0:0:
103,23,29748,1,8,1:2:0:0:
45,104,30138,2,0,P|34:154|27:312,1,200,2|2,1:2|1:2,0:0:0:0:
112,353,31307,1,8,1:2:0:0:
112,353,31502,1,0,0:0:0:0:
112,353,31696,6,0,P|173:332|201:238,2,150,2|2|8,1:2|1:2|1:2,0:0:0:0:
24,303,33255,1,2,1:2:0:0:
76,217,33645,1,8,1:2:0:0:
42,122,34034,1,2,1:2:0:0:
113,51,34424,2,0,B|161:38|161:38|226:53,1,100,8|4,1:2|1:0,0:0:0:0:
274,125,35203,5,8,1:2:0:0:
368,92,35593,2,0,P|390:141|399:197,1,100,2|8,1:2|1:2,0:0:0:0:
370,227,36177,1,0,1:0:0:0:
370,227,36372,2,0,L|204:216,2,150,2|0|8,1:2|1:0|1:2,0:0:0:0:
435,302,37930,5,4,1:2:0:0:
483,214,38320,1,8,1:2:0:0:
410,145,38709,1,2,1:2:0:0:
328,203,39099,1,8,1:2:0:0:
237,159,39489,2,0,B|169:142|169:142|108:158|108:158|35:132,1,200,2|2,1:2|1:3,0:0:0:0:
11,41,40657,1,8,0:0:0:0:
110,33,41047,5,4,1:2:0:0:
305,73,41826,1,0,1:0:0:0:
206,55,42216,1,8,0:0:0:0:
239,149,42606,2,0,P|234:214|236:307,2,150,2|0|8,1:2|1:0|0:0,0:0:0:0:
334,119,44164,6,0,P|417:109|480:75,2,150,4|0|8,1:2|1:0|0:0,0:0:0:0:
242,77,45722,2,0,P|182:80|95:182,1,200,0|8,1:0|0:0,0:0:0:0:
119,276,46891,1,8,1:2:0:0:
202,330,47281,6,0,P|280:318|322:316,1,100,4|8,1:2|0:0,0:0:0:0:
395,349,48060,1,2,1:2:0:0:
458,271,48450,2,0,P|445:217|447:169,1,100,8|2,1:2|1:2,0:0:0:0:
356,128,49229,1,8,0:0:0:0:
356,128,49424,2,0,L|242:120,1,100,2|2,1:2|0:3,0:0:0:0:
223,83,50008,2,0,P|176:91|119:123,1,100,8|2,1:2|1:2,0:0:0:0:
29,122,50787,5,8,0:0:0:0:
29,122,50982,2,0,P|28:185|60:272,1,150,2|8,1:2|0:0,0:0:0:0:
127,337,51956,2,0,P|207:323|250:256,1,150,4|8,3:0|3:0,0:0:0:0:
240,221,52735,2,0,P|268:211|350:217,1,100,8|2,3:0|0:3,0:0:0:0:
434,236,53515,6,0,B|447:117,1,100,4|8,1:0|1:2,0:0:0:0:
380,60,54294,2,0,P|297:32|276:32,2,100,2|8|2,1:2|1:2|1:2,0:0:0:0:
444,136,55463,1,8,1:2:0:0:
421,233,55852,2,0,L|312:228,1,100,0|8,1:0|1:2,0:0:0:0:
275,207,56437,1,0,0:0:0:0:
275,207,56632,6,0,L|175:211,2,100,2|8|2,1:2|1:2|1:2,0:0:0:0:
323,119,57800,1,8,1:2:0:0:
365,28,58190,2,0,P|421:38|485:159,1,200,2|2,1:2|1:2,0:0:0:0:
428,236,59359,1,8,1:2:0:0:
387,327,59748,6,0,P|306:324|270:319,1,100,4|8,1:2|1:2,0:0:0:0:
190,348,60528,1,2,1:2:0:0:
96,313,60917,1,8,1:2:0:0:
96,313,61112,1,0,0:0:0:0:
96,313,61307,2,0,P|85:258|86:206,1,100,2|8,1:2|1:2,0:0:0:0:
166,155,62086,2,0,P|159:114|136:43,1,100,0|8,1:0|1:2,0:0:0:0:
234,19,62865,6,0,P|284:17|375:132,1,200,6|2,1:2|1:2,0:0:0:0:
328,210,64034,1,8,1:2:0:0:
384,292,64424,2,0,P|439:287|485:261,2,100,4|8|8,1:2|0:0|3:0,0:0:0:0:
303,350,65593,1,8,3:0:0:0:
203,358,65982,6,0,P|176:321|169:253,1,100,4|8,1:0|1:2,0:0:0:0:
220,184,66761,1,2,1:2:0:0:
150,112,67151,1,8,1:2:0:0:
51,93,67541,2,0,P|21:140|38:288,1,200,2|0,1:2|1:0,0:0:0:0:
120,324,68709,1,8,1:2:0:0:
120,324,68904,1,0,0:2:0:0:
120,324,69099,6,0,P|201:301|232:300,1,100,6|8,1:2|1:2,0:0:0:0:
290,232,69878,2,0,P|335:230|397:248,1,100,2|8,1:2|1:2,0:0:0:0:
468,184,70657,2,0,P|460:130|338:66,1,200,4|2,1:2|1:2,0:0:0:0:
256,116,71826,1,8,1:2:0:0:
169,65,72216,6,0,P|77:93|44:184,1,200,4|2,1:2|1:2,0:0:0:0:
117,251,73385,2,0,L|187:241,1,50,8|0,1:2|0:2,0:0:0:0:
194,202,73774,2,0,P|239:198|305:222,2,100,2|8|2,1:2|1:2|1:2,0:0:0:0:
129,125,74943,1,8,1:2:0:0:
201,56,75333,6,0,L|321:69,1,100,4|8,1:2|1:2,0:0:0:0:
368,140,76112,2,0,L|488:153,1,100,6|8,1:2|1:2,0:0:0:0:
500,245,76891,1,4,3:0:0:0:
432,318,77281,1,8,3:0:0:0:
346,266,77670,2,0,L|242:279,1,100,2|0,0:0|1:2,0:0:0:0:
174,348,78450,6,0,B|124:336|124:336|75:350,1,100,4|8,0:0|0:0,0:0:0:0:
4,280,79229,2,0,L|16:172,1,100,2|8,0:2|0:0,0:0:0:0:
73,99,80008,2,0,B|191:71|147:153|279:126,1,200,4|2,0:0|0:3,0:0:0:0:
333,56,81177,1,10,0:3:0:0:
420,103,81567,6,0,B|466:127|466:127|493:183,1,100,4|8,0:0|0:0,0:0:0:0:
421,245,82346,2,0,B|375:221|375:221|348:165,1,100,2|8,0:2|0:0,0:0:0:0:
258,149,83125,1,4,0:2:0:0:
172,200,83515,1,8,0:0:0:0:
223,285,83904,1,2,0:2:0:0:
421,258,84683,6,0,L|427:157,1,100,4|8,0:0|0:0,0:0:0:0:
339,108,85463,2,0,L|333:207,1,100,2|8,0:2|0:0,0:0:0:0:
296,301,86242,1,2,0:2:0:0:
197,319,86632,1,8,0:0:0:0:
158,226,87021,1,2,0:3:0:0:
236,164,87411,1,10,0:3:0:0:
211,67,87800,6,0,B|161:52|161:52|113:68,1,100,4|8,0:0|0:0,0:0:0:0:
15,57,88580,2,0,L|28:166,1,100,2|8,0:2|0:0,0:0:0:0:
101,222,89359,2,0,L|84:331,2,100,8|8|0,0:0|0:0|0:0,0:0:0:0:
182,164,90528,1,2,0:2:0:0:
254,232,90917,6,0,P|294:227|355:84,1,200,4|2,1:2|1:2,0:0:0:0:
278,41,92086,1,8,1:2:0:0:
182,72,92476,2,0,P|119:83|69:83,1,100,2|8,1:2|0:0,0:0:0:0:
2,143,93255,2,0,P|13:185|20:248,1,100,2|8,1:2|1:2,0:0:0:0:
40,286,93839,1,0,1:0:0:0:
40,286,94034,6,0,P|111:285|246:273,1,200,2|0,1:2|1:0,0:0:0:0:
323,219,95203,1,8,0:0:0:0:
412,263,95593,2,0,P|421:205|446:152,2,100,2|8|2,1:2|1:2|1:2,0:0:0:0:
329,318,96761,1,8,1:2:0:0:
239,274,97151,5,4,1:0:0:0:
192,79,97930,2,0,P|128:81|80:90,1,100,2|8,1:2|1:2,0:0:0:0:
57,122,98515,1,0,1:0:0:0:
57,122,98709,2,0,P|67:172|75:288,2,150,2|2|8,1:2|1:2|1:2,0:0:0:0:
101,32,100268,6,0,P|167:25|271:115,1,200,4|2,1:2|1:2,0:0:0:0:
257,203,101437,1,8,0:0:0:0:
324,276,101826,2,0,P|343:220|346:171,1,100,2|8,1:2|1:2,0:0:0:0:
410,102,102606,2,0,P|457:137|500:158,1,100,2|8,1:2|1:2,0:0:0:0:
501,255,103385,6,0,P|484:301|337:341,1,200,4|2,1:0|1:2,0:0:0:0:
258,312,104554,1,8,1:2:0:0:
162,339,104943,2,0,P|114:306|99:164,1,200,2|2,1:2|1:2,0:0:0:0:
153,93,106112,1,8,1:2:0:0:
153,93,106307,1,0,0:0:0:0:
153,93,106502,6,0,L|375:81,1,200,2|0,1:2|1:0,0:0:0:0:
413,161,107670,1,8,0:0:0:0:
332,220,108060,2,0,L|216:227,1,100,2|8,1:2|1:2,0:0:0:0:
139,189,108839,2,0,P|103:214|75:262,1,100,2|8,1:2|1:2,0:0:0:0:
37,295,109424,1,0,1:2:0:0:
37,295,109619,6,0,P|63:327|225:345,1,200,4|2,1:0|1:2,0:0:0:0:
283,283,110787,1,8,1:2:0:0:
378,312,111177,2,0,P|403:275|420:161,2,150,2|0|8,1:2|1:0|1:2,0:0:0:0:
283,283,112735,6,0,B|269:236|269:236|280:184,1,100,4|8,1:2|1:2,0:0:0:0:
213,110,113515,2,0,B|179:145|179:145|128:162,1,100,2|8,1:2|1:2,0:0:0:0:
98,257,114294,2,0,B|145:268|145:268|185:303,1,100,2|8,1:2|1:2,0:0:0:0:
283,283,115073,1,2,1:3:0:0:
380,260,115463,1,8,0:0:0:0:
477,279,115852,5,4,1:2:0:0:
425,85,116632,1,0,1:0:0:0:
329,56,117021,1,8,0:0:0:0:
228,58,117411,2,0,P|185:64|122:157,2,150,2|0|8,1:2|1:0|0:0,0:0:0:0:
293,133,118969,6,0,P|290:199|299:302,2,150,4|0|8,1:2|1:0|0:0,0:0:0:0:
377,78,120528,2,0,P|437:84|490:166,2,150,0|0|8,1:0|1:0|0:0,0:0:0:0:
293,133,122086,6,0,P|238:144|74:143,1,200,4|2,1:2|1:2,0:0:0:0:
7,194,123255,1,8,1:2:0:0:
10,294,123645,2,0,P|62:298|160:273,2,150,2|2|8,1:2|1:2|1:2,0:0:0:0:
7,194,125203,5,2,1:2:0:0:
99,156,125593,1,8,0:0:0:0:
99,156,125787,2,0,L|259:171,1,150,2|8,1:2|1:2,0:0:0:0:
335,220,126761,2,0,B|359:169|359:169|396:141|396:141|421:78,2,150,4|8|2,3:0|3:0|0:3,0:0:0:0:
350,319,128320,6,0,P|276:302|160:360,1,200,4|2,1:0|1:2,0:0:0:0:
66,352,129489,1,8,1:2:0:0:
23,261,129878,2,0,P|29:217|166:165,1,200,2|0,1:2|1:2,0:0:0:0:
248,201,131047,1,8,1:2:0:0:
248,201,131242,1,0,0:2:0:0:
248,201,131437,6,0,P|273:148|269:96,1,100,2|8,1:2|1:2,0:0:0:0:
273,7,132216,2,0,P|332:21|377:36,1,100,2|8,1:2|1:2,0:0:0:0:
452,89,132995,2,0,P|440:161|432:302,1,200,2|2,1:2|1:2,0:0:0:0:
340,327,134164,1,8,1:2:0:0:
250,281,134554,6,0,B|136:267|177:341|46:315,1,200,4|2,1:2|1:2,0:0:0:0:
5,233,135722,2,0,P|11:197|20:174,1,50,8|0,1:2|0:2,0:0:0:0:
59,160,136112,2,0,P|101:155|164:189,2,100,2|8|0,1:2|1:2|1:2,0:0:0:0:
11,72,137281,1,8,1:2:0:0:
107,45,137670,6,0,P|169:41|268:39,2,150,6|0|8,1:2|1:2|1:2,0:0:0:0:
92,144,139229,1,4,1:2:0:0:
177,196,139619,1,8,0:0:0:0:
264,147,140008,2,0,B|340:157|340:157|380:187|380:187|464:195,1,200,8|4,3:0|1:0,0:0:0:0:
499,282,141177,6,0,P|465:314|401:317,1,100,8|2,1:2|1:2,0:0:0:0:
331,264,141956,1,8,1:2:0:0:
231,258,142346,2,0,P|187:175|76:167,1,200,2|0,1:2|1:2,0:0:0:0:
27,240,143515,1,8,1:2:0:0:
65,331,143904,6,0,L|186:325,2,100,6|8|2,1:2|1:2|1:2,0:0:0:0:
27,240,145073,1,12,1:2:0:0:
89,162,145463,2,0,P|97:112|232:60,1,200,4|2,1:2|1:2,0:0:0:0:
304,109,146632,1,8,1:2:0:0:
304,109,146826,1,0,0:2:0:0:
304,109,147021,6,0,P|298:157|299:318,1,200,4|2,1:2|1:2,0:0:0:0:
386,355,148190,1,8,1:2:0:0:
466,295,148580,2,0,P|476:251|483:192,2,100,2|8|2,1:2|1:2|1:2,0:0:0:0:
374,254,149748,1,8,1:2:0:0:
398,156,150138,6,0,P|386:108|257:50,1,200,4|6,1:2|1:2,0:0:0:0:
190,121,151307,1,8,1:2:0:0:
256,192,151696,12,0,153255,0:0:0:0:
6,192,165722,5,4,1:2:0:0:
93,241,166112,2,0,P|155:231|203:210,1,100,8|0,0:0|0:0,0:0:0:0:
282,252,166891,1,8,0:0:0:0:
381,263,167281,2,0,L|404:47,1,200,2|0,1:2|0:0,0:0:0:0:
306,35,168450,1,8,0:0:0:0:
240,110,168839,6,0,B|191:94|191:94|137:110,1,100,2|8,1:2|0:0,0:0:0:0:
103,199,169619,2,0,B|152:215|152:215|206:199,1,100,2|8,1:2|0:0,0:0:0:0:
298,200,170398,2,0,P|317:275|212:343,2,200,2|0|4,1:2|0:0|0:0,0:0:0:0:
264,105,172346,5,8,1:2:0:0:
338,39,172735,2,0,L|455:56,1,100,2|8,1:2|0:0,0:0:0:0:
502,129,173515,2,0,P|481:192|485:233,1,100,2|8,1:2|0:0,0:0:0:0:
433,311,174294,2,0,B|382:293|382:293|333:308,1,100,2|8,0:0|1:2,0:0:0:0:
243,339,175073,6,0,P|206:323|176:169,1,200,6|0,1:2|0:0,0:0:0:0:
216,94,176242,1,8,1:2:0:0:
311,63,176632,2,0,B|360:151|360:151|330:251,1,200,2|2,3:0|3:0,0:0:0:0:
292,277,177606,2,0,B|287:308|287:308|297:342,2,50,6|12|6,3:0|3:0|3:0,0:0:0:0:
253,192,192216,5,4,1:0:0:0:
167,139,192606,2,0,L|60:154,2,100,8|2|8,1:2|1:2|1:2,0:0:0:0:
235,66,193774,2,0,B|287:55|287:55|434:86,1,200,2|0,1:2|1:2,0:0:0:0:
506,150,194943,1,8,1:2:0:0:
422,204,195333,6,0,P|409:247|409:316,2,100,2|8|2,1:2|1:2|1:2,0:0:0:0:
340,145,196502,1,8,1:2:0:0:
240,139,196891,2,0,P|148:175|133:272,1,200,2|2,1:2|1:2,0:0:0:0:
211,326,198060,1,8,1:2:0:0:
310,332,198450,6,0,P|300:200|298:121,1,200,4|2,1:2|1:2,0:0:0:0:
238,52,199619,1,8,1:2:0:0:
138,64,200008,2,0,P|89:66|36:54,1,100,2|8,1:2|1:2,0:0:0:0:
12,151,200787,2,0,P|53:184|87:223,1,100,0|8,1:2|1:2,0:0:0:0:
174,174,201567,6,0,P|224:152|369:154,1,200,6|2,1:2|1:2,0:0:0:0:
419,238,202735,1,8,1:2:0:0:
356,316,203125,1,4,1:2:0:0:
260,287,203515,1,8,0:0:0:0:
165,317,203904,2,0,B|148:270|148:270|165:220,1,100,8|8,3:0|3:0,0:0:0:0:
253,176,204683,6,0,P|256:121|141:35,1,200,4|2,1:0|1:2,0:0:0:0:
60,70,205852,1,8,1:2:0:0:
16,160,206242,2,0,L|49:360,1,200,2|0,1:2|1:0,0:0:0:0:
148,364,207411,1,8,1:2:0:0:
231,309,207800,6,0,P|264:300|345:298,1,100,6|8,1:2|1:2,0:0:0:0:
427,315,208580,2,0,P|456:273|467:226,1,100,2|12,1:2|1:2,0:0:0:0:
472,125,209359,2,0,P|428:67|303:40,1,200,4|2,1:2|1:2,0:0:0:0:
235,107,210528,1,8,1:2:0:0:
235,107,210722,1,0,0:2:0:0:
235,107,210917,6,0,P|185:108|120:92,1,100,4|8,1:2|1:2,0:0:0:0:
53,154,211696,2,0,P|36:198|35:266,1,100,2|8,1:2|1:2,0:0:0:0:
107,316,212476,1,2,1:2:0:0:
200,280,212865,1,8,1:2:0:0:
222,182,213255,2,0,B|206:137|206:137|221:78,1,100,2|8,1:2|1:2,0:0:0:0:
299,26,214034,6,0,L|508:54,1,200,4|6,1:2|1:2,0:0:0:0:
503,152,215203,1,8,1:2:0:0:
433,223,215593,2,0,B|329:210|329:210|243:265,1,200,4|2,3:0|0:0,0:0:0:0:
186,339,216761,1,0,1:2:0:0:
186,339,216956,1,2,1:2:0:0:
186,339,217151,6,0,L|77:330,2,100,4|8|2,0:0|0:0|0:2,0:0:0:0:
284,321,218320,1,8,0:0:0:0:
379,291,218709,2,0,L|478:299,1,100,4|8,0:0|0:0,0:0:0:0:
497,200,219489,2,0,L|397:191,1,100,2|10,0:3|0:3,0:0:0:0:
322,125,220268,5,4,0:0:0:0:
228,158,220657,1,8,0:0:0:0:
136,116,221047,1,2,0:2:0:0:
42,150,221437,1,8,0:0:0:0:
93,235,221826,2,0,P|106:294|97:346,1,100,4|8,0:2|0:0,0:0:0:0:
197,361,222606,2,0,B|224:288|224:288|266:281|266:281|295:191,1,200,2|4,0:2|0:0,0:0:0:0:
362,136,223774,6,0,P|352:84|331:27,1,100,8|2,0:0|0:2,0:0:0:0:
237,24,224554,1,8,0:0:0:0:
142,55,224943,2,0,P|129:122|242:177,1,200,2|2,0:2|0:3,0:0:0:0:
321,142,226112,1,10,0:3:0:0:
395,208,226502,6,0,P|421:263|431:316,2,100,4|8|2,0:0|0:0|0:2,0:0:0:0:
321,142,227670,1,8,0:0:0:0:
372,56,228060,2,0,B|422:47|422:47|477:72,1,100,8|8,0:0|0:0,0:0:0:0:
509,157,228839,2,0,B|459:166|459:166|404:141,1,100,12|2,3:2|0:2,0:0:0:0:
314,133,229619,6,0,L|107:157,1,200,4|2,0:0|0:2,0:0:0:0:
17,134,230787,1,8,0:0:0:0:
11,233,231177,2,0,B|25:283|25:283|11:337,2,100,4|8|2,0:0|0:2|0:3,0:0:0:0:
110,246,232346,1,10,0:3:0:0:
193,300,232735,6,0,L|311:290,1,100,4|8,0:0|0:0,0:0:0:0:
370,228,233515,2,0,L|488:240,1,100,2|8,0:2|0:0,0:0:0:0:
479,138,234294,2,0,P|462:84|323:55,1,200,4|2,0:2|0:2,0:0:0:0:
249,98,235463,1,8,3:0:0:0:
249,98,235657,1,0,0:0:0:0:
249,98,235852,6,0,L|142:84,1,100,4|8,0:0|0:0,0:0:0:0:
97,170,236632,2,0,L|196:182,1,100,2|8,0:2|0:0,0:0:0:0:
265,255,237411,1,2,0:2:0:0:
345,195,237800,1,8,0:0:0:0:
422,258,238190,1,2,0:3:0:0:
384,350,238580,1,10,0:3:0:0:
284,353,238969,6,0,P|218:343|76:343,1,200,4|2,0:0|0:2,0:0:0:0:
19,266,240138,1,8,0:0:0:0:
70,180,240528,2,0,B|86:131|86:131|68:77,1,100,8|8,0:0|0:0,0:0:0:0:
127,2,241307,1,12,3:2:0:0:
215,48,241696,2,0,L|311:66,1,75,2|2,0:2|0:2,0:0:0:0:
