osu file format v14

[General]
AudioFilename: audio.mp3
AudioLeadIn: 0
PreviewTime: 53028
Countdown: 0
SampleSet: Normal
StackLeniency: 0.7
Mode: 0
LetterboxInBreaks: 0
WidescreenStoryboard: 1

[Editor]
DistanceSpacing: 1.2
BeatDivisor: 4
GridSize: 4
TimelineZoom: 1.7

[Metadata]
Title:Hotarubi
TitleUnicode:蛍火
Artist:Tsukiko
ArtistUnicode:月子
Creator:Mirash
Version:Intermediate
Source:東方永夜抄 ~ Imperishable Night.
Tags:PandaHero Kalibe Yales Kamishirasawa Keine Ex-Keine Light of a Firefly TatshMusicCircle Tatsh FAR EAST OF EAST 懐かしき東方の血 Old World Nostalgic Blood of the East ZUN touhou c76 doujin collaboration
BeatmapID:1707953
BeatmapSetID:724098

[Difficulty]
HPDrainRate:5
CircleSize:4
OverallDifficulty:6
ApproachRate:6
SliderMultiplier:1.2
SliderTickRate:1

[Events]
//Background and Video events
0,0,"touhoubg.jpg",0,0
//Break Periods
2,153455,164672
2,179748,191166
//Storyboard Layer 0 (Background)
//Storyboard Layer 1 (Fail)
//Storyboard Layer 2 (Pass)
//Storyboard Layer 3 (Foreground)
//Storyboard Sound Samples

[TimingPoints]
3645,389.61038961039,4,1,1,70,1,0
16112,-100,4,2,1,50,0,0
41047,-133.333333333333,4,2,1,50,0,0
46891,-100,4,2,1,55,0,0
47281,-100,4,2,1,55,0,0
53125,-100,4,1,1,55,0,0
53515,-83.3333333333333,4,2,1,60,0,1
78450,-83.3333333333333,4,1,1,70,0,0
90917,-100,4,2,1,55,0,0
115852,-100,4,2,1,50,0,0
121696,-100,4,2,1,55,0,0
122086,-100,4,2,1,55,0,0
127930,-100,4,1,1,55,0,0
128320,-83.3333333333333,4,2,1,60,0,1
153255,-83.3333333333333,4,2,1,50,0,0
153352,-83.3333333333333,4,2,1,55,0,0
192216,-83.3333333333333,4,2,1,60,0,1
203125,-83.3333333333333,4,2,1,60,0,0
204683,-83.3333333333333,4,2,1,60,0,1
214813,-83.3333333333333,4,2,1,60,0,0
217151,-100,4,1,1,70,0,0

[Colours]
Combo1 : 89,183,126
Combo2 : 27,105,175
Combo3 : 204,60,92
Combo4 : 83,204,204

[HitObjects]
436,65,3644,6,0,P|419:115|420:202,1,120,4|8,0:0|0:2,0:0:0:0:
375,241,4229,1,0,0:0:0:0:
307,265,4424,2,0,P|285:235|275:142,1,120,2|8,0:2|0:0,0:0:0:0:
205,127,5008,1,0,0:0:0:0:
149,172,5203,2,0,L|64:167,1,60,4|0,0:0|0:0,0:0:0:0:
69,238,5593,2,0,L|128:241,1,60,8|0,0:0|0:0,0:0:0:0:
173,298,5982,2,0,P|216:296|291:339,1,120,2|10,0:3|0:3,0:0:0:0:
354,315,6567,1,2,0:2:0:0:
420,342,6761,6,0,P|452:296|448:208,1,120,4|8,0:0|0:0,0:0:0:0:
405,182,7346,1,0,0:0:0:0:
408,110,7541,2,0,P|416:74|423:50,2,60,2|0|8,0:2|0:0|0:0,0:0:0:0:
342,139,8125,1,0,0:0:0:0:
270,150,8320,2,0,P|215:132|204:72,1,120,4|8,0:2|0:0,0:0:0:0:
159,18,8904,1,0,0:0:0:0:
91,43,9099,1,2,0:2:0:0:
20,168,9489,1,8,3:0:0:0:
134,255,9878,6,0,L|265:247,1,120,4|8,0:0|0:0,0:0:0:0:
311,291,10463,1,0,0:0:0:0:
382,289,10657,2,0,L|456:284,2,60,2|0|8,0:2|0:0|0:0,0:0:0:0:
349,224,11242,1,0,0:0:0:0:
326,155,11437,2,0,P|324:84|330:17,1,120,2|8,0:2|0:0,0:0:0:0:
258,16,12021,1,0,0:0:0:0:
200,59,12216,2,0,P|206:119|207:141,1,60,2|2,0:3|0:2,0:0:0:0:
194,190,12606,2,0,P|188:250|187:272,1,60,10|2,0:3|0:2,0:0:0:0:
153,313,12995,6,0,P|91:299|71:235,2,120,4|8|2,0:0|0:0|0:2,0:0:0:0:
288,363,14164,1,8,0:0:0:0:
374,247,14554,2,0,B|352:189|352:189|369:111,1,120,8|8,0:0|0:0,0:0:0:0:
505,104,15333,1,12,3:2:0:0:
394,11,15722,2,0,L|323:17,1,60,2|2,0:2|0:2,0:0:0:0:
262,5,16112,6,0,P|216:10|124:174,1,240,4|2,1:2|1:2,0:0:0:0:
156,221,17086,1,0,0:0:0:0:
134,289,17281,2,0,P|176:292|206:285,1,60,8|0,1:2|1:0,0:0:0:0:
249,243,17670,2,0,P|298:233|419:369,1,240,2|2,1:2|1:2,0:0:0:0:
349,371,18645,1,0,0:0:0:0:
285,337,18839,2,0,P|230:349|205:349,1,60,8|0,1:2|1:0,0:0:0:0:
155,364,19229,6,0,P|96:357|53:307,1,120,2|8,1:2|0:0,0:0:0:0:
86,249,19813,2,0,P|99:187|99:122,1,120,2|2,1:2|0:3,0:0:0:0:
75,62,20398,2,0,P|100:34|132:16,1,60,8|0,0:0|0:0,0:0:0:0:
186,46,20787,1,2,1:2:0:0:
328,23,21177,1,8,1:2:0:0:
399,147,21567,1,2,1:2:0:0:
258,176,21956,2,0,L|264:245,1,60,8|0,1:2|1:2,0:0:0:0:
320,279,22346,6,0,P|291:326|173:305,1,180,4|0,1:0|1:0,0:0:0:0:
114,345,23125,2,0,P|102:310|122:227,1,120,2|8,1:2|0:0,0:0:0:0:
190,222,23709,1,0,1:0:0:0:
215,154,23904,2,0,P|205:87|145:59,1,120,2|8,1:2|0:0,0:0:0:0:
104,20,24489,2,0,P|73:46|41:138,1,120,2|2,1:2|0:3,0:0:0:0:
10,182,25073,2,0,P|28:220|34:249,1,60,8|0,1:2|0:0,0:0:0:0:
30,309,25463,6,0,L|114:310,1,60,4|0,1:2|0:0,0:0:0:0:
146,265,25852,1,8,1:2:0:0:
213,289,26047,1,2,0:2:0:0:
269,244,26242,2,0,B|258:213|258:213|270:165,1,60,2|2,1:2|1:2,0:0:0:0:
238,119,26632,2,0,P|287:99|372:113,1,120,8|2,0:2|1:2,0:0:0:0:
417,135,27216,1,8,0:0:0:0:
409,206,27411,2,0,B|424:264|424:264|405:330,1,120,8|0,1:2|1:0,0:0:0:0:
344,356,27995,2,0,L|267:346,2,60,2|8|0,1:2|1:2|1:2,0:0:0:0:
337,283,28580,6,0,P|310:259|206:253,1,120,4|8,1:0|0:0,0:0:0:0:
165,277,29164,1,0,0:0:0:0:
93,272,29359,2,0,P|74:232|71:208,1,60,2|0,1:2|0:0,0:0:0:0:
113,158,29748,2,0,P|122:118|120:97,1,60,8|0,1:2|1:0,0:0:0:0:
122,26,30138,2,0,P|170:19|248:42,1,120,2|8,1:2|0:0,0:0:0:0:
314,159,30917,2,0,P|367:151|431:116,1,120,2|8,1:2|1:2,0:0:0:0:
492,147,31502,1,0,0:0:0:0:
507,216,31696,6,0,P|486:270|479:340,1,120,2|8,1:2|0:0,0:0:0:0:
406,339,32281,2,0,L|286:321,1,120,2|2,1:2|0:3,0:0:0:0:
223,353,32865,2,0,P|202:308|195:288,1,60,8|0,0:0|0:0,0:0:0:0:
200,225,33255,2,0,P|239:202|337:202,2,120,2|8|2,1:2|1:2|1:2,0:0:0:0:
131,247,34229,1,0,0:0:0:0:
58,248,34424,2,0,B|66:216|66:216|54:171,1,60,8|0,1:2|1:2,0:0:0:0:
106,135,34813,5,4,1:0:0:0:
189,17,35203,2,0,L|267:26,1,60,8|0,0:0|0:0,0:0:0:0:
286,85,35593,2,0,P|366:82|404:44,1,120,2|8,1:2|1:2,0:0:0:0:
466,54,36177,1,0,1:0:0:0:
493,120,36372,2,0,L|475:252,1,120,2|8,1:2|0:0,0:0:0:0:
437,298,36956,2,0,B|372:278|311:337,1,120,0|0,1:0|1:2,0:0:0:0:
260,357,37541,2,0,L|201:344,1,60,8|0,1:2|0:0,0:0:0:0:
129,346,37930,6,0,B|121:315|121:315|133:272,1,60,4|0,1:2|0:0,0:0:0:0:
188,246,38320,1,8,1:2:0:0:
180,174,38515,1,2,0:2:0:0:
120,133,38709,2,0,L|49:122,1,60,2|2,1:2|1:2,0:0:0:0:
17,65,39099,1,8,0:0:0:0:
81,32,39294,1,0,0:0:0:0:
145,63,39489,2,0,P|196:66|264:55,2,120,2|8|2,1:2|1:2|1:3,0:0:0:0:
81,32,40463,1,8,3:0:0:0:
17,65,40657,2,0,B|8:93|8:93|17:127,1,60,8|0,0:0|0:0,0:0:0:0:
67,176,41047,6,0,L|259:169,1,180.000006866455,4|0,1:2|1:0,0:0:0:0:
365,250,42216,1,8,0:0:0:0:
365,250,42411,1,0,1:0:0:0:
365,250,42606,2,0,P|357:207|359:108,1,135.000005149841,2|0,1:2|1:0,0:0:0:0:
404,60,43385,2,0,L|456:65,1,45.0000017166138,0|0,0:0|0:0,0:0:0:0:
488,124,43774,1,8,0:0:0:0:
477,195,43969,1,0,0:0:0:0:
463,265,44164,6,0,P|446:326|373:349,1,135.000005149841,4|0,1:2|1:0,0:0:0:0:
319,317,44943,2,0,P|292:316|264:320,1,45.0000017166138,0|0,0:0|1:0,0:0:0:0:
214,359,45333,2,0,P|180:341|154:278,1,90.0000034332277,8|0,0:0|1:0,0:0:0:0:
0,146,46307,1,0,1:0:0:0:
0,146,46502,2,0,L|62:142,1,45.0000017166138,0|0,0:0|1:0,0:0:0:0:
102,65,46891,2,0,B|161:49|161:49|228:65,1,120,8|4,0:0|1:2,0:0:0:0:
319,179,47670,5,8,0:0:0:0:
319,179,47865,1,0,0:0:0:0:
277,114,48060,2,0,P|236:154|234:225,1,120,2|8,1:2|1:2,0:0:0:0:
168,254,48645,1,0,1:0:0:0:
115,306,48839,2,0,P|158:345|227:343,1,120,2|8,1:2|0:0,0:0:0:0:
273,301,49424,2,0,P|309:291|407:293,1,120,2|2,1:2|0:3,0:0:0:0:
457,318,50008,2,0,P|475:274|477:246,1,60,8|0,1:2|0:0,0:0:0:0:
445,196,50398,6,0,P|450:154|441:68,1,120,2|8,1:2|0:0,0:0:0:0:
371,66,50982,2,0,P|312:88|289:143,1,120,2|2,1:2|0:3,0:0:0:0:
260,203,51567,1,8,0:0:0:0:
188,193,51761,1,0,0:0:0:0:
142,136,51956,2,0,B|117:115|117:115|113:78,1,60,4|0,3:0|3:0,0:0:0:0:
42,100,52346,2,0,B|36:131|36:131|6:153,1,60,0|8,3:0|3:0,0:0:0:0:
61,204,52735,2,0,B|90:193|90:193|124:207,1,60,8|0,3:0|3:0,0:0:0:0:
170,261,53125,1,2,0:3:0:0:
247,248,53320,1,2,0:2:0:0:
311,293,53515,6,0,P|372:244|378:161,1,143.999995605469,4|8,1:0|1:2,0:0:0:0:
336,109,54099,1,0,0:0:0:0:
385,37,54294,2,0,P|434:47|467:155,1,143.999995605469,2|8,1:2|1:2,0:0:0:0:
478,211,54878,1,0,0:0:0:0:
462,296,55073,2,0,P|433:326|414:353,1,71.9999978027344,2|0,1:2|0:0,0:0:0:0:
329,363,55463,2,0,P|279:345|248:326,1,71.9999978027344,8|2,1:2|0:0,0:0:0:0:
206,270,55852,2,0,P|152:288|91:354,2,143.999995605469,0|8|2,1:0|1:2|1:2,0:0:0:0:
287,242,56826,5,0,0:0:0:0:
326,164,57021,2,0,P|313:127|309:86,1,71.9999978027344,8|0,1:2|0:0,0:0:0:0:
239,41,57411,2,0,P|213:78|123:121,1,143.999995605469,2|8,1:2|1:2,0:0:0:0:
42,98,57995,1,0,0:0:0:0:
21,182,58190,2,0,P|28:246|34:344,1,143.999995605469,2|8,1:2|1:2,0:0:0:0:
200,369,58969,2,0,P|204:297|212:225,1,143.999995605469,2|8,1:2|1:2,0:0:0:0:
276,167,59554,1,0,0:0:0:0:
350,210,59748,6,0,P|400:212|490:176,1,143.999995605469,4|8,1:2|1:2,0:0:0:0:
488,91,60333,1,0,0:0:0:0:
426,29,60528,2,0,P|383:48|340:52,1,71.9999978027344,2|0,1:2|0:0,0:0:0:0:
282,92,60917,1,8,1:2:0:0:
206,50,61112,1,0,0:0:0:0:
123,77,61307,2,0,P|127:125|126:239,2,143.999995605469,2|8|0,1:2|1:2|1:0,0:0:0:0:
39,55,62281,1,2,1:2:0:0:
18,138,62476,2,0,P|23:189|19:224,1,71.9999978027344,8|0,1:2|0:0,0:0:0:0:
38,294,62865,6,0,P|70:319|178:288,1,143.999995605469,6|8,1:2|1:2,0:0:0:0:
221,235,63450,1,0,0:0:0:0:
304,255,63645,2,0,P|321:313|325:364,2,107.999996704102,2|0|0,1:2|1:0|1:0,0:0:0:0:
277,172,64424,2,0,P|314:158|424:157,1,143.999995605469,4|8,1:2|0:0,0:0:0:0:
503,150,65008,1,0,0:0:0:0:
507,236,65203,2,0,P|487:280|485:315,1,71.9999978027344,8|8,3:0|3:0,0:0:0:0:
416,357,65593,2,0,P|380:342|340:339,1,71.9999978027344,8|8,3:0|3:0,0:0:0:0:
305,262,65982,6,0,P|270:266|163:281,1,143.999995605469,4|8,1:0|1:2,0:0:0:0:
95,336,66567,1,0,0:2:0:0:
29,280,66761,2,0,P|30:223|69:146,1,143.999995605469,2|8,1:2|1:2,0:0:0:0:
153,162,67346,1,0,0:2:0:0:
233,131,67541,2,0,L|473:112,1,215.999993408203,2|0,1:2|1:2,0:0:0:0:
474,31,68320,2,0,L|394:39,1,71.9999978027344,0|2,1:0|0:2,0:0:0:0:
316,45,68709,2,0,L|236:53,1,71.9999978027344,8|0,1:2|0:2,0:0:0:0:
165,16,69099,6,0,P|73:38|41:96,1,143.999995605469,6|8,1:2|1:2,0:0:0:0:
112,132,69683,1,0,0:2:0:0:
88,215,69878,2,0,P|85:263|72:297,1,71.9999978027344,2|0,1:2|0:2,0:0:0:0:
132,353,70268,2,0,P|175:319|199:308,1,71.9999978027344,8|0,1:2|0:0,0:0:0:0:
216,229,70657,2,0,P|264:218|367:237,1,143.999995605469,4|8,1:2|1:2,0:0:0:0:
398,308,71242,1,0,1:2:0:0:
484,305,71437,2,0,P|481:263|471:227,1,71.9999978027344,2|0,1:2|0:2,0:0:0:0:
419,166,71826,1,8,1:2:0:0:
441,82,72021,1,0,0:2:0:0:
361,48,72216,6,0,P|312:53|250:141,1,143.999995605469,4|8,1:2|1:2,0:0:0:0:
253,207,72800,1,0,0:2:0:0:
169,230,72995,2,0,P|148:184|146:156,1,71.9999978027344,2|0,1:2|0:2,0:0:0:0:
169,79,73385,2,0,P|140:43|112:26,1,71.9999978027344,8|0,1:2|0:2,0:0:0:0:
35,51,73774,2,0,P|31:121|12:201,1,143.999995605469,2|8,1:2|1:2,0:0:0:0:
139,313,74554,2,0,P|143:243|162:163,1,143.999995605469,2|8,1:2|1:2,0:0:0:0:
239,137,75138,1,0,0:2:0:0:
277,214,75333,6,0,P|356:210|395:146,1,143.999995605469,4|8,1:2|1:2,0:0:0:0:
361,80,75917,1,0,0:2:0:0:
400,3,76112,1,6,1:2:0:0:
500,143,76502,1,8,1:2:0:0:
445,306,76891,2,0,P|390:297|280:307,1,143.999995605469,4|8,3:0|3:0,0:0:0:0:
230,351,77476,1,2,3:0:0:0:
143,348,77670,2,0,B|133:313|133:313|143:270,1,71.9999978027344,2|0,0:0|0:0,0:0:0:0:
201,215,78060,2,0,B|211:180|211:180|201:137,1,71.9999978027344,0|2,1:2|1:2,0:0:0:0:
139,85,78450,5,4,0:0:0:0:
192,17,78645,2,0,L|272:27,2,71.9999978027344,0|8|0,0:0|0:0|0:0,0:0:0:0:
105,14,79229,1,2,0:2:0:0:
38,69,79424,2,0,L|45:152,1,71.9999978027344,0|8,0:0|0:0,0:0:0:0:
22,224,79813,1,0,0:0:0:0:
82,286,80008,2,0,L|234:261,1,143.999995605469,4|8,0:0|0:0,0:0:0:0:
301,302,80593,1,0,0:0:0:0:
376,261,80787,2,0,L|384:343,2,71.9999978027344,2|2|10,0:3|0:2|0:3,0:0:0:0:
297,222,81372,1,2,0:2:0:0:
372,180,81567,5,4,0:0:0:0:
417,107,81761,2,0,L|500:118,2,71.9999978027344,0|8|0,0:0|0:0|0:0,0:0:0:0:
330,103,82346,1,2,0:2:0:0:
263,48,82541,2,0,L|188:41,1,71.9999978027344,0|8,0:0|0:0,0:0:0:0:
113,78,82930,1,0,0:0:0:0:
36,37,83125,2,0,P|22:110|42:178,1,143.999995605469,4|8,0:2|0:0,0:0:0:0:
113,221,83709,1,0,0:0:0:0:
183,171,83904,1,2,0:2:0:0:
254,220,84099,2,0,L|240:322,2,71.9999978027344,2|8|0,3:0|3:0|0:0,0:0:0:0:
312,155,84683,5,4,0:0:0:0:
322,69,84878,1,0,0:0:0:0:
408,65,85073,2,0,L|397:145,1,71.9999978027344,8|0,0:0|0:0,0:0:0:0:
482,158,85463,1,2,0:2:0:0:
504,241,85657,1,0,0:0:0:0:
460,315,85852,2,0,L|389:305,1,71.9999978027344,8|0,0:0|0:0,0:0:0:0:
317,255,86242,1,2,0:2:0:0:
231,242,86437,2,0,L|137:259,2,71.9999978027344,0|8|0,0:0|0:0|0:0,0:0:0:0:
282,173,87021,2,0,P|288:134|234:28,1,143.999995605469,2|10,0:3|0:3,0:0:0:0:
187,102,87606,1,2,0:2:0:0:
108,136,87800,5,4,0:0:0:0:
29,172,87995,2,0,L|34:249,2,71.9999978027344,0|8|0,0:0|0:0|0:0,0:0:0:0:
108,136,88580,2,0,P|153:172|157:267,1,143.999995605469,2|8,0:2|0:0,0:0:0:0:
136,336,89164,1,0,0:0:0:0:
220,356,89359,1,8,0:0:0:0:
290,306,89554,2,0,B|281:271|281:271|288:232,1,71.9999978027344,0|8,0:0|0:0,0:0:0:0:
341,167,89943,1,2,3:0:0:0:
305,88,90138,1,0,0:0:0:0:
371,32,90333,2,0,B|429:45|429:45|442:73|442:73|496:86,1,143.999995605469,0|2,0:0|0:2,0:0:0:0:
504,156,90917,6,0,P|510:209|505:295,1,120,4|8,1:2|0:0,0:0:0:0:
379,341,91696,2,0,P|370:291|373:207,1,120,2|8,1:2|1:2,0:0:0:0:
327,163,92281,1,0,1:0:0:0:
270,207,92476,2,0,L|133:197,2,120,2|8|2,1:2|0:0|1:2,0:0:0:0:
327,163,93450,1,0,0:0:0:0:
279,108,93645,2,0,P|273:58|272:34,1,60,8|0,1:2|1:0,0:0:0:0:
208,16,94034,6,0,P|154:21|96:83,1,120,2|8,1:2|0:0,0:0:0:0:
37,86,94619,2,0,P|40:132|25:222,1,120,2|2,1:2|0:3,0:0:0:0:
42,275,95203,2,0,P|86:269|113:267,1,60,8|0,0:0|0:0,0:0:0:0:
156,220,95593,2,0,P|202:232|246:308,1,120,2|8,1:2|1:2,0:0:0:0:
259,358,96177,1,0,0:0:0:0:
330,351,96372,2,0,L|400:344,1,60,2|0,1:2|0:0,0:0:0:0:
395,273,96761,2,0,L|335:278,1,60,8|0,1:2|0:2,0:0:0:0:
283,228,97151,6,0,P|281:179|330:124,1,120,4|8,1:0|0:0,0:0:0:0:
393,146,97735,1,0,0:0:0:0:
442,93,97930,2,0,P|404:56|328:44,1,120,2|8,1:2|1:2,0:0:0:0:
274,73,98515,1,0,1:0:0:0:
208,103,98709,2,0,L|67:89,1,120,2|8,1:2|0:0,0:0:0:0:
48,151,99294,2,0,P|55:211|38:287,1,120,2|2,1:2|0:3,0:0:0:0:
67,337,99878,2,0,P|122:328|144:320,1,60,8|0,1:2|0:0,0:0:0:0:
163,264,100268,6,0,B|224:253|211:299|294:282,1,120,4|8,1:2|0:0,0:0:0:0:
343,254,100852,1,2,0:2:0:0:
409,225,101047,2,0,P|404:168|336:130,1,120,2|8,1:2|0:0,0:0:0:0:
295,170,101632,2,0,P|262:174|225:172,1,60,0|2,0:0|1:2,0:0:0:0:
164,154,102021,1,8,0:0:0:0:
167,82,102216,2,0,P|195:77|226:80,1,60,8|0,1:2|0:0,0:0:0:0:
290,47,102606,1,2,1:2:0:0:
356,73,102800,1,2,1:2:0:0:
427,63,102995,1,8,1:2:0:0:
492,92,103190,1,2,1:2:0:0:
496,163,103385,6,0,P|486:212|490:295,1,120,4|8,1:0|0:0,0:0:0:0:
436,332,103969,1,0,0:0:0:0:
373,296,104164,2,0,P|271:289|229:298,1,120,2|8,1:2|1:2,0:0:0:0:
201,341,104748,1,0,1:0:0:0:
130,328,104943,2,0,P|129:284|124:255,1,60,2|0,1:2|0:0,0:0:0:0:
177,217,105333,2,0,P|181:171|116:108,1,120,8|2,0:0|1:2,0:0:0:0:
65,120,105917,1,0,0:0:0:0:
49,49,106112,2,0,P|81:36|108:36,1,60,8|0,1:2|0:0,0:0:0:0:
176,53,106502,6,0,P|221:66|312:61,1,120,2|8,1:2|0:0,0:0:0:0:
354,27,107086,2,0,P|401:31|475:61,1,120,2|2,1:2|0:3,0:0:0:0:
481,127,107670,2,0,P|480:168|488:196,1,60,8|0,0:0|0:0,0:0:0:0:
453,251,108060,1,2,1:2:0:0:
453,251,108255,2,0,P|401:254|372:248,2,60,0|8|2,0:0|1:2|0:2,0:0:0:0:
456,322,108839,1,2,1:2:0:0:
384,334,109034,1,0,0:0:0:0:
311,335,109229,2,0,P|269:333|231:331,1,60,8|0,1:2|1:2,0:0:0:0:
181,352,109619,6,0,P|151:325|138:244,1,120,4|8,1:0|0:0,0:0:0:0:
81,203,110203,1,0,0:0:0:0:
30,151,110398,2,0,P|58:115|146:99,1,120,2|8,1:2|1:2,0:0:0:0:
186,135,110982,1,0,1:2:0:0:
245,175,111177,2,0,P|318:175|365:162,1,120,2|8,1:2|0:0,0:0:0:0:
420,206,111761,2,0,P|457:166|457:89,1,120,0|0,1:0|1:2,0:0:0:0:
412,50,112346,2,0,L|342:55,1,60,8|0,1:2|0:0,0:0:0:0:
290,91,112735,6,0,P|233:76|181:27,1,120,4|8,1:2|0:0,0:0:0:0:
116,20,113320,1,2,1:2:0:0:
59,64,113515,2,0,L|69:143,1,60,2|2,1:2|1:2,0:0:0:0:
124,166,113904,2,0,L|134:245,1,60,8|0,0:0|0:0,0:0:0:0:
172,284,114294,2,0,P|242:270|286:251,2,120,2|8|2,1:2|1:2|1:3,0:0:0:0:
100,289,115268,1,0,0:0:0:0:
55,232,115463,1,8,0:0:0:0:
67,161,115657,1,0,0:0:0:0:
127,122,115852,1,4,1:2:0:0:
341,147,116437,5,0,1:0:0:0:
341,147,116632,1,0,1:0:0:0:
483,127,117021,2,0,P|478:174|477:207,1,60,8|0,0:0|1:0,0:0:0:0:
499,255,117411,2,0,P|459:270|383:249,1,120,2|0,1:2|0:0,0:0:0:0:
323,217,117995,2,0,P|281:225|200:269,1,120,0|2,1:0|1:2,0:0:0:0:
168,316,118580,2,0,P|128:298|111:280,1,60,8|2,0:0|0:0,0:0:0:0:
95,218,118969,5,4,1:2:0:0:
191,24,119554,2,0,P|252:40|322:41,1,120,0|0,1:0|1:0,0:0:0:0:
380,51,120138,2,0,P|378:86|354:128,1,60,8|0,0:0|0:0,0:0:0:0:
320,162,120528,2,0,P|301:207|293:289,1,120,0|0,1:0|0:0,0:0:0:0:
332,337,121112,2,0,P|369:327|429:257,1,120,0|0,1:0|1:0,0:0:0:0:
422,197,121696,2,0,B|412:164|412:164|423:124,1,60,8|0,0:0|1:2,0:0:0:0:
466,85,122086,6,0,P|409:45|342:34,1,120,4|8,1:2|0:0,0:0:0:0:
296,67,122670,1,0,0:0:0:0:
231,98,122865,2,0,P|175:94|130:42,1,120,2|8,1:2|1:2,0:0:0:0:
60,43,123450,1,0,1:0:0:0:
19,102,123645,1,2,1:2:0:0:
129,193,124034,1,8,0:0:0:0:
129,193,124229,2,0,P|119:241|108:320,1,120,2|2,1:2|0:3,0:0:0:0:
159,362,124813,2,0,P|209:349|230:338,1,60,8|0,1:2|0:0,0:0:0:0:
246,279,125203,6,0,P|290:271|377:279,1,120,2|8,1:2|0:0,0:0:0:0:
428,309,125787,2,0,P|469:272|473:189,1,120,2|2,1:2|0:3,0:0:0:0:
431,156,126372,2,0,P|425:111|426:79,1,60,8|0,1:2|0:0,0:0:0:0:
390,33,126761,5,4,3:0:0:0:
321,55,126956,1,0,3:0:0:0:
250,39,127151,1,0,3:0:0:0:
185,72,127346,2,0,L|121:71,2,60,8|8|0,3:0|3:0|3:0,0:0:0:0:
223,133,127930,2,0,B|231:164|231:164|221:203,1,60,2|2,0:3|0:2,0:0:0:0:
153,241,128320,6,0,P|163:308|251:338,1,143.999995605469,4|8,1:0|1:2,0:0:0:0:
302,301,128904,1,0,0:2:0:0:
376,345,129099,2,0,L|455:354,2,71.9999978027344,2|0|8,1:2|0:2|1:2,0:0:0:0:
302,301,129683,1,0,0:2:0:0:
319,216,129878,2,0,P|319:154|329:49,1,143.999995605469,2|8,1:2|1:2,0:0:0:0:
251,27,130463,1,0,0:2:0:0:
198,95,130657,2,0,P|203:154|203:177,1,71.9999978027344,0|0,1:2|0:2,0:0:0:0:
156,239,131047,1,8,1:2:0:0:
169,324,131242,1,0,0:2:0:0:
87,352,131437,6,0,P|42:319|35:223,1,143.999995605469,2|8,1:2|1:2,0:0:0:0:
11,151,132021,1,0,0:2:0:0:
54,76,132216,2,0,P|91:58|180:107,1,143.999995605469,2|8,1:2|1:2,0:0:0:0:
219,174,132800,1,0,0:2:0:0:
291,221,132995,2,0,P|357:196|434:180,2,143.999995605469,2|8|2,1:2|1:2|1:2,0:0:0:0:
232,284,133969,1,0,1:2:0:0:
165,339,134164,1,8,1:2:0:0:
83,309,134359,1,2,0:2:0:0:
47,230,134554,6,0,P|46:169|37:62,1,143.999995605469,4|8,1:2|1:2,0:0:0:0:
112,39,135138,1,0,0:2:0:0:
174,99,135333,2,0,P|246:91|281:75,2,107.999996704102,2|0|0,1:2|1:0|0:2,0:0:0:0:
139,178,136112,2,0,P|146:227|159:272,1,71.9999978027344,2|0,1:2|0:2,0:0:0:0:
228,289,136502,2,0,P|261:266|299:224,1,71.9999978027344,8|0,1:2|0:2,0:0:0:0:
282,157,136891,1,0,1:2:0:0:
366,177,137086,1,0,0:2:0:0:
423,241,137281,2,0,P|456:219|489:205,1,71.9999978027344,8|0,1:2|0:2,0:0:0:0:
493,120,137670,6,0,P|483:76|378:34,1,143.999995605469,6|8,1:2|1:2,0:0:0:0:
324,69,138255,1,0,0:2:0:0:
237,69,138450,2,0,L|112:52,2,107.999996704102,2|0|0,1:2|1:0|1:2,0:0:0:0:
278,144,139229,1,4,1:2:0:0:
231,216,139424,1,0,0:0:0:0:
294,274,139619,1,8,0:0:0:0:
346,205,139813,1,0,0:0:0:0:
428,179,140008,2,0,L|513:200,1,71.9999978027344,8|8,3:0|3:0,0:0:0:0:
493,283,140398,2,0,L|423:265,1,71.9999978027344,8|8,3:0|3:0,0:0:0:0:
369,333,140787,6,0,P|305:357|221:341,1,143.999995605469,4|8,1:0|1:2,0:0:0:0:
171,283,141372,1,0,0:2:0:0:
84,273,141567,2,0,P|64:315|60:343,2,71.9999978027344,2|0|8,1:2|0:2|1:2,0:0:0:0:
137,205,142151,1,0,0:2:0:0:
137,205,142346,2,0,P|141:152|117:57,1,143.999995605469,2|8,1:2|1:2,0:0:0:0:
286,15,143125,2,0,P|317:78|374:134,1,143.999995605469,0|8,1:2|1:2,0:0:0:0:
440,177,143709,1,0,0:2:0:0:
429,262,143904,6,0,P|372:278|331:273,1,71.9999978027344,6|0,1:2|0:2,0:0:0:0:
307,208,144294,2,0,P|254:216|214:231,1,71.9999978027344,8|0,1:2|0:2,0:0:0:0:
200,300,144683,2,0,P|128:296|64:249,1,143.999995605469,2|12,1:2|1:2,0:0:0:0:
76,169,145268,1,0,0:2:0:0:
123,97,145463,2,0,P|188:96|256:170,1,143.999995605469,4|8,1:2|1:2,0:0:0:0:
245,231,146047,1,0,1:2:0:0:
331,236,146242,2,0,P|356:209|386:189,1,71.9999978027344,2|0,1:2|0:2,0:0:0:0:
446,128,146632,1,8,1:2:0:0:
505,189,146826,1,0,0:2:0:0:
450,255,147021,6,0,P|415:284|409:392,1,143.999995605469,4|8,1:2|1:2,0:0:0:0:
316,361,147606,1,0,0:2:0:0:
232,338,147800,2,0,L|151:321,1,71.9999978027344,2|0,1:2|0:2,0:0:0:0:
147,237,148190,2,0,L|217:251,1,71.9999978027344,8|0,1:2|0:2,0:0:0:0:
283,195,148580,2,0,P|281:140|311:47,1,143.999995605469,2|8,1:2|1:2,0:0:0:0:
445,158,149359,2,0,P|447:213|417:306,1,143.999995605469,2|8,1:2|1:2,0:0:0:0:
336,312,149943,1,0,1:2:0:0:
249,310,150138,6,0,P|175:299|71:297,1,143.999995605469,4|8,1:2|1:2,0:0:0:0:
31,252,150722,1,0,0:2:0:0:
24,165,150917,1,6,1:2:0:0:
155,52,151307,1,8,1:2:0:0:
256,192,151696,1,4,3:0:0:0:
256,192,151794,12,0,153255,0:0:0:0:
505,194,165722,5,4,1:2:0:0:
365,91,166112,1,8,0:0:0:0:
365,91,166307,2,0,P|305:94|241:223,1,215.999993408203,0|8,1:0|0:0,0:0:0:0:
275,297,167086,1,0,0:0:0:0:
194,328,167281,2,0,P|128:322|106:313,1,71.9999978027344,2|0,1:2|0:0,0:0:0:0:
63,257,167670,2,0,P|104:240|137:236,1,71.9999978027344,8|0,0:0|0:0,0:0:0:0:
164,155,168060,2,0,P|167:111|187:5,1,143.999995605469,0|8,1:0|0:0,0:0:0:0:
260,55,168645,1,0,0:0:0:0:
338,90,168839,6,0,P|399:78|431:61,2,71.9999978027344,2|0|8,1:2|0:0|0:0,0:0:0:0:
272,147,169424,1,0,1:2:0:0:
201,196,169619,2,0,P|140:184|108:167,1,71.9999978027344,2|0,1:2|0:0,0:0:0:0:
50,148,170008,1,8,0:0:0:0:
50,148,170203,2,0,P|29:188|113:324,1,215.999993408203,0|8,1:0|1:2,0:0:0:0:
180,282,170982,1,0,1:0:0:0:
260,314,171177,2,0,B|387:322|323:243|492:258,1,215.999993408203,0|0,1:0|1:0,0:0:0:0:
487,173,171956,5,4,0:0:0:0:
487,173,172346,2,0,P|406:166|350:194,1,143.999995605469,8|2,1:2|1:2,0:0:0:0:
265,187,172930,1,0,0:0:0:0:
190,142,173125,2,0,P|206:89|204:53,1,71.9999978027344,8|0,0:0|1:0,0:0:0:0:
124,43,173515,2,0,B|68:88|68:88|49:174,1,143.999995605469,2|8,1:2|0:0,0:0:0:0:
94,233,174099,2,0,L|73:310,2,71.9999978027344,0|2|0,1:0|0:0|1:0,0:0:0:0:
174,201,174683,1,8,1:2:0:0:
224,271,174878,1,0,0:0:0:0:
307,292,175073,6,0,P|357:279|394:172,1,143.999995605469,6|8,1:2|1:2,0:0:0:0:
320,166,175657,1,0,1:0:0:0:
234,151,175852,2,0,P|184:138|147:31,2,143.999995605469,0|8|2,1:0|1:2|0:0,0:0:0:0:
309,109,176826,1,2,3:0:0:0:
391,136,177021,2,0,P|388:184|390:222,1,71.9999978027344,8|0,3:0|3:0,0:0:0:0:
435,281,177411,5,2,3:0:0:0:
362,327,177606,1,6,3:0:0:0:
282,292,177800,1,12,3:0:0:0:
201,323,177995,1,6,3:0:0:0:
8,189,192216,5,4,1:0:0:0:
153,283,192606,2,0,L|241:273,1,71.9999978027344,8|0,1:2|0:2,0:0:0:0:
303,309,192995,2,0,P|360:283|377:193,1,143.999995605469,2|8,1:2|1:2,0:0:0:0:
321,146,193580,1,0,0:2:0:0:
248,99,193774,2,0,P|220:141|210:187,2,71.9999978027344,2|0|8,1:2|0:2|1:2,0:0:0:0:
314,43,194359,1,0,0:2:0:0:
400,40,194554,2,0,P|456:61|494:157,1,143.999995605469,0|8,1:2|1:2,0:0:0:0:
476,216,195138,1,0,0:2:0:0:
417,279,195333,6,0,P|445:309|473:333,1,71.9999978027344,2|0,1:2|0:2,0:0:0:0:
390,367,195722,2,0,P|339:361|248:340,1,143.999995605469,8|2,1:2|1:2,0:0:0:0:
116,227,196502,2,0,P|167:221|258:200,1,143.999995605469,8|2,1:2|1:2,0:0:0:0:
289,120,197086,1,0,0:2:0:0:
217,71,197281,2,0,P|173:86|144:106,1,71.9999978027344,8|0,1:2|0:2,0:0:0:0:
81,150,197670,2,0,P|21:170|-6:172,1,71.9999978027344,2|0,1:2|0:2,0:0:0:0:
2,257,198060,1,8,1:2:0:0:
37,335,198255,1,2,0:2:0:0:
123,340,198450,6,0,P|168:325|206:217,1,143.999995605469,4|8,1:2|1:2,0:0:0:0:
239,162,199034,1,0,0:2:0:0:
322,184,199229,2,0,P|384:212|415:250,2,107.999996704102,2|0|0,1:2|1:0|0:2,0:0:0:0:
298,100,200008,2,0,P|280:47|187:17,1,143.999995605469,2|8,1:2|1:2,0:0:0:0:
128,57,200593,1,0,0:2:0:0:
65,115,200787,2,0,P|66:162|68:194,1,71.9999978027344,0|0,1:2|0:2,0:0:0:0:
141,232,201177,2,0,P|139:196|138:160,1,71.9999978027344,8|0,1:2|0:2,0:0:0:0:
213,116,201567,6,0,P|277:127|310:216,1,143.999995605469,6|8,1:2|1:2,0:0:0:0:
350,269,202151,1,0,0:2:0:0:
429,302,202346,2,0,P|461:257|460:212,1,71.9999978027344,2|0,1:2|0:2,0:0:0:0:
422,165,202735,2,0,P|411:111|417:62,1,71.9999978027344,8|0,1:2|1:2,0:0:0:0:
472,32,203125,1,4,1:2:0:0:
299,22,203515,2,0,L|218:32,1,71.9999978027344,8|0,0:0|0:0,0:0:0:0:
156,80,203904,2,0,B|84:63|84:63|7:95,1,143.999995605469,8|8,3:0|3:0,0:0:0:0:
10,176,204489,1,8,3:0:0:0:
69,237,204683,6,0,L|212:219,1,143.999995605469,4|8,1:0|1:2,0:0:0:0:
284,171,205268,1,0,0:2:0:0:
344,233,205463,2,0,P|352:279|288:355,1,143.999995605469,2|8,1:2|1:2,0:0:0:0:
223,305,206047,1,0,0:2:0:0:
212,219,206242,2,0,L|215:131,1,71.9999978027344,2|0,1:2|0:2,0:0:0:0:
140,101,206632,2,0,L|137:172,1,71.9999978027344,8|0,1:2|0:2,0:0:0:0:
70,227,207021,2,0,P|26:209|18:106,1,143.999995605469,0|8,1:0|1:2,0:0:0:0:
60,52,207606,1,0,0:2:0:0:
138,16,207800,6,0,L|209:18,1,71.9999978027344,6|0,1:2|0:0,0:0:0:0:
260,89,208190,2,0,P|341:90|379:46,2,143.999995605469,8|2|12,1:2|1:2|1:2,0:0:0:0:
173,95,209164,1,0,0:2:0:0:
180,181,209359,2,0,L|196:346,1,143.999995605469,4|8,1:2|1:2,0:0:0:0:
270,365,209943,1,0,1:2:0:0:
317,292,210138,2,0,L|307:212,1,71.9999978027344,2|0,1:2|0:2,0:0:0:0:
347,143,210528,1,8,1:2:0:0:
432,146,210722,1,0,0:2:0:0:
477,219,210917,6,0,P|510:181|500:91,1,143.999995605469,4|8,1:2|1:2,0:0:0:0:
429,42,211502,1,0,0:2:0:0:
347,68,211696,2,0,L|212:76,2,107.999996704102,2|0|0,1:2|1:2|0:2,0:0:0:0:
341,154,212476,2,0,P|319:198|318:302,1,143.999995605469,2|8,1:2|1:2,0:0:0:0:
474,358,213255,2,0,P|475:286|448:220,1,143.999995605469,2|8,1:2|1:2,0:0:0:0:
400,293,213839,1,0,1:2:0:0:
347,361,214034,6,0,P|307:368|211:307,1,143.999995605469,4|8,1:2|1:2,0:0:0:0:
138,288,214619,1,0,0:2:0:0:
61,249,214813,2,0,P|85:201|113:176,1,71.9999978027344,6|0,1:2|0:0,0:0:0:0:
183,178,215203,2,0,P|215:144|231:114,1,71.9999978027344,8|0,1:2|0:2,0:0:0:0:
233,35,215593,2,0,B|269:29|269:29|321:40,1,71.9999978027344,4|0,3:0|0:0,0:0:0:0:
353,106,215982,2,0,B|423:125|423:125|499:105,1,143.999995605469,8|2,3:0|0:0,0:0:0:0:
498,193,216567,1,0,0:0:0:0:
473,275,216761,1,0,1:2:0:0:
388,292,216956,1,2,1:2:0:0:
317,249,217151,6,0,P|278:238|199:245,1,120,4|8,0:0|0:0,0:0:0:0:
136,278,217735,1,0,0:0:0:0:
64,287,217930,2,0,P|25:241|26:174,1,120,2|8,0:2|0:0,0:0:0:0:
82,142,218515,1,0,0:0:0:0:
152,127,218709,2,0,L|217:134,1,60,4|0,0:0|0:0,0:0:0:0:
269,90,219099,1,8,0:0:0:0:
405,39,219489,2,0,L|484:43,2,60,2|2|10,0:3|0:2|0:3,0:0:0:0:
332,40,220073,1,2,0:2:0:0:
351,110,220268,6,0,P|360:165|368:253,1,120,4|8,0:0|0:0,0:0:0:0:
311,275,220852,1,0,0:0:0:0:
247,308,221047,2,0,L|253:369,2,60,2|0|8,0:2|0:0|0:0,0:0:0:0:
181,277,221632,1,0,0:0:0:0:
109,282,221826,2,0,P|52:253|47:183,1,120,4|8,0:2|0:0,0:0:0:0:
81,142,222411,1,0,0:0:0:0:
129,88,222606,2,0,P|121:42|124:19,1,60,2|2,0:2|3:0,0:0:0:0:
193,20,222995,1,8,3:0:0:0:
254,57,223190,1,0,0:0:0:0:
324,41,223385,6,0,P|375:28|446:57,1,120,4|8,0:0|0:0,0:0:0:0:
502,78,223969,1,0,0:0:0:0:
481,147,224164,2,0,P|454:185|441:283,1,120,2|8,0:2|0:0,0:0:0:0:
389,308,224748,1,0,0:0:0:0:
317,311,224943,1,2,0:2:0:0:
253,277,225138,2,0,L|258:213,2,60,0|8|0,0:0|0:0|0:0,0:0:0:0:
198,323,225722,2,0,P|145:328|122:318,1,60,2|2,0:3|0:2,0:0:0:0:
68,342,226112,2,0,P|46:313|38:283,1,60,10|2,0:3|0:2,0:0:0:0:
92,241,226502,6,0,P|112:195|116:104,1,120,4|8,0:0|0:0,0:0:0:0:
110,54,227086,1,0,0:0:0:0:
181,63,227281,2,0,L|258:73,2,60,2|0|8,0:2|0:0|0:0,0:0:0:0:
110,54,227865,1,0,0:0:0:0:
49,93,228060,2,0,P|18:130|16:217,1,120,8|8,0:0|0:0,0:0:0:0:
58,253,228645,1,2,3:0:0:0:
127,235,228839,1,12,3:2:0:0:
198,246,229034,2,0,B|258:227|258:227|324:256,1,120,0|2,0:0|0:2,0:0:0:0:
369,292,229619,5,4,0:0:0:0:
440,301,229813,2,0,P|456:331|462:363,2,60,0|8|0,0:0|0:0|0:0,0:0:0:0:
416,232,230398,1,2,0:2:0:0:
477,194,230593,2,0,P|483:164|498:138,2,60,0|8|0,0:0|0:0|0:0,0:0:0:0:
416,232,231177,1,4,0:0:0:0:
367,178,231372,2,0,L|293:184,1,60,0|8,0:0|0:2,0:0:0:0:
254,133,231761,2,0,L|180:139,2,60,0|2|2,0:0|0:3|0:2,0:0:0:0:
311,88,232346,2,0,L|370:83,1,60,10|2,0:3|0:2,0:0:0:0:
415,26,232735,6,0,P|370:5|276:6,1,120,4|8,0:0|0:0,0:0:0:0:
239,39,233320,1,0,0:0:0:0:
169,19,233515,2,0,P|134:46|109:70,1,60,2|0,0:2|0:0,0:0:0:0:
135,127,233904,2,0,P|140:161|144:199,1,60,8|0,0:0|0:0,0:0:0:0:
100,245,234294,1,4,0:2:0:0:
146,300,234489,2,0,P|136:353|129:374,2,60,0|8|0,0:0|0:0|0:0,0:0:0:0:
195,247,235073,1,2,0:2:0:0:
264,265,235268,1,2,3:0:0:0:
329,235,235463,1,8,3:0:0:0:
399,249,235657,1,0,0:0:0:0:
464,219,235852,6,0,P|466:175|416:88,1,120,4|8,0:0|0:0,0:0:0:0:
372,142,236437,1,0,0:0:0:0:
300,136,236632,2,0,P|286:89|294:12,1,120,2|8,0:2|0:0,0:0:0:0:
363,9,237216,1,0,0:0:0:0:
434,20,237411,2,0,P|470:25|522:25,2,60,2|0|8,0:2|0:0|0:0,0:0:0:0:
363,9,237995,1,0,0:0:0:0:
291,19,238190,2,0,P|240:25|210:21,1,60,2|2,0:3|0:2,0:0:0:0:
182,78,238580,2,0,P|188:129|184:159,1,60,10|2,0:3|0:2,0:0:0:0:
138,190,238969,6,0,P|104:259|124:319,1,120,4|8,0:0|0:0,0:0:0:0:
157,354,239554,1,0,0:0:0:0:
219,319,239748,2,0,P|263:307|295:307,1,60,2|0,0:2|0:0,0:0:0:0:
343,334,240138,1,8,0:0:0:0:
415,334,240333,1,0,0:0:0:0:
472,290,240528,2,0,B|456:245|456:245|458:219|458:219|439:160,1,120,8|8,0:0|0:0,0:0:0:0:
372,168,241112,1,2,3:0:0:0:
309,132,241307,2,0,B|300:98|300:98|312:55,1,60,12|0,3:2|0:0,0:0:0:0:
248,31,241696,2,0,L|140:37,1,90,2|2,0:2|0:2,0:0:0:0:
