osu file format v14

[General]
AudioFilename: audio.mp3
AudioLeadIn: 0
PreviewTime: 53028
Countdown: 0
SampleSet: Soft
StackLeniency: 0.7
Mode: 0
LetterboxInBreaks: 0
WidescreenStoryboard: 0

[Editor]
Bookmarks: 16112,53515,78450,90917,128320,153255,192216,204683,217151,229619
DistanceSpacing: 1
BeatDivisor: 4
GridSize: 4
TimelineZoom: 1.5

[Metadata]
Title:Hotarubi
TitleUnicode:蛍火
Artist:Tsukiko
ArtistUnicode:月子
Creator:Mirash
Version:Collab Lunatic
Source:東方永夜抄 ~ Imperishable Night.
Tags:PandaHero Kalibe Yales Kamishirasawa Keine Ex-Keine Light of a Firefly TatshMusicCircle Tatsh FAR EAST OF EAST 懐かしき東方の血 Old World Nostalgic Blood of the East ZUN touhou c76 doujin collaboration
BeatmapID:1528970
BeatmapSetID:724098

[Difficulty]
HPDrainRate:7
CircleSize:4
OverallDifficulty:8
ApproachRate:8.5
SliderMultiplier:1.6
SliderTickRate:1

[Events]
//Background and Video events
0,0,"touhoubg.jpg",0,0
//Break Periods
2,153455,164268
2,179748,189982
//Storyboard Layer 0 (Background)
//Storyboard Layer 1 (Fail)
//Storyboard Layer 2 (Pass)
//Storyboard Layer 3 (Foreground)
//Storyboard Sound Samples

[TimingPoints]
3645,389.61038961039,4,1,1,70,1,0
9878,-66.6666666666667,4,1,1,70,0,0
16112,-100,4,2,1,55,0,0
41047,-200,4,2,1,50,0,0
46891,-133.333333333333,4,2,1,55,0,0
47281,-100,4,2,1,55,0,0
53125,-100,4,1,1,55,0,0
53515,-66.6666666666667,4,2,1,60,0,1
78352,-66.6666666666667,4,2,1,70,0,0
78450,-66.6666666666667,4,1,1,70,0,1
78547,-66.6666666666667,4,1,1,70,0,0
90917,-100,4,2,1,55,0,0
115852,-200,4,2,1,50,0,0
121696,-200,4,2,1,55,0,0
122086,-100,4,2,1,55,0,0
127930,-100,4,1,1,55,0,0
128320,-66.6666666666667,4,2,1,60,0,1
153255,-66.6666666666667,4,2,1,50,0,0
165722,-66.6666666666667,4,2,1,55,0,1
165820,-66.6666666666667,4,2,1,55,0,0
190560,-200,4,2,1,40,0,0
191729,-200,4,2,1,30,0,0
192216,-66.6666666666667,4,2,1,60,0,1
203125,-66.6666666666667,4,2,1,60,0,0
204683,-66.6666666666667,4,2,1,60,0,1
214813,-66.6666666666667,4,2,1,60,0,0
217151,-66.6666666666667,4,1,1,70,0,1
217248,-66.6666666666667,4,1,1,70,0,0
229619,-66.6666666666667,4,1,1,70,0,1
229716,-66.6666666666667,4,1,1,70,0,0
240528,-57.1428571428571,4,1,1,70,0,0

[Colours]
Combo1 : 89,183,126
Combo2 : 27,105,175
Combo3 : 204,60,92
Combo4 : 83,204,204

[HitObjects]
453,348,3644,5,4,0:0:0:0:
385,305,3839,1,0,0:0:0:0:
345,310,3937,1,0,0:0:0:0:
305,315,4034,1,8,0:0:0:0:
225,326,4229,1,0,0:0:0:0:
95,271,4424,5,2,0:2:0:0:
173,257,4619,1,0,0:0:0:0:
212,250,4716,1,0,0:0:0:0:
251,243,4813,1,8,0:0:0:0:
304,183,5008,1,0,0:0:0:0:
131,53,5203,5,4,0:0:0:0:
140,136,5398,1,0,0:0:0:0:
140,136,5495,1,0,0:0:0:0:
140,136,5593,1,8,0:0:0:0:
59,133,5787,1,0,0:0:0:0:
292,60,5982,5,2,0:3:0:0:
292,133,6177,1,2,0:2:0:0:
371,257,6372,5,10,0:3:0:0:
380,168,6567,1,2,0:2:0:0:
446,54,6761,5,4,0:0:0:0:
485,123,6956,1,0,0:0:0:0:
478,162,7054,1,0,0:0:0:0:
472,201,7151,1,8,0:0:0:0:
458,279,7346,1,0,0:0:0:0:
312,360,7541,5,2,0:2:0:0:
258,300,7735,1,0,0:0:0:0:
218,306,7833,1,0,0:0:0:0:
178,312,7930,1,8,0:0:0:0:
99,325,8125,1,0,0:0:0:0:
39,141,8320,5,4,0:2:0:0:
120,173,8515,1,0,0:0:0:0:
120,173,8612,1,0,0:0:0:0:
120,173,8709,1,8,0:0:0:0:
79,236,8904,1,0,0:0:0:0:
2,212,9099,1,2,0:2:0:0:
109,91,9294,5,2,3:0:0:0:
235,130,9489,1,8,3:0:0:0:
272,294,9683,1,0,0:0:0:0:
272,294,9781,1,0,0:0:0:0:
272,294,9878,2,0,P|281:224|296:160,1,120.000004577637,4|0,0:0|0:0,0:0:0:0:
326,166,10170,1,0,0:0:0:0:
353,189,10268,1,8,0:0:0:0:
427,282,10463,5,0,0:0:0:0:
442,209,10657,1,2,0:2:0:0:
353,270,10852,1,0,0:0:0:0:
349,306,10950,1,0,0:0:0:0:
354,341,11047,1,8,0:0:0:0:
258,313,11242,5,0,0:0:0:0:
171,328,11437,1,2,0:2:0:0:
144,185,11632,1,0,0:0:0:0:
133,220,11729,1,0,0:0:0:0:
122,255,11826,1,8,0:0:0:0:
276,235,12021,1,0,0:0:0:0:
220,168,12216,1,2,0:3:0:0:
171,328,12411,5,2,0:2:0:0:
276,235,12606,1,10,0:3:0:0:
144,185,12800,1,2,0:2:0:0:
320,367,12995,6,0,L|461:372,1,120.000004577637,4|0,0:0|0:0,0:0:0:0:
439,371,13287,1,0,0:0:0:0:
439,371,13385,1,8,0:0:0:0:
386,297,13580,1,0,0:0:0:0:
504,165,13774,6,0,L|363:160,1,120.000004577637,2|0,0:2|0:0,0:0:0:0:
384,160,14067,1,0,0:0:0:0:
384,160,14164,1,8,0:0:0:0:
438,235,14359,1,0,0:0:0:0:
291,158,14554,5,8,0:0:0:0:
206,65,14748,1,0,0:0:0:0:
208,113,14846,1,0,0:0:0:0:
210,160,14943,1,8,0:0:0:0:
83,332,15138,1,2,3:0:0:0:
85,284,15235,1,0,3:0:0:0:
87,235,15333,1,12,3:2:0:0:
209,300,15528,5,0,0:0:0:0:
225,307,15625,1,0,0:0:0:0:
242,310,15722,1,2,0:2:0:0:
260,309,15820,1,2,0:2:0:0:
277,305,15917,1,2,0:2:0:0:
294,299,16015,1,2,0:2:0:0:
320,316,16112,6,0,P|321:217|329:141,1,160,4|8,1:2|0:0,0:0:0:0:
494,84,16696,1,0,0:0:0:0:
428,208,16891,2,0,P|420:152|411:117,1,80,2|0,1:2|0:0,0:0:0:0:
252,51,17281,1,8,1:2:0:0:
238,128,17476,1,0,1:0:0:0:
20,181,17670,6,0,P|65:161|113:155,1,80,2|0,1:2|0:0,0:0:0:0:
213,210,18060,1,8,0:0:0:0:
141,230,18255,1,0,0:0:0:0:
313,153,18450,2,0,P|277:135|237:127,1,80,2|0,1:2|0:0,0:0:0:0:
201,296,18839,1,8,1:2:0:0:
95,155,19034,1,0,1:0:0:0:
392,252,19229,6,0,L|406:57,1,160,2|8,1:2|0:0,0:0:0:0:
284,384,19813,2,0,L|270:189,1,160,2|2,1:2|0:3,0:0:0:0:
266,0,20398,1,8,0:0:0:0:
65,95,20593,1,0,0:0:0:0:
155,62,20787,6,0,P|200:67|257:91,1,80,2|0,1:2|0:0,0:0:0:0:
469,190,21177,2,0,P|430:203|391:207,1,80,8|0,1:2|0:0,0:0:0:0:
202,163,21567,1,2,1:2:0:0:
392,293,21761,1,0,0:0:0:0:
268,251,21956,2,0,L|265:187,1,40,8|0,1:2|0:0,0:0:0:0:
391,206,22151,2,0,L|394:142,1,40,0|0,1:2|1:2,0:0:0:0:
401,78,22346,5,4,1:0:0:0:
280,124,22541,1,0,0:0:0:0:
160,56,22735,2,0,L|239:47,1,80,8|0,0:0|0:0,0:0:0:0:
84,120,23125,2,0,L|4:111,1,80,2|0,1:2|0:0,0:0:0:0:
4,111,23417,1,0,1:0:0:0:
4,111,23515,1,8,0:0:0:0:
64,20,23709,1,0,1:0:0:0:
159,182,23904,6,0,L|147:346,1,160,2|8,1:2|0:0,0:0:0:0:
251,206,24489,2,0,L|239:42,1,160,2|2,1:2|0:3,0:0:0:0:
343,202,25073,2,0,L|335:290,1,80,8|0,1:2|0:0,0:0:0:0:
512,292,25463,5,4,1:2:0:0:
505,277,25657,1,0,0:0:0:0:
436,352,25852,5,8,1:2:0:0:
429,367,26047,1,2,0:2:0:0:
342,296,26242,5,2,1:2:0:0:
335,281,26437,1,2,1:2:0:0:
208,336,26632,5,8,1:2:0:0:
201,351,26826,1,0,0:0:0:0:
3,268,27021,5,2,1:2:0:0:
78,275,27216,1,8,1:2:0:0:
132,225,27411,1,8,1:2:0:0:
0,27,27606,1,0,0:0:0:0:
2,38,27703,1,0,0:0:0:0:
4,49,27800,6,0,L|16:114,1,40,0|0,1:0|0:0,0:0:0:0:
84,164,27995,2,0,L|96:99,1,40,2|0,1:2|0:0,0:0:0:0:
158,18,28190,2,0,L|170:83,1,40,8|0,1:2|0:0,0:0:0:0:
228,186,28385,2,0,L|240:121,1,40,0|0,1:2|1:2,0:0:0:0:
304,42,28580,5,4,1:0:0:0:
296,56,28969,2,0,L|400:48,1,80,8|0,0:0|0:0,0:0:0:0:
512,120,29359,2,0,L|408:112,1,80,2|0,1:2|0:0,0:0:0:0:
328,224,29748,2,0,L|336:320,1,80,8|0,1:2|1:0,0:0:0:0:
180,204,30138,6,0,L|192:24,1,160,2|8,1:2|0:0,0:0:0:0:
60,28,30722,1,0,0:0:0:0:
72,188,30917,2,0,L|84:284,1,80,2|0,1:2|0:0,0:0:0:0:
0,112,31307,1,8,1:2:0:0:
16,344,31502,1,0,0:0:0:0:
16,344,31599,1,0,1:0:0:0:
16,344,31696,6,0,P|84:308|176:312,1,160,2|8,1:2|0:0,0:0:0:0:
456,368,32281,2,0,P|376:369|306:332,1,160,2|2,1:2|0:3,0:0:0:0:
256,216,32865,2,0,L|266:137,1,80,8|0,0:0|0:0,0:0:0:0:
328,24,33255,5,2,1:2:0:0:
368,96,33450,1,2,0:0:0:0:
500,80,33645,5,8,1:2:0:0:
460,184,33839,1,2,0:2:0:0:
504,296,34034,6,0,L|510:335,2,40,2|2|0,1:2|0:3|0:0,0:0:0:0:
256,216,34424,2,0,L|196:224,1,40,8|0,1:2|0:0,0:0:0:0:
176,304,34619,2,0,L|116:296,1,40,0|0,1:2|1:0,0:0:0:0:
40,276,34813,5,4,1:0:0:0:
324,336,35203,2,0,L|431:323,1,80,8|0,0:0|0:0,0:0:0:0:
242,377,35593,1,2,1:2:0:0:
242,377,35787,1,0,0:0:0:0:
216,221,35982,5,8,1:2:0:0:
199,128,36177,1,0,1:0:0:0:
323,3,36372,6,0,L|318:93,1,80,2|0,1:2|0:0,0:0:0:0:
115,87,36761,1,8,0:0:0:0:
199,128,36956,1,0,1:0:0:0:
216,221,37151,1,2,0:0:0:0:
120,355,37346,1,0,1:2:0:0:
124,260,37541,2,0,L|119:170,1,80,8|0,1:2|0:0,0:0:0:0:
323,3,37930,5,4,1:2:0:0:
329,17,38125,1,0,0:0:0:0:
426,30,38320,5,8,1:2:0:0:
421,44,38515,1,2,0:2:0:0:
499,111,38709,5,2,1:2:0:0:
486,118,38904,1,2,1:2:0:0:
512,217,39099,5,8,1:2:0:0:
497,214,39294,1,0,0:0:0:0:
312,113,39489,5,2,1:2:0:0:
377,157,39683,1,0,0:0:0:0:
391,236,39878,1,8,1:2:0:0:
289,234,40073,1,2,1:2:0:0:
289,234,40268,6,0,L|294:171,1,40,2|0,1:3|0:0,0:0:0:0:
229,144,40463,1,8,3:0:0:0:
233,296,40657,1,8,0:0:0:0:
235,303,40755,1,0,0:0:0:0:
237,310,40852,2,0,L|242:373,1,40,0|0,0:0|0:0,0:0:0:0:
172,384,41047,5,4,1:2:0:0:
172,384,41632,1,0,1:0:0:0:
172,384,41826,1,0,1:0:0:0:
141,167,42119,1,2,0:0:0:0:
141,167,42216,1,8,0:0:0:0:
61,273,42411,1,0,1:0:0:0:
18,40,42606,5,2,1:2:0:0:
18,40,43190,2,0,L|101:43,1,80,0|0,1:0|0:0,0:0:0:0:
158,250,43774,1,8,0:0:0:0:
158,250,44164,6,0,P|154:293|155:338,1,80,4|0,1:2|0:0,0:0:0:0:
387,330,44748,2,0,P|387:290|383:250,1,80,0|0,1:0|1:0,0:0:0:0:
259,370,45333,1,8,0:0:0:0:
259,370,45722,6,0,L|253:275,1,80,0|0,1:0|0:0,0:0:0:0:
270,213,46307,2,0,L|275:119,1,80,0|0,1:0|1:0,0:0:0:0:
258,58,46891,6,0,L|253:7,2,30.0000011444092,8|2|0,0:0|0:3|0:0,0:0:0:0:
329,279,47281,6,0,P|416:263|461:186,1,160,4|8,1:2|0:0,0:0:0:0:
270,213,47865,1,0,0:0:0:0:
254,356,48060,1,2,1:2:0:0:
31,206,48352,1,2,0:0:0:0:
31,206,48450,1,8,1:2:0:0:
47,63,48645,1,0,1:0:0:0:
409,136,48839,6,0,P|359:196|281:206,1,160,2|8,1:2|0:0,0:0:0:0:
31,206,49424,2,0,P|80:145|158:135,1,160,2|2,1:2|0:3,0:0:0:0:
282,207,50008,1,8,1:2:0:0:
277,188,50398,6,0,L|288:2,1,160,2|8,1:2|0:0,0:0:0:0:
197,216,50982,2,0,L|208:402,1,160,2|2,1:2|0:3,0:0:0:0:
329,276,51567,1,8,0:0:0:0:
318,292,51956,5,4,3:0:0:0:
510,307,52151,1,0,3:0:0:0:
415,198,52346,1,0,3:0:0:0:
418,209,52443,1,0,0:0:0:0:
422,220,52541,5,8,3:0:0:0:
462,212,52638,1,8,3:0:0:0:
494,188,52735,1,8,3:0:0:0:
507,149,52833,1,0,0:0:0:0:
507,109,52930,1,0,3:0:0:0:
481,77,53028,1,0,0:0:0:0:
448,53,53125,6,0,L|390:48,1,40,2|0,0:3|2:0,0:0:0:0:
303,155,53320,2,0,L|361:150,1,40,2|0,0:2|2:0,0:0:0:0:
225,109,53515,6,0,B|131:103|131:103|94:53|94:53|-4:45,1,240.000009155274,4|8,1:0|1:2,0:0:0:0:
88,245,54099,1,0,0:0:0:0:
183,225,54294,2,0,P|203:291|192:345,1,120.000004577637,2|0,1:2|0:0,0:0:0:0:
26,384,54683,2,0,P|6:318|17:264,1,120.000004577637,8|0,1:2|0:0,0:0:0:0:
114,179,55073,1,2,1:2:0:0:
266,202,55268,1,0,0:0:0:0:
359,272,55463,1,8,1:2:0:0:
249,314,55657,1,2,0:0:0:0:
235,290,55755,1,0,1:0:0:0:
351,151,55950,1,0,0:0:0:0:
366,176,56047,1,2,0:2:0:0:
500,121,56242,5,8,1:2:0:0:
440,227,56437,1,0,0:0:0:0:
451,261,56534,1,0,0:0:0:0:
462,295,56632,1,2,1:2:0:0:
422,363,56826,1,0,0:0:0:0:
296,367,57021,1,8,1:2:0:0:
331,277,57216,1,0,0:0:0:0:
177,278,57411,1,2,1:2:0:0:
216,367,57606,1,0,0:0:0:0:
90,363,57800,1,8,1:2:0:0:
42,281,57995,1,0,0:0:0:0:
73,91,58190,6,0,L|126:209,1,120.000004577637,2|0,1:2|0:0,0:0:0:0:
230,34,58580,2,0,L|228:170,1,120.000004577637,8|0,1:2|1:0,0:0:0:0:
383,76,58969,2,0,L|337:215,1,120.000004577637,2|0,1:2|0:0,0:0:0:0:
498,185,59359,1,8,1:2:0:0:
256,368,59554,5,0,0:0:0:0:
256,368,59651,1,2,0:0:0:0:
256,368,59748,2,0,P|208:301|315:208,1,240.000009155274,4|8,1:2|1:2,0:0:0:0:
458,192,60333,1,0,0:0:0:0:
490,384,60528,2,0,P|465:294|330:281,1,240.000009155274,2|8,1:2|1:2,0:0:0:0:
146,321,61112,6,0,P|80:295|31:253,1,120.000004577637,0|2,0:0|1:2,0:0:0:0:
48,136,61502,1,0,0:0:0:0:
121,218,61696,1,8,1:2:0:0:
206,161,61891,1,0,0:0:0:0:
224,168,61989,1,0,1:0:0:0:
307,143,62183,1,0,0:0:0:0:
323,139,62281,1,2,1:2:0:0:
415,178,62476,1,8,1:2:0:0:
507,185,62670,1,0,0:0:0:0:
327,169,62865,6,0,B|290:250|334:343|436:350,1,240.000009155274,6|8,1:2|1:2,0:0:0:0:
213,217,63450,1,0,0:0:0:0:
213,217,63547,1,2,0:0:0:0:
213,217,63645,2,0,B|237:158|204:85|152:53,2,180.000006866455,2|0|0,1:2|0:0|1:0,0:0:0:0:
386,68,64424,5,4,1:2:0:0:
386,68,64813,2,0,L|405:219,1,120.000004577637,8|0,0:0|0:0,0:0:0:0:
417,219,65106,1,0,0:0:0:0:
408,253,65203,1,8,3:0:0:0:
379,274,65300,1,8,3:0:0:0:
342,272,65398,1,8,3:0:0:0:
307,262,65495,1,0,0:0:0:0:
273,274,65593,1,8,3:0:0:0:
246,297,65690,1,0,0:0:0:0:
227,327,65787,1,8,3:0:0:0:
196,346,65885,1,8,3:0:0:0:
161,376,65982,6,0,B|107:251|221:269|173:116,1,240.000009155274,4|8,1:0|1:2,0:0:0:0:
98,35,66567,1,0,0:2:0:0:
96,113,66761,2,0,L|80:256,1,120.000004577637,2|0,1:2|0:2,0:2:0:0:
154,294,67151,1,8,1:2:0:0:
247,326,67346,1,0,0:2:0:0:
305,245,67541,1,2,1:2:0:0:
212,206,67735,1,0,0:2:0:0:
340,323,67930,5,8,1:2:0:0:
427,262,68125,1,0,0:2:0:0:
427,262,68222,1,0,1:2:0:0:
455,341,68417,1,0,0:2:0:0:
455,341,68515,1,2,0:2:0:0:
423,152,68709,5,8,1:2:0:0:
375,51,68904,1,0,0:2:0:0:
434,126,69099,2,0,P|358:126|310:130,1,120.000004577637,6|0,1:2|0:2,0:2:0:0:
140,40,69489,2,0,B|157:94|157:94|141:166,1,120.000004577637,8|0,1:2|0:2,0:2:0:0:
17,240,69878,2,0,L|157:223,1,120.000004577637,2|0,1:2|0:2,0:2:0:0:
249,363,70268,2,0,P|321:290|216:206,1,240.000009155274,8|4,1:2|1:2,0:2:0:0:
177,316,70852,5,0,0:2:0:0:
406,353,71047,2,0,P|410:304|407:217,1,120.000004577637,8|0,1:2|1:2,0:2:0:0:
488,99,71437,1,2,1:2:0:0:
330,147,71632,1,0,0:2:0:0:
474,72,71826,2,0,P|409:71|349:74,1,120.000004577637,8|0,1:2|0:2,0:2:0:0:
252,124,72216,6,0,B|109:145|168:44|19:68,1,240.000009155274,4|8,1:2|1:2,0:2:0:0:
0,193,72800,1,0,0:2:0:0:
71,260,72995,2,0,P|77:352|76:382,1,120.000004577637,2|0,1:2|0:2,0:2:0:0:
165,333,73385,2,0,P|174:263|182:209,1,120.000004577637,8|0,1:2|0:2,0:2:0:0:
358,228,73774,5,2,1:2:0:0:
384,306,73969,1,0,0:2:0:0:
286,360,74164,1,8,1:2:0:0:
283,283,74359,1,0,1:2:0:0:
486,276,74554,1,2,1:2:0:0:
471,354,74748,1,0,0:2:0:0:
384,306,74943,1,8,1:2:0:0:
396,230,75138,1,0,0:2:0:0:
410,154,75333,6,0,P|323:136|286:1,1,240.000009155274,4|8,1:2|1:2,0:2:0:0:
481,99,75917,1,0,0:2:0:0:
473,24,76112,2,0,P|469:104|469:151,1,120.000004577637,6|0,1:2|0:2,0:2:0:0:
203,215,76502,2,0,P|207:135|207:88,1,120.000004577637,8|0,1:2|0:2,0:2:0:0:
27,292,76891,5,4,3:0:0:0:
131,278,77086,1,0,0:0:0:0:
164,291,77183,1,2,3:0:0:0:
189,316,77281,1,8,3:0:0:0:
312,356,77476,1,2,3:0:0:0:
335,328,77573,1,2,3:0:0:0:
334,292,77670,1,2,0:0:0:0:
326,256,77768,1,0,0:0:0:0:
331,220,77865,1,0,0:0:0:0:
349,188,77963,1,8,0:0:0:0:
363,155,78060,1,0,1:2:0:0:
360,119,78157,1,2,1:2:0:0:
344,86,78255,1,2,1:2:0:0:
316,64,78352,1,10,1:2:0:0:
280,52,78450,6,0,P|218:65|148:115,1,120.000004577637,4|0,0:0|0:0,0:0:0:0:
155,170,78742,1,0,0:0:0:0:
155,170,78839,1,8,0:0:0:0:
74,224,79034,1,0,0:0:0:0:
254,280,79229,1,2,0:2:0:0:
66,352,79424,1,0,0:0:0:0:
66,352,79521,1,0,0:0:0:0:
66,352,79619,1,8,0:0:0:0:
292,384,79813,1,0,0:0:0:0:
254,280,80008,6,0,L|266:151,1,120.000004577637,4|0,0:0|0:0,0:0:0:0:
317,101,80300,1,0,0:0:0:0:
317,101,80398,1,8,0:0:0:0:
351,181,80593,1,0,0:0:0:0:
387,71,80787,1,2,0:3:0:0:
184,11,80982,1,2,0:2:0:0:
124,215,81177,1,10,0:3:0:0:
325,275,81372,1,2,0:2:0:0:
325,275,81469,1,0,0:0:0:0:
325,275,81567,5,4,0:0:0:0:
215,144,81761,1,0,0:0:0:0:
217,180,81859,1,0,0:0:0:0:
219,215,81956,1,8,0:0:0:0:
179,309,82151,1,0,0:0:0:0:
463,356,82346,1,2,0:2:0:0:
409,270,82541,1,0,0:0:0:0:
411,234,82638,1,0,0:0:0:0:
413,199,82735,1,8,0:0:0:0:
497,139,82930,1,0,0:0:0:0:
356,56,83125,6,0,L|223:72,1,120.000004577637,4|0,0:2|0:0,0:0:0:0:
204,81,83417,1,0,0:0:0:0:
204,81,83515,1,8,0:0:0:0:
54,32,83709,1,0,0:0:0:0:
149,160,83904,1,2,0:2:0:0:
58,208,84099,1,2,3:0:0:0:
58,208,84196,1,0,0:0:0:0:
58,208,84294,2,0,L|51:340,1,120.000004577637,8|0,3:0|0:0,0:0:0:0:
53,370,84586,1,0,0:0:0:0:
53,370,84683,5,4,0:0:0:0:
275,294,84878,1,0,0:0:0:0:
311,297,84976,1,0,0:0:0:0:
346,302,85073,1,8,0:0:0:0:
473,213,85268,1,0,0:0:0:0:
407,369,85463,1,2,0:2:0:0:
197,246,85657,1,0,0:0:0:0:
161,249,85755,1,0,0:0:0:0:
126,254,85852,1,8,0:0:0:0:
0,161,86047,1,0,0:0:0:0:
152,25,86242,5,2,0:2:0:0:
228,93,86437,1,0,0:0:0:0:
222,128,86534,1,0,0:0:0:0:
216,163,86632,1,8,0:0:0:0:
339,106,86826,1,0,0:0:0:0:
329,26,87021,1,2,0:3:0:0:
468,103,87216,5,2,0:2:0:0:
452,227,87411,1,10,0:3:0:0:
354,373,87606,5,2,0:2:0:0:
330,185,87800,1,4,0:0:0:0:
264,305,87995,5,0,0:0:0:0:
264,305,88093,1,0,0:0:0:0:
264,305,88190,1,8,0:0:0:0:
177,189,88385,5,0,0:0:0:0:
153,377,88580,1,2,0:2:0:0:
75,273,88774,5,0,0:0:0:0:
75,273,88872,1,0,0:0:0:0:
75,273,88969,1,8,0:0:0:0:
177,189,89164,5,0,0:0:0:0:
153,377,89359,1,8,0:0:0:0:
89,180,89554,5,0,0:0:0:0:
85,144,89651,1,0,0:0:0:0:
82,108,89748,1,8,0:0:0:0:
226,21,89943,1,2,3:0:0:0:
222,57,90041,1,0,3:0:0:0:
219,93,90138,1,0,0:0:0:0:
324,243,90333,5,0,0:0:0:0:
341,239,90430,1,0,0:0:0:0:
358,234,90528,1,2,0:2:0:0:
375,229,90625,1,2,0:2:0:0:
392,225,90722,1,2,0:2:0:0:
409,221,90820,1,2,0:2:0:0:
426,216,90917,2,0,L|437:41,1,160,4|8,1:2|0:0,0:0:0:0:
410,301,91502,5,0,0:0:0:0:
499,261,91696,2,0,P|483:313|484:361,1,80,2|0,1:2|0:0,0:0:0:0:
244,339,92086,2,0,L|350:352,1,80,8|0,1:2|1:0,0:0:0:0:
176,306,92476,2,0,P|259:296|291:220,1,160,2|8,1:2|0:0,0:0:0:0:
240,172,93060,1,0,0:0:0:0:
385,137,93255,2,0,L|383:223,1,80,2|0,1:2|0:0,0:0:0:0:
181,251,93645,1,8,1:2:0:0:
224,152,93839,1,0,1:0:0:0:
171,223,94034,6,0,P|114:221|83:122,1,160,2|8,1:2|0:0,0:0:0:0:
350,35,94619,2,0,P|291:28|245:134,1,160,2|2,1:2|0:3,0:0:0:0:
310,298,95203,2,0,P|309:236|313:167,1,120,8|0,0:0|0:0,0:0:0:0:
334,160,95593,6,0,L|426:196,1,80,2|0,1:2|0:0,0:0:0:0:
375,61,95982,2,0,L|448:132,1,80,8|0,1:2|0:0,0:0:0:0:
481,5,96372,2,0,L|502:97,1,80,2|0,1:2|0:0,0:0:0:0:
483,307,96761,5,8,1:2:0:0:
408,279,96956,1,0,0:2:0:0:
408,279,97054,1,0,1:2:0:0:
408,279,97151,1,4,1:0:0:0:
385,355,97346,1,0,0:0:0:0:
385,355,97541,2,0,L|291:353,1,80,8|0,0:0|0:0,0:0:0:0:
97,305,97930,5,2,1:2:0:0:
151,193,98125,1,0,0:0:0:0:
250,302,98320,1,8,1:2:0:0:
176,268,98515,1,0,1:0:0:0:
317,126,98709,5,2,1:2:0:0:
392,182,98904,1,0,0:0:0:0:
316,232,99099,1,8,0:0:0:0:
244,182,99294,2,0,P|241:100|229:15,1,160,2|2,1:2|0:3,0:0:0:0:
473,21,99878,2,0,P|463:73|449:187,1,160,8|4,1:2|1:2,0:0:0:0:
362,257,100463,5,0,0:0:0:0:
362,257,100657,2,0,P|365:313|366:354,1,80,8|2,0:0|0:2,0:0:0:0:
264,365,101047,1,2,1:2:0:0:
240,278,101242,1,2,1:2:0:0:
161,355,101437,2,0,P|163:292|162:251,1,80,8|0,0:0|0:0,0:0:0:0:
290,97,101826,5,2,1:2:0:0:
216,226,102021,1,8,0:0:0:0:
211,100,102216,1,8,1:2:0:0:
297,226,102411,1,0,0:0:0:0:
144,165,102606,5,2,1:2:0:0:
144,165,102703,1,0,0:0:0:0:
144,165,102800,1,2,1:2:0:0:
362,165,102995,1,8,1:2:0:0:
362,165,103093,1,0,0:0:0:0:
362,165,103190,1,2,1:2:0:0:
111,220,103385,6,0,P|114:135|114:38,1,160,4|8,1:0|0:0,0:0:0:0:
240,117,103969,1,0,0:0:0:0:
371,33,104164,2,0,P|324:34|268:32,1,80,2|0,1:2|0:0,0:0:0:0:
327,229,104554,1,8,1:2:0:0:
434,180,104748,1,0,1:0:0:0:
228,206,104943,6,0,B|237:306|187:253|202:370,1,160,2|8,1:2|0:0,0:0:0:0:
351,349,105528,1,0,0:0:0:0:
419,278,105722,2,0,L|323:269,1,80,2|0,1:2|0:0,0:0:0:0:
84,323,106112,5,8,1:2:0:0:
114,237,106307,1,0,0:0:0:0:
100,224,106404,1,0,0:2:0:0:
88,215,106502,1,2,1:2:0:0:
5,195,106696,5,0,0:0:0:0:
103,139,106891,1,8,0:0:0:0:
185,217,107086,2,0,P|264:232|281:307,1,160,2|2,1:2|0:3,0:0:0:0:
227,368,107670,2,0,L|338:373,1,80,8|0,0:0|0:0,0:0:0:0:
421,301,108060,5,2,1:2:0:0:
507,222,108255,1,0,0:0:0:0:
419,207,108450,1,8,1:2:0:0:
500,325,108645,1,2,0:2:0:0:
482,138,108839,1,2,1:2:0:0:
482,138,108937,1,0,0:0:0:0:
482,138,109034,1,0,0:0:0:0:
430,65,109229,1,8,1:2:0:0:
362,139,109424,1,0,1:2:0:0:
251,72,109619,6,0,B|196:66|196:66|165:44|165:44|99:39,1,160,4|8,1:0|0:0,0:0:0:0:
155,173,110203,1,0,0:0:0:0:
26,182,110398,2,0,P|20:227|16:268,1,80,2|0,1:2|0:0,0:0:0:0:
161,199,110787,1,8,1:2:0:0:
314,181,110982,1,0,1:2:0:0:
163,223,111177,6,0,P|168:300|166:386,1,160,2|8,1:2|0:0,0:0:0:0:
241,259,111761,2,0,B|275:243|275:243|327:255,1,80,0|2,1:0|0:0,0:0:0:0:
385,305,112151,1,0,1:2:0:0:
489,256,112346,1,8,1:2:0:0:
379,196,112541,1,0,0:0:0:0:
478,70,112735,5,4,1:2:0:0:
465,162,112930,1,0,0:0:0:0:
318,89,113125,1,8,1:2:0:0:
393,106,113320,1,2,0:2:0:0:
334,13,113515,5,2,1:2:0:0:
212,24,113709,1,2,1:2:0:0:
184,141,113904,1,8,0:0:0:0:
91,127,114099,1,0,0:0:0:0:
143,66,114294,5,2,1:2:0:0:
173,243,114489,1,0,0:0:0:0:
74,202,114683,1,8,1:2:0:0:
255,103,114878,1,2,1:2:0:0:
274,207,115073,5,2,1:3:0:0:
47,104,115268,1,0,0:0:0:0:
56,261,115463,1,8,0:0:0:0:
64,283,115560,1,0,1:0:0:0:
73,305,115657,1,0,0:0:0:0:
82,327,115755,1,0,1:0:0:0:
91,349,115852,1,4,1:2:0:0:
91,349,116437,5,0,1:0:0:0:
204,328,116632,1,0,1:0:0:0:
462,378,117021,5,8,0:0:0:0:
460,306,117216,1,0,1:0:0:0:
459,233,117411,1,2,1:2:0:0:
134,55,117800,5,0,0:0:0:0:
147,130,117995,1,0,1:0:0:0:
223,122,118190,1,2,0:0:0:0:
213,43,118385,1,2,1:2:0:0:
70,104,118580,6,0,L|72:134,1,20,8|0,0:0|0:0,0:0:0:0:
61,103,118774,2,0,L|63:133,1,20,2|0,0:0|0:0,0:0:0:0:
52,102,118969,2,0,L|57:185,1,80,4|0,1:2|0:0,0:0:0:0:
32,259,119554,6,0,B|17:298|17:298|31:340,1,80,0|0,1:0|1:0,0:0:0:0:
237,240,120138,6,0,L|242:185,1,40,8|0,0:0|0:0,0:0:0:0:
355,337,120528,6,0,P|399:341|435:346,1,80,0|0,1:0|0:0,0:0:0:0:
377,263,121112,1,0,1:0:0:0:
497,151,121307,2,0,L|444:152,1,40,0|0,0:0|1:0,0:0:0:0:
342,194,121696,5,8,0:0:0:0:
330,189,121794,1,8,1:2:0:0:
319,184,121891,1,0,1:2:0:0:
174,144,122086,6,0,B|95:126|95:126|12:160,1,160,4|8,1:2|0:0,0:0:0:0:
9,230,122670,1,0,0:0:0:0:
132,278,122865,2,0,L|124:364,1,80,2|0,1:2|0:0,0:0:0:0:
257,371,123255,1,8,1:2:0:0:
263,292,123450,1,0,1:0:0:0:
376,184,123645,6,0,P|380:112|471:65,1,160,2|8,1:2|0:0,0:0:0:0:
243,126,124229,2,0,P|239:54|148:7,1,160,2|2,1:2|0:3,0:0:0:0:
334,332,124813,2,0,P|344:290|374:255,1,80,8|0,1:2|0:0,0:0:0:0:
152,214,125203,5,2,1:2:0:0:
229,203,125398,1,0,0:0:0:0:
169,362,125593,1,8,0:0:0:0:
123,300,125787,1,2,1:2:0:0:
292,277,125982,1,0,0:0:0:0:
271,346,126177,1,2,0:3:0:0:
142,205,126372,1,8,1:2:0:0:
236,192,126567,1,0,0:0:0:0:
402,275,126761,5,4,3:0:0:0:
402,251,126859,1,0,0:0:0:0:
404,227,126956,1,0,3:0:0:0:
402,202,127054,1,0,0:0:0:0:
403,178,127151,1,0,3:0:0:0:
286,73,127346,5,8,3:0:0:0:
262,76,127443,1,8,3:0:0:0:
238,79,127541,1,8,3:0:0:0:
214,83,127638,1,0,0:0:0:0:
190,87,127735,1,0,3:0:0:0:
36,228,127930,5,2,0:3:0:0:
36,228,128028,1,0,2:0:0:0:
36,228,128125,1,2,0:2:0:0:
36,228,128222,1,0,0:0:0:0:
36,228,128320,6,0,P|37:141|116:-4,1,240.000009155274,4|8,1:0|1:2,0:0:0:0:
356,24,128904,1,0,0:2:0:0:
256,272,129099,2,0,P|248:220|216:152,1,120.000004577637,2|0,1:2|0:2,0:2:0:0:
100,344,129489,2,0,P|108:292|140:224,1,120.000004577637,8|0,1:2|0:2,0:2:0:0:
384,320,129878,6,0,P|383:233|304:88,1,240.000009155274,2|8,1:2|1:2,0:2:0:0:
124,140,130463,1,0,0:2:0:0:
124,140,130560,1,0,0:2:0:0:
124,140,130657,1,0,1:2:0:0:
260,332,130852,1,0,0:2:0:0:
314,98,131047,1,8,1:2:0:0:
140,232,131242,1,0,0:2:0:0:
140,232,131339,1,0,0:2:0:0:
140,232,131437,6,0,P|192:228|276:192,1,120.000004577637,2|0,1:2|0:2,0:2:0:0:
314,98,131826,1,8,1:2:0:0:
256,28,132021,1,0,0:2:0:0:
408,44,132216,5,2,1:2:0:0:
360,320,132411,1,0,0:2:0:0:
452,248,132606,5,8,1:2:0:0:
440,164,132800,1,0,0:2:0:0:
244,336,132995,6,0,P|180:344|24:256,1,240.000009155274,2|8,1:2|1:2,0:2:0:0:
200,80,133580,1,0,0:2:0:0:
200,80,133677,1,0,1:2:0:0:
200,80,133774,1,2,1:2:0:0:
32,224,133969,1,0,1:2:0:0:
228,104,134164,1,8,1:2:0:0:
12,192,134359,1,2,0:2:0:0:
152,252,134554,6,0,L|140:128,1,120.000004577637,4|0,1:2|0:2,0:2:0:0:
40,84,134943,1,8,1:2:0:0:
248,252,135138,1,0,0:2:0:0:
240,288,135235,1,0,0:2:0:0:
232,324,135333,1,2,1:2:0:0:
392,384,135528,1,0,0:2:0:0:
360,288,135722,1,8,1:2:0:0:
488,160,135917,1,0,0:2:0:0:
328,176,136112,6,0,P|284:168|212:120,1,120.000004577637,2|0,1:2|0:2,0:2:0:0:
398,7,136502,1,8,1:2:0:0:
398,7,136599,1,0,0:0:0:0:
412,152,136794,1,0,0:0:0:0:
412,152,136891,1,0,1:0:0:0:
137,187,137086,1,0,0:2:0:0:
158,325,137281,1,8,1:0:0:0:
328,176,137476,1,0,0:2:0:0:
124,80,137670,6,0,P|64:88|-16:136,1,120.000004577637,6|0,1:2|0:2,0:2:0:0:
8,288,138060,1,8,1:2:0:0:
160,192,138255,1,0,0:2:0:0:
60,196,138450,1,2,1:2:0:0:
60,196,138547,1,0,0:2:0:0:
100,320,138742,1,0,0:2:0:0:
100,320,138839,1,8,1:2:0:0:
240,340,139034,1,0,1:2:0:0:
296,220,139229,5,4,1:2:0:0:
312,240,139619,1,8,0:0:0:0:
400,296,139813,1,0,0:0:0:0:
396,308,139911,1,0,1:0:0:0:
392,320,140008,6,0,L|404:384,1,60.0000022888184,8|8,3:0|3:0,0:0:0:0:
296,220,140203,2,0,L|284:284,1,60.0000022888184,8|0,3:0|0:0,0:0:0:0:
484,224,140398,2,0,L|496:288,1,60.0000022888184,8|0,3:0|0:0,0:0:0:0:
396,156,140593,2,0,L|392:220,1,60.0000022888184,8|8,3:0|3:0,0:0:0:0:
476,116,140787,5,4,1:0:0:0:
280,136,140982,2,0,P|224:124|164:80,1,120.000004577637,0|8,0:2|1:2,0:2:0:0:
80,12,141372,1,0,0:2:0:0:
10,282,141567,1,2,1:2:0:0:
109,194,141761,1,0,0:2:0:0:
0,63,141956,1,8,1:2:0:0:
172,89,142151,1,0,0:2:0:0:
240,212,142346,6,0,P|228:268|220:340,1,120.000004577637,2|0,1:2|0:2,0:2:0:0:
373,377,142735,1,8,1:2:0:0:
457,335,142930,1,0,0:2:0:0:
457,335,143028,1,0,0:2:0:0:
457,335,143125,2,0,P|449:275|437:216,1,120.000004577637,0|0,1:2|0:2,0:2:0:0:
464,109,143515,1,8,1:2:0:0:
240,212,143709,1,0,0:2:0:0:
437,216,143904,5,6,1:2:0:0:
308,171,144099,1,0,0:2:0:0:
180,124,144294,1,8,1:2:0:0:
356,78,144489,5,0,0:2:0:0:
240,212,144683,1,2,1:2:0:0:
240,212,144781,1,0,0:2:0:0:
118,345,144976,1,0,0:0:0:0:
118,345,145073,1,12,1:2:0:0:
358,246,145268,5,0,0:2:0:0:
220,56,145463,2,0,P|140:44|16:156,1,240.000009155274,4|8,1:2|1:2,0:2:0:0:
118,345,146047,1,0,1:2:0:0:
179,234,146242,1,2,1:2:0:0:
0,228,146437,1,0,0:2:0:0:
288,276,146632,6,0,L|364:284,1,60.0000022888184,8|0,1:2|0:2,0:2:0:0:
448,276,146826,2,0,L|372:284,1,60.0000022888184,0|0,0:2|0:2,0:2:0:0:
264,312,147021,5,4,1:2:0:0:
408,200,147216,2,0,P|452:168|484:92,1,120.000004577637,0|8,0:2|1:2,0:2:0:0:
252,28,147606,1,0,0:2:0:0:
252,108,147800,1,2,1:2:0:0:
261,118,147898,1,0,0:2:0:0:
265,196,148093,1,0,0:2:0:0:
259,206,148190,1,8,1:2:0:0:
264,312,148385,1,0,0:2:0:0:
148,124,148580,6,0,P|88:132|16:168,1,120.000004577637,2|0,1:2|0:2,0:2:0:0:
8,256,148969,1,8,1:2:0:0:
88,312,149164,1,0,1:2:0:0:
88,312,149359,1,2,1:2:0:0:
204,263,149554,1,0,0:2:0:0:
328,352,149748,1,8,1:2:0:0:
448,228,149943,1,0,1:2:0:0:
227,25,150138,6,0,L|204:264,1,240.000009155274,4|8,1:2|1:2,0:2:0:0:
88,100,150722,1,0,0:2:0:0:
292,204,150917,6,0,P|332:200|456:112,1,180.000006866455,6|0,1:2|0:0,0:0:0:0:
204,263,151307,2,0,P|164:259|40:171,1,180.000006866455,8|0,1:2|0:0,0:0:0:0:
248,336,151696,5,4,3:0:0:0:
252,340,151794,1,0,0:0:0:0:
256,344,151891,1,0,0:0:0:0:
260,348,151989,1,0,3:0:0:0:
264,352,152086,1,0,3:0:0:0:
268,356,152183,1,0,0:0:0:0:
272,360,152281,1,0,3:0:0:0:
276,364,152378,1,0,3:0:0:0:
280,368,152476,6,0,L|292:300,1,60.0000022888184,2|0,0:0|0:0,0:0:0:0:
404,308,152670,2,0,L|369:248,1,60.0000022888184,0|8,0:0|0:0,0:0:0:0:
476,184,152865,2,0,L|411:160,1,60.0000022888184,0|2,1:2|1:2,0:0:0:0:
472,48,153060,2,0,L|407:71,1,60.0000022888184,2|10,1:2|1:2,0:0:0:0:
300,48,153255,5,0,0:0:0:0:
47,223,164943,5,8,3:0:0:0:
151,263,165138,1,2,3:0:0:0:
168,259,165235,1,8,0:0:0:0:
185,255,165333,1,8,0:0:0:0:
203,251,165430,1,8,0:0:0:0:
219,247,165528,1,8,0:0:0:0:
500,195,165722,5,4,1:2:0:0:
403,221,165917,1,0,0:0:0:0:
320,158,166112,2,0,L|326:29,1,120.000004577637,8|0,1:2|0:0,0:0:0:0:
250,57,166404,2,0,B|199:32|199:32|128:56,1,120.000004577637,0|0,1:0|0:0,0:0:0:0:
125,76,166696,1,0,0:0:0:0:
145,165,166891,1,8,0:0:0:0:
26,269,167086,5,0,0:0:0:0:
26,269,167183,1,0,0:0:0:0:
26,269,167281,2,0,P|76:289|173:273,1,120.000004577637,2|0,1:2|0:0,0:0:0:0:
263,191,167670,2,0,P|322:187|378:208,1,120.000004577637,8|2,1:2|0:0,0:0:0:0:
416,207,167963,2,0,B|395:264|395:264|415:322,1,120.000004577637,0|0,0:0|0:0,0:0:0:0:
445,320,168255,1,0,0:0:0:0:
274,339,168450,5,8,1:2:0:0:
227,329,168547,1,0,0:0:0:0:
179,339,168645,1,0,0:0:0:0:
131,342,168742,1,0,0:0:0:0:
87,322,168839,1,2,1:2:0:0:
80,274,168937,1,0,0:0:0:0:
70,227,169034,1,0,0:0:0:0:
42,187,169132,1,0,0:0:0:0:
46,139,169229,2,0,P|63:102|70:80,1,60.0000022888184,8|0,1:2|0:0,0:0:0:0:
191,48,169424,6,0,P|175:29|159:16,2,40.000001525879,0|0|0,1:2|0:2|0:2,1:2:0:0:
214,40,169619,2,0,P|254:43|277:48,1,60.0000022888184,2|0,0:2|0:0,0:0:0:0:
391,89,169813,1,0,0:0:0:0:
409,133,169911,1,0,0:0:0:0:
377,169,170008,6,0,B|361:203|361:203|363:243,1,60.0000022888184,8|0,0:0|0:0,0:0:0:0:
455,319,170203,2,0,L|375:307,1,60.0000022888184,0|0,1:0|0:0,0:0:0:0:
306,288,170398,2,0,P|238:272|175:375,1,180.000006866455,2|0,1:2|0:0,0:0:0:0:
91,355,170787,2,0,B|96:323|96:323|89:284,1,60.0000022888184,8|0,1:2|0:0,0:0:0:0:
24,219,170982,2,0,B|300:264|151:-14|469:44,1,480.000018310548,0|0,1:0|1:0,0:0:0:0:
320,166,171956,6,0,P|287:239|336:353,1,180.000006866455,4|0,0:0|0:0,0:0:0:0:
397,297,172346,6,0,P|436:301|482:311,2,80.0000030517579,8|0|0,1:2|0:0|0:0,0:0:0:0:
395,211,172735,2,0,P|399:172|409:126,2,80.0000030517579,8|0|0,1:2|0:0|0:0,0:0:0:0:
283,245,173125,5,8,1:2:0:0:
270,229,173222,1,0,0:0:0:0:
251,233,173320,2,0,L|180:209,1,60.0000022888184
11,96,173515,6,0,B|72:122|72:122|125:118|125:118|197:145,1,180.000006866455,2|0,1:2|0:0,0:0:0:0:
181,139,173904,2,0,L|153:214,1,60.0000022888184,8|0,0:0|0:0,0:0:0:0:
77,346,174099,1,0,1:0:0:0:
106,316,174196,1,0,0:0:0:0:
145,331,174294,2,0,P|176:332|231:326,1,60.0000022888184,2|0,0:0|0:0,0:0:0:0:
291,244,174489,2,0,P|260:243|205:249,1,60.0000022888184,0|0,1:0|0:0,0:0:0:0:
365,334,174683,2,0,P|337:330|322:330,2,40.000001525879,8|0|0,1:2|0:2|0:2,1:2:0:0:
383,321,174878,2,0,P|384:295|387:254,1,60.0000022888184,0|0,1:0|0:0,0:0:0:0:
480,114,175073,6,0,B|425:90|425:90|356:96,1,120.000004577637,6|0,1:2|0:0,0:0:0:0:
328,74,175365,1,0,0:0:0:0:
289,57,175463,2,0,P|287:93|282:140,1,60.0000022888184,8|0,1:2|0:0,0:0:0:0:
207,210,175657,2,0,P|239:193|282:174,1,60.0000022888184,0|0,1:2|0:0,0:0:0:0:
345,178,175852,6,0,P|344:234|353:329,1,120.000004577637,2|0,0:0|0:2,0:0:0:0:
300,359,176145,2,0,P|263:330|185:335,1,120.000004577637,0|0,1:0|0:0,0:0:0:0:
121,365,176437,2,0,P|105:297|119:224,1,120.000004577637,0|2,1:0|3:0,0:0:0:0:
153,235,176729,5,2,3:0:0:0:
193,221,176826,1,2,3:0:0:0:
230,158,177021,1,8,3:0:0:0:
150,70,177216,1,0,3:0:0:0:
150,111,177313,1,0,3:0:0:0:
150,153,177411,1,2,3:0:0:0:
194,326,177606,5,6,3:0:0:0:
406,252,177800,5,12,3:0:0:0:
269,91,177995,5,6,3:0:0:0:
452,65,190657,6,0,B|325:47|391:197|244:162,1,240,0|2,0:0|0:0,0:0:0:0:
256,164,192216,6,0,P|256:84|268:20,1,120.000004577637,4|0,1:0|0:0,0:0:0:0:
224,256,192606,1,8,1:2:0:0:
160,128,192800,2,0,P|152:104|124:64,1,60.0000022888184,0|0,0:2|0:2,0:2:0:0:
60,32,192995,1,2,1:2:0:0:
52,236,193190,1,0,0:2:0:0:
16,128,193385,1,8,1:2:0:0:
136,304,193580,1,0,0:2:0:0:
224,256,193774,6,0,P|296:232|380:232,1,120.000004577637,2|0,1:2|0:2,0:2:0:0:
512,280,194164,1,8,1:2:0:0:
424,360,194359,1,0,0:2:0:0:
428,336,194456,1,0,0:2:0:0:
432,312,194554,2,0,L|412:176,1,120.000004577637,0|0,1:2|0:2,0:2:0:0:
484,36,194943,1,8,1:2:0:0:
332,108,195138,1,0,0:2:0:0:
332,108,195235,1,0,0:2:0:0:
332,108,195333,6,0,P|261:117|168:104,1,120.000004577637,2|0,1:2|0:2,0:2:0:0:
0,24,195722,1,8,1:2:0:0:
121,67,195917,1,0,0:2:0:0:
121,67,196112,1,2,1:2:0:0:
0,220,196307,1,0,0:2:0:0:
135,356,196502,1,8,1:2:0:0:
224,224,196696,1,0,0:2:0:0:
224,224,196794,1,0,0:0:0:0:
224,224,196891,5,2,1:2:0:0:
31,290,197086,1,0,0:2:0:0:
312,244,197281,5,8,1:2:0:0:
112,192,197476,1,0,0:2:0:0:
112,192,197573,1,0,1:2:0:0:
112,192,197670,1,2,1:2:0:0:
244,344,197865,5,0,0:2:0:0:
212,120,198060,2,0,L|232:-2,1,120.000004577637,8|2,1:2|0:2,0:2:0:0:
121,33,198450,5,4,1:2:0:0:
308,84,198645,1,0,0:2:0:0:
112,192,198839,1,8,1:2:0:0:
244,344,199034,1,0,0:2:0:0:
308,84,199229,5,2,1:2:0:0:
308,84,199326,1,0,0:0:0:0:
303,192,199521,1,0,0:2:0:0:
303,192,199619,1,8,1:2:0:0:
375,347,199813,1,0,0:2:0:0:
168,232,200008,6,0,P|128:240|48:288,1,120.000004577637,2|0,1:2|0:2,0:2:0:0:
244,368,200398,1,8,1:2:0:0:
280,272,200593,1,0,0:2:0:0:
280,272,200690,1,2,0:2:0:0:
280,272,200787,1,0,1:2:0:0:
228,156,200982,1,0,0:2:0:0:
280,64,201177,1,8,1:2:0:0:
176,16,201372,1,0,0:2:0:0:
176,16,201469,1,0,0:2:0:0:
176,16,201567,6,0,P|104:28|52:60,1,120.000004577637,6|0,1:2|0:2,0:2:0:0:
156,280,201956,1,8,1:2:0:0:
248,244,202151,1,0,0:2:0:0:
300,156,202346,1,2,1:2:0:0:
300,156,202443,1,0,0:2:0:0:
280,64,202638,1,0,0:2:0:0:
280,64,202735,1,8,1:2:0:0:
172,160,202930,1,0,1:2:0:0:
496,236,203125,5,4,1:2:0:0:
488,256,203515,1,8,0:0:0:0:
380,336,203709,1,0,0:0:0:0:
364,332,203807,1,0,1:0:0:0:
348,320,203904,6,0,P|324:296|308:248,1,60.0000022888184,8|8,3:0|3:0,0:0:0:0:
272,124,204099,2,0,P|269:90|287:43,1,60.0000022888184,8|0,3:0|0:0,0:0:0:0:
416,136,204294,6,0,P|392:160|344:176,1,60.0000022888184,8|0,3:0|0:0,0:0:0:0:
220,212,204489,2,0,P|186:214|139:196,1,60.0000022888184,8|8,3:0|3:0,0:0:0:0:
78,140,204683,6,0,P|58:204|169:351,1,240.000009155274,4|8,1:0|1:2,0:0:0:0:
288,313,205268,1,0,0:2:0:0:
379,210,205463,2,0,P|467:236|507:253,1,120.000004577637,2|0,1:2|0:2,0:2:0:0:
292,228,205852,2,0,P|266:159|248:69,1,120.000004577637,8|0,1:2|0:2,0:2:0:0:
400,57,206242,5,2,1:2:0:0:
493,246,206437,1,0,0:2:0:0:
292,228,206632,1,8,1:2:0:0:
395,172,206826,1,0,0:2:0:0:
406,189,206924,1,0,1:2:0:0:
383,268,207119,1,0,0:2:0:0:
399,290,207216,1,2,1:2:0:0:
358,366,207411,5,8,1:2:0:0:
186,301,207606,1,0,0:2:0:0:
21,366,207800,2,0,P|36:279|6:99,2,240.000009155274,6|8|2,1:2|1:2|1:2,0:2:0:0:
117,165,208774,1,0,0:2:0:0:
117,165,208872,1,0,0:2:0:0:
117,165,208969,1,12,1:2:0:0:
191,124,209164,1,0,0:2:0:0:
150,55,209359,2,0,P|73:47|12:73,1,120.000004577637,4|0,1:2|0:2,0:2:0:0:
343,41,209748,5,8,1:2:0:0:
237,53,209943,1,0,1:2:0:0:
388,191,210138,1,2,1:2:0:0:
400,114,210333,1,0,0:2:0:0:
273,148,210528,5,8,1:2:0:0:
271,159,210625,1,0,0:2:0:0:
269,170,210722,1,0,0:2:0:0:
267,181,210820,1,2,0:2:0:0:
265,192,210917,2,0,P|314:278|451:273,1,240.000009155274,4|8,1:2|1:2,0:2:0:0:
152,267,211502,1,0,0:2:0:0:
171,188,211696,2,0,P|168:146|158:56,1,120.000004577637,2|0,1:2|0:2,0:2:0:0:
159,68,211989,1,0,0:2:0:0:
159,68,212086,1,8,1:2:0:0:
52,207,212281,5,0,0:2:0:0:
52,207,212378,1,0,0:2:0:0:
52,207,212476,2,0,B|28:263|28:263|47:329,1,120.000004577637,2|0,1:2|0:2,0:2:0:0:
227,329,212865,2,0,B|251:273|251:273|232:207,1,120.000004577637,8|0,1:2|1:2,0:2:0:0:
156,25,213255,2,0,L|138:272,1,240.000009155274,2|8,1:2|1:2,0:2:0:0:
320,349,213839,1,0,1:2:0:0:
416,164,214034,6,0,P|358:133|231:152,1,180.000006866455,4|0,1:2|0:2,0:2:0:0:
247,142,214424,2,0,L|263:284,1,120.000004577637,8|0,1:2|0:2,0:2:0:0:
472,49,214813,1,6,1:2:0:0:
472,49,215203,1,8,1:2:0:0:
317,7,215398,1,0,0:2:0:0:
161,99,215593,5,4,3:0:0:0:
135,73,215690,1,0,0:0:0:0:
100,65,215787,1,0,0:0:0:0:
250,95,215982,1,8,3:0:0:0:
38,176,216177,5,2,3:0:0:0:
66,197,216274,1,2,3:0:0:0:
98,212,216372,1,2,0:0:0:0:
133,211,216469,1,0,0:0:0:0:
167,199,216567,1,0,0:0:0:0:
197,180,216664,1,8,0:0:0:0:
243,171,216761,5,0,1:2:0:0:
291,175,216859,1,2,1:2:0:0:
333,196,216956,1,2,1:2:0:0:
381,195,217054,1,10,1:2:0:0:
423,172,217151,5,4,0:0:0:0:
243,171,217346,2,0,L|189:134,2,60.0000022888184,0|0|8,0:0|0:0|0:0,0:0:0:0:
400,324,217735,1,0,0:0:0:0:
400,324,217930,5,2,0:2:0:0:
330,83,218125,2,0,L|312:20,2,60.0000022888184,0|0|8,0:0|0:0|0:0,0:0:0:0:
400,324,218515,1,0,0:0:0:0:
400,324,218709,5,4,0:0:0:0:
477,99,218904,2,0,L|504:39,2,60.0000022888184,0|0|8,0:0|0:0|0:0,0:0:0:0:
400,324,219294,1,0,0:0:0:0:
291,264,219489,1,2,0:3:0:0:
158,316,219683,1,2,0:2:0:0:
31,256,219878,1,10,0:3:0:0:
134,87,220073,1,2,0:2:0:0:
134,87,220170,1,0,0:0:0:0:
134,87,220268,5,4,0:0:0:0:
158,316,220463,2,0,L|149:390,2,60.0000022888184,0|0|8,0:0|0:0|0:0,0:0:0:0:
61,168,220852,1,0,0:0:0:0:
291,264,221047,5,2,0:2:0:0:
345,59,221242,2,0,L|336:-15,2,60.0000022888184,0|0|8,0:0|0:0|0:0,0:0:0:0:
461,170,221632,1,0,0:0:0:0:
204,144,221826,5,4,0:2:0:0:
372,307,222021,2,0,L|363:381,2,60.0000022888184,0|0|8,0:0|0:0|0:0,0:0:0:0:
461,170,222411,1,0,0:0:0:0:
512,300,222606,1,2,0:2:0:0:
322,141,222800,1,2,3:0:0:0:
322,141,222898,1,0,0:0:0:0:
322,141,222995,2,0,P|265:135|196:145,1,120.000004577637,8|0,3:0|0:0,0:0:0:0:
171,163,223287,1,0,0:0:0:0:
171,163,223385,5,4,0:0:0:0:
18,312,223580,1,0,0:0:0:0:
53,319,223677,1,0,0:0:0:0:
88,313,223774,1,8,0:0:0:0:
160,283,223969,1,0,0:0:0:0:
160,283,224164,1,2,0:2:0:0:
290,248,224359,1,0,0:0:0:0:
325,248,224456,1,0,0:0:0:0:
359,259,224554,1,8,0:0:0:0:
417,317,224748,1,0,0:0:0:0:
417,317,224943,5,2,0:2:0:0:
238,384,225138,1,0,0:0:0:0:
230,349,225235,1,0,0:0:0:0:
230,312,225333,1,8,0:0:0:0:
231,239,225528,1,0,0:0:0:0:
244,164,225722,1,2,0:3:0:0:
192,94,225917,1,2,0:2:0:0:
312,43,226112,1,10,0:3:0:0:
75,25,226307,1,2,0:2:0:0:
319,128,226502,6,0,L|461:107,1,120.000004577637,4|0,0:0|0:0,0:0:0:0:
478,46,226794,1,0,0:0:0:0:
478,46,226891,1,8,0:0:0:0:
488,216,227086,1,0,0:0:0:0:
231,239,227281,6,0,L|89:218,1,120.000004577637,2|0,0:2|0:0,0:0:0:0:
72,160,227573,1,0,0:0:0:0:
72,160,227670,1,8,0:0:0:0:
29,319,227865,1,0,0:0:0:0:
317,375,228060,6,0,L|311:243,1,120.000004577637,8|0,0:0|0:0,0:0:0:0:
309,180,228352,1,0,0:0:0:0:
309,180,228450,1,8,0:0:0:0:
339,99,228645,1,2,3:0:0:0:
367,77,228742,1,0,3:0:0:0:
402,76,228839,1,12,3:2:0:0:
254,63,229034,1,0,0:0:0:0:
226,41,229132,1,0,0:0:0:0:
191,40,229229,2,0,P|144:45|96:73,1,60.0000022888184,2|2,0:2|0:2,0:0:0:0:
0,86,229424,2,0,P|47:91|95:119,1,60.0000022888184,2|2,0:2|0:2,0:0:0:0:
231,178,229619,5,4,0:0:0:0:
115,209,229813,1,0,0:0:0:0:
90,235,229911,1,0,0:0:0:0:
83,270,230008,1,8,0:0:0:0:
125,328,230203,1,0,0:0:0:0:
269,302,230398,1,2,0:2:0:0:
331,337,230593,1,0,0:0:0:0:
366,332,230690,1,0,0:0:0:0:
400,341,230787,1,8,0:0:0:0:
460,225,230982,1,0,0:0:0:0:
358,62,231177,6,0,B|323:214|187:99|129:139|110:222|134:283,1,360.000013732911,4|0,0:0|0:0,0:0:0:0:
221,311,231956,2,0,L|213:239,1,60.0000022888184,2|0,0:3|0:0,0:0:0:0:
233,321,232151,2,0,L|225:249,1,60.0000022888184,2|0,0:2|0:0,0:0:0:0:
245,331,232346,2,0,L|237:259,1,60.0000022888184,10|0,0:3|0:0,0:0:0:0:
356,314,232541,1,2,0:2:0:0:
346,327,232638,1,0,0:0:0:0:
337,340,232735,1,4,0:0:0:0:
400,163,232930,5,0,0:0:0:0:
411,152,233028,1,0,0:0:0:0:
422,141,233125,2,0,L|403:75,1,60.0000022888184,8|0,0:0|0:0,0:0:0:0:
336,32,233320,1,0,0:0:0:0:
300,34,233417,1,0,0:0:0:0:
263,37,233515,1,2,0:2:0:0:
228,40,233612,1,0,0:0:0:0:
192,43,233709,2,0,L|132:51,1,60.0000022888184,0|0,0:0|0:0,0:0:0:0:
77,109,233904,2,0,P|88:176|95:236,1,120.000004577637,8|0,0:0|0:0,0:0:0:0:
158,277,234196,5,0,0:0:0:0:
158,277,234294,2,0,P|120:318|97:334,2,80.0000030517579,4|0|0,0:2|0:0|0:0,0:0:0:0:
239,260,234683,2,0,P|302:267|384:242,1,120.000004577637,8|0,0:0|0:0,0:0:0:0:
463,116,235073,2,0,P|400:109|318:134,1,120.000004577637,2|2,0:2|3:0,0:0:0:0:
277,165,235365,2,0,L|211:134,1,60.0000022888184,0|8,0:0|3:0,0:0:0:0:
89,83,235657,5,0,0:0:0:0:
89,83,235755,1,0,0:0:0:0:
89,83,235852,1,4,0:0:0:0:
191,244,236047,1,0,0:0:0:0:
160,263,236145,1,0,0:0:0:0:
134,282,236242,1,8,0:0:0:0:
257,353,236437,5,0,0:0:0:0:
257,353,236632,1,2,0:2:0:0:
321,244,236826,1,0,0:0:0:0:
352,263,236924,1,0,0:0:0:0:
378,282,237021,1,8,0:0:0:0:
257,353,237216,5,0,0:0:0:0:
257,353,237411,1,2,0:2:0:0:
186,88,237606,1,0,0:0:0:0:
148,110,237703,1,0,0:0:0:0:
117,133,237800,1,8,0:0:0:0:
326,88,237995,1,0,0:0:0:0:
364,110,238093,1,0,0:0:0:0:
395,133,238190,1,2,0:3:0:0:
257,21,238385,5,2,0:2:0:0:
252,187,238580,1,10,0:3:0:0:
245,356,238774,1,2,0:2:0:0:
179,262,238969,5,4,0:0:0:0:
107,225,239164,1,0,0:0:0:0:
72,234,239261,1,0,0:0:0:0:
37,244,239359,1,8,0:0:0:0:
179,262,239554,1,0,0:0:0:0:
333,262,239748,5,2,0:2:0:0:
405,225,239943,1,0,0:0:0:0:
440,234,240041,1,0,0:0:0:0:
475,244,240138,1,8,0:0:0:0:
333,262,240333,1,0,0:0:0:0:
255,19,240528,6,0,L|236:198,1,140.000001335144,8|0,0:0|0:0,0:0:0:0:
259,227,240820,1,0,0:0:0:0:
253,299,240917,1,8,0:0:0:0:
350,141,241112,5,2,3:0:0:0:
345,122,241209,1,0,3:0:0:0:
339,107,241307,1,12,3:2:0:0:
52,143,241502,5,0,0:0:0:0:
58,184,241599,1,0,0:0:0:0:
65,225,241696,1,2,0:2:0:0:
72,267,241794,1,2,0:2:0:0:
78,307,241891,1,2,0:2:0:0:
85,349,241989,1,2,0:2:0:0:
