osu file format v14

[General]
AudioFilename: audio.mp3
AudioLeadIn: 0
PreviewTime: 43742
Countdown: 0
SampleSet: Soft
StackLeniency: 0.7
Mode: 0
LetterboxInBreaks: 0
WidescreenStoryboard: 0

[Editor]
DistanceSpacing: 0.9
BeatDivisor: 8
GridSize: 4
TimelineZoom: 1.7

[Metadata]
Title:Spatto! Spy & Spyce (TV Size)
TitleUnicode:スパッと!スパイ&スパイス (TV Size)
Artist:Tsukikage
ArtistUnicode:ツキカゲ
Creator:xxdeathx
Version:Expert
Source:RELEASE THE SPYCE
Tags:リリース ザ スパイス spice anime opening japanese Yukari Anzai Manami Numakura Akane Fujita Aya Suzaki Yuri Noguchi Aya Uchida 安齋由香里 沼倉愛美 藤田茜 洲崎綾 のぐちゆり 内田彩 pata-mon patamon pata mon little cloudsplash16
BeatmapID:1875846
BeatmapSetID:897940

[Difficulty]
HPDrainRate:5
CircleSize:4
OverallDifficulty:8
ApproachRate:9.2
SliderMultiplier:1.96
SliderTickRate:1

[Events]
//Background and Video events
Video,0,"video.avi"
0,0,"bg3.jpg",0,0
//Break Periods
//Storyboard Layer 0 (Background)
//Storyboard Layer 1 (Fail)
//Storyboard Layer 2 (Pass)
//Storyboard Layer 3 (Foreground)
//Storyboard Layer 4 (Overlay)
//Storyboard Sound Samples

[TimingPoints]
1086,375,4,2,1,60,1,0
3336,-200,4,2,1,60,0,0
5211,-100,4,2,1,60,0,0
5586,-100,4,2,1,60,0,0
10086,-66.6666666666667,4,2,1,60,0,0
11586,-100,4,2,1,60,0,0
16086,-66.6666666666667,4,2,1,60,0,0
17867,-100,4,2,1,40,0,0
19086,-100,4,2,1,50,0,0
22086,-100,4,2,1,60,0,0
25086,-100,4,2,1,50,0,0
28086,-100,4,2,1,60,0,0
31086,-133.333333333333,4,2,1,60,0,0
37086,-100,4,2,1,60,0,0
44211,-66.6666666666667,4,2,1,60,0,0
44586,-80,4,2,1,70,0,1
62586,-80,4,2,1,60,0,0
64086,-80,4,2,1,70,0,1
65586,-133.333333333333,4,2,1,70,0,1
65961,-66.6666666666667,4,2,1,70,0,1
66336,-133.333333333333,4,2,1,70,0,1
66711,-66.6666666666667,4,2,1,70,0,1
67086,-80,4,2,1,70,0,1
68586,-80,4,2,1,50,0,0
74586,-100,4,2,1,60,0,0
79086,-66.6666666666667,4,2,1,60,0,0
80586,-66.6666666666667,4,2,1,70,0,0
83586,-57.1428571428571,4,2,1,70,0,0
85086,-66.6666666666667,4,2,1,60,0,0

[Colours]
Combo1 : 113,111,115
Combo2 : 245,122,156
Combo3 : 255,141,15
Combo4 : 70,120,236
Combo5 : 220,171,250
Combo6 : 251,226,130

[HitObjects]
277,134,1086,6,0,B|206:111|206:111|129:154,2,147,12|2|0,0:0|0:0|0:0,0:0:0:0:
382,213,1836,2,0,B|436:162|436:162|437:74,2,147,8|2|0,0:0|0:0|0:0,0:0:0:0:
261,265,2586,2,0,B|277:337|277:337|353:382,2,147,8|2|0,0:0|0:0|0:0,0:0:0:0:
299,96,3336,6,0,B|300:38|366:58|385:109|344:160|303:171|254:160|249:50|180:40|109:58|74:113,1,392,12|0,0:0|0:0,0:0:0:0:
206,319,5023,6,0,L|227:324,2,16.3333333333333
151,298,5211,2,0,B|125:258|125:258|158:158,1,147,10|0,0:0|0:0,0:0:0:0:
200,56,5586,6,0,P|264:98|336:83,1,147,4|0,0:0|0:0,0:0:0:0:
445,22,5961,2,0,L|460:134,1,98,8|0,0:0|0:0,0:0:0:0:
480,361,6336,1,2,0:0:0:0:
492,307,6429,2,0,L|509:239,1,49
369,227,6617,1,2,0:0:0:0:
316,243,6711,2,0,L|248:262,1,49,8|0,0:0|0:0,0:0:0:0:
133,272,6898,2,0,L|150:204,1,49
170,99,7086,5,2,0:0:0:0:
268,256,7273,1,0,0:0:0:0:
36,197,7461,1,8,0:0:0:0:
140,357,7648,1,0,0:0:0:0:
170,99,7836,1,2,0:0:0:0:
203,135,7929,2,0,L|250:192,1,49
335,154,8117,2,0,L|325:233,1,49,2|8,0:0|0:0,0:0:0:0:
409,265,8304,2,0,L|358:314,1,49
243,301,8492,1,0,0:0:0:0:
278,264,8586,6,0,B|342:232|342:232|418:269,1,147,2|0,0:0|0:0,0:0:0:0:
505,330,8961,2,0,L|512:222,1,98,8|0,0:0|0:0,0:0:0:0:
372,42,9336,1,2,0:0:0:0:
368,95,9429,2,0,L|365:149,1,49
235,191,9617,1,2,0:0:0:0:
191,173,9711,2,0,P|112:172|52:245,1,147,8|0,0:0|0:0,0:0:0:0:
150,265,10086,6,0,B|224:274|224:274|274:210,1,147.000005607605,8|0,0:0|0:0,0:0:0:0:
222,10,10367,2,0,B|175:69|175:69|206:144,1,147.000005607605,8|0,0:0|0:0,0:0:0:0:
379,133,10648,2,0,L|305:122,1,73.5000028038026,8|0,0:0|0:0,0:0:0:0:
100,95,10836,1,10,0:0:0:0:
100,95,11023,1,0,0:0:0:0:
100,95,11117,1,0,0:0:0:0:
100,95,11211,2,0,P|35:84|96:154,1,220.500008411408,10|0,0:0|0:0,0:0:0:0:
195,94,11586,6,0,P|239:52|336:67,1,147,4|0,0:0|0:0,0:0:0:0:
435,113,11961,2,0,P|409:161|418:215,1,98,8|0,0:0|0:0,0:0:0:0:
484,374,12336,1,2,0:0:0:0:
439,347,12429,2,0,P|410:339|372:352,1,49
207,352,12617,1,2,0:0:0:0:
252,326,12711,2,0,P|273:304|281:264,1,49,8|0,0:0|0:0,0:0:0:0:
215,146,12898,2,0,P|185:138|148:152,1,49
64,265,13086,5,2,0:0:0:0:
86,76,13273,1,0,0:0:0:0:
257,210,13461,1,8,0:0:0:0:
168,62,13648,1,0,0:0:0:0:
64,265,13836,1,2,0:0:0:0:
112,262,13929,2,0,P|136:254|161:228,1,49
258,292,14117,2,0,P|269:269|268:233,1,49,2|8,0:0|0:0,0:0:0:0:
381,209,14304,2,0,P|373:185|347:160,1,49
224,103,14492,1,0,0:0:0:0:
264,139,14586,6,0,P|335:167|415:121,1,147,2|0,0:0|0:0,0:0:0:0:
385,33,14961,2,0,P|351:17|274:32,1,98,8|0,0:0|0:0,0:0:0:0:
99,194,15336,1,2,0:0:0:0:
138,165,15429,2,0,P|158:143|165:106,1,49
27,36,15617,2,0,P|36:64|64:88,1,49,2|8,0:0|0:0,0:0:0:0:
198,18,15804,2,0,P|168:11|133:24,1,49
181,241,15992,1,0,0:0:0:0:
218,207,16086,6,0,B|266:146|266:146|242:67,1,147.000005607605,12|0,0:0|0:0,0:0:0:0:
68,38,16367,2,0,B|96:110|96:110|177:128,1,147.000005607605,8|0,0:0|0:0,3:0:0:0:
355,90,16648,2,0,L|374:161,1,73.5000028038026,8|0,0:0|0:0,0:0:0:0:
409,297,16836,5,10,0:0:0:0:
245,79,17117,1,10,0:0:0:0:
136,306,17398,1,10,0:0:0:0:
228,199,17867,6,0,L|356:185,1,98,2|0,0:0|0:0,0:0:0:0:
459,117,18242,2,0,L|502:26,2,98,2|0|0,0:0|0:0|0:0,0:0:0:0:
409,190,18711,2,0,L|430:226,6,24.5,2|0|0|0|0|0|0,0:0|0:0|0:0|0:0|0:0|0:0|0:0,0:0:0:0:
369,114,19086,5,2,0:0:0:0:
256,114,19836,1,2,0:0:0:0:
143,114,20586,2,0,L|119:218,1,98,2|0,0:0|0:0,0:0:0:0:
250,355,20961,2,0,L|233:247,1,98,4|0,0:0|0:0,0:0:0:0:
223,180,21242,1,8,0:0:0:0:
218,160,21336,1,8,0:0:0:0:
41,257,21523,1,8,0:3:0:0:
229,79,21711,1,2,0:0:0:0:
259,76,21804,1,0,0:0:0:0:
290,74,21898,1,0,0:0:0:0:
320,72,21992,1,0,0:0:0:0:
351,70,22086,6,0,P|411:113|406:188,1,147,4|0,0:0|0:0,0:0:0:0:
299,226,22461,2,0,L|179:235,1,98,8|0,0:0|0:0,0:0:0:0:
8,260,22836,1,2,0:0:0:0:
54,278,22929,2,0,L|118:300,1,49
218,330,23117,1,2,0:0:0:0:
210,281,23211,2,0,L|197:214,1,49,8|0,0:0|0:0,0:0:0:0:
184,93,23398,2,0,L|248:115,1,49
367,150,23586,5,2,0:0:0:0:
118,166,23773,1,0,0:0:0:0:
365,45,23961,1,8,0:0:0:0:
200,232,24148,1,0,0:0:0:0:
367,150,24336,1,2,0:0:0:0:
410,127,24429,2,0,L|470:94,1,49
504,213,24617,2,0,L|502:281,1,49,2|8,0:0|0:0,0:0:0:0:
391,304,24804,2,0,L|393:236,1,49
292,93,24992,1,0,0:0:0:0:
245,104,25086,6,0,P|196:107|140:69,2,98,4|0|2,0:0|0:0|0:0,0:0:0:0:
345,130,25836,2,0,P|323:174|263:202,2,98,2|0|0,0:0|0:0|0:0,0:0:0:0:
182,199,26586,2,0,P|190:245|229:283,1,98,2|0,0:0|0:0,0:0:0:0:
418,298,26961,2,0,P|372:281|319:296,1,98,2|0,0:0|0:0,0:0:0:0:
211,379,27336,1,2,0:0:0:0:
230,95,27523,1,8,0:0:0:0:
367,192,27711,1,10,0:0:0:0:
326,196,27804,1,8,0:0:0:0:
283,199,27898,1,8,0:3:0:0:
470,191,28086,6,0,P|449:125|376:92,1,147,4|0,0:0|0:0,0:0:0:0:
255,101,28461,2,0,P|287:65|288:15,1,98,8|0,0:0|0:0,0:0:0:0:
35,41,28836,1,2,0:0:0:0:
32,90,28929,2,0,P|36:118|52:143,1,49
231,225,29117,1,2,0:0:0:0:
188,199,29211,2,0,P|159:188|130:189,1,49,8|0,0:0|0:0,0:0:0:0:
18,272,29398,2,0,P|40:252|53:226,1,49
134,87,29586,5,2,0:0:0:0:
139,300,29773,1,0,0:0:0:0:
351,197,29961,1,8,0:0:0:0:
134,87,30148,1,0,0:0:0:0:
91,84,30242,1,0,0:0:0:0:
53,104,30336,1,2,0:0:0:0:
29,139,30429,1,0,0:0:0:0:
26,181,30523,2,0,P|26:200|42:233,1,49,8|2,0:3|0:0,0:0:0:0:
19,333,30711,2,0,P|37:337|74:330,1,49,8|0,0:3|0:0,0:0:0:0:
167,375,30898,2,0,P|176:357|178:320,1,49,8|0,0:3|0:0,0:0:0:0:
150,196,31086,6,0,P|221:221|291:172,1,147.000005607605,4|0,0:0|0:0,0:0:0:0:
384,113,31648,1,8,0:0:0:0:
384,113,31836,2,0,L|391:211,1,73.5000028038026,2|0,0:0|0:0,0:0:0:0:
323,359,32211,2,0,L|335:268,1,73.5000028038026,8|0,0:0|0:0,0:0:0:0:
280,188,32586,5,2,0:0:0:0:
280,188,32679,2,0,L|147:180,1,110.250004205704
50,174,33148,1,8,0:0:0:0:
50,174,33336,2,0,P|63:137|46:92,1,73.5000028038026,2|0,0:0|0:0,0:0:0:0:
160,17,33711,2,0,P|147:54|164:99,1,73.5000028038026,8|0,0:0|0:0,0:0:0:0:
362,115,34086,6,0,P|302:53|232:60,1,147.000005607605,2|0,0:0|0:0,0:0:0:0:
170,181,34648,1,8,0:0:0:0:
170,181,34836,2,0,L|264:185,1,73.5000028038026,2|0,0:0|0:0,0:0:0:0:
308,308,35211,2,0,L|214:304,1,73.5000028038026,8|0,0:0|0:0,0:0:0:0:
77,351,35586,5,2,0:0:0:0:
77,351,35679,2,0,P|105:304|95:248,1,110.250004205704
37,132,36148,1,8,0:0:0:0:
37,132,36336,2,0,P|71:143|116:132,1,73.5000028038026,2|0,0:0|0:0,0:0:0:0:
256,18,36711,1,8,0:0:0:0:
219,183,36898,1,8,0:0:0:0:
214,155,36992,1,8,0:0:0:0:
209,128,37086,5,4,0:0:0:0:
298,275,37273,1,0,0:0:0:0:
339,77,37461,2,0,P|416:75|470:137,1,147,8|0,0:0|0:0,0:0:0:0:
473,200,37836,1,2,0:0:0:0:
497,9,38023,1,0,0:0:0:0:
379,167,38211,2,0,P|302:169|248:107,1,147,8|0,0:0|0:0,0:0:0:0:
239,38,38586,5,2,0:0:0:0:
224,219,38773,1,0,0:0:0:0:
142,52,38961,2,0,P|92:45|39:79,1,98,8|0,0:0|0:0,0:0:0:0:
9,155,39242,1,0,0:0:0:0:
14,207,39336,2,0,P|32:253|88:282,1,98,2|0,0:0|0:0,0:0:0:0:
224,219,39711,1,8,0:0:0:0:
202,207,39804,1,0,0:0:0:0:
182,197,39898,1,0,0:0:0:0:
381,219,40086,6,0,P|411:180|408:117,1,98,4|0,0:0|0:0,0:0:0:0:
374,51,40367,1,0,0:0:0:0:
335,29,40461,1,8,0:0:0:0:
512,114,40648,1,0,0:0:0:0:
309,137,40836,1,2,0:0:0:0:
269,159,40929,2,0,P|250:176|235:215,1,49,8|0,0:0|0:0,0:0:0:0:
269,341,41117,1,2,0:0:0:0:
308,364,41211,2,0,P|332:371|373:364,1,49,8|0,0:0|0:0,0:0:0:0:
468,253,41398,1,0,0:0:0:0:
138,235,41586,5,2,0:0:0:0:
142,302,41679,2,0,L|146:378,1,49,8|0,0:0|0:0,0:0:0:0:
335,257,41867,1,2,0:0:0:0:
331,190,41961,2,0,L|326:113,1,49,8|0,0:0|0:0,0:0:0:0:
113,155,42148,5,8,0:0:0:0:
155,157,42242,1,8,0:0:0:0:
198,144,42336,2,0,P|218:128|233:95,3,32.6666666666667,8|8|8|8,0:0|0:0|0:0|0:0,0:0:0:0:
286,47,42617,1,0,0:0:0:0:
348,40,42710,1,8,0:0:0:0:
403,72,42804,1,8,0:0:0:0:
427,131,42898,1,8,0:0:0:0:
412,192,42992,1,8,0:0:0:0:
216,260,44023,5,0,0:0:0:0:
216,260,44117,1,0,0:0:0:0:
216,260,44211,2,0,P|236:334|260:239,1,220.500008411408,10|0,0:0|0:0,0:0:0:0:
256,160,44586,5,4,0:0:0:0:
107,289,44773,1,0,0:0:0:0:
86,47,44961,1,8,0:0:0:0:
27,236,45148,1,0,0:0:0:0:
278,330,45336,1,2,0:0:0:0:
328,326,45429,2,0,L|455:312,1,122.5,0|2,0:0|0:0,0:0:0:0:
470,183,45711,2,0,P|434:141|345:146,1,122.5,8|0,0:0|0:0,0:0:0:0:
197,280,46086,5,2,0:0:0:0:
262,69,46273,1,0,0:0:0:0:
59,217,46461,1,8,0:0:0:0:
280,233,46648,1,0,0:0:0:0:
104,70,46836,1,2,0:0:0:0:
70,107,46929,2,0,P|42:153|59:217,1,122.5,0|2,0:0|0:0,0:0:0:0:
157,333,47211,2,0,P|211:298|281:318,1,122.5,8|0,0:0|0:0,0:0:0:0:
493,373,47586,5,2,0:0:0:0:
507,159,47773,1,0,0:0:0:0:
280,233,47961,1,8,0:0:0:0:
293,18,48148,1,0,0:0:0:0:
278,70,48242,1,0,0:0:0:0:
222,66,48336,1,2,0:0:0:0:
201,116,48429,2,0,P|145:131|86:100,1,122.5,0|2,0:0|0:0,0:0:0:0:
5,19,48711,2,0,L|16:143,1,122.5,8|0,0:0|0:0,0:0:0:0:
134,313,49086,6,0,B|188:282|188:282|253:307,1,122.5,2|0,0:0|0:0,0:0:0:0:
390,353,49367,1,2,0:0:0:0:
446,295,49461,2,0,L|441:213,1,61.25,8|0,0:0|0:0,0:0:0:0:
286,114,49648,1,0,0:0:0:0:
288,171,49742,1,0,0:0:0:0:
291,228,49836,2,0,L|365:214,1,61.25,2|0,0:0|0:0,0:0:0:0:
442,101,50023,2,0,L|368:115,1,61.25
195,176,50211,1,8,0:0:0:0:
150,148,50304,1,8,0:0:0:0:
131,99,50398,1,8,0:0:0:0:
147,49,50492,1,8,0:0:0:0:
191,19,50586,5,4,0:0:0:0:
339,141,50773,1,0,0:0:0:0:
107,244,50961,1,8,0:0:0:0:
137,203,51054,2,0,P|185:176|260:203,1,122.5
385,341,51336,1,2,0:0:0:0:
337,335,51429,2,0,P|289:306|275:228,1,122.5,0|2,0:0|0:0,0:0:0:0:
349,96,51711,2,0,P|348:151|287:202,1,122.5,8|0,0:0|0:0,0:0:0:0:
49,189,52086,5,2,0:0:0:0:
258,113,52273,1,0,0:0:0:0:
244,344,52461,1,8,0:0:0:0:
453,268,52648,1,0,0:0:0:0:
183,154,52836,2,0,P|127:227|181:308,1,183.75,2|0,0:0|0:0,0:0:0:0:
321,299,53211,2,0,L|329:159,1,122.5,8|0,0:0|0:0,0:0:0:0:
172,35,53586,6,0,B|261:101|261:101|329:73,1,183.75,2|0,0:0|0:0,0:0:0:0:
512,6,53961,2,0,B|448:7|448:7|418:58,1,122.5,8|0,0:0|0:0,0:0:0:0:
436,301,54336,2,0,B|448:190|448:190|390:146,1,183.75,2|0,0:0|0:0,0:0:0:0:
285,92,54711,1,8,0:0:0:0:
499,104,54898,1,0,0:0:0:0:
335,266,55086,6,0,P|248:278|183:212,1,183.75,2|0,0:0|0:0,0:0:0:0:
155,91,55461,1,8,0:0:0:0:
102,303,55648,1,8,0:0:0:0:
95,340,55742,1,8,0:0:0:0:
87,377,55836,1,2,0:0:0:0:
282,171,56023,1,8,0:0:0:0:
338,151,56116,1,8,0:0:0:0:
396,167,56210,1,8,0:0:0:0:
434,214,56304,1,8,0:0:0:0:
439,274,56398,1,8,0:0:0:0:
408,326,56491,1,8,0:0:0:0:
352,350,56586,5,4,0:0:0:0:
510,197,56773,1,0,0:0:0:0:
282,171,56961,1,8,0:0:0:0:
440,18,57148,1,0,0:0:0:0:
204,111,57336,1,2,0:0:0:0:
184,164,57429,2,0,P|183:195|249:262,1,122.5,0|2,0:0|0:0,0:0:0:0:
442,249,57711,2,0,P|415:232|324:256,1,122.5,8|0,0:0|0:0,0:0:0:0:
155,382,58086,5,2,0:0:0:0:
47,201,58273,1,0,0:0:0:0:
282,171,58461,1,8,0:0:0:0:
82,287,58648,1,0,0:0:0:0:
306,360,58836,1,2,0:0:0:0:
358,349,58929,2,0,P|402:324|426:250,1,122.5,0|2,0:0|0:0,0:0:0:0:
385,115,59211,2,0,P|340:87|264:102,1,122.5,8|0,0:0|0:0,0:0:0:0:
126,240,59586,5,2,0:0:0:0:
333,252,59773,1,0,0:0:0:0:
178,103,59961,1,8,0:0:0:0:
385,115,60148,1,0,0:0:0:0:
333,94,60242,1,0,0:0:0:0:
300,138,60336,1,2,0:0:0:0:
248,117,60429,2,0,P|189:129|154:178,1,122.5,0|2,0:0|0:0,0:0:0:0:
250,330,60711,2,0,P|266:272|241:216,1,122.5,8|0,0:0|0:0,0:0:0:0:
64,14,61086,6,0,B|34:66|34:66|61:130,1,122.5,2|0,0:0|0:0,0:0:0:0:
109,252,61367,1,2,0:0:0:0:
183,220,61461,2,0,B|211:212|211:212|249:219,1,61.25,8|0,0:0|0:0,0:0:0:0:
390,297,61648,1,8,0:0:0:0:
336,267,61742,1,8,0:0:0:0:
327,209,61836,2,0,P|335:175|369:149,1,61.25,2|0,0:0|0:0,0:0:0:0:
510,102,62023,2,0,P|477:111|437:95,1,61.25,8|8,0:0|0:0,0:0:0:0:
300,58,62211,1,8,0:0:0:0:
246,43,62304,1,8,0:0:0:0:
195,61,62398,1,8,0:0:0:0:
161,104,62492,1,8,0:0:0:0:
158,159,62586,1,2,0:0:0:0:
80,343,62773,6,0,L|141:283,1,61.25,0|0,0:3|0:0,0:0:0:0:
224,197,62961,1,8,0:3:0:0:
279,375,63148,6,0,L|281:287,1,61.25,0|0,0:3|0:0,0:0:0:0:
288,143,63336,1,6,0:0:0:0:
430,259,63523,6,0,L|370:193,1,61.25,0|2,0:3|0:0,0:0:0:0:
254,63,63711,1,8,0:3:0:0:
465,94,63898,6,0,L|377:87,1,61.25
172,71,64086,1,6,0:0:0:0:
231,276,64273,5,8,0:0:0:0:
243,312,64367,1,8,0:0:0:0:
255,348,64461,1,8,0:0:0:0:
318,126,64648,1,8,0:0:0:0:
343,97,64742,1,8,0:0:0:0:
368,69,64836,1,10,0:0:0:0:
136,118,65023,1,8,0:0:0:0:
98,110,65117,1,8,0:0:0:0:
61,103,65211,2,0,B|11:180|11:180|80:249,1,183.75,8|0,0:0|0:0,0:0:0:0:
198,253,65586,5,2,0:0:0:0:
239,228,65679,2,0,P|264:249|232:265,1,73.5000028038026
160,336,65961,2,0,L|150:179,1,147.000005607605,12|0,0:0|0:0,0:0:0:0:
432,81,66336,5,2,0:0:0:0:
480,98,66429,2,0,P|482:130|448:119,1,73.5000028038026
343,167,66711,2,0,P|413:159|465:208,1,147.000005607605,12|0,0:0|0:0,0:0:0:0:
253,366,67086,5,2,0:0:0:0:
215,326,67179,2,0,P|205:293|213:262,1,61.25,8|0,0:0|0:0,0:0:0:0:
267,118,67367,1,0,0:0:0:0:
240,167,67461,2,0,P|190:196|121:179,1,122.5,8|0,0:0|0:0,0:0:0:0:
55,55,67742,1,8,0:0:0:0:
112,52,67836,2,0,L|244:41,1,122.5,2|0,0:0|0:0,0:0:0:0:
429,258,68211,1,8,0:0:0:0:
383,232,68304,1,0,0:0:0:0:
354,191,68398,1,0,0:0:0:0:
347,142,68492,1,0,0:0:0:0:
362,94,68586,6,0,L|400:91,1,30.625,2|0,0:0|0:0,0:0:0:0:
234,144,69336,2,0,L|273:142,1,30.625,2|0,0:0|0:0,0:0:0:0:
106,194,70086,6,0,L|145:192,1,30.625,2|0,0:0|0:0,0:0:0:0:
384,313,70367,2,0,L|345:315,1,30.625,2|0,0:0|0:0,0:0:0:0:
253,80,70648,2,0,L|292:78,1,30.625,2|0,0:0|0:0,0:0:0:0:
206,316,70836,2,0,L|167:318,1,30.625,2|0,0:0|0:0,0:0:0:0:
436,263,71211,2,0,P|467:319|386:291,1,183.75,8|0,0:0|0:0,0:0:0:0:
356,223,71586,6,0,L|359:184,1,30.625,2|0,0:0|0:0,0:0:0:0:
358,192,71961,1,2,0:0:0:0:
138,108,72336,2,0,L|141:69,1,30.625,2|0,0:0|0:0,0:0:0:0:
140,77,72711,1,2,0:0:0:0:
321,82,73086,6,0,L|318:121,1,30.625,2|0,0:0|0:0,0:0:0:0:
201,322,73367,2,0,L|204:283,1,30.625,2|0,0:0|0:0,0:0:0:0:
426,216,73648,2,0,L|423:255,1,35,2|0,0:0|0:0,0:0:0:0:
102,217,73836,2,0,L|105:178,1,30.625,2|0,0:0|0:0,0:0:0:0:
266,78,74023,1,0,0:0:0:0:
266,78,74117,1,0,0:0:0:0:
266,78,74211,2,0,B|388:74|388:74|423:131,1,183.75,10|0,0:0|0:0,0:0:0:0:
352,284,74586,6,0,P|312:222|345:150,1,147,4|0,0:0|0:0,0:0:0:0:
491,182,74961,2,0,P|451:212|394:211,1,98,8|0,0:0|0:0,0:0:0:0:
197,123,75336,1,2,0:0:0:0:
190,174,75429,2,0,L|184:239,1,49
106,341,75617,1,2,0:0:0:0:
65,309,75711,2,0,L|8:266,1,49,8|0,0:0|0:0,0:0:0:0:
20,128,75898,2,0,L|85:100,1,49
242,53,76086,5,2,0:0:0:0:
68,13,76273,1,0,0:0:0:0:
89,208,76461,1,8,0:0:0:0:
154,34,76648,1,0,0:0:0:0:
175,225,76836,1,2,0:0:0:0:
224,250,76929,2,0,P|247:255|278:244,1,49
327,337,77117,2,0,P|347:324|361:294,1,49,2|8,2:0|2:0,2:0:0:0:
461,328,77304,2,0,P|466:304|455:273,1,49,0|0,2:0|2:0,2:0:0:0:
391,146,77492,1,0,0:0:0:0:
347,172,77586,6,0,P|276:174|219:102,1,147,2|0,0:0|0:0,0:0:0:0:
103,39,77961,2,0,L|106:153,1,98,8|0,0:0|0:0,0:0:0:0:
132,351,78336,1,2,0:0:0:0:
145,304,78429,2,0,L|161:240,1,49
225,123,78617,1,2,0:0:0:0:
253,161,78711,2,0,L|292:213,1,49,8|0,0:0|0:0,0:0:0:0:
412,258,78898,2,0,L|428:194,1,49
345,47,79086,6,0,B|277:16|277:16|203:55,1,147.000005607605,8|0,0:0|0:0,0:0:0:0:
216,238,79367,2,0,B|276:194|276:194|280:111,1,147.000005607605,8|0,0:0|0:0,0:0:0:0:
119,25,79648,2,0,B|118:117,1,73.5000028038026,8|0,0:0|0:0,0:0:0:0:
113,275,79836,1,10,0:0:0:0:
113,275,80023,1,0,0:0:0:0:
113,275,80117,1,0,0:0:0:0:
113,275,80211,2,0,P|50:221|58:315,1,220.500008411408,10|0,0:0|0:0,0:0:0:0:
168,345,80586,5,12,0:0:0:0:
202,310,80679,1,0,0:0:0:0:
248,301,80773,1,0,0:0:0:0:
295,318,80867,1,0,0:0:0:0:
336,345,80961,1,8,0:0:0:0:
382,365,81054,1,0,0:0:0:0:
431,359,81148,1,0,0:0:0:0:
472,333,81242,1,0,0:0:0:0:
501,286,81336,5,10,0:0:0:0:
511,237,81429,1,0,0:0:0:0:
499,187,81523,1,0,0:0:0:0:
471,147,81617,1,2,0:0:0:0:
427,122,81711,1,8,0:0:0:0:
375,115,81804,1,0,0:0:0:0:
329,131,81898,1,0,0:0:0:0:
293,166,81992,1,0,0:0:0:0:
284,223,82086,6,0,B|318:232|318:232|354:223,1,73.5000028038026,10|0,0:0|0:0,0:0:0:0:
168,68,82273,2,0,B|133:58|133:58|97:67,1,73.5000028038026
138,280,82461,2,0,B|147:245|147:245|138:209,1,73.5000028038026,8|0,0:0|0:0,0:0:0:0:
315,12,82648,2,0,B|305:46|305:46|314:82,1,73.5000028038026
455,191,82836,5,10,0:0:0:0:
410,155,82929,1,0,0:0:0:0:
354,141,83023,1,0,0:0:0:0:
298,153,83117,1,2,0:0:0:0:
246,177,83211,1,8,0:0:0:0:
195,202,83304,1,0,0:0:0:0:
137,208,83398,1,0,0:0:0:0:
88,180,83492,1,0,0:0:0:0:
57,121,83586,6,0,B|151:129,1,85.7500008177757,10|0,0:0|0:0,0:0:0:0:
369,265,83773,2,0,B|273:255,1,85.7500008177757,8|0,0:0|0:0,0:0:0:0:
153,30,83961,6,0,B|212:101,1,85.7500008177757,8|0,0:0|0:0,0:0:0:0:
273,354,84148,2,0,B|212:281,1,85.7500008177757,8|0,0:0|0:0,0:0:0:0:
291,35,84336,6,0,B|276:128,1,85.7500008177757,10|0,0:0|0:0,0:0:0:0:
138,348,84523,2,0,B|151:253,1,85.7500008177757,8|2,0:0|0:0,0:0:0:0:
379,137,84711,6,0,B|295:197,1,85.7500008177757,8|0,0:0|0:0,0:0:0:0:
49,248,84898,2,0,B|132:186,1,85.7500008177757,8|0,0:0|0:0,0:0:0:0:
311,259,85086,6,0,B|275:250|275:250|238:219,1,73.5000028038026,12|0,0:0|0:0,0:0:0:0:
225,74,85273,1,0,0:0:0:0:
225,74,85367,2,0,B|235:104|235:104|227:152,1,73.5000028038026,8|0,0:0|0:0,0:0:0:0:
110,245,85554,1,0,0:0:0:0:
110,245,85648,2,0,B|131:216|131:216|177:198,1,73.5000028038026,8|0,0:0|0:0,0:0:0:0:
371,134,85836,5,10,0:0:0:0:
371,134,85929,2,0,B|345:158|345:158|301:173,1,73.5000028038026
84,93,86117,1,10,0:0:0:0:
84,93,86211,2,0,B|116:96|116:96|152:128,1,73.5000028038026
193,353,86398,2,0,B|180:317|180:317|190:269,1,73.5000028038026,8|0,0:0|0:0,0:0:0:0:
371,134,86586,5,4,0:0:0:0:
256,192,86773,12,4,88086,0:0:0:0:
